osu file format v14

[General]
AudioFilename: fastest.mp3
AudioLeadIn: 2
PreviewTime: 17754
Countdown: 0
SampleSet: Normal
StackLeniency: 0.7
Mode: 3
LetterboxInBreaks: 0
SpecialStyle: 0
WidescreenStoryboard: 1

[Editor]
DistanceSpacing: 0.8
BeatDivisor: 4
GridSize: 8
TimelineZoom: 1

[Metadata]
Title:Weabonie's Practice Pack
TitleUnicode:Weabonie's Practice Pack
Artist:
ArtistUnicode:
Creator:Weabonie
Version:(TECH) Camellia - Fastest Crash
Source:Stepmania
Tags:Stepmania
BeatmapID:1725063
BeatmapSetID:812823

[Difficulty]
HPDrainRate:8
CircleSize:4
OverallDifficulty:9
ApproachRate:10
SliderMultiplier:1.4
SliderTickRate:1

[Events]
//Background and Video events
0,0,"bg10.jpg",0,0
//Break Periods
//Storyboard Layer 0 (Background)
//Storyboard Layer 1 (Fail)
//Storyboard Layer 2 (Pass)
//Storyboard Layer 3 (Foreground)
//Storyboard Sound Samples

[TimingPoints]
17754,285.7143,4,1,0,15,1,0

[HitObjects]
320,192,850,5,0,0:0:0:0:
64,192,993,1,0,0:0:0:0:
320,192,1136,1,0,0:0:0:0:
448,192,1422,1,0,0:0:0:0:
192,192,1565,1,0,0:0:0:0:
320,192,1708,1,0,0:0:0:0:
64,192,1850,1,0,0:0:0:0:
320,192,1993,1,0,0:0:0:0:
448,192,2279,1,0,0:0:0:0:
192,192,2422,1,0,0:0:0:0:
320,192,2565,1,0,0:0:0:0:
64,192,2708,1,0,0:0:0:0:
320,192,2851,1,0,0:0:0:0:
448,192,2851,1,0,0:0:0:0:
448,192,3136,1,0,0:0:0:0:
192,192,3279,1,0,0:0:0:0:
320,192,3422,1,0,0:0:0:0:
64,192,3565,1,0,0:0:0:0:
320,192,3708,1,0,0:0:0:0:
64,192,3993,1,0,0:0:0:0:
448,192,3993,1,0,0:0:0:0:
192,192,4136,1,0,0:0:0:0:
320,192,4279,1,0,0:0:0:0:
64,192,4422,1,0,0:0:0:0:
320,192,4565,1,0,0:0:0:0:
192,192,4851,1,0,0:0:0:0:
64,192,4993,1,0,0:0:0:0:
320,192,5136,1,0,0:0:0:0:
448,192,5136,1,0,0:0:0:0:
192,192,5279,1,0,0:0:0:0:
320,192,5422,1,0,0:0:0:0:
64,192,5565,1,0,0:0:0:0:
320,192,5708,1,0,0:0:0:0:
448,192,5993,1,0,0:0:0:0:
192,192,6136,1,0,0:0:0:0:
320,192,6279,1,0,0:0:0:0:
64,192,6422,1,0,0:0:0:0:
320,192,6565,1,0,0:0:0:0:
448,192,6851,1,0,0:0:0:0:
192,192,6993,1,0,0:0:0:0:
320,192,7136,1,0,0:0:0:0:
64,192,7279,1,0,0:0:0:0:
192,192,7422,1,0,0:0:0:0:
320,192,7422,1,0,0:0:0:0:
448,192,7708,1,0,0:0:0:0:
192,192,7851,1,0,0:0:0:0:
320,192,7993,1,0,0:0:0:0:
64,192,8136,1,0,0:0:0:0:
320,192,8279,1,0,0:0:0:0:
320,192,8565,1,0,0:0:0:0:
448,192,8565,1,0,0:0:0:0:
192,192,8708,1,0,0:0:0:0:
320,192,8851,1,0,0:0:0:0:
64,192,8993,1,0,0:0:0:0:
320,192,9136,1,0,0:0:0:0:
192,192,9422,1,0,0:0:0:0:
64,192,9565,1,0,0:0:0:0:
320,192,9708,1,0,0:0:0:0:
448,192,9708,1,0,0:0:0:0:
192,192,9851,1,0,0:0:0:0:
320,192,9993,1,0,0:0:0:0:
64,192,10136,1,0,0:0:0:0:
320,192,10279,1,0,0:0:0:0:
448,192,10565,1,0,0:0:0:0:
192,192,10708,1,0,0:0:0:0:
320,192,10851,1,0,0:0:0:0:
64,192,10993,1,0,0:0:0:0:
320,192,11136,1,0,0:0:0:0:
448,192,11422,1,0,0:0:0:0:
192,192,11565,1,0,0:0:0:0:
320,192,11708,1,0,0:0:0:0:
64,192,11851,1,0,0:0:0:0:
320,192,11993,1,0,0:0:0:0:
448,192,11993,1,0,0:0:0:0:
448,192,12279,1,0,0:0:0:0:
192,192,12422,1,0,0:0:0:0:
320,192,12565,1,0,0:0:0:0:
64,192,12708,1,0,0:0:0:0:
320,192,12851,1,0,0:0:0:0:
64,192,13136,1,0,0:0:0:0:
448,192,13136,1,0,0:0:0:0:
448,192,13208,1,0,0:0:0:0:
192,192,13279,1,0,0:0:0:0:
320,0,13422,128,0,13493:1:0:0:0:
64,192,13565,1,0,0:0:0:0:
320,192,13708,1,0,0:0:0:0:
192,192,13993,1,0,0:0:0:0:
64,192,14136,1,0,0:0:0:0:
320,192,14279,1,0,0:0:0:0:
448,0,14279,128,0,14351:1:0:0:0:
64,192,14351,1,0,0:0:0:0:
192,0,14422,128,0,14493:1:0:0:0:
448,192,14493,1,0,0:0:0:0:
320,0,14565,128,0,14636:1:0:0:0:
192,192,14636,1,0,0:0:0:0:
64,0,14708,128,0,14779:1:0:0:0:
448,192,14779,1,0,0:0:0:0:
320,0,14851,128,0,14922:1:0:0:0:
64,192,14922,1,0,0:0:0:0:
192,192,14993,1,0,0:0:0:0:
320,192,15065,1,0,0:0:0:0:
448,192,15136,1,0,0:0:0:0:
64,0,15136,128,0,15208:1:0:0:0:
320,192,15208,1,0,0:0:0:0:
192,0,15279,128,0,15351:1:0:0:0:
448,192,15351,1,0,0:0:0:0:
64,192,15422,1,0,0:0:0:0:
320,0,15422,128,0,15493:1:0:0:0:
192,192,15493,1,0,0:0:0:0:
64,0,15565,128,0,15636:1:0:0:0:
448,192,15636,1,0,0:0:0:0:
192,192,15708,1,0,0:0:0:0:
320,0,15708,128,0,15779:1:0:0:0:
64,192,15779,1,0,0:0:0:0:
448,192,15851,1,0,0:0:0:0:
192,192,15922,1,0,0:0:0:0:
320,192,15993,1,0,0:0:0:0:
448,0,15993,128,0,16065:1:0:0:0:
64,192,16065,1,0,0:0:0:0:
448,192,16136,1,0,0:0:0:0:
192,0,16136,128,0,16208:1:0:0:0:
320,192,16208,1,0,0:0:0:0:
192,192,16279,1,0,0:0:0:0:
64,0,16279,128,0,16351:1:0:0:0:
448,192,16351,1,0,0:0:0:0:
192,192,16422,1,0,0:0:0:0:
320,0,16422,128,0,16493:1:0:0:0:
448,192,16493,1,0,0:0:0:0:
192,192,16565,1,0,0:0:0:0:
64,0,16565,128,0,16636:1:0:0:0:
448,192,16636,1,0,0:0:0:0:
192,192,16708,1,0,0:0:0:0:
320,0,16708,128,0,16779:1:0:0:0:
64,192,16779,1,0,0:0:0:0:
320,192,16851,1,0,0:0:0:0:
448,192,16851,1,0,0:0:0:0:
64,192,16922,1,0,0:0:0:0:
320,192,16922,1,0,0:0:0:0:
192,192,16993,1,0,0:0:0:0:
448,192,16993,1,0,0:0:0:0:
64,192,17065,1,0,0:0:0:0:
192,192,17065,1,0,0:0:0:0:
320,192,17136,1,0,0:0:0:0:
448,192,17136,1,0,0:0:0:0:
192,192,17208,1,0,0:0:0:0:
320,192,17208,1,0,0:0:0:0:
64,192,17279,1,0,0:0:0:0:
448,192,17279,1,0,0:0:0:0:
64,192,17351,1,0,0:0:0:0:
192,192,17351,1,0,0:0:0:0:
320,192,17422,1,0,0:0:0:0:
448,192,17422,1,0,0:0:0:0:
320,192,17493,1,0,0:0:0:0:
448,192,17493,1,0,0:0:0:0:
64,192,17565,1,0,0:0:0:0:
192,192,17565,1,0,0:0:0:0:
64,192,17636,1,0,0:0:0:0:
192,192,17636,1,0,0:0:0:0:
64,0,17851,128,0,17993:1:0:0:0:
192,0,17993,128,0,18136:1:0:0:0:
320,192,18136,1,0,0:0:0:0:
448,192,18136,1,0,0:0:0:0:
448,192,18208,1,0,0:0:0:0:
192,192,18279,1,0,0:0:0:0:
320,192,18422,1,0,0:0:0:0:
192,192,18565,1,0,0:0:0:0:
64,192,18708,1,0,0:0:0:0:
192,192,18851,1,0,0:0:0:0:
320,192,18851,1,0,0:0:0:0:
448,192,18851,1,0,0:0:0:0:
64,192,18922,1,0,0:0:0:0:
320,192,18993,1,0,0:0:0:0:
448,192,19041,1,0,0:0:0:0:
192,192,19089,1,0,0:0:0:0:
64,192,19136,1,0,0:0:0:0:
320,192,19136,1,0,0:0:0:0:
320,192,19208,1,0,0:0:0:0:
192,192,19279,1,0,0:0:0:0:
448,192,19327,1,0,0:0:0:0:
320,192,19374,1,0,0:0:0:0:
64,192,19422,1,0,0:0:0:0:
192,192,19422,1,0,0:0:0:0:
448,192,19493,1,0,0:0:0:0:
64,192,19565,1,0,0:0:0:0:
320,192,19612,1,0,0:0:0:0:
192,192,19660,1,0,0:0:0:0:
64,192,19708,1,0,0:0:0:0:
448,192,19708,1,0,0:0:0:0:
64,192,19779,1,0,0:0:0:0:
320,192,19851,1,0,0:0:0:0:
448,192,19898,1,0,0:0:0:0:
192,192,19946,1,0,0:0:0:0:
320,192,19993,1,0,0:0:0:0:
448,192,19993,1,0,0:0:0:0:
64,192,20029,1,0,0:0:0:0:
320,192,20065,1,0,0:0:0:0:
192,192,20101,1,0,0:0:0:0:
448,192,20136,1,0,0:0:0:0:
64,192,20184,1,0,0:0:0:0:
320,192,20231,1,0,0:0:0:0:
64,192,20279,1,0,0:0:0:0:
192,192,20279,1,0,0:0:0:0:
448,192,20315,1,0,0:0:0:0:
192,192,20351,1,0,0:0:0:0:
320,192,20386,1,0,0:0:0:0:
64,192,20422,1,0,0:0:0:0:
448,192,20470,1,0,0:0:0:0:
192,192,20517,1,0,0:0:0:0:
320,192,20565,1,0,0:0:0:0:
448,192,20565,1,0,0:0:0:0:
64,192,20601,1,0,0:0:0:0:
320,192,20636,1,0,0:0:0:0:
192,192,20672,1,0,0:0:0:0:
448,192,20708,1,0,0:0:0:0:
64,192,20755,1,0,0:0:0:0:
192,192,20803,1,0,0:0:0:0:
320,192,20851,1,0,0:0:0:0:
448,192,20851,1,0,0:0:0:0:
64,192,20922,1,0,0:0:0:0:
320,192,20993,1,0,0:0:0:0:
448,192,21041,1,0,0:0:0:0:
192,192,21089,1,0,0:0:0:0:
64,192,21136,1,0,0:0:0:0:
320,192,21136,1,0,0:0:0:0:
448,192,21208,1,0,0:0:0:0:
192,192,21279,1,0,0:0:0:0:
320,192,21327,1,0,0:0:0:0:
64,192,21374,1,0,0:0:0:0:
320,192,21422,1,0,0:0:0:0:
448,192,21422,1,0,0:0:0:0:
448,192,21493,1,0,0:0:0:0:
192,192,21565,1,0,0:0:0:0:
320,192,21612,1,0,0:0:0:0:
448,192,21660,1,0,0:0:0:0:
64,192,21708,1,0,0:0:0:0:
192,192,21708,1,0,0:0:0:0:
320,192,21779,1,0,0:0:0:0:
64,192,21851,1,0,0:0:0:0:
448,192,21898,1,0,0:0:0:0:
320,192,21946,1,0,0:0:0:0:
64,192,21993,1,0,0:0:0:0:
448,192,21993,1,0,0:0:0:0:
64,192,22065,1,0,0:0:0:0:
320,192,22136,1,0,0:0:0:0:
192,192,22208,1,0,0:0:0:0:
320,192,22279,1,0,0:0:0:0:
448,192,22279,1,0,0:0:0:0:
192,192,22315,1,0,0:0:0:0:
448,192,22351,1,0,0:0:0:0:
64,192,22386,1,0,0:0:0:0:
320,192,22422,1,0,0:0:0:0:
192,192,22470,1,0,0:0:0:0:
448,192,22517,1,0,0:0:0:0:
64,192,22565,1,0,0:0:0:0:
192,192,22565,1,0,0:0:0:0:
320,192,22601,1,0,0:0:0:0:
64,192,22636,1,0,0:0:0:0:
448,192,22672,1,0,0:0:0:0:
192,192,22708,1,0,0:0:0:0:
320,192,22755,1,0,0:0:0:0:
64,192,22803,1,0,0:0:0:0:
320,192,22851,1,0,0:0:0:0:
448,192,22851,1,0,0:0:0:0:
192,192,22886,1,0,0:0:0:0:
448,192,22922,1,0,0:0:0:0:
64,192,22958,1,0,0:0:0:0:
192,192,22993,1,0,0:0:0:0:
320,192,23041,1,0,0:0:0:0:
64,192,23089,1,0,0:0:0:0:
192,192,23136,1,0,0:0:0:0:
448,192,23136,1,0,0:0:0:0:
320,192,23208,1,0,0:0:0:0:
448,192,23279,1,0,0:0:0:0:
192,192,23327,1,0,0:0:0:0:
320,192,23374,1,0,0:0:0:0:
64,192,23422,1,0,0:0:0:0:
192,192,23422,1,0,0:0:0:0:
448,192,23493,1,0,0:0:0:0:
64,192,23565,1,0,0:0:0:0:
320,192,23612,1,0,0:0:0:0:
192,192,23660,1,0,0:0:0:0:
320,192,23708,1,0,0:0:0:0:
448,192,23708,1,0,0:0:0:0:
448,192,23779,1,0,0:0:0:0:
192,192,23851,1,0,0:0:0:0:
64,192,23898,1,0,0:0:0:0:
320,192,23946,1,0,0:0:0:0:
64,192,23993,1,0,0:0:0:0:
448,192,23993,1,0,0:0:0:0:
192,192,24065,1,0,0:0:0:0:
320,192,24136,1,0,0:0:0:0:
64,192,24184,1,0,0:0:0:0:
448,192,24231,1,0,0:0:0:0:
64,192,24279,1,0,0:0:0:0:
192,192,24279,1,0,0:0:0:0:
192,192,24351,1,0,0:0:0:0:
320,192,24422,1,0,0:0:0:0:
448,192,24470,1,0,0:0:0:0:
192,192,24517,1,0,0:0:0:0:
64,192,24565,1,0,0:0:0:0:
448,192,24565,1,0,0:0:0:0:
320,192,24636,1,0,0:0:0:0:
448,192,24708,1,0,0:0:0:0:
192,192,24755,1,0,0:0:0:0:
320,192,24803,1,0,0:0:0:0:
64,192,24851,1,0,0:0:0:0:
192,192,24851,1,0,0:0:0:0:
448,192,24886,1,0,0:0:0:0:
192,192,24922,1,0,0:0:0:0:
64,192,24993,1,0,0:0:0:0:
320,192,25041,1,0,0:0:0:0:
192,192,25089,1,0,0:0:0:0:
320,192,25136,1,0,0:0:0:0:
448,192,25136,1,0,0:0:0:0:
64,192,25172,1,0,0:0:0:0:
320,192,25208,1,0,0:0:0:0:
192,192,25279,1,0,0:0:0:0:
320,192,25327,1,0,0:0:0:0:
192,192,25374,1,0,0:0:0:0:
64,192,25422,1,0,0:0:0:0:
448,192,25422,1,0,0:0:0:0:
320,192,25493,1,0,0:0:0:0:
192,192,25565,1,0,0:0:0:0:
320,192,25612,1,0,0:0:0:0:
64,192,25660,1,0,0:0:0:0:
320,192,25708,1,0,0:0:0:0:
448,192,25708,1,0,0:0:0:0:
192,192,25779,1,0,0:0:0:0:
64,192,25851,1,0,0:0:0:0:
192,192,25898,1,0,0:0:0:0:
448,192,25946,1,0,0:0:0:0:
64,192,25993,1,0,0:0:0:0:
320,192,25993,1,0,0:0:0:0:
320,192,26065,1,0,0:0:0:0:
64,192,26136,1,0,0:0:0:0:
320,192,26184,1,0,0:0:0:0:
192,192,26231,1,0,0:0:0:0:
320,192,26279,1,0,0:0:0:0:
448,192,26279,1,0,0:0:0:0:
64,192,26351,1,0,0:0:0:0:
192,192,26422,1,0,0:0:0:0:
320,192,26470,1,0,0:0:0:0:
64,192,26517,1,0,0:0:0:0:
192,192,26565,1,0,0:0:0:0:
448,192,26565,1,0,0:0:0:0:
320,192,26636,1,0,0:0:0:0:
64,192,26708,1,0,0:0:0:0:
192,192,26755,1,0,0:0:0:0:
320,192,26803,1,0,0:0:0:0:
64,192,26851,1,0,0:0:0:0:
192,192,26851,1,0,0:0:0:0:
448,192,26886,1,0,0:0:0:0:
192,192,26922,1,0,0:0:0:0:
320,192,26958,1,0,0:0:0:0:
64,192,26993,1,0,0:0:0:0:
448,192,27041,1,0,0:0:0:0:
192,192,27089,1,0,0:0:0:0:
320,192,27136,1,0,0:0:0:0:
448,192,27136,1,0,0:0:0:0:
64,192,27172,1,0,0:0:0:0:
320,192,27208,1,0,0:0:0:0:
192,192,27243,1,0,0:0:0:0:
448,192,27279,1,0,0:0:0:0:
64,192,27327,1,0,0:0:0:0:
320,192,27374,1,0,0:0:0:0:
64,192,27422,1,0,0:0:0:0:
192,192,27422,1,0,0:0:0:0:
448,192,27458,1,0,0:0:0:0:
192,192,27493,1,0,0:0:0:0:
320,192,27529,1,0,0:0:0:0:
64,192,27565,1,0,0:0:0:0:
448,192,27612,1,0,0:0:0:0:
320,192,27660,1,0,0:0:0:0:
64,192,27708,1,0,0:0:0:0:
192,192,27708,1,0,0:0:0:0:
192,192,27779,1,0,0:0:0:0:
64,192,27851,1,0,0:0:0:0:
320,192,27898,1,0,0:0:0:0:
192,192,27946,1,0,0:0:0:0:
320,192,27993,1,0,0:0:0:0:
448,192,27993,1,0,0:0:0:0:
64,192,28065,1,0,0:0:0:0:
320,192,28136,1,0,0:0:0:0:
448,192,28184,1,0,0:0:0:0:
192,192,28231,1,0,0:0:0:0:
64,192,28279,1,0,0:0:0:0:
320,192,28279,1,0,0:0:0:0:
64,192,28351,1,0,0:0:0:0:
192,192,28422,1,0,0:0:0:0:
320,192,28470,1,0,0:0:0:0:
448,192,28517,1,0,0:0:0:0:
64,192,28565,1,0,0:0:0:0:
192,192,28565,1,0,0:0:0:0:
320,192,28636,1,0,0:0:0:0:
64,192,28708,1,0,0:0:0:0:
320,192,28755,1,0,0:0:0:0:
192,192,28803,1,0,0:0:0:0:
64,192,28851,1,0,0:0:0:0:
448,192,28851,1,0,0:0:0:0:
448,192,28922,1,0,0:0:0:0:
320,192,28993,1,0,0:0:0:0:
64,192,29041,1,0,0:0:0:0:
192,192,29089,1,0,0:0:0:0:
320,192,29136,1,0,0:0:0:0:
448,192,29136,1,0,0:0:0:0:
64,192,29172,1,0,0:0:0:0:
320,192,29208,1,0,0:0:0:0:
192,192,29243,1,0,0:0:0:0:
448,192,29279,1,0,0:0:0:0:
64,192,29327,1,0,0:0:0:0:
320,192,29374,1,0,0:0:0:0:
64,192,29422,1,0,0:0:0:0:
192,192,29422,1,0,0:0:0:0:
448,192,29458,1,0,0:0:0:0:
192,192,29493,1,0,0:0:0:0:
320,192,29529,1,0,0:0:0:0:
64,192,29565,1,0,0:0:0:0:
448,192,29612,1,0,0:0:0:0:
192,192,29660,1,0,0:0:0:0:
320,192,29708,1,0,0:0:0:0:
448,192,29708,1,0,0:0:0:0:
64,192,29743,1,0,0:0:0:0:
320,192,29779,1,0,0:0:0:0:
192,192,29815,1,0,0:0:0:0:
448,192,29851,1,0,0:0:0:0:
64,192,29898,1,0,0:0:0:0:
192,192,29946,1,0,0:0:0:0:
320,192,29993,1,0,0:0:0:0:
448,192,29993,1,0,0:0:0:0:
64,192,30065,1,0,0:0:0:0:
320,192,30136,1,0,0:0:0:0:
448,192,30184,1,0,0:0:0:0:
192,192,30231,1,0,0:0:0:0:
64,192,30279,1,0,0:0:0:0:
320,192,30279,1,0,0:0:0:0:
448,192,30351,1,0,0:0:0:0:
192,192,30422,1,0,0:0:0:0:
320,192,30470,1,0,0:0:0:0:
64,192,30517,1,0,0:0:0:0:
320,192,30565,1,0,0:0:0:0:
448,192,30565,1,0,0:0:0:0:
448,192,30636,1,0,0:0:0:0:
192,192,30708,1,0,0:0:0:0:
320,192,30755,1,0,0:0:0:0:
64,192,30803,1,0,0:0:0:0:
192,192,30851,1,0,0:0:0:0:
448,192,30851,1,0,0:0:0:0:
320,192,30922,1,0,0:0:0:0:
448,192,30993,1,0,0:0:0:0:
192,192,31041,1,0,0:0:0:0:
320,192,31089,1,0,0:0:0:0:
64,192,31136,1,0,0:0:0:0:
192,192,31136,1,0,0:0:0:0:
64,192,31208,1,0,0:0:0:0:
320,192,31279,1,0,0:0:0:0:
192,192,31351,1,0,0:0:0:0:
320,192,31422,1,0,0:0:0:0:
448,192,31422,1,0,0:0:0:0:
192,192,31458,1,0,0:0:0:0:
448,192,31493,1,0,0:0:0:0:
64,192,31529,1,0,0:0:0:0:
320,192,31565,1,0,0:0:0:0:
192,192,31612,1,0,0:0:0:0:
448,192,31660,1,0,0:0:0:0:
64,192,31708,1,0,0:0:0:0:
192,192,31708,1,0,0:0:0:0:
320,192,31743,1,0,0:0:0:0:
64,192,31779,1,0,0:0:0:0:
448,192,31815,1,0,0:0:0:0:
192,192,31851,1,0,0:0:0:0:
320,192,31898,1,0,0:0:0:0:
64,192,31946,1,0,0:0:0:0:
320,192,31993,1,0,0:0:0:0:
448,192,31993,1,0,0:0:0:0:
192,192,32029,1,0,0:0:0:0:
448,192,32065,1,0,0:0:0:0:
64,192,32101,1,0,0:0:0:0:
192,192,32136,1,0,0:0:0:0:
320,192,32184,1,0,0:0:0:0:
64,192,32231,1,0,0:0:0:0:
192,192,32279,1,0,0:0:0:0:
448,192,32279,1,0,0:0:0:0:
320,192,32351,1,0,0:0:0:0:
448,192,32422,1,0,0:0:0:0:
192,192,32470,1,0,0:0:0:0:
320,192,32517,1,0,0:0:0:0:
64,192,32565,1,0,0:0:0:0:
192,192,32565,1,0,0:0:0:0:
448,192,32636,1,0,0:0:0:0:
64,192,32708,1,0,0:0:0:0:
320,192,32755,1,0,0:0:0:0:
192,192,32803,1,0,0:0:0:0:
320,192,32851,1,0,0:0:0:0:
448,192,32851,1,0,0:0:0:0:
448,192,32922,1,0,0:0:0:0:
192,192,32993,1,0,0:0:0:0:
64,192,33041,1,0,0:0:0:0:
320,192,33089,1,0,0:0:0:0:
64,192,33136,1,0,0:0:0:0:
448,192,33136,1,0,0:0:0:0:
192,192,33208,1,0,0:0:0:0:
320,192,33279,1,0,0:0:0:0:
64,192,33327,1,0,0:0:0:0:
448,192,33374,1,0,0:0:0:0:
64,192,33422,1,0,0:0:0:0:
192,192,33422,1,0,0:0:0:0:
192,192,33493,1,0,0:0:0:0:
320,192,33565,1,0,0:0:0:0:
448,192,33612,1,0,0:0:0:0:
192,192,33660,1,0,0:0:0:0:
64,192,33708,1,0,0:0:0:0:
448,192,33708,1,0,0:0:0:0:
320,192,33779,1,0,0:0:0:0:
448,192,33851,1,0,0:0:0:0:
192,192,33898,1,0,0:0:0:0:
320,192,33946,1,0,0:0:0:0:
64,192,33993,1,0,0:0:0:0:
192,192,33993,1,0,0:0:0:0:
448,192,34029,1,0,0:0:0:0:
192,192,34065,1,0,0:0:0:0:
64,192,34136,1,0,0:0:0:0:
320,192,34184,1,0,0:0:0:0:
192,192,34231,1,0,0:0:0:0:
320,192,34279,1,0,0:0:0:0:
448,192,34279,1,0,0:0:0:0:
64,192,34315,1,0,0:0:0:0:
320,192,34351,1,0,0:0:0:0:
192,192,34422,1,0,0:0:0:0:
320,192,34470,1,0,0:0:0:0:
192,192,34517,1,0,0:0:0:0:
64,192,34565,1,0,0:0:0:0:
448,192,34565,1,0,0:0:0:0:
320,192,34636,1,0,0:0:0:0:
192,192,34708,1,0,0:0:0:0:
320,192,34755,1,0,0:0:0:0:
64,192,34803,1,0,0:0:0:0:
320,192,34851,1,0,0:0:0:0:
448,192,34851,1,0,0:0:0:0:
192,192,34922,1,0,0:0:0:0:
64,192,34993,1,0,0:0:0:0:
192,192,35041,1,0,0:0:0:0:
448,192,35089,1,0,0:0:0:0:
64,192,35136,1,0,0:0:0:0:
320,192,35136,1,0,0:0:0:0:
64,192,35208,1,0,0:0:0:0:
192,192,35279,1,0,0:0:0:0:
320,192,35327,1,0,0:0:0:0:
64,192,35374,1,0,0:0:0:0:
320,192,35422,1,0,0:0:0:0:
448,192,35422,1,0,0:0:0:0:
64,192,35493,1,0,0:0:0:0:
192,192,35565,1,0,0:0:0:0:
320,192,35612,1,0,0:0:0:0:
64,192,35660,1,0,0:0:0:0:
192,192,35708,1,0,0:0:0:0:
448,192,35708,1,0,0:0:0:0:
320,192,35779,1,0,0:0:0:0:
64,192,35851,1,0,0:0:0:0:
192,192,35898,1,0,0:0:0:0:
320,192,35946,1,0,0:0:0:0:
64,192,35993,1,0,0:0:0:0:
192,192,35993,1,0,0:0:0:0:
448,192,35993,1,0,0:0:0:0:
64,192,36136,1,0,0:0:0:0:
320,192,36136,1,0,0:0:0:0:
448,192,36136,1,0,0:0:0:0:
64,192,36422,1,0,0:0:0:0:
320,192,36422,1,0,0:0:0:0:
448,192,36422,1,0,0:0:0:0:
64,192,36708,1,0,0:0:0:0:
192,192,36708,1,0,0:0:0:0:
448,192,36708,1,0,0:0:0:0:
192,192,36851,1,0,0:0:0:0:
320,192,36851,1,0,0:0:0:0:
448,192,36851,1,0,0:0:0:0:
64,192,36993,1,0,0:0:0:0:
192,192,36993,1,0,0:0:0:0:
320,192,36993,1,0,0:0:0:0:
64,192,37136,1,0,0:0:0:0:
448,192,37136,1,0,0:0:0:0:
320,192,37279,1,0,0:0:0:0:
448,192,37279,1,0,0:0:0:0:
64,192,37351,1,0,0:0:0:0:
192,192,37422,1,0,0:0:0:0:
448,192,37422,1,0,0:0:0:0:
192,192,37493,1,0,0:0:0:0:
320,192,37565,1,0,0:0:0:0:
64,192,37618,1,0,0:0:0:0:
192,192,37660,1,0,0:0:0:0:
320,192,37708,1,0,0:0:0:0:
448,192,37708,1,0,0:0:0:0:
64,192,37779,1,0,0:0:0:0:
448,192,37851,1,0,0:0:0:0:
192,192,37898,1,0,0:0:0:0:
320,192,37946,1,0,0:0:0:0:
64,192,37993,1,0,0:0:0:0:
448,192,37993,1,0,0:0:0:0:
448,192,38065,1,0,0:0:0:0:
192,192,38136,1,0,0:0:0:0:
64,192,38184,1,0,0:0:0:0:
320,192,38231,1,0,0:0:0:0:
64,192,38279,1,0,0:0:0:0:
192,192,38279,1,0,0:0:0:0:
448,192,38315,1,0,0:0:0:0:
192,192,38351,1,0,0:0:0:0:
320,192,38386,1,0,0:0:0:0:
64,192,38422,1,0,0:0:0:0:
448,192,38470,1,0,0:0:0:0:
192,192,38517,1,0,0:0:0:0:
320,192,38565,1,0,0:0:0:0:
448,192,38565,1,0,0:0:0:0:
64,192,38601,1,0,0:0:0:0:
320,192,38636,1,0,0:0:0:0:
192,192,38672,1,0,0:0:0:0:
448,192,38708,1,0,0:0:0:0:
64,192,38761,1,0,0:0:0:0:
320,192,38803,1,0,0:0:0:0:
64,192,38851,1,0,0:0:0:0:
192,192,38851,1,0,0:0:0:0:
448,192,38886,1,0,0:0:0:0:
192,192,38922,1,0,0:0:0:0:
320,192,38958,1,0,0:0:0:0:
64,192,38993,1,0,0:0:0:0:
448,192,39041,1,0,0:0:0:0:
320,192,39089,1,0,0:0:0:0:
64,192,39136,1,0,0:0:0:0:
192,192,39136,1,0,0:0:0:0:
448,192,39208,1,0,0:0:0:0:
192,192,39279,1,0,0:0:0:0:
64,192,39327,1,0,0:0:0:0:
320,192,39374,1,0,0:0:0:0:
192,192,39422,1,0,0:0:0:0:
448,192,39422,1,0,0:0:0:0:
64,192,39493,1,0,0:0:0:0:
320,192,39565,1,0,0:0:0:0:
192,192,39618,1,0,0:0:0:0:
448,192,39660,1,0,0:0:0:0:
64,192,39708,1,0,0:0:0:0:
192,192,39708,1,0,0:0:0:0:
64,192,39779,1,0,0:0:0:0:
320,192,39851,1,0,0:0:0:0:
192,192,39904,1,0,0:0:0:0:
64,192,39946,1,0,0:0:0:0:
320,192,39993,1,0,0:0:0:0:
448,192,39993,1,0,0:0:0:0:
192,192,40065,1,0,0:0:0:0:
448,192,40136,1,0,0:0:0:0:
64,192,40184,1,0,0:0:0:0:
192,192,40231,1,0,0:0:0:0:
64,192,40279,1,0,0:0:0:0:
448,192,40279,1,0,0:0:0:0:
448,192,40351,1,0,0:0:0:0:
192,192,40422,1,0,0:0:0:0:
320,192,40493,1,0,0:0:0:0:
64,192,40565,1,0,0:0:0:0:
192,192,40565,1,0,0:0:0:0:
320,192,40601,1,0,0:0:0:0:
64,192,40636,1,0,0:0:0:0:
448,192,40672,1,0,0:0:0:0:
192,192,40708,1,0,0:0:0:0:
320,192,40761,1,0,0:0:0:0:
64,192,40803,1,0,0:0:0:0:
320,192,40851,1,0,0:0:0:0:
448,192,40851,1,0,0:0:0:0:
192,192,40886,1,0,0:0:0:0:
448,192,40922,1,0,0:0:0:0:
64,192,40958,1,0,0:0:0:0:
320,192,40993,1,0,0:0:0:0:
192,192,41047,1,0,0:0:0:0:
448,192,41089,1,0,0:0:0:0:
64,192,41136,1,0,0:0:0:0:
192,192,41136,1,0,0:0:0:0:
320,192,41172,1,0,0:0:0:0:
64,192,41208,1,0,0:0:0:0:
448,192,41243,1,0,0:0:0:0:
320,192,41279,1,0,0:0:0:0:
192,192,41327,1,0,0:0:0:0:
448,192,41374,1,0,0:0:0:0:
64,192,41422,1,0,0:0:0:0:
320,192,41422,1,0,0:0:0:0:
192,192,41493,1,0,0:0:0:0:
64,192,41565,1,0,0:0:0:0:
320,192,41618,1,0,0:0:0:0:
192,192,41660,1,0,0:0:0:0:
320,192,41708,1,0,0:0:0:0:
448,192,41708,1,0,0:0:0:0:
64,192,41779,1,0,0:0:0:0:
448,192,41851,1,0,0:0:0:0:
192,192,41904,1,0,0:0:0:0:
320,192,41946,1,0,0:0:0:0:
64,192,41993,1,0,0:0:0:0:
192,192,41993,1,0,0:0:0:0:
64,192,42065,1,0,0:0:0:0:
320,192,42136,1,0,0:0:0:0:
448,192,42190,1,0,0:0:0:0:
192,192,42231,1,0,0:0:0:0:
64,192,42279,1,0,0:0:0:0:
448,192,42279,1,0,0:0:0:0:
320,192,42351,1,0,0:0:0:0:
192,192,42422,1,0,0:0:0:0:
448,192,42470,1,0,0:0:0:0:
64,192,42517,1,0,0:0:0:0:
320,192,42565,1,0,0:0:0:0:
448,192,42565,1,0,0:0:0:0:
320,192,42636,1,0,0:0:0:0:
192,192,42708,1,0,0:0:0:0:
64,192,42761,1,0,0:0:0:0:
320,192,42803,1,0,0:0:0:0:
64,192,42851,1,0,0:0:0:0:
448,192,42851,1,0,0:0:0:0:
192,192,42922,1,0,0:0:0:0:
64,192,42993,1,0,0:0:0:0:
320,192,43047,1,0,0:0:0:0:
192,192,43089,1,0,0:0:0:0:
320,192,43136,1,0,0:0:0:0:
448,192,43136,1,0,0:0:0:0:
64,192,43172,1,0,0:0:0:0:
320,192,43208,1,0,0:0:0:0:
448,192,43279,1,0,0:0:0:0:
192,192,43333,1,0,0:0:0:0:
320,192,43374,1,0,0:0:0:0:
64,192,43422,1,0,0:0:0:0:
192,192,43422,1,0,0:0:0:0:
448,192,43458,1,0,0:0:0:0:
192,192,43493,1,0,0:0:0:0:
320,192,43565,1,0,0:0:0:0:
192,192,43618,1,0,0:0:0:0:
320,192,43660,1,0,0:0:0:0:
64,192,43708,1,0,0:0:0:0:
448,192,43708,1,0,0:0:0:0:
192,192,43779,1,0,0:0:0:0:
320,192,43851,1,0,0:0:0:0:
192,192,43904,1,0,0:0:0:0:
448,192,43946,1,0,0:0:0:0:
64,192,43993,1,0,0:0:0:0:
192,192,43993,1,0,0:0:0:0:
320,192,44065,1,0,0:0:0:0:
448,192,44136,1,0,0:0:0:0:
320,192,44190,1,0,0:0:0:0:
64,192,44231,1,0,0:0:0:0:
192,192,44279,1,0,0:0:0:0:
448,192,44279,1,0,0:0:0:0:
192,192,44351,1,0,0:0:0:0:
448,192,44422,1,0,0:0:0:0:
192,192,44476,1,0,0:0:0:0:
320,192,44517,1,0,0:0:0:0:
64,192,44565,1,0,0:0:0:0:
192,192,44565,1,0,0:0:0:0:
448,192,44636,1,0,0:0:0:0:
320,192,44708,1,0,0:0:0:0:
192,192,44761,1,0,0:0:0:0:
448,192,44803,1,0,0:0:0:0:
64,192,44851,1,0,0:0:0:0:
320,192,44851,1,0,0:0:0:0:
192,192,44922,1,0,0:0:0:0:
448,192,44993,1,0,0:0:0:0:
320,192,45047,1,0,0:0:0:0:
192,192,45089,1,0,0:0:0:0:
320,192,45136,1,0,0:0:0:0:
448,192,45136,1,0,0:0:0:0:
64,192,45172,1,0,0:0:0:0:
320,192,45208,1,0,0:0:0:0:
192,192,45243,1,0,0:0:0:0:
448,192,45279,1,0,0:0:0:0:
64,192,45333,1,0,0:0:0:0:
320,192,45374,1,0,0:0:0:0:
64,192,45422,1,0,0:0:0:0:
192,192,45422,1,0,0:0:0:0:
448,192,45458,1,0,0:0:0:0:
192,192,45493,1,0,0:0:0:0:
320,192,45529,1,0,0:0:0:0:
64,192,45565,1,0,0:0:0:0:
448,192,45618,1,0,0:0:0:0:
192,192,45660,1,0,0:0:0:0:
320,192,45708,1,0,0:0:0:0:
448,192,45708,1,0,0:0:0:0:
64,192,45743,1,0,0:0:0:0:
320,192,45779,1,0,0:0:0:0:
192,192,45815,1,0,0:0:0:0:
448,192,45851,1,0,0:0:0:0:
64,192,45904,1,0,0:0:0:0:
192,192,45946,1,0,0:0:0:0:
320,192,45993,1,0,0:0:0:0:
448,192,45993,1,0,0:0:0:0:
320,192,46065,1,0,0:0:0:0:
448,192,46136,1,0,0:0:0:0:
192,192,46190,1,0,0:0:0:0:
320,192,46231,1,0,0:0:0:0:
64,192,46279,1,0,0:0:0:0:
192,192,46279,1,0,0:0:0:0:
448,192,46351,1,0,0:0:0:0:
192,192,46422,1,0,0:0:0:0:
64,192,46476,1,0,0:0:0:0:
320,192,46517,1,0,0:0:0:0:
192,192,46565,1,0,0:0:0:0:
448,192,46565,1,0,0:0:0:0:
448,192,46636,1,0,0:0:0:0:
320,192,46708,1,0,0:0:0:0:
192,192,46761,1,0,0:0:0:0:
64,192,46803,1,0,0:0:0:0:
320,192,46851,1,0,0:0:0:0:
448,192,46851,1,0,0:0:0:0:
192,192,46922,1,0,0:0:0:0:
448,192,46993,1,0,0:0:0:0:
192,192,47047,1,0,0:0:0:0:
320,192,47089,1,0,0:0:0:0:
64,192,47136,1,0,0:0:0:0:
448,192,47136,1,0,0:0:0:0:
64,192,47208,1,0,0:0:0:0:
192,192,47279,1,0,0:0:0:0:
448,192,47333,1,0,0:0:0:0:
320,192,47374,1,0,0:0:0:0:
64,192,47422,1,0,0:0:0:0:
192,192,47422,1,0,0:0:0:0:
448,192,47458,1,0,0:0:0:0:
192,192,47493,1,0,0:0:0:0:
320,192,47529,1,0,0:0:0:0:
64,192,47565,1,0,0:0:0:0:
448,192,47618,1,0,0:0:0:0:
192,192,47660,1,0,0:0:0:0:
320,192,47708,1,0,0:0:0:0:
448,192,47708,1,0,0:0:0:0:
64,192,47743,1,0,0:0:0:0:
320,192,47779,1,0,0:0:0:0:
192,192,47815,1,0,0:0:0:0:
448,192,47851,1,0,0:0:0:0:
64,192,47904,1,0,0:0:0:0:
320,192,47946,1,0,0:0:0:0:
64,192,47993,1,0,0:0:0:0:
192,192,47993,1,0,0:0:0:0:
448,192,48029,1,0,0:0:0:0:
192,192,48065,1,0,0:0:0:0:
320,192,48101,1,0,0:0:0:0:
64,192,48136,1,0,0:0:0:0:
448,192,48190,1,0,0:0:0:0:
320,192,48231,1,0,0:0:0:0:
64,192,48279,1,0,0:0:0:0:
192,192,48279,1,0,0:0:0:0:
448,192,48351,1,0,0:0:0:0:
192,192,48422,1,0,0:0:0:0:
64,192,48476,1,0,0:0:0:0:
320,192,48517,1,0,0:0:0:0:
192,192,48565,1,0,0:0:0:0:
448,192,48565,1,0,0:0:0:0:
64,192,48636,1,0,0:0:0:0:
320,192,48708,1,0,0:0:0:0:
192,192,48761,1,0,0:0:0:0:
448,192,48803,1,0,0:0:0:0:
64,192,48851,1,0,0:0:0:0:
192,192,48851,1,0,0:0:0:0:
64,192,48922,1,0,0:0:0:0:
320,192,48993,1,0,0:0:0:0:
192,192,49047,1,0,0:0:0:0:
448,192,49089,1,0,0:0:0:0:
64,192,49136,1,0,0:0:0:0:
320,192,49136,1,0,0:0:0:0:
192,192,49208,1,0,0:0:0:0:
64,192,49279,1,0,0:0:0:0:
320,192,49333,1,0,0:0:0:0:
192,192,49374,1,0,0:0:0:0:
320,192,49422,1,0,0:0:0:0:
448,192,49422,1,0,0:0:0:0:
448,192,49493,1,0,0:0:0:0:
192,192,49565,1,0,0:0:0:0:
320,192,49636,1,0,0:0:0:0:
64,192,49708,1,0,0:0:0:0:
192,192,49708,1,0,0:0:0:0:
320,192,49743,1,0,0:0:0:0:
64,192,49779,1,0,0:0:0:0:
448,192,49815,1,0,0:0:0:0:
192,192,49851,1,0,0:0:0:0:
320,192,49904,1,0,0:0:0:0:
64,192,49946,1,0,0:0:0:0:
320,192,49993,1,0,0:0:0:0:
448,192,49993,1,0,0:0:0:0:
192,192,50029,1,0,0:0:0:0:
448,192,50065,1,0,0:0:0:0:
64,192,50101,1,0,0:0:0:0:
320,192,50136,1,0,0:0:0:0:
192,192,50190,1,0,0:0:0:0:
448,192,50231,1,0,0:0:0:0:
64,192,50279,1,0,0:0:0:0:
192,192,50279,1,0,0:0:0:0:
320,192,50315,1,0,0:0:0:0:
64,192,50351,1,0,0:0:0:0:
448,192,50386,1,0,0:0:0:0:
320,192,50422,1,0,0:0:0:0:
192,192,50476,1,0,0:0:0:0:
448,192,50517,1,0,0:0:0:0:
64,192,50565,1,0,0:0:0:0:
320,192,50565,1,0,0:0:0:0:
192,192,50636,1,0,0:0:0:0:
64,192,50708,1,0,0:0:0:0:
320,192,50761,1,0,0:0:0:0:
192,192,50803,1,0,0:0:0:0:
320,192,50851,1,0,0:0:0:0:
448,192,50851,1,0,0:0:0:0:
64,192,50922,1,0,0:0:0:0:
448,192,50993,1,0,0:0:0:0:
192,192,51047,1,0,0:0:0:0:
320,192,51089,1,0,0:0:0:0:
64,192,51136,1,0,0:0:0:0:
192,192,51136,1,0,0:0:0:0:
64,192,51208,1,0,0:0:0:0:
320,192,51279,1,0,0:0:0:0:
448,192,51333,1,0,0:0:0:0:
192,192,51374,1,0,0:0:0:0:
64,192,51422,1,0,0:0:0:0:
448,192,51422,1,0,0:0:0:0:
320,192,51493,1,0,0:0:0:0:
192,192,51565,1,0,0:0:0:0:
448,192,51618,1,0,0:0:0:0:
64,192,51660,1,0,0:0:0:0:
320,192,51708,1,0,0:0:0:0:
448,192,51708,1,0,0:0:0:0:
320,192,51779,1,0,0:0:0:0:
192,192,51851,1,0,0:0:0:0:
64,192,51904,1,0,0:0:0:0:
320,192,51946,1,0,0:0:0:0:
64,192,51993,1,0,0:0:0:0:
448,192,51993,1,0,0:0:0:0:
192,192,52065,1,0,0:0:0:0:
64,192,52136,1,0,0:0:0:0:
320,192,52190,1,0,0:0:0:0:
192,192,52231,1,0,0:0:0:0:
320,192,52279,1,0,0:0:0:0:
448,192,52279,1,0,0:0:0:0:
64,192,52315,1,0,0:0:0:0:
320,192,52351,1,0,0:0:0:0:
448,192,52422,1,0,0:0:0:0:
192,192,52476,1,0,0:0:0:0:
320,192,52517,1,0,0:0:0:0:
64,192,52565,1,0,0:0:0:0:
192,192,52565,1,0,0:0:0:0:
448,192,52601,1,0,0:0:0:0:
192,192,52636,1,0,0:0:0:0:
320,192,52708,1,0,0:0:0:0:
192,192,52761,1,0,0:0:0:0:
320,192,52803,1,0,0:0:0:0:
64,192,52851,1,0,0:0:0:0:
448,192,52851,1,0,0:0:0:0:
192,192,52922,1,0,0:0:0:0:
320,192,52993,1,0,0:0:0:0:
192,192,53047,1,0,0:0:0:0:
448,192,53089,1,0,0:0:0:0:
64,192,53136,1,0,0:0:0:0:
192,192,53136,1,0,0:0:0:0:
320,192,53208,1,0,0:0:0:0:
448,192,53279,1,0,0:0:0:0:
320,192,53333,1,0,0:0:0:0:
64,192,53374,1,0,0:0:0:0:
192,192,53422,1,0,0:0:0:0:
448,192,53422,1,0,0:0:0:0:
192,192,53493,1,0,0:0:0:0:
448,192,53565,1,0,0:0:0:0:
192,192,53618,1,0,0:0:0:0:
320,192,53660,1,0,0:0:0:0:
64,192,53708,1,0,0:0:0:0:
192,192,53708,1,0,0:0:0:0:
448,192,53779,1,0,0:0:0:0:
320,192,53851,1,0,0:0:0:0:
192,192,53904,1,0,0:0:0:0:
448,192,53946,1,0,0:0:0:0:
64,192,53993,1,0,0:0:0:0:
320,192,53993,1,0,0:0:0:0:
192,192,54065,1,0,0:0:0:0:
448,192,54136,1,0,0:0:0:0:
320,192,54190,1,0,0:0:0:0:
192,192,54231,1,0,0:0:0:0:
64,192,54279,1,0,0:0:0:0:
320,192,54279,1,0,0:0:0:0:
448,192,54279,1,0,0:0:0:0:
64,192,54422,1,0,0:0:0:0:
192,192,54422,1,0,0:0:0:0:
448,192,54422,1,0,0:0:0:0:
64,192,54708,1,0,0:0:0:0:
192,192,54708,1,0,0:0:0:0:
448,192,54708,1,0,0:0:0:0:
64,192,54993,1,0,0:0:0:0:
320,192,54993,1,0,0:0:0:0:
448,192,54993,1,0,0:0:0:0:
64,192,55136,1,0,0:0:0:0:
192,192,55136,1,0,0:0:0:0:
320,192,55136,1,0,0:0:0:0:
448,192,55208,1,0,0:0:0:0:
192,192,55279,1,0,0:0:0:0:
320,192,55351,1,0,0:0:0:0:
64,192,55422,1,0,0:0:0:0:
192,192,55422,1,0,0:0:0:0:
448,192,55422,1,0,0:0:0:0:
320,192,55493,1,0,0:0:0:0:
64,192,55565,1,0,0:0:0:0:
192,192,55618,1,0,0:0:0:0:
320,192,55660,1,0,0:0:0:0:
64,192,55708,1,0,0:0:0:0:
448,192,55708,1,0,0:0:0:0:
192,192,55779,1,0,0:0:0:0:
320,192,55851,1,0,0:0:0:0:
448,192,55904,1,0,0:0:0:0:
192,192,55946,1,0,0:0:0:0:
64,192,55993,1,0,0:0:0:0:
320,192,55993,1,0,0:0:0:0:
192,192,56065,1,0,0:0:0:0:
448,192,56136,1,0,0:0:0:0:
320,192,56190,1,0,0:0:0:0:
64,192,56231,1,0,0:0:0:0:
192,192,56279,1,0,0:0:0:0:
448,192,56279,1,0,0:0:0:0:
320,192,56351,1,0,0:0:0:0:
64,192,56422,1,0,0:0:0:0:
192,192,56493,1,0,0:0:0:0:
320,192,56565,1,0,0:0:0:0:
448,192,56565,1,0,0:0:0:0:
64,192,56618,1,0,0:0:0:0:
192,192,56660,1,0,0:0:0:0:
448,192,56708,1,0,0:0:0:0:
320,192,56779,1,0,0:0:0:0:
64,192,56851,1,0,0:0:0:0:
192,192,56851,1,0,0:0:0:0:
448,192,56904,1,0,0:0:0:0:
320,192,56946,1,0,0:0:0:0:
64,192,56993,1,0,0:0:0:0:
448,192,57065,1,0,0:0:0:0:
192,192,57136,1,0,0:0:0:0:
320,192,57136,1,0,0:0:0:0:
64,192,57190,1,0,0:0:0:0:
448,192,57231,1,0,0:0:0:0:
320,192,57279,1,0,0:0:0:0:
192,192,57351,1,0,0:0:0:0:
64,192,57422,1,0,0:0:0:0:
448,192,57422,1,0,0:0:0:0:
192,192,57476,1,0,0:0:0:0:
320,192,57517,1,0,0:0:0:0:
448,192,57565,1,0,0:0:0:0:
320,192,57636,1,0,0:0:0:0:
64,192,57708,1,0,0:0:0:0:
192,192,57708,1,0,0:0:0:0:
448,192,57779,1,0,0:0:0:0:
64,192,57851,1,0,0:0:0:0:
320,192,57904,1,0,0:0:0:0:
192,192,57946,1,0,0:0:0:0:
320,192,57993,1,0,0:0:0:0:
448,192,57993,1,0,0:0:0:0:
192,192,58065,1,0,0:0:0:0:
64,192,58136,1,0,0:0:0:0:
448,192,58190,1,0,0:0:0:0:
320,192,58231,1,0,0:0:0:0:
64,192,58279,1,0,0:0:0:0:
192,192,58279,1,0,0:0:0:0:
448,192,58351,1,0,0:0:0:0:
192,192,58422,1,0,0:0:0:0:
320,192,58476,1,0,0:0:0:0:
64,192,58517,1,0,0:0:0:0:
320,192,58565,1,0,0:0:0:0:
448,192,58565,1,0,0:0:0:0:
192,192,58636,1,0,0:0:0:0:
448,192,58708,1,0,0:0:0:0:
64,192,58761,1,0,0:0:0:0:
320,192,58803,1,0,0:0:0:0:
192,192,58851,1,0,0:0:0:0:
448,192,58851,1,0,0:0:0:0:
320,192,58922,1,0,0:0:0:0:
64,192,58993,1,0,0:0:0:0:
192,192,59047,1,0,0:0:0:0:
320,192,59089,1,0,0:0:0:0:
64,192,59136,1,0,0:0:0:0:
192,192,59136,1,0,0:0:0:0:
448,192,59208,1,0,0:0:0:0:
320,192,59279,1,0,0:0:0:0:
192,192,59333,1,0,0:0:0:0:
448,192,59374,1,0,0:0:0:0:
64,192,59422,1,0,0:0:0:0:
320,192,59422,1,0,0:0:0:0:
192,192,59493,1,0,0:0:0:0:
448,192,59565,1,0,0:0:0:0:
64,192,59618,1,0,0:0:0:0:
320,192,59660,1,0,0:0:0:0:
64,192,59708,1,0,0:0:0:0:
192,192,59708,1,0,0:0:0:0:
448,192,59779,1,0,0:0:0:0:
320,192,59851,1,0,0:0:0:0:
448,192,59904,1,0,0:0:0:0:
192,192,59946,1,0,0:0:0:0:
64,192,59993,1,0,0:0:0:0:
320,192,59993,1,0,0:0:0:0:
448,192,60065,1,0,0:0:0:0:
192,192,60136,1,0,0:0:0:0:
320,192,60190,1,0,0:0:0:0:
64,192,60231,1,0,0:0:0:0:
320,192,60279,1,0,0:0:0:0:
448,192,60279,1,0,0:0:0:0:
192,192,60351,1,0,0:0:0:0:
64,192,60422,1,0,0:0:0:0:
448,192,60476,1,0,0:0:0:0:
192,192,60517,1,0,0:0:0:0:
64,192,60565,1,0,0:0:0:0:
448,192,60565,1,0,0:0:0:0:
192,192,60636,1,0,0:0:0:0:
320,192,60708,1,0,0:0:0:0:
64,192,60761,1,0,0:0:0:0:
448,192,60803,1,0,0:0:0:0:
64,192,60851,1,0,0:0:0:0:
192,192,60851,1,0,0:0:0:0:
192,192,60922,1,0,0:0:0:0:
320,192,60993,1,0,0:0:0:0:
448,192,61047,1,0,0:0:0:0:
192,192,61089,1,0,0:0:0:0:
64,192,61136,1,0,0:0:0:0:
448,192,61136,1,0,0:0:0:0:
320,192,61208,1,0,0:0:0:0:
448,192,61279,1,0,0:0:0:0:
192,192,61333,1,0,0:0:0:0:
320,192,61374,1,0,0:0:0:0:
64,192,61422,1,0,0:0:0:0:
192,192,61422,1,0,0:0:0:0:
448,192,61493,1,0,0:0:0:0:
192,192,61565,1,0,0:0:0:0:
320,192,61618,1,0,0:0:0:0:
64,192,61660,1,0,0:0:0:0:
192,192,61708,1,0,0:0:0:0:
320,192,61708,1,0,0:0:0:0:
448,192,61779,1,0,0:0:0:0:
320,192,61851,1,0,0:0:0:0:
192,192,61904,1,0,0:0:0:0:
64,192,61946,1,0,0:0:0:0:
192,192,61993,1,0,0:0:0:0:
448,192,61993,1,0,0:0:0:0:
320,192,62065,1,0,0:0:0:0:
64,192,62136,1,0,0:0:0:0:
448,192,62190,1,0,0:0:0:0:
192,192,62231,1,0,0:0:0:0:
320,192,62279,1,0,0:0:0:0:
448,192,62279,1,0,0:0:0:0:
64,192,62351,1,0,0:0:0:0:
320,192,62422,1,0,0:0:0:0:
448,192,62476,1,0,0:0:0:0:
64,192,62517,1,0,0:0:0:0:
192,192,62565,1,0,0:0:0:0:
320,192,62565,1,0,0:0:0:0:
448,192,62636,1,0,0:0:0:0:
320,192,62708,1,0,0:0:0:0:
64,192,62761,1,0,0:0:0:0:
192,192,62803,1,0,0:0:0:0:
320,192,62851,1,0,0:0:0:0:
448,192,62851,1,0,0:0:0:0:
64,192,62922,1,0,0:0:0:0:
320,192,62993,1,0,0:0:0:0:
448,192,63047,1,0,0:0:0:0:
64,192,63089,1,0,0:0:0:0:
320,192,63136,1,0,0:0:0:0:
448,192,63136,1,0,0:0:0:0:
192,192,63208,1,0,0:0:0:0:
320,192,63279,1,0,0:0:0:0:
448,192,63333,1,0,0:0:0:0:
192,192,63374,1,0,0:0:0:0:
64,192,63422,1,0,0:0:0:0:
320,192,63422,1,0,0:0:0:0:
192,192,63493,1,0,0:0:0:0:
320,192,63565,1,0,0:0:0:0:
448,192,63618,1,0,0:0:0:0:
64,192,63660,1,0,0:0:0:0:
320,192,63708,1,0,0:0:0:0:
448,192,63708,1,0,0:0:0:0:
192,192,63779,1,0,0:0:0:0:
64,192,63851,1,0,0:0:0:0:
320,192,63904,1,0,0:0:0:0:
192,192,63946,1,0,0:0:0:0:
320,192,63993,1,0,0:0:0:0:
448,192,63993,1,0,0:0:0:0:
64,192,64065,1,0,0:0:0:0:
448,192,64136,1,0,0:0:0:0:
192,192,64190,1,0,0:0:0:0:
320,192,64243,1,0,0:0:0:0:
64,192,64279,1,0,0:0:0:0:
192,192,64279,1,0,0:0:0:0:
448,192,64351,1,0,0:0:0:0:
64,192,64422,1,0,0:0:0:0:
320,192,64476,1,0,0:0:0:0:
64,192,64517,1,0,0:0:0:0:
192,192,64565,1,0,0:0:0:0:
448,192,64565,1,0,0:0:0:0:
320,192,64636,1,0,0:0:0:0:
64,192,64708,1,0,0:0:0:0:
448,192,64761,1,0,0:0:0:0:
320,192,64803,1,0,0:0:0:0:
64,192,64851,1,0,0:0:0:0:
192,192,64851,1,0,0:0:0:0:
448,192,64922,1,0,0:0:0:0:
320,192,64993,1,0,0:0:0:0:
448,192,65047,1,0,0:0:0:0:
192,192,65089,1,0,0:0:0:0:
64,192,65136,1,0,0:0:0:0:
320,192,65136,1,0,0:0:0:0:
192,192,65208,1,0,0:0:0:0:
448,192,65279,1,0,0:0:0:0:
320,192,65333,1,0,0:0:0:0:
64,192,65386,1,0,0:0:0:0:
192,192,65422,1,0,0:0:0:0:
448,192,65422,1,0,0:0:0:0:
320,192,65493,1,0,0:0:0:0:
64,192,65565,1,0,0:0:0:0:
192,192,65636,1,0,0:0:0:0:
320,192,65708,1,0,0:0:0:0:
448,192,65708,1,0,0:0:0:0:
64,192,65761,1,0,0:0:0:0:
192,192,65803,1,0,0:0:0:0:
448,192,65851,1,0,0:0:0:0:
320,192,65922,1,0,0:0:0:0:
64,192,65993,1,0,0:0:0:0:
192,192,65993,1,0,0:0:0:0:
448,192,66047,1,0,0:0:0:0:
320,192,66089,1,0,0:0:0:0:
64,192,66136,1,0,0:0:0:0:
448,192,66208,1,0,0:0:0:0:
192,192,66279,1,0,0:0:0:0:
320,192,66279,1,0,0:0:0:0:
64,192,66333,1,0,0:0:0:0:
448,192,66386,1,0,0:0:0:0:
320,192,66422,1,0,0:0:0:0:
192,192,66493,1,0,0:0:0:0:
64,192,66565,1,0,0:0:0:0:
448,192,66565,1,0,0:0:0:0:
192,192,66618,1,0,0:0:0:0:
320,192,66672,1,0,0:0:0:0:
64,192,66708,1,0,0:0:0:0:
320,192,66779,1,0,0:0:0:0:
192,192,66851,1,0,0:0:0:0:
448,192,66851,1,0,0:0:0:0:
64,192,66922,1,0,0:0:0:0:
448,192,66993,1,0,0:0:0:0:
320,192,67047,1,0,0:0:0:0:
192,192,67089,1,0,0:0:0:0:
320,192,67136,1,0,0:0:0:0:
448,192,67136,1,0,0:0:0:0:
64,192,67208,1,0,0:0:0:0:
192,192,67279,1,0,0:0:0:0:
448,192,67333,1,0,0:0:0:0:
320,192,67386,1,0,0:0:0:0:
64,192,67422,1,0,0:0:0:0:
192,192,67422,1,0,0:0:0:0:
448,192,67493,1,0,0:0:0:0:
192,192,67565,1,0,0:0:0:0:
320,192,67618,1,0,0:0:0:0:
64,192,67672,1,0,0:0:0:0:
320,192,67708,1,0,0:0:0:0:
448,192,67708,1,0,0:0:0:0:
192,192,67779,1,0,0:0:0:0:
448,192,67851,1,0,0:0:0:0:
64,192,67904,1,0,0:0:0:0:
320,192,67946,1,0,0:0:0:0:
192,192,67993,1,0,0:0:0:0:
448,192,67993,1,0,0:0:0:0:
320,192,68065,1,0,0:0:0:0:
64,192,68136,1,0,0:0:0:0:
192,192,68190,1,0,0:0:0:0:
320,192,68243,1,0,0:0:0:0:
64,192,68279,1,0,0:0:0:0:
192,192,68279,1,0,0:0:0:0:
448,192,68351,1,0,0:0:0:0:
320,192,68422,1,0,0:0:0:0:
192,192,68476,1,0,0:0:0:0:
448,192,68529,1,0,0:0:0:0:
64,192,68565,1,0,0:0:0:0:
320,192,68565,1,0,0:0:0:0:
192,192,68636,1,0,0:0:0:0:
448,192,68708,1,0,0:0:0:0:
64,192,68761,1,0,0:0:0:0:
320,192,68815,1,0,0:0:0:0:
64,192,68851,1,0,0:0:0:0:
192,192,68851,1,0,0:0:0:0:
448,192,68922,1,0,0:0:0:0:
320,192,68993,1,0,0:0:0:0:
448,192,69047,1,0,0:0:0:0:
192,192,69089,1,0,0:0:0:0:
64,192,69136,1,0,0:0:0:0:
320,192,69136,1,0,0:0:0:0:
448,192,69208,1,0,0:0:0:0:
192,192,69279,1,0,0:0:0:0:
320,192,69333,1,0,0:0:0:0:
64,192,69386,1,0,0:0:0:0:
320,192,69422,1,0,0:0:0:0:
448,192,69422,1,0,0:0:0:0:
192,192,69493,1,0,0:0:0:0:
64,192,69565,1,0,0:0:0:0:
448,192,69618,1,0,0:0:0:0:
192,192,69672,1,0,0:0:0:0:
64,192,69708,1,0,0:0:0:0:
448,192,69708,1,0,0:0:0:0:
192,192,69779,1,0,0:0:0:0:
320,192,69851,1,0,0:0:0:0:
64,192,69904,1,0,0:0:0:0:
448,192,69958,1,0,0:0:0:0:
64,192,69993,1,0,0:0:0:0:
320,192,69993,1,0,0:0:0:0:
320,192,70065,1,0,0:0:0:0:
192,192,70136,1,0,0:0:0:0:
448,192,70190,1,0,0:0:0:0:
64,192,70243,1,0,0:0:0:0:
320,192,70279,1,0,0:0:0:0:
448,192,70279,1,0,0:0:0:0:
192,192,70351,1,0,0:0:0:0:
448,192,70422,1,0,0:0:0:0:
64,192,70476,1,0,0:0:0:0:
320,192,70529,1,0,0:0:0:0:
64,192,70565,1,0,0:0:0:0:
192,192,70565,1,0,0:0:0:0:
448,192,70636,1,0,0:0:0:0:
192,192,70708,1,0,0:0:0:0:
320,192,70761,1,0,0:0:0:0:
64,192,70815,1,0,0:0:0:0:
192,192,70851,1,0,0:0:0:0:
320,192,70851,1,0,0:0:0:0:
448,192,70922,1,0,0:0:0:0:
320,192,70993,1,0,0:0:0:0:
192,192,71047,1,0,0:0:0:0:
64,192,71101,1,0,0:0:0:0:
192,192,71136,1,0,0:0:0:0:
448,192,71136,1,0,0:0:0:0:
320,192,71208,1,0,0:0:0:0:
64,192,71279,1,0,0:0:0:0:
448,192,71333,1,0,0:0:0:0:
192,192,71386,1,0,0:0:0:0:
320,192,71422,1,0,0:0:0:0:
448,192,71422,1,0,0:0:0:0:
64,192,71493,1,0,0:0:0:0:
192,192,71565,1,0,0:0:0:0:
320,192,71618,1,0,0:0:0:0:
64,192,71672,1,0,0:0:0:0:
320,192,71708,1,0,0:0:0:0:
448,192,71708,1,0,0:0:0:0:
192,192,71779,1,0,0:0:0:0:
64,192,71851,1,0,0:0:0:0:
448,192,71904,1,0,0:0:0:0:
192,192,71958,1,0,0:0:0:0:
320,192,71993,1,0,0:0:0:0:
448,192,71993,1,0,0:0:0:0:
64,192,72065,1,0,0:0:0:0:
320,192,72136,1,0,0:0:0:0:
192,192,72190,1,0,0:0:0:0:
448,192,72243,1,0,0:0:0:0:
192,192,72279,1,0,0:0:0:0:
320,192,72279,1,0,0:0:0:0:
64,192,72351,1,0,0:0:0:0:
192,192,72422,1,0,0:0:0:0:
320,192,72476,1,0,0:0:0:0:
64,192,72529,1,0,0:0:0:0:
320,192,72565,1,0,0:0:0:0:
448,192,72565,1,0,0:0:0:0:
192,192,72636,1,0,0:0:0:0:
320,192,72708,1,0,0:0:0:0:
64,192,72761,1,0,0:0:0:0:
448,192,72815,1,0,0:0:0:0:
64,192,72851,1,0,0:0:0:0:
192,192,72851,1,0,0:0:0:0:
192,192,72922,1,0,0:0:0:0:
448,192,72922,1,0,0:0:0:0:
64,192,72993,1,0,0:0:0:0:
320,192,72993,1,0,0:0:0:0:
320,192,73065,1,0,0:0:0:0:
448,192,73065,1,0,0:0:0:0:
64,192,73136,1,0,0:0:0:0:
192,192,73136,1,0,0:0:0:0:
448,192,73208,1,0,0:0:0:0:
64,192,73279,1,0,0:0:0:0:
192,192,73279,1,0,0:0:0:0:
320,192,73351,1,0,0:0:0:0:
192,192,73422,1,0,0:0:0:0:
448,192,73422,1,0,0:0:0:0:
320,192,73493,1,0,0:0:0:0:
192,192,73565,1,0,0:0:0:0:
64,192,73636,1,0,0:0:0:0:
192,192,73708,1,0,0:0:0:0:
320,192,73708,1,0,0:0:0:0:
448,192,73708,1,0,0:0:0:0:
64,192,73779,1,0,0:0:0:0:
448,192,73851,1,0,0:0:0:0:
320,192,73904,1,0,0:0:0:0:
192,192,73958,1,0,0:0:0:0:
64,192,73993,1,0,0:0:0:0:
448,192,73993,1,0,0:0:0:0:
320,192,74065,1,0,0:0:0:0:
192,192,74136,1,0,0:0:0:0:
64,192,74190,1,0,0:0:0:0:
320,192,74243,1,0,0:0:0:0:
192,192,74279,1,0,0:0:0:0:
448,192,74279,1,0,0:0:0:0:
320,192,74351,1,0,0:0:0:0:
64,192,74422,1,0,0:0:0:0:
192,192,74476,1,0,0:0:0:0:
448,192,74529,1,0,0:0:0:0:
64,192,74565,1,0,0:0:0:0:
320,192,74565,1,0,0:0:0:0:
192,192,74636,1,0,0:0:0:0:
448,192,74708,1,0,0:0:0:0:
320,192,74779,1,0,0:0:0:0:
64,192,74851,1,0,0:0:0:0:
192,192,74851,1,0,0:0:0:0:
448,192,74904,1,0,0:0:0:0:
320,192,74958,1,0,0:0:0:0:
64,192,74993,1,0,0:0:0:0:
192,192,75065,1,0,0:0:0:0:
320,192,75136,1,0,0:0:0:0:
448,192,75136,1,0,0:0:0:0:
64,192,75190,1,0,0:0:0:0:
192,192,75243,1,0,0:0:0:0:
448,192,75279,1,0,0:0:0:0:
64,192,75351,1,0,0:0:0:0:
192,192,75422,1,0,0:0:0:0:
320,192,75422,1,0,0:0:0:0:
448,192,75476,1,0,0:0:0:0:
64,192,75529,1,0,0:0:0:0:
192,192,75565,1,0,0:0:0:0:
320,192,75636,1,0,0:0:0:0:
64,192,75708,1,0,0:0:0:0:
448,192,75708,1,0,0:0:0:0:
320,192,75761,1,0,0:0:0:0:
192,192,75815,1,0,0:0:0:0:
64,192,75851,1,0,0:0:0:0:
192,192,75922,1,0,0:0:0:0:
320,192,75993,1,0,0:0:0:0:
448,192,75993,1,0,0:0:0:0:
64,192,76065,1,0,0:0:0:0:
448,192,76136,1,0,0:0:0:0:
192,192,76190,1,0,0:0:0:0:
320,192,76243,1,0,0:0:0:0:
64,192,76279,1,0,0:0:0:0:
192,192,76279,1,0,0:0:0:0:
448,192,76351,1,0,0:0:0:0:
320,192,76422,1,0,0:0:0:0:
64,192,76476,1,0,0:0:0:0:
192,192,76529,1,0,0:0:0:0:
320,192,76565,1,0,0:0:0:0:
448,192,76565,1,0,0:0:0:0:
64,192,76636,1,0,0:0:0:0:
320,192,76708,1,0,0:0:0:0:
192,192,76761,1,0,0:0:0:0:
448,192,76815,1,0,0:0:0:0:
64,192,76851,1,0,0:0:0:0:
192,192,76851,1,0,0:0:0:0:
320,192,76922,1,0,0:0:0:0:
64,192,76993,1,0,0:0:0:0:
448,192,77047,1,0,0:0:0:0:
192,192,77101,1,0,0:0:0:0:
64,192,77136,1,0,0:0:0:0:
320,192,77136,1,0,0:0:0:0:
192,192,77208,1,0,0:0:0:0:
448,192,77279,1,0,0:0:0:0:
320,192,77333,1,0,0:0:0:0:
192,192,77386,1,0,0:0:0:0:
320,192,77422,1,0,0:0:0:0:
448,192,77422,1,0,0:0:0:0:
64,192,77493,1,0,0:0:0:0:
448,192,77565,1,0,0:0:0:0:
320,192,77618,1,0,0:0:0:0:
64,192,77672,1,0,0:0:0:0:
192,192,77708,1,0,0:0:0:0:
448,192,77708,1,0,0:0:0:0:
320,192,77779,1,0,0:0:0:0:
64,192,77851,1,0,0:0:0:0:
448,192,77904,1,0,0:0:0:0:
192,192,77958,1,0,0:0:0:0:
320,192,77993,1,0,0:0:0:0:
448,192,77993,1,0,0:0:0:0:
64,192,78065,1,0,0:0:0:0:
192,192,78136,1,0,0:0:0:0:
64,192,78190,1,0,0:0:0:0:
320,192,78243,1,0,0:0:0:0:
192,192,78279,1,0,0:0:0:0:
448,192,78279,1,0,0:0:0:0:
64,192,78351,1,0,0:0:0:0:
320,192,78422,1,0,0:0:0:0:
192,192,78476,1,0,0:0:0:0:
448,192,78529,1,0,0:0:0:0:
64,192,78565,1,0,0:0:0:0:
192,192,78565,1,0,0:0:0:0:
320,192,78636,1,0,0:0:0:0:
448,192,78708,1,0,0:0:0:0:
64,192,78761,1,0,0:0:0:0:
320,192,78815,1,0,0:0:0:0:
64,192,78851,1,0,0:0:0:0:
448,192,78851,1,0,0:0:0:0:
320,192,78922,1,0,0:0:0:0:
192,192,78993,1,0,0:0:0:0:
448,192,79047,1,0,0:0:0:0:
64,192,79101,1,0,0:0:0:0:
320,192,79136,1,0,0:0:0:0:
448,192,79136,1,0,0:0:0:0:
320,192,79208,1,0,0:0:0:0:
192,192,79279,1,0,0:0:0:0:
64,192,79333,1,0,0:0:0:0:
320,192,79386,1,0,0:0:0:0:
64,192,79422,1,0,0:0:0:0:
448,192,79422,1,0,0:0:0:0:
192,192,79493,1,0,0:0:0:0:
64,192,79565,1,0,0:0:0:0:
320,192,79618,1,0,0:0:0:0:
192,192,79672,1,0,0:0:0:0:
320,192,79708,1,0,0:0:0:0:
448,192,79708,1,0,0:0:0:0:
64,192,79779,1,0,0:0:0:0:
320,192,79851,1,0,0:0:0:0:
192,192,79904,1,0,0:0:0:0:
448,192,79958,1,0,0:0:0:0:
192,192,79993,1,0,0:0:0:0:
320,192,79993,1,0,0:0:0:0:
64,192,80065,1,0,0:0:0:0:
192,192,80136,1,0,0:0:0:0:
320,192,80190,1,0,0:0:0:0:
448,192,80243,1,0,0:0:0:0:
64,192,80279,1,0,0:0:0:0:
320,192,80279,1,0,0:0:0:0:
192,192,80351,1,0,0:0:0:0:
448,192,80422,1,0,0:0:0:0:
64,192,80476,1,0,0:0:0:0:
320,192,80529,1,0,0:0:0:0:
64,192,80565,1,0,0:0:0:0:
192,192,80565,1,0,0:0:0:0:
448,192,80636,1,0,0:0:0:0:
192,192,80708,1,0,0:0:0:0:
64,192,80761,1,0,0:0:0:0:
448,192,80815,1,0,0:0:0:0:
192,192,80851,1,0,0:0:0:0:
320,192,80851,1,0,0:0:0:0:
64,192,80922,1,0,0:0:0:0:
192,192,80993,1,0,0:0:0:0:
448,192,81047,1,0,0:0:0:0:
320,192,81101,1,0,0:0:0:0:
64,192,81136,1,0,0:0:0:0:
192,192,81136,1,0,0:0:0:0:
448,192,81208,1,0,0:0:0:0:
192,192,81279,1,0,0:0:0:0:
64,192,81333,1,0,0:0:0:0:
448,192,81386,1,0,0:0:0:0:
64,192,81422,1,0,0:0:0:0:
192,192,81422,1,0,0:0:0:0:
320,192,81493,1,0,0:0:0:0:
192,192,81565,1,0,0:0:0:0:
64,192,81618,1,0,0:0:0:0:
320,192,81672,1,0,0:0:0:0:
192,192,81708,1,0,0:0:0:0:
448,192,81708,1,0,0:0:0:0:
320,192,81779,1,0,0:0:0:0:
192,192,81851,1,0,0:0:0:0:
64,192,81904,1,0,0:0:0:0:
448,192,81958,1,0,0:0:0:0:
64,192,81993,1,0,0:0:0:0:
192,192,81993,1,0,0:0:0:0:
320,192,82065,1,0,0:0:0:0:
448,192,82136,1,0,0:0:0:0:
192,192,82190,1,0,0:0:0:0:
320,192,82243,1,0,0:0:0:0:
64,192,82279,1,0,0:0:0:0:
192,192,82279,1,0,0:0:0:0:
448,192,82351,1,0,0:0:0:0:
64,192,82422,1,0,0:0:0:0:
320,192,82476,1,0,0:0:0:0:
192,192,82529,1,0,0:0:0:0:
320,192,82565,1,0,0:0:0:0:
448,192,82565,1,0,0:0:0:0:
64,192,82636,1,0,0:0:0:0:
320,192,82708,1,0,0:0:0:0:
192,192,82761,1,0,0:0:0:0:
448,192,82815,1,0,0:0:0:0:
64,192,82851,1,0,0:0:0:0:
192,192,82851,1,0,0:0:0:0:
320,192,82851,1,0,0:0:0:0:
448,192,82922,1,0,0:0:0:0:
320,192,82993,1,0,0:0:0:0:
64,192,83047,1,0,0:0:0:0:
192,192,83101,1,0,0:0:0:0:
320,192,83136,1,0,0:0:0:0:
448,192,83136,1,0,0:0:0:0:
192,192,83208,1,0,0:0:0:0:
448,192,83279,1,0,0:0:0:0:
64,192,83333,1,0,0:0:0:0:
320,192,83386,1,0,0:0:0:0:
64,192,83422,1,0,0:0:0:0:
192,192,83422,1,0,0:0:0:0:
448,192,83422,1,0,0:0:0:0:
320,192,83493,1,0,0:0:0:0:
64,192,83565,1,0,0:0:0:0:
192,192,83618,1,0,0:0:0:0:
448,192,83672,1,0,0:0:0:0:
64,192,83708,1,0,0:0:0:0:
320,192,83708,1,0,0:0:0:0:
192,192,83779,1,0,0:0:0:0:
320,192,83851,1,0,0:0:0:0:
448,192,83904,1,0,0:0:0:0:
192,192,83958,1,0,0:0:0:0:
64,192,83993,1,0,0:0:0:0:
320,192,83993,1,0,0:0:0:0:
448,192,83993,1,0,0:0:0:0:
192,192,84065,1,0,0:0:0:0:
64,192,84136,1,0,0:0:0:0:
448,192,84190,1,0,0:0:0:0:
320,192,84243,1,0,0:0:0:0:
64,192,84279,1,0,0:0:0:0:
192,192,84279,1,0,0:0:0:0:
448,192,84351,1,0,0:0:0:0:
192,192,84422,1,0,0:0:0:0:
320,192,84476,1,0,0:0:0:0:
64,192,84529,1,0,0:0:0:0:
192,192,84565,1,0,0:0:0:0:
320,192,84565,1,0,0:0:0:0:
448,192,84565,1,0,0:0:0:0:
64,192,84636,1,0,0:0:0:0:
320,192,84708,1,0,0:0:0:0:
448,192,84761,1,0,0:0:0:0:
192,192,84815,1,0,0:0:0:0:
64,192,84851,1,0,0:0:0:0:
320,192,84851,1,0,0:0:0:0:
448,192,84922,1,0,0:0:0:0:
192,192,84993,1,0,0:0:0:0:
64,192,85047,1,0,0:0:0:0:
320,192,85101,1,0,0:0:0:0:
64,192,85136,1,0,0:0:0:0:
192,192,85136,1,0,0:0:0:0:
448,192,85136,1,0,0:0:0:0:
320,192,85208,1,0,0:0:0:0:
192,192,85279,1,0,0:0:0:0:
320,192,85333,1,0,0:0:0:0:
64,192,85386,1,0,0:0:0:0:
320,192,85422,1,0,0:0:0:0:
448,192,85422,1,0,0:0:0:0:
192,192,85493,1,0,0:0:0:0:
448,192,85565,1,0,0:0:0:0:
192,192,85618,1,0,0:0:0:0:
320,192,85672,1,0,0:0:0:0:
64,192,85708,1,0,0:0:0:0:
192,192,85708,1,0,0:0:0:0:
448,192,85708,1,0,0:0:0:0:
320,192,85779,1,0,0:0:0:0:
64,192,85851,1,0,0:0:0:0:
192,192,85904,1,0,0:0:0:0:
320,192,85958,1,0,0:0:0:0:
64,192,85993,1,0,0:0:0:0:
192,192,85993,1,0,0:0:0:0:
448,192,86065,1,0,0:0:0:0:
320,192,86136,1,0,0:0:0:0:
192,192,86190,1,0,0:0:0:0:
64,192,86243,1,0,0:0:0:0:
192,192,86279,1,0,0:0:0:0:
320,192,86279,1,0,0:0:0:0:
448,192,86279,1,0,0:0:0:0:
64,192,86351,1,0,0:0:0:0:
192,192,86422,1,0,0:0:0:0:
320,192,86476,1,0,0:0:0:0:
64,192,86529,1,0,0:0:0:0:
320,192,86565,1,0,0:0:0:0:
448,192,86565,1,0,0:0:0:0:
192,192,86636,1,0,0:0:0:0:
448,192,86708,1,0,0:0:0:0:
64,192,86761,1,0,0:0:0:0:
320,192,86815,1,0,0:0:0:0:
64,192,86851,1,0,0:0:0:0:
192,192,86851,1,0,0:0:0:0:
448,192,86851,1,0,0:0:0:0:
320,192,86922,1,0,0:0:0:0:
448,192,86993,1,0,0:0:0:0:
192,192,87047,1,0,0:0:0:0:
320,192,87101,1,0,0:0:0:0:
64,192,87136,1,0,0:0:0:0:
192,192,87136,1,0,0:0:0:0:
448,192,87208,1,0,0:0:0:0:
192,192,87279,1,0,0:0:0:0:
320,192,87333,1,0,0:0:0:0:
64,192,87386,1,0,0:0:0:0:
192,192,87422,1,0,0:0:0:0:
320,192,87422,1,0,0:0:0:0:
448,192,87422,1,0,0:0:0:0:
64,192,87493,1,0,0:0:0:0:
320,192,87565,1,0,0:0:0:0:
448,192,87565,1,0,0:0:0:0:
192,192,87618,1,0,0:0:0:0:
320,192,87672,1,0,0:0:0:0:
64,192,87708,1,0,0:0:0:0:
192,192,87708,1,0,0:0:0:0:
448,192,87779,1,0,0:0:0:0:
64,192,87851,1,0,0:0:0:0:
320,192,87851,1,0,0:0:0:0:
192,192,87904,1,0,0:0:0:0:
320,192,87958,1,0,0:0:0:0:
64,192,88011,1,0,0:0:0:0:
448,192,88011,1,0,0:0:0:0:
192,192,88065,1,0,0:0:0:0:
320,192,88136,1,0,0:0:0:0:
448,192,88136,1,0,0:0:0:0:
64,192,88190,1,0,0:0:0:0:
320,192,88243,1,0,0:0:0:0:
192,192,88279,1,0,0:0:0:0:
448,192,88279,1,0,0:0:0:0:
64,192,88351,1,0,0:0:0:0:
192,192,88422,1,0,0:0:0:0:
320,192,88422,1,0,0:0:0:0:
448,192,88476,1,0,0:0:0:0:
192,192,88529,1,0,0:0:0:0:
64,192,88565,1,0,0:0:0:0:
320,192,88565,1,0,0:0:0:0:
192,192,88636,1,0,0:0:0:0:
320,192,88708,1,0,0:0:0:0:
448,192,88708,1,0,0:0:0:0:
64,192,88761,1,0,0:0:0:0:
448,192,88815,1,0,0:0:0:0:
192,192,88851,1,0,0:0:0:0:
320,192,88851,1,0,0:0:0:0:
64,192,88922,1,0,0:0:0:0:
192,192,89011,1,0,0:0:0:0:
448,192,89011,1,0,0:0:0:0:
320,192,89047,1,0,0:0:0:0:
192,192,89101,1,0,0:0:0:0:
64,192,89154,1,0,0:0:0:0:
320,192,89154,1,0,0:0:0:0:
448,192,89208,1,0,0:0:0:0:
64,192,89279,1,0,0:0:0:0:
192,192,89279,1,0,0:0:0:0:
320,192,89333,1,0,0:0:0:0:
192,192,89386,1,0,0:0:0:0:
64,192,89422,1,0,0:0:0:0:
448,192,89422,1,0,0:0:0:0:
320,192,89511,1,0,0:0:0:0:
64,192,89565,1,0,0:0:0:0:
192,192,89565,1,0,0:0:0:0:
448,192,89618,1,0,0:0:0:0:
192,192,89672,1,0,0:0:0:0:
320,192,89708,1,0,0:0:0:0:
448,192,89708,1,0,0:0:0:0:
64,192,89779,1,0,0:0:0:0:
320,192,89779,1,0,0:0:0:0:
192,192,89851,1,0,0:0:0:0:
448,192,89851,1,0,0:0:0:0:
64,192,89922,1,0,0:0:0:0:
192,192,89922,1,0,0:0:0:0:
320,192,90011,1,0,0:0:0:0:
448,192,90011,1,0,0:0:0:0:
64,192,90065,1,0,0:0:0:0:
448,192,90065,1,0,0:0:0:0:
192,192,90154,1,0,0:0:0:0:
320,192,90154,1,0,0:0:0:0:
64,192,90208,1,0,0:0:0:0:
192,192,90208,1,0,0:0:0:0:
320,192,90279,1,0,0:0:0:0:
448,192,90279,1,0,0:0:0:0:
64,192,90351,1,0,0:0:0:0:
320,192,90351,1,0,0:0:0:0:
192,192,90422,1,0,0:0:0:0:
448,192,90422,1,0,0:0:0:0:
320,192,90511,1,0,0:0:0:0:
448,192,90511,1,0,0:0:0:0:
64,192,90565,1,0,0:0:0:0:
192,192,90565,1,0,0:0:0:0:
192,192,90654,1,0,0:0:0:0:
320,192,90654,1,0,0:0:0:0:
64,192,90708,1,0,0:0:0:0:
448,192,90708,1,0,0:0:0:0:
320,192,90779,1,0,0:0:0:0:
448,192,90779,1,0,0:0:0:0:
64,192,90851,1,0,0:0:0:0:
320,192,90904,1,0,0:0:0:0:
192,192,90958,1,0,0:0:0:0:
448,192,91011,1,0,0:0:0:0:
320,192,91047,1,0,0:0:0:0:
448,192,91101,1,0,0:0:0:0:
64,192,91154,1,0,0:0:0:0:
192,192,91184,1,0,0:0:0:0:
320,192,91208,1,0,0:0:0:0:
448,192,91255,1,0,0:0:0:0:
64,192,91279,1,0,0:0:0:0:
320,192,91327,1,0,0:0:0:0:
192,192,91351,1,0,0:0:0:0:
448,192,91398,1,0,0:0:0:0:
64,192,91422,1,0,0:0:0:0:
192,192,91458,1,0,0:0:0:0:
320,192,91493,1,0,0:0:0:0:
448,192,91517,1,0,0:0:0:0:
64,192,91547,1,0,0:0:0:0:
192,192,91565,1,0,0:0:0:0:
320,192,91601,1,0,0:0:0:0:
448,192,91636,1,0,0:0:0:0:
64,192,91660,1,0,0:0:0:0:
192,192,91690,1,0,0:0:0:0:
320,192,91708,1,0,0:0:0:0:
448,192,91743,1,0,0:0:0:0:
64,192,91761,1,0,0:0:0:0:
192,192,91779,1,0,0:0:0:0:
320,192,91815,1,0,0:0:0:0:
448,192,91833,1,0,0:0:0:0:
64,192,91851,1,0,0:0:0:0:
192,192,91886,1,0,0:0:0:0:
320,192,91904,1,0,0:0:0:0:
448,192,91922,1,0,0:0:0:0:
64,192,91958,1,0,0:0:0:0:
192,192,91976,1,0,0:0:0:0:
320,192,92011,1,0,0:0:0:0:
448,192,92011,1,0,0:0:0:0:
64,192,92047,1,0,0:0:0:0:
320,192,92101,1,0,0:0:0:0:
192,192,92154,1,0,0:0:0:0:
448,192,92208,1,0,0:0:0:0:
320,192,92297,1,0,0:0:0:0:
192,192,92351,1,0,0:0:0:0:
64,192,92422,1,0,0:0:0:0:
320,192,92422,1,0,0:0:0:0:
448,192,92422,1,0,0:0:0:0:
192,192,92476,1,0,0:0:0:0:
320,192,92529,1,0,0:0:0:0:
64,192,92565,1,0,0:0:0:0:
320,192,92654,1,0,0:0:0:0:
192,192,92708,1,0,0:0:0:0:
64,192,92797,1,0,0:0:0:0:
320,192,92851,1,0,0:0:0:0:
448,192,92851,1,0,0:0:0:0:
192,192,92922,1,0,0:0:0:0:
320,192,93011,1,0,0:0:0:0:
64,192,93065,1,0,0:0:0:0:
192,192,93154,1,0,0:0:0:0:
320,192,93154,1,0,0:0:0:0:
448,192,93154,1,0,0:0:0:0:
64,192,93190,1,0,0:0:0:0:
320,192,93243,1,0,0:0:0:0:
192,192,93297,1,0,0:0:0:0:
448,192,93351,1,0,0:0:0:0:
64,192,93440,1,0,0:0:0:0:
320,192,93511,1,0,0:0:0:0:
64,192,93565,1,0,0:0:0:0:
192,192,93565,1,0,0:0:0:0:
448,192,93565,1,0,0:0:0:0:
320,192,93618,1,0,0:0:0:0:
64,192,93672,1,0,0:0:0:0:
448,192,93708,1,0,0:0:0:0:
320,192,93797,1,0,0:0:0:0:
64,192,93851,1,0,0:0:0:0:
192,192,93940,1,0,0:0:0:0:
448,192,94011,1,0,0:0:0:0:
320,192,94041,1,0,0:0:0:0:
64,192,94065,1,0,0:0:0:0:
448,192,94154,1,0,0:0:0:0:
192,192,94208,1,0,0:0:0:0:
64,192,94297,1,0,0:0:0:0:
320,192,94297,1,0,0:0:0:0:
448,192,94297,1,0,0:0:0:0:
192,192,94333,1,0,0:0:0:0:
320,192,94386,1,0,0:0:0:0:
64,192,94440,1,0,0:0:0:0:
192,192,94476,1,0,0:0:0:0:
320,192,94529,1,0,0:0:0:0:
448,192,94583,1,0,0:0:0:0:
192,192,94654,1,0,0:0:0:0:
64,192,94708,1,0,0:0:0:0:
320,192,94708,1,0,0:0:0:0:
448,192,94708,1,0,0:0:0:0:
192,192,94761,1,0,0:0:0:0:
448,192,94815,1,0,0:0:0:0:
64,192,94851,1,0,0:0:0:0:
192,192,94904,1,0,0:0:0:0:
320,192,94958,1,0,0:0:0:0:
448,192,95011,1,0,0:0:0:0:
64,192,95083,1,0,0:0:0:0:
320,192,95154,1,0,0:0:0:0:
192,192,95208,1,0,0:0:0:0:
448,192,95297,1,0,0:0:0:0:
192,192,95351,1,0,0:0:0:0:
64,192,95440,1,0,0:0:0:0:
320,192,95440,1,0,0:0:0:0:
448,192,95440,1,0,0:0:0:0:
192,192,95476,1,0,0:0:0:0:
320,192,95529,1,0,0:0:0:0:
64,192,95583,1,0,0:0:0:0:
448,192,95618,1,0,0:0:0:0:
320,192,95672,1,0,0:0:0:0:
192,192,95726,1,0,0:0:0:0:
320,192,95797,1,0,0:0:0:0:
64,192,95851,1,0,0:0:0:0:
192,192,95851,1,0,0:0:0:0:
448,192,95851,1,0,0:0:0:0:
320,192,95904,1,0,0:0:0:0:
64,192,95958,1,0,0:0:0:0:
448,192,96011,1,0,0:0:0:0:
320,192,96047,1,0,0:0:0:0:
192,192,96101,1,0,0:0:0:0:
64,192,96154,1,0,0:0:0:0:
320,192,96226,1,0,0:0:0:0:
192,192,96297,1,0,0:0:0:0:
64,192,96327,1,0,0:0:0:0:
448,192,96351,1,0,0:0:0:0:
320,192,96440,1,0,0:0:0:0:
64,192,96511,1,0,0:0:0:0:
192,192,96583,1,0,0:0:0:0:
320,192,96583,1,0,0:0:0:0:
448,192,96583,1,0,0:0:0:0:
64,192,96618,1,0,0:0:0:0:
320,192,96672,1,0,0:0:0:0:
192,192,96726,1,0,0:0:0:0:
64,192,96797,1,0,0:0:0:0:
320,192,96868,1,0,0:0:0:0:
448,192,96868,1,0,0:0:0:0:
192,192,96940,1,0,0:0:0:0:
64,192,97011,1,0,0:0:0:0:
320,192,97011,1,0,0:0:0:0:
448,192,97011,1,0,0:0:0:0:
192,192,97047,1,0,0:0:0:0:
448,192,97101,1,0,0:0:0:0:
64,192,97154,1,0,0:0:0:0:
192,192,97190,1,0,0:0:0:0:
320,192,97243,1,0,0:0:0:0:
64,192,97297,1,0,0:0:0:0:
192,192,97297,1,0,0:0:0:0:
448,192,97368,1,0,0:0:0:0:
192,192,97440,1,0,0:0:0:0:
320,192,97511,1,0,0:0:0:0:
64,192,97583,1,0,0:0:0:0:
448,192,97654,1,0,0:0:0:0:
64,192,97726,1,0,0:0:0:0:
192,192,97726,1,0,0:0:0:0:
320,192,97726,1,0,0:0:0:0:
448,192,97761,1,0,0:0:0:0:
192,192,97815,1,0,0:0:0:0:
320,192,97868,1,0,0:0:0:0:
448,192,97940,1,0,0:0:0:0:
64,192,98011,1,0,0:0:0:0:
192,192,98011,1,0,0:0:0:0:
320,192,98083,1,0,0:0:0:0:
64,192,98154,1,0,0:0:0:0:
192,192,98154,1,0,0:0:0:0:
448,192,98154,1,0,0:0:0:0:
320,192,98190,1,0,0:0:0:0:
192,192,98243,1,0,0:0:0:0:
448,192,98297,1,0,0:0:0:0:
320,192,98333,1,0,0:0:0:0:
192,192,98386,1,0,0:0:0:0:
64,192,98440,1,0,0:0:0:0:
448,192,98511,1,0,0:0:0:0:
64,192,98583,1,0,0:0:0:0:
192,192,98583,1,0,0:0:0:0:
320,192,98612,1,0,0:0:0:0:
192,192,98654,1,0,0:0:0:0:
448,192,98654,1,0,0:0:0:0:
64,192,98726,1,0,0:0:0:0:
320,192,98726,1,0,0:0:0:0:
320,192,98797,1,0,0:0:0:0:
448,192,98797,1,0,0:0:0:0:
64,192,98868,1,0,0:0:0:0:
192,192,98868,1,0,0:0:0:0:
320,192,98904,1,0,0:0:0:0:
192,192,98958,1,0,0:0:0:0:
448,192,99011,1,0,0:0:0:0:
192,192,99083,1,0,0:0:0:0:
64,192,99154,1,0,0:0:0:0:
320,192,99154,1,0,0:0:0:0:
64,192,99297,1,0,0:0:0:0:
192,192,99297,1,0,0:0:0:0:
448,192,99297,1,0,0:0:0:0:
320,192,99333,1,0,0:0:0:0:
192,192,99386,1,0,0:0:0:0:
448,192,99440,1,0,0:0:0:0:
64,192,99476,1,0,0:0:0:0:
320,192,99529,1,0,0:0:0:0:
192,192,99583,1,0,0:0:0:0:
448,192,99618,1,0,0:0:0:0:
64,192,99726,1,0,0:0:0:0:
320,192,99726,1,0,0:0:0:0:
320,192,99797,1,0,0:0:0:0:
448,192,99797,1,0,0:0:0:0:
64,192,99868,1,0,0:0:0:0:
192,192,99868,1,0,0:0:0:0:
192,192,99940,1,0,0:0:0:0:
320,192,99940,1,0,0:0:0:0:
64,192,100011,1,0,0:0:0:0:
448,192,100011,1,0,0:0:0:0:
448,192,100154,1,0,0:0:0:0:
192,192,100297,1,0,0:0:0:0:
192,192,100440,1,0,0:0:0:0:
320,192,100583,1,0,0:0:0:0:
320,192,100726,1,0,0:0:0:0:
64,192,100868,1,0,0:0:0:0:
64,192,101011,1,0,0:0:0:0:
448,192,101041,1,0,0:0:0:0:
