osu file format v14

[General]
AudioFilename: audio.mp3
AudioLeadIn: 0
PreviewTime: 59430
Countdown: 1
SampleSet: Normal
StackLeniency: 0.4
Mode: 0
LetterboxInBreaks: 0
WidescreenStoryboard: 1

[Editor]
DistanceSpacing: 0.7
BeatDivisor: 4
GridSize: 4
TimelineZoom: 2.2

[Metadata]
Title:Stereo Sayan 3D
TitleUnicode:Stereo Sayan 3D
Artist:fartwad
ArtistUnicode:fartwad
Creator:Rebanto
Version:remap
Source:
Tags:tyler1 subsound anglesim dragonball z stereo sayan michael calfan resurrection fartwad
BeatmapID:1153404
BeatmapSetID:486007

[Difficulty]
HPDrainRate:5
CircleSize:4
OverallDifficulty:8
ApproachRate:10
SliderMultiplier:2.4
SliderTickRate:1

[Events]
//Background and Video events
0,0,"taikonato.png",0,0
//Break Periods
2,89630,110043
//Storyboard Layer 0 (Background)
//Storyboard Layer 1 (Fail)
//Storyboard Layer 2 (Pass)
//Storyboard Layer 3 (Foreground)
//Storyboard Sound Samples

[TimingPoints]
6930.12255798919,468.749999999999,4,1,0,100,1,0
59430,-55.5555555555556,4,1,0,100,0,1
89430,-55.5555555555556,4,1,0,100,0,0
111918,-100,4,1,0,100,0,0
141872,418.110041841004,4,1,0,100,1,0
141872,-50,4,1,0,100,0,1
168631,-50,4,1,0,100,0,0

[HitObjects]
368,176,59430,6,0,P|324:112|240:108,1,107.999996704102,6|0,0:0|0:0,0:0:0:0:
104,172,59664,1,0,0:0:0:0:
308,264,59781,2,0,L|436:272,1,107.999996704102,0|10,0:0|0:0,0:0:0:0:
176,320,60016,2,0,L|68:326,1,107.999996704102
340,196,60250,6,0,P|348:112|332:60,1,107.999996704102,0|2,0:0|0:0,0:0:0:0:
120,24,60484,1,0,0:0:0:0:
40,132,60601,2,0,P|33:185|43:238,1,107.999996704102
404,312,60836,1,10,0:0:0:0:
392,124,60953,1,0,0:0:0:0:
196,136,61070,1,0,0:0:0:0:
204,324,61187,1,0,0:0:0:0:
488,356,61305,6,0,P|488:276|460:236,1,107.999996704102,2|0,0:0|0:0,0:0:0:0:
360,132,61539,1,0,0:0:0:0:
248,360,61656,2,0,L|380:356,1,107.999996704102,0|8,0:0|0:0,0:0:0:0:
400,188,61891,2,0,L|292:191,1,107.999996704102
128,352,62125,6,0,P|92:268|116:200,1,107.999996704102,0|2,0:0|0:0,0:0:0:0:
160,128,62359,1,0,0:0:0:0:
300,276,62476,2,0,L|172:268,1,107.999996704102
380,32,62711,1,8,0:0:0:0:
424,204,62828,1,0,0:0:0:0:
244,248,62945,1,0,0:0:0:0:
200,76,63062,1,0,0:0:0:0:
468,32,63180,6,0,L|464:144,1,107.999996704102,2|0,0:0|0:0,0:0:0:0:
388,296,63414,1,0,0:0:0:0:
136,152,63531,2,0,P|184:84|260:60,1,107.999996704102,0|8,0:0|0:0,0:0:0:0:
304,336,63766,2,0,P|200:328|148:280,1,107.999996704102
52,100,64000,6,0,L|56:240,1,107.999996704102,0|2,0:0|0:0,0:0:0:0:
60,352,64234,1,0,0:0:0:0:
264,104,64351,2,0,P|228:76|124:76,1,107.999996704102
152,240,64586,1,8,0:0:0:0:
292,344,64703,1,0,0:0:0:0:
404,208,64820,1,0,0:0:0:0:
264,104,64937,1,0,0:0:0:0:
100,328,65055,6,0,P|188:332|248:304,1,107.999996704102,2|0,0:0|0:0,0:0:0:0:
244,184,65289,1,0,0:0:0:0:
32,80,65406,2,0,L|40:208,1,107.999996704102,0|8,0:0|0:0,0:0:0:0:
196,116,65641,2,0,L|189:8,1,107.999996704102
332,200,65875,6,0,P|276:264|200:272,1,107.999996704102,0|2,0:0|0:0,0:0:0:0:
96,256,66109,1,0,0:0:0:0:
136,36,66226,2,0,L|284:68,1,107.999996704102
392,116,66461,1,8,0:0:0:0:
196,224,66578,1,0,0:0:0:0:
388,344,66695,1,0,0:0:0:0:
392,116,66812,1,0,0:0:0:0:
248,328,66930,6,0,P|180:332|124:312,1,107.999996704102,2|0,0:0|0:0,0:0:0:0:
64,196,67164,1,0,0:0:0:0:
320,88,67281,2,0,L|312:224,1,107.999996704102,0|8,0:0|0:0,0:0:0:0:
196,224,67516,2,0,L|202:116,1,107.999996704102
417,163,67750,6,0,L|424:56,1,107.999996704102,0|2,0:0|0:0,0:0:0:0:
244,36,67984,1,0,0:0:0:0:
400,248,68101,2,0,P|472:236|516:188,1,107.999996704102
476,40,68336,1,8,0:0:0:0:
276,56,68453,1,0,0:0:0:0:
296,252,68570,1,0,0:0:0:0:
496,236,68687,1,0,0:0:0:0:
272,152,68805,6,0,L|136:144,1,107.999996704102,2|0,0:0|0:0,0:0:0:0:
96,248,69039,1,0,0:0:0:0:
368,188,69156,2,0,P|373:134|353:85,1,107.999996704102,0|8,0:0|0:0,0:0:0:0:
208,224,69391,2,0,P|202:277|222:326,1,107.999996704102
440,300,69625,6,0,P|352:284|300:228,1,107.999996704102,0|2,0:0|0:0,0:0:0:0:
272,152,69859,1,0,0:0:0:0:
472,44,69976,2,0,L|464:188,1,107.999996704102
404,276,70211,1,8,0:0:0:0:
340,156,70328,1,0,0:0:0:0:
264,268,70445,1,0,0:0:0:0:
200,148,70562,1,0,0:0:0:0:
128,256,70680,6,0,L|76:364,1,107.999996704102,2|0,0:0|0:0,0:0:0:0:
320,320,70914,2,0,L|428:372,1,107.999996704102
384,128,71148,2,0,L|430:30,1,107.999996704102,8|0,0:0|0:0,0:0:0:0:
192,64,71382,2,0,L|94:17,1,107.999996704102
52,284,71617,6,0,P|128:340|200:320,1,107.999996704102,2|0,0:0|0:0,0:0:0:0:
348,396,71851,2,0,P|404:320|384:248,1,107.999996704102
404,73,72086,2,0,P|388:22|348:-11,1,107.999996704102,8|0,0:0|0:0,0:0:0:0:
137,43,72320,2,0,P|86:59|52:99,1,107.999996704102
300,260,72555,6,0,L|296:140,1,107.999996704102,2|0,0:0|0:0,0:0:0:0:
216,64,72789,1,0,0:0:0:0:
240,320,72906,2,0,P|276:340|376:316,1,107.999996704102,0|8,0:0|0:0,0:0:0:0:
392,104,73141,2,0,P|356:125|328:232,1,107.999996704102
452,324,73375,6,0,P|429:275|438:223,1,107.999996704102,0|2,0:0|0:0,0:0:0:0:
496,80,73609,1,0,0:0:0:0:
324,182,73726,2,0,P|256:136|248:76,1,107.999996704102
392,32,73961,1,8,0:0:0:0:
384,252,74078,1,0,0:0:0:0:
168,244,74195,1,0,0:0:0:0:
176,24,74312,1,0,0:0:0:0:
224,316,74430,6,0,P|188:328|100:308,1,107.999996704102,2|0,0:0|0:0,0:0:0:0:
96,152,74664,1,0,0:0:0:0:
308,252,74781,2,0,L|316:376,1,107.999996704102,0|8,0:0|0:0,0:0:0:0:
128,232,75016,2,0,L|134:124,1,107.999996704102
320,32,75250,6,0,P|240:68|216:144,1,107.999996704102,0|2,0:0|0:0,0:0:0:0:
232,208,75484,1,0,0:0:0:0:
436,124,75601,2,0,L|428:16,1,107.999996704102
148,124,75836,1,8,0:0:0:0:
160,328,75953,1,0,0:0:0:0:
360,320,76070,1,0,0:0:0:0:
348,116,76187,1,0,0:0:0:0:
72,84,76305,6,0,P|68:152|140:228,1,107.999996704102,2|0,0:0|0:0,0:0:0:0:
208,236,76539,1,0,0:0:0:0:
280,28,76656,2,0,L|120:20,1,107.999996704102,0|8,0:0|0:0,0:0:0:0:
240,164,76891,2,0,L|347:158,1,107.999996704102
488,236,77125,6,0,P|456:284|364:304,1,107.999996704102,0|2,0:0|0:0,0:0:0:0:
280,256,77359,1,0,0:0:0:0:
400,96,77476,2,0,L|520:112,1,107.999996704102
344,272,77711,1,8,0:0:0:0:
168,172,77828,1,0,0:0:0:0:
272,0,77945,1,0,0:0:0:0:
448,100,78062,1,0,0:0:0:0:
368,356,78180,6,0,P|288:332|244:260,1,107.999996704102,2|0,0:0|0:0,0:0:0:0:
260,104,78414,1,0,0:0:0:0:
451,260,78531,2,0,L|307:276,1,107.999996704102,0|8,0:0|0:0,0:0:0:0:
120,168,78766,2,0,L|227:179,1,107.999996704102
444,176,79000,6,0,P|440:60|428:44,1,107.999996704102,0|2,0:0|0:0,0:0:0:0:
344,16,79234,1,0,0:0:0:0:
264,256,79351,2,0,L|384:248,1,107.999996704102
308,80,79586,1,8,0:0:0:0:
108,136,79703,1,0,0:0:0:0:
172,336,79820,1,0,0:0:0:0:
372,280,79937,1,0,0:0:0:0:
252,32,80055,6,0,P|192:64|160:152,1,107.999996704102,2|0,0:0|0:0,0:0:0:0:
168,264,80289,1,0,0:0:0:0:
368,136,80406,2,0,P|296:112|176:152,1,107.999996704102,0|8,0:0|0:0,0:0:0:0:
324,336,80641,2,0,L|456:332,1,107.999996704102
484,112,80875,6,0,P|500:192|468:264,1,107.999996704102,0|2,0:0|0:0,0:0:0:0:
348,260,81109,1,0,0:0:0:0:
296,56,81226,2,0,L|428:40,1,107.999996704102
376,184,81461,1,8,0:0:0:0:
204,300,81578,1,0,0:0:0:0:
96,140,81695,1,0,0:0:0:0:
268,24,81812,1,0,0:0:0:0:
460,192,81930,6,0,P|428:256|356:264,1,107.999996704102,2|0,0:0|0:0,0:0:0:0:
264,232,82164,1,0,0:0:0:0:
336,40,82281,2,0,L|468:48,1,107.999996704102,0|8,0:0|0:0,0:0:0:0:
264,152,82516,2,0,L|156:145,1,107.999996704102
256,308,82750,6,0,L|363:314,1,107.999996704102,0|2,0:0|0:0,0:0:0:0:
448,208,82984,1,0,0:0:0:0:
269,44,83101,2,0,L|261:212,1,107.999996704102
320,348,83336,1,8,0:0:0:0:
448,208,83453,1,0,0:0:0:0:
320,348,83570,1,0,0:0:0:0:
448,208,83687,1,0,0:0:0:0:
320,348,83805,6,0,L|180:356,1,107.999996704102,2|0,0:0|0:0,0:0:0:0:
112,276,84039,1,0,0:0:0:0:
336,144,84156,2,0,P|356:220|332:284,1,107.999996704102,0|8,0:0|0:0,0:0:0:0:
160,148,84391,2,0,P|248:160|292:204,1,107.999996704102
160,360,84625,6,0,P|224:292|224:220,1,107.999996704102,0|2,0:0|0:0,0:0:0:0:
84,96,84859,1,0,0:0:0:0:
24,276,84976,2,0,L|184:284,1,107.999996704102
292,224,85211,1,8,0:0:0:0:
232,48,85328,1,0,0:0:0:0:
292,224,85445,1,0,0:0:0:0:
232,48,85562,1,0,0:0:0:0:
292,224,85680,6,0,P|392:188|420:124,1,107.999996704102,2|0,0:0|0:0,0:0:0:0:
380,52,85914,1,0,0:0:0:0:
192,164,86031,2,0,L|184:320,1,107.999996704102,0|8,0:0|0:0,0:0:0:0:
360,336,86266,2,0,L|365:228,1,107.999996704102
292,44,86500,6,0,P|372:132|424:116,1,107.999996704102,0|2,0:0|0:0,0:0:0:0:
464,48,86734,1,0,0:0:0:0:
232,128,86851,2,0,L|240:296,1,107.999996704102
432,292,87086,1,8,0:0:0:0:
372,136,87203,1,0,0:0:0:0:
432,292,87320,1,0,0:0:0:0:
372,136,87437,1,0,0:0:0:0:
432,292,87555,6,0,P|344:352|336:368,1,107.999996704102,2|0,0:0|0:0,0:0:0:0:
156,368,87789,2,0,P|96:280|80:272,1,107.999996704102
80,91,88023,2,0,P|129:72|166:33,1,107.999996704102,8|0,0:0|0:0,0:0:0:0:
356,16,88257,2,0,P|375:65|414:102,1,107.999996704102
384,348,88492,6,0,P|330:348|282:371,1,107.999996704102,2|0,0:0|0:0,0:0:0:0:
99,320,88726,2,0,P|99:266|76:218,1,107.999996704102
172,68,88961,5,8,0:0:0:0:
340,316,89078,1,0,0:0:0:0:
380,108,89195,5,0,0:0:0:0:
132,276,89312,1,0,0:0:0:0:
264,120,89430,5,2,0:0:0:0:
232,268,111930,6,0,L|224:128,1,120,2|0,0:0|0:0,0:0:0:0:
225,148,112281,1,0,0:0:0:0:
124,212,112516,1,0,0:0:0:0:
176,44,112750,2,0,L|312:52,1,120
295,51,113101,1,0,0:0:0:0:
332,212,113336,1,0,0:0:0:0:
108,128,113570,1,0,0:0:0:0:
436,148,113805,6,0,P|444:84|412:36,1,120,2|0,0:0|0:0,0:0:0:0:
415,39,114156,1,0,0:0:0:0:
276,80,114391,1,0,0:0:0:0:
448,228,114625,2,0,L|312:220,1,120
328,220,114976,1,0,0:0:0:0:
176,144,115211,1,0,0:0:0:0:
204,356,115445,1,0,0:0:0:0:
284,128,115680,6,0,P|288:64|252:16,1,120,2|0,0:0|0:0,0:0:0:0:
257,19,116031,1,0,0:0:0:0:
96,200,116266,1,0,0:0:0:0:
356,184,116500,2,0,L|500:200,1,120
475,197,116851,1,0,0:0:0:0:
344,324,117086,1,0,0:0:0:0:
300,76,117320,1,0,0:0:0:0:
168,184,117555,6,0,L|176:316,1,120,2|0,0:0|0:0,0:0:0:0:
175,303,117906,1,0,0:0:0:0:
296,200,118141,1,0,0:0:0:0:
48,180,118375,2,0,P|68:112|128:80,1,120
106,85,118726,1,0,0:0:0:0:
272,32,118961,1,0,0:0:0:0:
340,216,119195,1,0,0:0:0:0:
456,32,119430,6,0,P|380:80|376:148,1,120,2|0,0:0|0:0,0:0:0:0:
372,104,119781,1,0,0:0:0:0:
448,268,120016,1,0,0:0:0:0:
276,36,120250,2,0,L|268:184,1,120
269,155,120601,1,0,0:0:0:0:
148,72,120836,1,0,0:0:0:0:
208,320,121070,1,0,0:0:0:0:
444,304,121305,6,0,P|376:260|308:268,1,120,2|0,0:0|0:0,0:0:0:0:
339,258,121656,1,0,0:0:0:0:
460,168,121891,1,0,0:0:0:0:
208,224,122125,2,0,L|80:232,1,120
88,231,122476,1,0,0:0:0:0:
184,100,122711,1,0,0:0:0:0:
276,304,122945,1,0,0:0:0:0:
88,132,123180,6,0,P|96:56|128:16,1,120,2|0,0:0|0:0,0:0:0:0:
120,22,123531,1,0,0:0:0:0:
220,256,123766,1,0,0:0:0:0:
340,84,124000,2,0,L|184:92,1,120
220,90,124351,1,0,0:0:0:0:
392,232,124586,1,0,0:0:0:0:
144,168,124820,1,0,0:0:0:0:
252,344,125055,5,2,0:0:0:0:
104,80,125289,1,0,0:0:0:0:
104,80,125406,1,0,0:0:0:0:
408,80,125641,1,0,0:0:0:0:
104,304,125875,5,0,0:0:0:0:
252,40,126109,1,0,0:0:0:0:
252,40,126226,1,0,0:0:0:0:
408,304,126461,1,0,0:0:0:0:
104,80,126695,1,0,0:0:0:0:
408,80,126930,1,2,0:0:0:0:
408,80,128805,5,2,0:0:0:0:
408,80,130680,5,2,0:0:0:0:
408,80,132555,5,2,0:0:0:0:
408,80,134430,5,2,0:0:0:0:
420,196,134664,1,0,0:0:0:0:
420,196,134781,1,0,0:0:0:0:
292,88,135016,1,0,0:0:0:0:
296,204,135250,1,0,0:0:0:0:
172,96,135484,1,0,0:0:0:0:
172,96,135601,1,0,0:0:0:0:
172,208,135836,1,0,0:0:0:0:
60,96,136070,1,0,0:0:0:0:
60,212,136305,5,2,0:0:0:0:
68,328,136539,1,0,0:0:0:0:
68,328,136656,1,0,0:0:0:0:
172,208,136891,1,0,0:0:0:0:
176,328,137125,1,0,0:0:0:0:
296,204,137359,1,0,0:0:0:0:
296,204,137476,1,0,0:0:0:0:
304,324,137711,1,0,0:0:0:0:
412,200,137945,1,0,0:0:0:0:
424,320,138180,5,2,0:0:0:0:
256,192,138297,12,0,141461,0:0:0:0:
120,352,141872,6,0,L|108:216,1,120,2|0,0:0|0:0,0:0:0:0:
96,112,142081,1,0,0:0:0:0:
316,20,142185,2,0,P|336:144|268:208,1,120,0|10,0:0|0:0,0:0:0:0:
204,332,142394,2,0,P|201:272|228:219,1,120
384,232,142603,6,0,P|326:248|285:290,1,120,0|2,0:0|0:0,0:0:0:0:
464,316,142812,1,0,0:0:0:0:
460,88,142917,2,0,L|312:80,1,120
84,56,143126,2,0,L|76:196,1,120,10|0,0:0|0:0,0:0:0:0:
248,228,143335,2,0,L|254:108,1,120
120,288,143544,6,0,P|192:360|260:360,1,120,2|0,0:0|0:0,0:0:0:0:
324,332,143753,1,0,0:0:0:0:
232,88,143858,2,0,L|96:96,1,120,0|10,0:0|0:0,0:0:0:0:
276,216,144067,2,0,L|395:208,1,120
232,328,144276,6,0,P|164:268|184:152,1,120,0|2,0:0|0:0,0:0:0:0:
184,80,144485,1,0,0:0:0:0:
408,188,144589,2,0,L|404:340,1,120
148,128,144798,2,0,P|182:79|237:57,1,120,10|0,0:0|0:0,0:0:0:0:
332,228,145007,2,0,P|277:205|242:157,1,120
452,36,145216,6,0,L|460:188,1,120,2|0,0:0|0:0,0:0:0:0:
416,284,145425,1,0,0:0:0:0:
176,224,145530,2,0,L|182:104,1,120,0|10,0:0|0:0,0:0:0:0:
252,288,145739,2,0,P|192:316|72:256,1,120
63,200,145948,6,0,P|115:226|175:223,1,120,0|2,0:0|0:0,0:0:0:0:
284,168,146157,1,0,0:0:0:0:
124,8,146262,2,0,L|132:152,1,120
252,288,146471,2,0,L|424:276,1,120,10|0,0:0|0:0,0:0:0:0:
403,159,146680,2,0,L|283:167,1,120
48,248,146889,6,0,P|44:336|80:392,1,120,2|0,0:0|0:0,0:0:0:0:
184,364,147098,1,0,0:0:0:0:
128,132,147202,2,0,L|-28:120,1,120,0|10,0:0|0:0,0:0:0:0:
180,260,147411,2,0,L|299:250,1,120
460,324,147621,6,0,L|340:314,1,120,0|2,0:0|0:0,0:0:0:0:
324,176,147830,1,0,0:0:0:0:
488,32,147934,2,0,L|476:192,1,120
228,160,148143,2,0,P|272:92|364:88,1,120,10|0,0:0|0:0,0:0:0:0:
336,340,148352,2,0,L|216:330,1,120
60,124,148561,6,0,P|116:96|216:120,1,120,2|0,0:0|0:0,0:0:0:0:
256,192,148770,1,0,0:0:0:0:
451,123,148875,2,0,P|399:96|339:97,1,120,0|10,0:0|0:0,0:0:0:0:
360,308,149084,2,0,L|376:184,1,120
136,188,149293,6,0,L|152:308,1,120,0|2,0:0|0:0,0:0:0:0:
256,80,149502,1,0,0:0:0:0:
52,120,149607,2,0,L|32:256,1,120
256,340,149816,2,0,L|256:212,1,120,10|0,0:0|0:0,0:0:0:0:
460,120,150025,2,0,L|477:238,1,120
152,208,150234,6,0,P|196:144|292:132,1,120,2|0,0:0|0:0,0:0:0:0:
340,180,150443,1,0,0:0:0:0:
156,336,150547,2,0,P|80:312|32:224,1,120,0|10,0:0|0:0,0:0:0:0:
168,72,150756,2,0,P|225:84|270:123,1,120
220,264,150965,6,0,P|218:204|189:152,1,120,0|2,0:0|0:0,0:0:0:0:
72,124,151174,1,0,0:0:0:0:
172,364,151279,2,0,L|348:348,1,120
216,36,151488,2,0,B|168:76|168:76|148:160,1,120,10|0,0:0|0:0,0:0:0:0:
312,268,151697,2,0,L|448:252,1,120
444,56,151906,6,0,L|324:70,1,120,2|0,0:0|0:0,0:0:0:0:
232,144,152115,1,0,0:0:0:0:
408,308,152220,2,0,P|436:216|412:144,1,120,0|10,0:0|0:0,0:0:0:0:
204,268,152429,2,0,P|204:327|229:381,1,120
384,384,152638,6,0,P|329:359|290:314,1,120,0|2,0:0|0:0,0:0:0:0:
280,184,152847,1,0,0:0:0:0:
480,224,152951,2,0,P|388:252|316:240,1,120
192,52,153160,2,0,L|348:32,1,120,10|0,0:0|0:0,0:0:0:0:
204,268,153370,2,0,B|152:232|152:232|128:176,1,120
444,96,153579,6,0,P|452:164|396:268,1,120,2|0,0:0|0:0,0:0:0:0:
324,264,153788,1,0,0:0:0:0:
76,172,153892,2,0,L|224:160,1,120,0|10,0:0|0:0,0:0:0:0:
128,316,154101,2,0,L|8:306,1,120
224,352,154310,6,0,L|343:342,1,120,0|2,0:0|0:0,0:0:0:0:
448,276,154519,1,0,0:0:0:0:
224,132,154624,2,0,B|196:188|196:188|184:264,1,120
468,176,154833,2,0,L|456:40,1,120,10|0,0:0|0:0,0:0:0:0:
280,28,155042,1,0,0:0:0:0:
200,312,155146,1,0,0:0:0:0:
396,156,155251,6,0,P|336:140|232:168,1,120,2|0,0:0|0:0,0:0:0:0:
184,220,155460,1,0,0:0:0:0:
320,360,155565,2,0,L|328:208,1,120,0|10,0:0|0:0,0:0:0:0:
196,44,155774,2,0,P|208:116|292:160,1,120
472,124,155983,6,0,B|472:192|472:192|432:280,1,120,0|2,0:0|0:0,0:0:0:0:
304,224,156192,1,0,0:0:0:0:
296,24,156296,2,0,P|388:20|472:68,1,120
216,224,156505,2,0,L|200:64,1,120,10|0,0:0|0:0,0:0:0:0:
412,176,156714,2,0,L|400:295,1,120
160,332,156923,6,0,P|92:312|32:232,1,120,2|0,0:0|0:0,0:0:0:0:
44,164,157133,1,0,0:0:0:0:
292,124,157237,2,0,L|280:288,1,120,0|10,0:0|0:0,0:0:0:0:
84,48,157446,2,0,B|148:32|148:32|240:40,1,120
44,184,157655,6,0,B|99:149|99:149|189:128,1,120,0|2,0:0|0:0,0:0:0:0:
304,160,157864,1,0,0:0:0:0:
120,352,157969,2,0,L|136:204,1,120
360,136,158178,2,0,L|223:196,1,120,10|0,0:0|0:0,0:0:0:0:
44,40,158387,2,0,L|164:127,1,120
232,312,158596,6,0,B|168:320|168:320|72:296,1,120,2|0,0:0|0:0,0:0:0:0:
56,192,158805,1,0,0:0:0:0:
320,260,158909,2,0,P|328:340|280:416,1,120,0|10,0:0|0:0,0:0:0:0:
184,196,159119,2,0,L|284:100,1,120
60,24,159328,6,0,P|136:80|220:56,1,120,0|2,0:0|0:0,0:0:0:0:
272,12,159537,1,0,0:0:0:0:
32,124,159641,2,0,B|8:180|8:180|20:256,1,120
232,264,159850,2,0,B|240:200|240:200|217:149,1,120,10|0,0:0|0:0,0:0:0:0:
28,352,160059,2,0,L|180:360,1,120
360,368,160268,6,0,B|372:304|372:304|356:240,1,120,2|0,0:0|0:0,0:0:0:0:
280,132,160477,1,0,0:0:0:0:
112,256,160582,2,0,L|292:268,1,120,0|10,0:0|0:0,0:0:0:0:
456,172,160791,2,0,L|284:184,1,120
100,88,161000,6,0,B|156:52|156:52|300:40,1,120,0|2,0:0|0:0,0:0:0:0:
384,80,161209,1,0,0:0:0:0:
192,272,161314,2,0,L|184:120,1,120
304,28,161523,1,10,0:0:0:0:
404,256,161627,1,0,0:0:0:0:
268,116,161732,1,0,0:0:0:0:
500,64,161836,1,0,0:0:0:0:
308,282,161941,6,0,P|196:274|132:222,1,120,2|0,0:0|0:0,0:0:0:0:
124,172,162150,1,0,0:0:0:0:
400,228,162254,2,0,B|412:288|412:288|392:388,1,120,0|10,0:0|0:0,0:0:0:0:
272,132,162463,2,0,B|317:91|317:91|373:72,1,120
140,68,162672,6,0,B|127:127|127:127|139:185,1,120,0|2,0:0|0:0,0:0:0:0:
248,240,162882,1,0,0:0:0:0:
372,36,162986,2,0,L|224:32,1,120
40,172,163195,1,10,0:0:0:0:
272,160,163300,1,0,0:0:0:0:
40,172,163404,1,0,0:0:0:0:
272,160,163509,1,0,0:0:0:0:
144,40,163613,6,0,P|132:100|172:224,1,120,2|0,0:0|0:0,0:0:0:0:
216,264,163822,1,0,0:0:0:0:
384,52,163927,2,0,B|328:32|328:32|240:40,1,120,0|10,0:0|0:0,0:0:0:0:
368,308,164136,2,0,B|413:269|413:269|450:189,1,120
244,164,164345,6,0,B|187:184|187:184|127:178,1,120,0|2,0:0|0:0,0:0:0:0:
60,60,164554,1,0,0:0:0:0:
332,112,164658,2,0,P|332:200|280:280,1,120
152,292,164868,1,10,0:0:0:0:
140,80,164972,1,0,0:0:0:0:
152,292,165077,1,0,0:0:0:0:
140,80,165181,1,0,0:0:0:0:
72,328,165286,6,0,P|116:364|248:344,1,120,2|0,0:0|0:0,0:0:0:0:
280,312,165495,1,0,0:0:0:0:
260,88,165599,2,0,P|201:98|155:135,1,120,0|10,0:0|0:0,0:0:0:0:
408,248,165808,2,0,B|416:184|416:184|360:68,1,120
151,45,166017,6,0,B|200:80|200:80|330:93,1,120,0|2,0:0|0:0,0:0:0:0:
368,24,166226,1,0,0:0:0:0:
200,160,166331,2,0,L|188:296,1,120
48,264,166540,1,10,0:0:0:0:
296,108,166645,1,0,0:0:0:0:
48,264,166749,1,0,0:0:0:0:
296,108,166854,1,0,0:0:0:0:
376,224,166958,6,0,P|296:252|220:232,1,120,2|0,0:0|0:0,0:0:0:0:
28,196,167167,2,0,L|32:64,1,120
312,40,167376,2,0,L|304:204,1,120,10|0,0:0|0:0,0:0:0:0:
192,312,167585,2,0,P|246:336|305:336,1,120
432,184,167794,6,0,L|424:324,1,120,2|0,0:0|0:0,0:0:0:0:
80,184,168003,2,0,L|86:303,1,120
320,236,168212,5,8,0:0:0:0:
162,121,168317,1,0,0:0:0:0:
357,121,168421,5,10,0:0:0:0:
200,236,168526,1,0,0:0:0:0:
260,51,168631,5,8,0:0:0:0:
