osu file format v14

[General]
AudioFilename: audio.mp3
AudioLeadIn: 0
PreviewTime: 0
Countdown: 1
SampleSet: None
StackLeniency: 0.7
Mode: 1
LetterboxInBreaks: 0
WidescreenStoryboard: 1

[Editor]
DistanceSpacing: 1.3
BeatDivisor: 4
GridSize: 32
TimelineZoom: 1

[Metadata]
Title:Stereo Saiyan 3D
TitleUnicode:Stereo Saiyan 3D
Artist:fartwad
ArtistUnicode:fartwad
Creator:driodx
Version:Even Further Beyond
Source:Dragon Ball Z
Tags:Sayain Stereo 3D Dragon Ball Z
BeatmapID:1839783
BeatmapSetID:879751

[Difficulty]
HPDrainRate:5
CircleSize:5
OverallDifficulty:5
ApproachRate:5
SliderMultiplier:2
SliderTickRate:1

[Events]
//Background and Video events
0,0,"Super Saiyajin 3.png",0,0
//Break Periods
2,89621,91971
//Storyboard Layer 0 (Background)
//Storyboard Layer 1 (Fail)
//Storyboard Layer 2 (Pass)
//Storyboard Layer 3 (Foreground)
//Storyboard Sound Samples

[TimingPoints]
6921,468.75,4,1,0,100,1,0
29421,-99.009900990099,4,1,0,100,0,0
31296,-98.0392156862745,4,1,0,100,0,0
33171,-97.0873786407767,4,1,0,100,0,0
35046,-96.1538461538461,4,1,0,100,0,0
36921,-95.2380952380952,4,1,0,100,0,0
38796,-94.3396226415094,4,1,0,100,0,0
40671,-93.4579439252336,4,1,0,100,0,0
42546,-92.5925925925926,4,1,0,100,0,0
44421,-91.743119266055,4,1,0,100,0,0
46296,-90.9090909090909,4,1,0,100,0,0
48171,-90.0900900900901,4,1,0,100,0,0
50046,-89.2857142857143,4,1,0,100,0,0
51921,-88.4955752212389,4,1,0,100,0,0
53796,-87.719298245614,4,1,0,100,0,0
55671,-86.2068965517241,4,1,0,100,0,0
57546,-84.7457627118644,4,1,0,100,0,0
59421,468.75,4,1,0,100,1,1
59421,-83.3333333333333,4,1,0,100,0,1
89421,468.75,4,1,0,100,1,0
89421,-100,4,1,0,100,0,0
96921,-100,4,1,0,100,0,0
98796,-90.9090909090909,4,1,0,100,0,0
100671,-83.3333333333333,4,1,0,100,0,0
102546,-90.9090909090909,4,1,0,100,0,0
104421,-100,4,1,0,100,0,0
106296,-90.9090909090909,4,1,0,100,0,0
108171,-83.3333333333333,4,1,0,100,0,0
110046,-90.9090909090909,4,1,0,100,0,0
111921,-100,4,1,0,100,0,0
113796,-83.3333333333333,4,1,0,100,0,0
115671,-71.4285714285714,4,1,0,100,0,0
117546,-83.3333333333333,4,1,0,100,0,0
119421,-100,4,1,0,100,0,0
121296,-83.3333333333333,4,1,0,100,0,0
123171,-71.4285714285714,4,1,0,100,0,0
125046,-83.3333333333333,4,1,0,100,0,0
126921,-100,4,1,0,100,0,0
128796,-80,4,1,0,100,0,0
130671,-66.6666666666667,4,1,0,100,0,0
132546,-80,4,1,0,100,0,0
134421,-100,4,1,0,100,0,0
136296,-66.6666666666667,4,1,0,100,0,0
138171,-100,4,1,0,100,0,0
140046,-33.3333333333333,4,1,0,100,0,0
141921,416.666666666667,4,1,0,100,1,0
141921,-83.3333333333333,4,1,0,100,0,1
168587,468.75,4,1,0,100,1,0
168587,-100,4,1,0,100,0,0

[HitObjects]
160,96,6921,5,4,0:0:0:0:
160,288,7155,1,0,0:0:0:0:
352,288,7272,1,2,0:0:0:0:
352,288,7506,1,2,0:0:0:0:
352,96,7741,1,6,0:0:0:0:
160,288,7975,1,0,0:0:0:0:
352,288,8092,1,2,0:0:0:0:
352,288,8327,1,2,0:0:0:0:
160,288,8561,1,0,0:0:0:0:
160,96,8796,1,4,0:0:0:0:
160,288,9030,1,0,0:0:0:0:
352,288,9147,1,2,0:0:0:0:
352,288,9381,1,2,0:0:0:0:
352,96,9616,1,6,0:0:0:0:
160,288,9850,1,0,0:0:0:0:
352,288,9967,1,2,0:0:0:0:
352,288,10202,1,2,0:0:0:0:
160,288,10436,1,0,0:0:0:0:
352,96,10671,1,6,0:0:0:0:
352,288,10905,1,2,0:0:0:0:
160,288,11022,1,0,0:0:0:0:
160,288,11256,1,0,0:0:0:0:
352,96,11491,1,6,0:0:0:0:
160,288,11725,1,0,0:0:0:0:
352,288,11842,1,2,0:0:0:0:
160,288,12077,1,0,0:0:0:0:
160,288,12311,1,0,0:0:0:0:
352,96,12546,1,6,0:0:0:0:
352,288,12780,1,2,0:0:0:0:
160,288,12897,1,0,0:0:0:0:
160,288,13131,1,0,0:0:0:0:
352,96,13366,1,6,0:0:0:0:
160,288,13600,1,0,0:0:0:0:
352,288,13717,1,2,0:0:0:0:
352,288,13952,1,2,0:0:0:0:
160,288,14186,1,0,0:0:0:0:
160,96,14421,1,4,0:0:0:0:
160,288,14655,1,0,0:0:0:0:
352,288,14772,1,2,0:0:0:0:
352,288,15006,1,2,0:0:0:0:
352,96,15241,1,6,0:0:0:0:
160,288,15475,1,0,0:0:0:0:
352,288,15592,1,2,0:0:0:0:
352,288,15827,1,2,0:0:0:0:
160,288,16061,1,0,0:0:0:0:
160,96,16296,1,4,0:0:0:0:
160,288,16530,1,0,0:0:0:0:
352,288,16647,1,2,0:0:0:0:
352,288,16881,1,2,0:0:0:0:
352,96,17116,1,6,0:0:0:0:
160,288,17350,1,0,0:0:0:0:
352,288,17467,1,2,0:0:0:0:
352,288,17702,1,2,0:0:0:0:
160,288,17936,1,0,0:0:0:0:
352,96,18171,1,6,0:0:0:0:
352,288,18405,1,2,0:0:0:0:
160,288,18522,1,0,0:0:0:0:
160,288,18756,1,0,0:0:0:0:
352,96,18991,1,6,0:0:0:0:
160,288,19225,1,0,0:0:0:0:
352,288,19342,1,2,0:0:0:0:
160,288,19577,1,0,0:0:0:0:
160,288,19811,1,0,0:0:0:0:
352,96,20046,1,6,0:0:0:0:
352,288,20280,1,2,0:0:0:0:
160,288,20397,1,0,0:0:0:0:
160,288,20631,1,0,0:0:0:0:
352,96,20866,1,6,0:0:0:0:
160,288,21100,1,0,0:0:0:0:
352,288,21217,1,2,0:0:0:0:
352,288,21452,1,2,0:0:0:0:
160,288,21686,1,0,0:0:0:0:
160,96,21921,1,4,0:0:0:0:
160,288,22155,1,0,0:0:0:0:
352,288,22272,1,2,0:0:0:0:
352,288,22506,1,2,0:0:0:0:
352,96,22741,1,6,0:0:0:0:
160,288,22975,1,0,0:0:0:0:
352,288,23092,1,2,0:0:0:0:
352,288,23327,1,2,0:0:0:0:
160,288,23561,1,0,0:0:0:0:
160,96,23796,1,4,0:0:0:0:
160,288,24030,1,0,0:0:0:0:
352,288,24147,1,2,0:0:0:0:
352,288,24381,1,2,0:0:0:0:
352,96,24616,1,6,0:0:0:0:
160,288,24850,1,0,0:0:0:0:
352,288,24967,1,2,0:0:0:0:
352,288,25202,1,2,0:0:0:0:
160,288,25436,1,0,0:0:0:0:
352,96,25671,1,6,0:0:0:0:
352,288,25905,1,2,0:0:0:0:
160,288,26022,1,0,0:0:0:0:
160,288,26256,1,0,0:0:0:0:
352,96,26491,1,6,0:0:0:0:
160,288,26725,1,0,0:0:0:0:
352,288,26842,1,2,0:0:0:0:
160,288,27077,1,0,0:0:0:0:
160,288,27311,1,0,0:0:0:0:
352,96,27546,1,6,0:0:0:0:
352,288,27780,1,2,0:0:0:0:
160,288,27897,1,0,0:0:0:0:
160,288,28131,1,0,0:0:0:0:
352,96,28366,1,6,0:0:0:0:
160,288,28600,1,0,0:0:0:0:
352,288,28717,1,2,0:0:0:0:
352,288,28952,1,2,0:0:0:0:
160,288,29186,1,0,0:0:0:0:
160,96,29421,5,4,0:0:0:0:
160,288,29538,1,0,0:0:0:0:
160,288,29655,1,0,0:0:0:0:
352,288,29772,1,2,0:0:0:0:
352,288,30006,1,2,0:0:0:0:
352,96,30241,1,6,0:0:0:0:
160,288,30475,1,0,0:0:0:0:
352,288,30592,1,2,0:0:0:0:
352,288,30827,1,2,0:0:0:0:
160,288,31061,1,0,0:0:0:0:
160,96,31296,1,4,0:0:0:0:
160,288,31413,1,0,0:0:0:0:
160,288,31530,1,0,0:0:0:0:
352,288,31647,1,2,0:0:0:0:
352,288,31881,1,2,0:0:0:0:
352,96,32116,1,6,0:0:0:0:
160,288,32350,1,0,0:0:0:0:
352,288,32467,1,2,0:0:0:0:
352,288,32702,1,2,0:0:0:0:
160,288,32936,1,0,0:0:0:0:
352,96,33171,1,6,0:0:0:0:
352,288,33288,1,2,0:0:0:0:
352,288,33405,1,2,0:0:0:0:
160,288,33522,1,0,0:0:0:0:
160,288,33756,1,0,0:0:0:0:
352,96,33991,1,6,0:0:0:0:
160,288,34225,1,0,0:0:0:0:
352,288,34342,1,2,0:0:0:0:
160,288,34577,1,0,0:0:0:0:
160,288,34811,1,0,0:0:0:0:
352,96,35046,1,6,0:0:0:0:
352,288,35163,1,2,0:0:0:0:
352,288,35280,1,2,0:0:0:0:
160,288,35397,1,0,0:0:0:0:
160,288,35631,1,0,0:0:0:0:
352,96,35866,1,6,0:0:0:0:
160,288,36100,1,0,0:0:0:0:
352,288,36217,1,2,0:0:0:0:
352,288,36452,1,2,0:0:0:0:
160,288,36686,1,0,0:0:0:0:
160,96,36921,5,4,0:0:0:0:
160,288,37038,1,0,0:0:0:0:
160,288,37155,1,0,0:0:0:0:
352,288,37272,1,2,0:0:0:0:
352,288,37506,1,2,0:0:0:0:
352,96,37741,1,6,0:0:0:0:
160,288,37975,1,0,0:0:0:0:
352,288,38092,1,2,0:0:0:0:
352,288,38327,1,2,0:0:0:0:
160,288,38561,1,0,0:0:0:0:
160,96,38796,1,4,0:0:0:0:
160,288,38913,1,0,0:0:0:0:
160,288,39030,1,0,0:0:0:0:
352,288,39147,1,2,0:0:0:0:
352,288,39381,1,2,0:0:0:0:
352,96,39616,1,6,0:0:0:0:
160,288,39850,1,0,0:0:0:0:
352,288,39967,1,2,0:0:0:0:
352,288,40202,1,2,0:0:0:0:
160,288,40436,1,0,0:0:0:0:
352,96,40671,5,6,0:0:0:0:
352,288,40788,1,2,0:0:0:0:
352,288,40905,1,2,0:0:0:0:
160,288,41022,1,0,0:0:0:0:
160,288,41256,1,0,0:0:0:0:
352,96,41491,1,6,0:0:0:0:
160,288,41725,1,0,0:0:0:0:
352,288,41842,1,2,0:0:0:0:
160,288,42077,1,0,0:0:0:0:
160,288,42311,1,0,0:0:0:0:
352,96,42546,1,6,0:0:0:0:
352,288,42663,1,2,0:0:0:0:
352,288,42780,1,2,0:0:0:0:
160,288,42897,1,0,0:0:0:0:
160,288,43131,1,0,0:0:0:0:
352,96,43366,1,6,0:0:0:0:
160,288,43600,1,0,0:0:0:0:
352,288,43717,1,2,0:0:0:0:
352,288,43952,1,2,0:0:0:0:
160,288,44186,1,0,0:0:0:0:
160,96,44421,5,4,0:0:0:0:
160,288,44538,1,0,0:0:0:0:
160,288,44655,1,0,0:0:0:0:
352,288,44772,1,2,0:0:0:0:
352,288,45006,1,2,0:0:0:0:
352,96,45241,1,6,0:0:0:0:
160,288,45475,1,0,0:0:0:0:
352,288,45592,1,2,0:0:0:0:
352,288,45827,1,2,0:0:0:0:
160,288,46061,1,0,0:0:0:0:
160,96,46296,5,4,0:0:0:0:
160,288,46413,1,0,0:0:0:0:
160,288,46530,1,0,0:0:0:0:
352,288,46647,1,2,0:0:0:0:
352,288,46881,1,2,0:0:0:0:
352,96,47116,1,6,0:0:0:0:
160,288,47350,1,0,0:0:0:0:
352,288,47467,1,2,0:0:0:0:
352,288,47702,1,2,0:0:0:0:
160,288,47936,1,0,0:0:0:0:
160,96,48171,5,4,0:0:0:0:
160,288,48288,1,0,0:0:0:0:
160,288,48405,1,0,0:0:0:0:
352,288,48522,1,2,0:0:0:0:
352,288,48756,1,2,0:0:0:0:
352,96,48991,1,6,0:0:0:0:
160,288,49225,1,0,0:0:0:0:
352,288,49342,1,2,0:0:0:0:
352,288,49577,1,2,0:0:0:0:
160,288,49811,1,0,0:0:0:0:
160,96,50046,5,4,0:0:0:0:
160,288,50163,1,0,0:0:0:0:
160,288,50280,1,0,0:0:0:0:
352,288,50397,1,2,0:0:0:0:
352,288,50631,1,2,0:0:0:0:
352,96,50866,1,6,0:0:0:0:
160,288,51100,1,0,0:0:0:0:
352,288,51217,1,2,0:0:0:0:
352,288,51452,1,2,0:0:0:0:
160,288,51686,1,0,0:0:0:0:
160,96,51921,5,4,0:0:0:0:
160,288,52038,1,0,0:0:0:0:
160,288,52155,1,0,0:0:0:0:
352,288,52272,1,2,0:0:0:0:
352,288,52506,1,2,0:0:0:0:
352,96,52741,1,6,0:0:0:0:
160,288,52975,1,0,0:0:0:0:
352,288,53092,1,2,0:0:0:0:
352,288,53327,1,2,0:0:0:0:
160,288,53561,1,0,0:0:0:0:
160,96,53796,5,4,0:0:0:0:
160,288,53913,1,0,0:0:0:0:
160,288,54030,1,0,0:0:0:0:
352,288,54147,1,2,0:0:0:0:
352,288,54381,1,2,0:0:0:0:
352,96,54616,1,6,0:0:0:0:
160,288,54850,1,0,0:0:0:0:
352,288,54967,1,2,0:0:0:0:
352,288,55202,1,2,0:0:0:0:
160,288,55436,1,0,0:0:0:0:
160,288,55671,1,0,0:0:0:0:
160,288,55788,1,0,0:0:0:0:
160,288,55905,1,0,0:0:0:0:
160,288,56022,1,0,0:0:0:0:
160,288,56139,1,0,0:0:0:0:
160,288,56256,1,0,0:0:0:0:
160,288,56374,1,0,0:0:0:0:
160,288,56491,1,0,0:0:0:0:
352,288,56608,1,2,0:0:0:0:
352,288,56725,1,2,0:0:0:0:
352,288,56842,1,2,0:0:0:0:
352,288,56960,1,2,0:0:0:0:
352,288,57077,1,2,0:0:0:0:
352,288,57194,1,2,0:0:0:0:
352,288,57311,1,2,0:0:0:0:
352,288,57428,1,2,0:0:0:0:
160,288,57546,1,0,0:0:0:0:
160,288,57663,1,0,0:0:0:0:
352,288,57780,1,2,0:0:0:0:
352,288,57897,1,2,0:0:0:0:
160,288,58014,1,0,0:0:0:0:
160,288,58131,1,0,0:0:0:0:
352,288,58249,1,2,0:0:0:0:
352,288,58366,1,2,0:0:0:0:
160,288,58483,1,0,0:0:0:0:
352,288,58600,1,2,0:0:0:0:
160,288,58717,1,0,0:0:0:0:
352,288,58835,1,2,0:0:0:0:
160,288,58952,1,0,0:0:0:0:
352,288,59010,1,2,0:0:0:0:
160,288,59069,1,0,0:0:0:0:
352,288,59128,1,2,0:0:0:0:
160,288,59186,1,0,0:0:0:0:
352,288,59245,1,2,0:0:0:0:
160,288,59303,1,0,0:0:0:0:
352,288,59362,1,2,0:0:0:0:
160,96,59421,5,4,0:0:0:0:
160,288,59479,1,0,0:0:0:0:
160,288,59538,1,0,0:0:0:0:
160,288,59596,1,0,0:0:0:0:
160,288,59655,1,0,0:0:0:0:
160,288,59713,1,0,0:0:0:0:
352,288,59772,1,2,0:0:0:0:
160,288,59831,1,0,0:0:0:0:
160,288,59889,1,0,0:0:0:0:
160,288,59948,1,0,0:0:0:0:
352,288,60006,1,2,0:0:0:0:
160,288,60065,1,0,0:0:0:0:
160,288,60124,1,0,0:0:0:0:
160,288,60182,1,0,0:0:0:0:
352,96,60241,1,6,0:0:0:0:
160,288,60299,1,0,0:0:0:0:
160,288,60358,1,0,0:0:0:0:
160,288,60417,1,0,0:0:0:0:
160,288,60475,1,0,0:0:0:0:
160,288,60534,1,0,0:0:0:0:
352,288,60592,1,2,0:0:0:0:
160,288,60651,1,0,0:0:0:0:
160,288,60710,1,0,0:0:0:0:
160,288,60768,1,0,0:0:0:0:
352,288,60827,1,2,0:0:0:0:
160,288,60885,1,0,0:0:0:0:
160,288,60944,1,0,0:0:0:0:
160,288,61003,1,0,0:0:0:0:
160,288,61061,1,0,0:0:0:0:
160,288,61120,1,0,0:0:0:0:
160,288,61178,1,0,0:0:0:0:
160,288,61237,1,0,0:0:0:0:
160,96,61296,1,4,0:0:0:0:
160,288,61354,1,0,0:0:0:0:
160,288,61413,1,0,0:0:0:0:
160,288,61471,1,0,0:0:0:0:
160,288,61530,1,0,0:0:0:0:
160,288,61588,1,0,0:0:0:0:
352,288,61647,1,2,0:0:0:0:
160,288,61706,1,0,0:0:0:0:
160,288,61764,1,0,0:0:0:0:
160,288,61823,1,0,0:0:0:0:
352,288,61881,1,2,0:0:0:0:
160,288,61940,1,0,0:0:0:0:
160,288,61999,1,0,0:0:0:0:
160,288,62057,1,0,0:0:0:0:
352,96,62116,1,6,0:0:0:0:
160,288,62174,1,0,0:0:0:0:
160,288,62233,1,0,0:0:0:0:
160,288,62292,1,0,0:0:0:0:
160,288,62350,1,0,0:0:0:0:
160,288,62409,1,0,0:0:0:0:
352,288,62467,1,2,0:0:0:0:
160,288,62526,1,0,0:0:0:0:
160,288,62585,1,0,0:0:0:0:
160,288,62643,1,0,0:0:0:0:
352,288,62702,1,2,0:0:0:0:
160,288,62760,1,0,0:0:0:0:
160,288,62819,1,0,0:0:0:0:
160,288,62878,1,0,0:0:0:0:
160,288,62936,1,0,0:0:0:0:
160,288,62995,1,0,0:0:0:0:
160,288,63053,1,0,0:0:0:0:
160,288,63112,1,0,0:0:0:0:
352,96,63171,1,6,0:0:0:0:
352,288,63229,1,2,0:0:0:0:
352,288,63288,1,2,0:0:0:0:
352,288,63346,1,2,0:0:0:0:
352,288,63405,1,2,0:0:0:0:
352,288,63463,1,2,0:0:0:0:
160,288,63522,1,0,0:0:0:0:
352,288,63581,1,2,0:0:0:0:
352,288,63639,1,2,0:0:0:0:
352,288,63698,1,2,0:0:0:0:
160,288,63756,1,0,0:0:0:0:
352,288,63815,1,2,0:0:0:0:
352,288,63874,1,2,0:0:0:0:
352,288,63932,1,2,0:0:0:0:
352,96,63991,1,6,0:0:0:0:
352,288,64049,1,2,0:0:0:0:
352,288,64108,1,2,0:0:0:0:
352,288,64167,1,2,0:0:0:0:
160,288,64225,1,0,0:0:0:0:
352,288,64284,1,2,0:0:0:0:
352,288,64342,1,2,0:0:0:0:
352,288,64401,1,2,0:0:0:0:
352,288,64460,1,2,0:0:0:0:
352,288,64518,1,2,0:0:0:0:
160,288,64577,1,0,0:0:0:0:
352,288,64635,1,2,0:0:0:0:
352,288,64694,1,2,0:0:0:0:
352,288,64753,1,2,0:0:0:0:
160,288,64811,1,0,0:0:0:0:
352,288,64870,1,2,0:0:0:0:
352,288,64928,1,2,0:0:0:0:
352,288,64987,1,2,0:0:0:0:
352,96,65046,1,6,0:0:0:0:
352,288,65104,1,2,0:0:0:0:
352,288,65163,1,2,0:0:0:0:
352,288,65221,1,2,0:0:0:0:
352,288,65280,1,2,0:0:0:0:
352,288,65338,1,2,0:0:0:0:
160,288,65397,1,0,0:0:0:0:
352,288,65456,1,2,0:0:0:0:
352,288,65514,1,2,0:0:0:0:
352,288,65573,1,2,0:0:0:0:
160,288,65631,1,0,0:0:0:0:
352,288,65690,1,2,0:0:0:0:
352,288,65749,1,2,0:0:0:0:
352,288,65807,1,2,0:0:0:0:
352,96,65866,1,6,0:0:0:0:
352,288,65924,1,2,0:0:0:0:
352,288,65983,1,2,0:0:0:0:
352,288,66042,1,2,0:0:0:0:
160,288,66100,1,0,0:0:0:0:
352,288,66159,1,2,0:0:0:0:
352,288,66217,1,2,0:0:0:0:
352,288,66276,1,2,0:0:0:0:
352,288,66335,1,2,0:0:0:0:
352,288,66393,1,2,0:0:0:0:
352,288,66452,1,2,0:0:0:0:
352,288,66510,1,2,0:0:0:0:
352,288,66569,1,2,0:0:0:0:
352,288,66628,1,2,0:0:0:0:
160,288,66686,1,0,0:0:0:0:
352,288,66745,1,2,0:0:0:0:
352,288,66803,1,2,0:0:0:0:
352,288,66862,1,2,0:0:0:0:
160,96,66921,1,4,0:0:0:0:
160,288,66979,1,0,0:0:0:0:
160,288,67038,1,0,0:0:0:0:
160,288,67096,1,0,0:0:0:0:
160,288,67155,1,0,0:0:0:0:
160,288,67213,1,0,0:0:0:0:
352,288,67272,1,2,0:0:0:0:
160,288,67331,1,0,0:0:0:0:
160,288,67389,1,0,0:0:0:0:
160,288,67448,1,0,0:0:0:0:
352,288,67506,1,2,0:0:0:0:
160,288,67565,1,0,0:0:0:0:
160,288,67624,1,0,0:0:0:0:
160,288,67682,1,0,0:0:0:0:
352,96,67741,1,6,0:0:0:0:
160,288,67799,1,0,0:0:0:0:
160,288,67858,1,0,0:0:0:0:
160,288,67917,1,0,0:0:0:0:
160,288,67975,1,0,0:0:0:0:
160,288,68034,1,0,0:0:0:0:
352,288,68092,1,2,0:0:0:0:
160,288,68151,1,0,0:0:0:0:
160,288,68210,1,0,0:0:0:0:
160,288,68268,1,0,0:0:0:0:
352,288,68327,1,2,0:0:0:0:
160,288,68385,1,0,0:0:0:0:
160,288,68444,1,0,0:0:0:0:
160,288,68503,1,0,0:0:0:0:
160,288,68561,1,0,0:0:0:0:
160,288,68620,1,0,0:0:0:0:
160,288,68678,1,0,0:0:0:0:
160,288,68737,1,0,0:0:0:0:
160,96,68796,1,4,0:0:0:0:
160,288,68854,1,0,0:0:0:0:
160,288,68913,1,0,0:0:0:0:
160,288,68971,1,0,0:0:0:0:
160,288,69030,1,0,0:0:0:0:
160,288,69088,1,0,0:0:0:0:
352,288,69147,1,2,0:0:0:0:
160,288,69206,1,0,0:0:0:0:
160,288,69264,1,0,0:0:0:0:
160,288,69323,1,0,0:0:0:0:
352,288,69381,1,2,0:0:0:0:
160,288,69440,1,0,0:0:0:0:
160,288,69499,1,0,0:0:0:0:
160,288,69557,1,0,0:0:0:0:
352,96,69616,1,6,0:0:0:0:
160,288,69674,1,0,0:0:0:0:
160,288,69733,1,0,0:0:0:0:
160,288,69792,1,0,0:0:0:0:
160,288,69850,1,0,0:0:0:0:
160,288,69909,1,0,0:0:0:0:
352,288,69967,1,2,0:0:0:0:
160,288,70026,1,0,0:0:0:0:
160,288,70085,1,0,0:0:0:0:
160,288,70143,1,0,0:0:0:0:
352,288,70202,1,2,0:0:0:0:
160,288,70260,1,0,0:0:0:0:
160,288,70319,1,0,0:0:0:0:
160,288,70378,1,0,0:0:0:0:
160,288,70436,1,0,0:0:0:0:
160,288,70495,1,0,0:0:0:0:
160,288,70553,1,0,0:0:0:0:
160,288,70612,1,0,0:0:0:0:
352,96,70671,1,6,0:0:0:0:
352,288,70729,1,2,0:0:0:0:
352,288,70788,1,2,0:0:0:0:
352,288,70846,1,2,0:0:0:0:
352,288,70905,1,2,0:0:0:0:
352,288,70963,1,2,0:0:0:0:
160,288,71022,1,0,0:0:0:0:
352,288,71081,1,2,0:0:0:0:
352,288,71139,1,2,0:0:0:0:
352,288,71198,1,2,0:0:0:0:
160,288,71256,1,0,0:0:0:0:
352,288,71315,1,2,0:0:0:0:
352,288,71374,1,2,0:0:0:0:
352,288,71432,1,2,0:0:0:0:
352,96,71491,1,6,0:0:0:0:
352,288,71549,1,2,0:0:0:0:
352,288,71608,1,2,0:0:0:0:
352,288,71667,1,2,0:0:0:0:
160,288,71725,1,0,0:0:0:0:
352,288,71784,1,2,0:0:0:0:
352,288,71842,1,2,0:0:0:0:
352,288,71901,1,2,0:0:0:0:
352,288,71960,1,2,0:0:0:0:
352,288,72018,1,2,0:0:0:0:
160,288,72077,1,0,0:0:0:0:
352,288,72135,1,2,0:0:0:0:
352,288,72194,1,2,0:0:0:0:
352,288,72253,1,2,0:0:0:0:
160,288,72311,1,0,0:0:0:0:
352,288,72370,1,2,0:0:0:0:
352,288,72428,1,2,0:0:0:0:
352,288,72487,1,2,0:0:0:0:
352,96,72546,1,6,0:0:0:0:
352,288,72604,1,2,0:0:0:0:
352,288,72663,1,2,0:0:0:0:
352,288,72721,1,2,0:0:0:0:
352,288,72780,1,2,0:0:0:0:
352,288,72838,1,2,0:0:0:0:
160,288,72897,1,0,0:0:0:0:
352,288,72956,1,2,0:0:0:0:
352,288,73014,1,2,0:0:0:0:
352,288,73073,1,2,0:0:0:0:
160,288,73131,1,0,0:0:0:0:
352,288,73190,1,2,0:0:0:0:
352,288,73249,1,2,0:0:0:0:
352,288,73307,1,2,0:0:0:0:
352,96,73366,1,6,0:0:0:0:
352,288,73424,1,2,0:0:0:0:
352,288,73483,1,2,0:0:0:0:
352,288,73542,1,2,0:0:0:0:
160,288,73600,1,0,0:0:0:0:
352,288,73659,1,2,0:0:0:0:
352,288,73717,1,2,0:0:0:0:
352,288,73776,1,2,0:0:0:0:
352,288,73835,1,2,0:0:0:0:
352,288,73893,1,2,0:0:0:0:
352,288,73952,1,2,0:0:0:0:
352,288,74010,1,2,0:0:0:0:
352,288,74069,1,2,0:0:0:0:
352,288,74128,1,2,0:0:0:0:
160,288,74186,1,0,0:0:0:0:
352,288,74245,1,2,0:0:0:0:
352,288,74303,1,2,0:0:0:0:
352,288,74362,1,2,0:0:0:0:
160,96,74421,1,4,0:0:0:0:
160,288,74479,1,0,0:0:0:0:
160,288,74538,1,0,0:0:0:0:
160,288,74596,1,0,0:0:0:0:
160,288,74655,1,0,0:0:0:0:
160,288,74713,1,0,0:0:0:0:
352,288,74772,1,2,0:0:0:0:
160,288,74831,1,0,0:0:0:0:
160,288,74889,1,0,0:0:0:0:
160,288,74948,1,0,0:0:0:0:
352,288,75006,1,2,0:0:0:0:
160,288,75065,1,0,0:0:0:0:
160,288,75124,1,0,0:0:0:0:
160,288,75182,1,0,0:0:0:0:
352,96,75241,1,6,0:0:0:0:
160,288,75299,1,0,0:0:0:0:
160,288,75358,1,0,0:0:0:0:
160,288,75417,1,0,0:0:0:0:
160,288,75475,1,0,0:0:0:0:
160,288,75534,1,0,0:0:0:0:
352,288,75592,1,2,0:0:0:0:
160,288,75651,1,0,0:0:0:0:
160,288,75710,1,0,0:0:0:0:
160,288,75768,1,0,0:0:0:0:
352,288,75827,1,2,0:0:0:0:
160,288,75885,1,0,0:0:0:0:
160,288,75944,1,0,0:0:0:0:
160,288,76003,1,0,0:0:0:0:
160,288,76061,1,0,0:0:0:0:
160,288,76120,1,0,0:0:0:0:
160,288,76178,1,0,0:0:0:0:
160,288,76237,1,0,0:0:0:0:
160,96,76296,1,4,0:0:0:0:
160,288,76354,1,0,0:0:0:0:
160,288,76413,1,0,0:0:0:0:
160,288,76471,1,0,0:0:0:0:
160,288,76530,1,0,0:0:0:0:
160,288,76588,1,0,0:0:0:0:
352,288,76647,1,2,0:0:0:0:
160,288,76706,1,0,0:0:0:0:
160,288,76764,1,0,0:0:0:0:
160,288,76823,1,0,0:0:0:0:
352,288,76881,1,2,0:0:0:0:
160,288,76940,1,0,0:0:0:0:
160,288,76999,1,0,0:0:0:0:
160,288,77057,1,0,0:0:0:0:
352,96,77116,1,6,0:0:0:0:
160,288,77174,1,0,0:0:0:0:
160,288,77233,1,0,0:0:0:0:
160,288,77292,1,0,0:0:0:0:
160,288,77350,1,0,0:0:0:0:
160,288,77409,1,0,0:0:0:0:
352,288,77467,1,2,0:0:0:0:
160,288,77526,1,0,0:0:0:0:
160,288,77585,1,0,0:0:0:0:
160,288,77643,1,0,0:0:0:0:
352,288,77702,1,2,0:0:0:0:
160,288,77760,1,0,0:0:0:0:
160,288,77819,1,0,0:0:0:0:
160,288,77878,1,0,0:0:0:0:
160,288,77936,1,0,0:0:0:0:
160,288,77995,1,0,0:0:0:0:
160,288,78053,1,0,0:0:0:0:
160,288,78112,1,0,0:0:0:0:
352,96,78171,1,6,0:0:0:0:
352,288,78229,1,2,0:0:0:0:
352,288,78288,1,2,0:0:0:0:
352,288,78346,1,2,0:0:0:0:
352,288,78405,1,2,0:0:0:0:
352,288,78463,1,2,0:0:0:0:
160,288,78522,1,0,0:0:0:0:
352,288,78581,1,2,0:0:0:0:
352,288,78639,1,2,0:0:0:0:
352,288,78698,1,2,0:0:0:0:
160,288,78756,1,0,0:0:0:0:
352,288,78815,1,2,0:0:0:0:
352,288,78874,1,2,0:0:0:0:
352,288,78932,1,2,0:0:0:0:
352,96,78991,1,6,0:0:0:0:
352,288,79049,1,2,0:0:0:0:
352,288,79108,1,2,0:0:0:0:
352,288,79167,1,2,0:0:0:0:
160,288,79225,1,0,0:0:0:0:
352,288,79284,1,2,0:0:0:0:
352,288,79342,1,2,0:0:0:0:
352,288,79401,1,2,0:0:0:0:
352,288,79460,1,2,0:0:0:0:
352,288,79518,1,2,0:0:0:0:
160,288,79577,1,0,0:0:0:0:
352,288,79635,1,2,0:0:0:0:
352,288,79694,1,2,0:0:0:0:
352,288,79753,1,2,0:0:0:0:
160,288,79811,1,0,0:0:0:0:
352,288,79870,1,2,0:0:0:0:
352,288,79928,1,2,0:0:0:0:
352,288,79987,1,2,0:0:0:0:
352,96,80046,1,6,0:0:0:0:
352,288,80104,1,2,0:0:0:0:
352,288,80163,1,2,0:0:0:0:
352,288,80221,1,2,0:0:0:0:
352,288,80280,1,2,0:0:0:0:
352,288,80338,1,2,0:0:0:0:
160,288,80397,1,0,0:0:0:0:
352,288,80456,1,2,0:0:0:0:
352,288,80514,1,2,0:0:0:0:
352,288,80573,1,2,0:0:0:0:
160,288,80631,1,0,0:0:0:0:
352,288,80690,1,2,0:0:0:0:
352,288,80749,1,2,0:0:0:0:
352,288,80807,1,2,0:0:0:0:
352,96,80866,1,6,0:0:0:0:
352,288,80924,1,2,0:0:0:0:
352,288,80983,1,2,0:0:0:0:
352,288,81042,1,2,0:0:0:0:
160,288,81100,1,0,0:0:0:0:
352,288,81159,1,2,0:0:0:0:
352,288,81217,1,2,0:0:0:0:
352,288,81276,1,2,0:0:0:0:
352,288,81335,1,2,0:0:0:0:
352,288,81393,1,2,0:0:0:0:
352,288,81452,1,2,0:0:0:0:
352,288,81510,1,2,0:0:0:0:
352,288,81569,1,2,0:0:0:0:
352,288,81628,1,2,0:0:0:0:
160,288,81686,1,0,0:0:0:0:
352,288,81745,1,2,0:0:0:0:
352,288,81803,1,2,0:0:0:0:
352,288,81862,1,2,0:0:0:0:
160,96,81921,1,4,0:0:0:0:
160,288,81979,1,0,0:0:0:0:
160,288,82038,1,0,0:0:0:0:
160,288,82096,1,0,0:0:0:0:
160,288,82155,1,0,0:0:0:0:
160,288,82213,1,0,0:0:0:0:
352,288,82272,1,2,0:0:0:0:
160,288,82331,1,0,0:0:0:0:
160,288,82389,1,0,0:0:0:0:
160,288,82448,1,0,0:0:0:0:
352,288,82506,1,2,0:0:0:0:
160,288,82565,1,0,0:0:0:0:
160,288,82624,1,0,0:0:0:0:
160,288,82682,1,0,0:0:0:0:
352,96,82741,1,6,0:0:0:0:
160,288,82799,1,0,0:0:0:0:
160,288,82858,1,0,0:0:0:0:
160,288,82917,1,0,0:0:0:0:
160,288,82975,1,0,0:0:0:0:
160,288,83034,1,0,0:0:0:0:
352,288,83092,1,2,0:0:0:0:
160,288,83151,1,0,0:0:0:0:
160,288,83210,1,0,0:0:0:0:
160,288,83268,1,0,0:0:0:0:
352,288,83327,1,2,0:0:0:0:
160,288,83385,1,0,0:0:0:0:
160,288,83444,1,0,0:0:0:0:
160,288,83503,1,0,0:0:0:0:
160,288,83561,1,0,0:0:0:0:
160,288,83620,1,0,0:0:0:0:
160,288,83678,1,0,0:0:0:0:
160,288,83737,1,0,0:0:0:0:
160,96,83796,1,4,0:0:0:0:
160,288,83854,1,0,0:0:0:0:
160,288,83913,1,0,0:0:0:0:
160,288,83971,1,0,0:0:0:0:
160,288,84030,1,0,0:0:0:0:
160,288,84088,1,0,0:0:0:0:
352,288,84147,1,2,0:0:0:0:
160,288,84206,1,0,0:0:0:0:
160,288,84264,1,0,0:0:0:0:
160,288,84323,1,0,0:0:0:0:
352,288,84381,1,2,0:0:0:0:
160,288,84440,1,0,0:0:0:0:
160,288,84499,1,0,0:0:0:0:
160,288,84557,1,0,0:0:0:0:
352,96,84616,1,6,0:0:0:0:
160,288,84674,1,0,0:0:0:0:
160,288,84733,1,0,0:0:0:0:
160,288,84792,1,0,0:0:0:0:
160,288,84850,1,0,0:0:0:0:
160,288,84909,1,0,0:0:0:0:
352,288,84967,1,2,0:0:0:0:
160,288,85026,1,0,0:0:0:0:
160,288,85085,1,0,0:0:0:0:
160,288,85143,1,0,0:0:0:0:
352,288,85202,1,2,0:0:0:0:
160,288,85260,1,0,0:0:0:0:
160,288,85319,1,0,0:0:0:0:
160,288,85378,1,0,0:0:0:0:
160,288,85436,1,0,0:0:0:0:
160,288,85495,1,0,0:0:0:0:
160,288,85553,1,0,0:0:0:0:
160,288,85612,1,0,0:0:0:0:
352,96,85671,1,6,0:0:0:0:
352,288,85729,1,2,0:0:0:0:
352,288,85788,1,2,0:0:0:0:
352,288,85846,1,2,0:0:0:0:
352,288,85905,1,2,0:0:0:0:
352,288,85963,1,2,0:0:0:0:
160,288,86022,1,0,0:0:0:0:
352,288,86081,1,2,0:0:0:0:
352,288,86139,1,2,0:0:0:0:
352,288,86198,1,2,0:0:0:0:
160,288,86256,1,0,0:0:0:0:
352,288,86315,1,2,0:0:0:0:
352,288,86374,1,2,0:0:0:0:
352,288,86432,1,2,0:0:0:0:
352,96,86491,1,6,0:0:0:0:
352,288,86549,1,2,0:0:0:0:
352,288,86608,1,2,0:0:0:0:
352,288,86667,1,2,0:0:0:0:
160,288,86725,1,0,0:0:0:0:
352,288,86784,1,2,0:0:0:0:
352,288,86842,1,2,0:0:0:0:
352,288,86901,1,2,0:0:0:0:
352,288,86960,1,2,0:0:0:0:
352,288,87018,1,2,0:0:0:0:
160,288,87077,1,0,0:0:0:0:
352,288,87135,1,2,0:0:0:0:
352,288,87194,1,2,0:0:0:0:
352,288,87253,1,2,0:0:0:0:
160,288,87311,1,0,0:0:0:0:
352,288,87370,1,2,0:0:0:0:
352,96,87428,1,6,0:0:0:0:
352,288,87487,1,2,0:0:0:0:
160,288,87546,1,0,0:0:0:0:
160,288,87663,1,0,0:0:0:0:
352,288,87780,1,2,0:0:0:0:
352,288,87897,1,2,0:0:0:0:
160,288,88014,1,0,0:0:0:0:
160,288,88131,1,0,0:0:0:0:
352,288,88249,1,2,0:0:0:0:
352,288,88366,1,2,0:0:0:0:
160,288,88483,1,0,0:0:0:0:
160,288,88600,1,0,0:0:0:0:
352,288,88717,1,2,0:0:0:0:
352,288,88835,1,2,0:0:0:0:
352,96,88952,1,6,0:0:0:0:
160,288,89010,1,0,0:0:0:0:
160,288,89069,1,0,0:0:0:0:
160,288,89128,1,0,0:0:0:0:
160,288,89186,1,0,0:0:0:0:
160,288,89245,1,0,0:0:0:0:
160,288,89303,1,0,0:0:0:0:
160,288,89362,1,0,0:0:0:0:
160,96,89421,5,4,0:0:0:0:
256,192,93171,12,0,96451,0:0:0:0:
160,96,96921,5,4,0:0:0:0:
160,288,97155,1,0,0:0:0:0:
352,288,97272,1,2,0:0:0:0:
352,288,97506,1,2,0:0:0:0:
352,96,97741,1,6,0:0:0:0:
160,288,97975,1,0,0:0:0:0:
352,288,98092,1,2,0:0:0:0:
352,288,98327,1,2,0:0:0:0:
160,288,98561,1,0,0:0:0:0:
160,96,98796,1,4,0:0:0:0:
160,288,99030,1,0,0:0:0:0:
352,288,99147,1,2,0:0:0:0:
352,288,99381,1,2,0:0:0:0:
352,96,99616,1,6,0:0:0:0:
160,288,99850,1,0,0:0:0:0:
352,288,99967,1,2,0:0:0:0:
352,288,100202,1,2,0:0:0:0:
160,288,100436,1,0,0:0:0:0:
352,96,100671,1,6,0:0:0:0:
352,288,100905,1,2,0:0:0:0:
160,288,101022,1,0,0:0:0:0:
160,288,101256,1,0,0:0:0:0:
352,96,101491,1,6,0:0:0:0:
160,288,101725,1,0,0:0:0:0:
352,288,101842,1,2,0:0:0:0:
160,288,102077,1,0,0:0:0:0:
160,288,102311,1,0,0:0:0:0:
352,96,102546,1,6,0:0:0:0:
352,288,102780,1,2,0:0:0:0:
160,288,102897,1,0,0:0:0:0:
160,288,103131,1,0,0:0:0:0:
352,96,103366,1,6,0:0:0:0:
160,288,103600,1,0,0:0:0:0:
352,288,103717,1,2,0:0:0:0:
352,288,103952,1,2,0:0:0:0:
160,288,104186,1,0,0:0:0:0:
160,96,104421,1,4,0:0:0:0:
160,288,104655,1,0,0:0:0:0:
352,288,104772,1,2,0:0:0:0:
352,288,105006,1,2,0:0:0:0:
352,96,105241,1,6,0:0:0:0:
160,288,105475,1,0,0:0:0:0:
352,288,105592,1,2,0:0:0:0:
352,288,105827,1,2,0:0:0:0:
160,288,106061,1,0,0:0:0:0:
160,96,106296,1,4,0:0:0:0:
160,288,106530,1,0,0:0:0:0:
352,288,106647,1,2,0:0:0:0:
352,288,106881,1,2,0:0:0:0:
352,96,107116,1,6,0:0:0:0:
160,288,107350,1,0,0:0:0:0:
352,288,107467,1,2,0:0:0:0:
352,288,107702,1,2,0:0:0:0:
160,288,107936,1,0,0:0:0:0:
352,96,108171,1,6,0:0:0:0:
352,288,108405,1,2,0:0:0:0:
160,288,108522,1,0,0:0:0:0:
160,288,108756,1,0,0:0:0:0:
352,96,108991,1,6,0:0:0:0:
160,288,109225,1,0,0:0:0:0:
352,288,109342,1,2,0:0:0:0:
160,288,109577,1,0,0:0:0:0:
160,288,109811,1,0,0:0:0:0:
352,96,110046,1,6,0:0:0:0:
352,288,110280,1,2,0:0:0:0:
160,288,110397,1,0,0:0:0:0:
160,288,110631,1,0,0:0:0:0:
352,96,110866,1,6,0:0:0:0:
160,288,111100,1,0,0:0:0:0:
352,288,111217,1,2,0:0:0:0:
352,288,111452,1,2,0:0:0:0:
160,288,111686,1,0,0:0:0:0:
160,96,111921,1,4,0:0:0:0:
160,288,112038,1,0,0:0:0:0:
160,288,112155,1,0,0:0:0:0:
352,288,112272,1,2,0:0:0:0:
352,288,112506,1,2,0:0:0:0:
352,96,112741,1,6,0:0:0:0:
160,288,112975,1,0,0:0:0:0:
352,288,113092,1,2,0:0:0:0:
352,288,113327,1,2,0:0:0:0:
160,288,113561,1,0,0:0:0:0:
160,96,113796,1,4,0:0:0:0:
160,288,113913,1,0,0:0:0:0:
160,288,114030,1,0,0:0:0:0:
352,288,114147,1,2,0:0:0:0:
352,288,114381,1,2,0:0:0:0:
352,96,114616,1,6,0:0:0:0:
160,288,114850,1,0,0:0:0:0:
352,288,114967,1,2,0:0:0:0:
352,288,115202,1,2,0:0:0:0:
160,288,115436,1,0,0:0:0:0:
352,96,115671,1,6,0:0:0:0:
352,288,115788,1,2,0:0:0:0:
352,288,115905,1,2,0:0:0:0:
160,288,116022,1,0,0:0:0:0:
160,288,116256,1,0,0:0:0:0:
352,96,116491,1,6,0:0:0:0:
160,288,116725,1,0,0:0:0:0:
352,288,116842,1,2,0:0:0:0:
160,288,117077,1,0,0:0:0:0:
160,288,117311,1,0,0:0:0:0:
352,96,117546,1,6,0:0:0:0:
352,288,117663,1,2,0:0:0:0:
352,288,117780,1,2,0:0:0:0:
160,288,117897,1,0,0:0:0:0:
160,288,118131,1,0,0:0:0:0:
352,96,118366,1,6,0:0:0:0:
160,288,118600,1,0,0:0:0:0:
352,288,118717,1,2,0:0:0:0:
352,288,118952,1,2,0:0:0:0:
160,288,119186,1,0,0:0:0:0:
160,96,119421,5,4,0:0:0:0:
160,288,119538,1,0,0:0:0:0:
160,288,119655,1,0,0:0:0:0:
352,288,119772,1,2,0:0:0:0:
352,288,120006,1,2,0:0:0:0:
352,96,120241,1,6,0:0:0:0:
160,288,120475,1,0,0:0:0:0:
352,288,120592,1,2,0:0:0:0:
352,288,120827,1,2,0:0:0:0:
160,288,121061,1,0,0:0:0:0:
160,96,121296,1,4,0:0:0:0:
160,288,121413,1,0,0:0:0:0:
160,288,121530,1,0,0:0:0:0:
352,288,121647,1,2,0:0:0:0:
352,288,121881,1,2,0:0:0:0:
352,96,122116,1,6,0:0:0:0:
160,288,122350,1,0,0:0:0:0:
352,288,122467,1,2,0:0:0:0:
352,288,122702,1,2,0:0:0:0:
160,288,122936,1,0,0:0:0:0:
352,96,123171,1,6,0:0:0:0:
352,288,123288,1,2,0:0:0:0:
352,288,123405,1,2,0:0:0:0:
160,288,123522,1,0,0:0:0:0:
160,288,123756,1,0,0:0:0:0:
352,96,123991,1,6,0:0:0:0:
160,288,124225,1,0,0:0:0:0:
352,288,124342,1,2,0:0:0:0:
160,288,124577,1,0,0:0:0:0:
160,288,124811,1,0,0:0:0:0:
352,96,125046,1,6,0:0:0:0:
352,288,125163,1,2,0:0:0:0:
352,288,125280,1,2,0:0:0:0:
160,288,125397,1,0,0:0:0:0:
160,288,125631,1,0,0:0:0:0:
352,96,125866,1,6,0:0:0:0:
160,288,126100,1,0,0:0:0:0:
352,288,126217,1,2,0:0:0:0:
352,288,126452,1,2,0:0:0:0:
160,288,126686,1,0,0:0:0:0:
160,96,126921,5,4,0:0:0:0:
160,288,127038,1,0,0:0:0:0:
160,288,127155,1,0,0:0:0:0:
352,288,127272,1,2,0:0:0:0:
352,288,127506,1,2,0:0:0:0:
352,96,127741,1,6,0:0:0:0:
160,288,127975,1,0,0:0:0:0:
352,288,128092,1,2,0:0:0:0:
352,288,128327,1,2,0:0:0:0:
160,288,128561,1,0,0:0:0:0:
160,96,128796,1,4,0:0:0:0:
160,288,128913,1,0,0:0:0:0:
160,288,129030,1,0,0:0:0:0:
352,288,129147,1,2,0:0:0:0:
352,288,129381,1,2,0:0:0:0:
352,96,129616,1,6,0:0:0:0:
160,288,129850,1,0,0:0:0:0:
352,288,129967,1,2,0:0:0:0:
352,288,130202,1,2,0:0:0:0:
160,288,130436,1,0,0:0:0:0:
160,96,130671,1,4,0:0:0:0:
160,288,130788,1,0,0:0:0:0:
160,288,130905,1,0,0:0:0:0:
352,288,131022,1,2,0:0:0:0:
352,288,131256,1,2,0:0:0:0:
352,96,131491,1,6,0:0:0:0:
160,288,131725,1,0,0:0:0:0:
352,288,131842,1,2,0:0:0:0:
352,288,132077,1,2,0:0:0:0:
160,288,132311,1,0,0:0:0:0:
160,96,132546,1,4,0:0:0:0:
160,288,132663,1,0,0:0:0:0:
160,288,132780,1,0,0:0:0:0:
352,288,132897,1,2,0:0:0:0:
352,288,133131,1,2,0:0:0:0:
352,96,133366,1,6,0:0:0:0:
160,288,133600,1,0,0:0:0:0:
352,288,133717,1,2,0:0:0:0:
352,288,133952,1,2,0:0:0:0:
160,288,134186,1,0,0:0:0:0:
160,96,134421,1,4,0:0:0:0:
160,288,134538,1,0,0:0:0:0:
160,288,134655,1,0,0:0:0:0:
352,288,134772,1,2,0:0:0:0:
352,288,135006,1,2,0:0:0:0:
352,96,135241,1,6,0:0:0:0:
160,288,135475,1,0,0:0:0:0:
352,288,135592,1,2,0:0:0:0:
352,288,135827,1,2,0:0:0:0:
160,288,136061,1,0,0:0:0:0:
160,96,136296,1,4,0:0:0:0:
160,288,136413,1,0,0:0:0:0:
160,288,136530,1,0,0:0:0:0:
352,288,136647,1,2,0:0:0:0:
352,288,136881,1,2,0:0:0:0:
352,96,137116,1,6,0:0:0:0:
160,288,137350,1,0,0:0:0:0:
352,288,137467,1,2,0:0:0:0:
352,288,137702,1,2,0:0:0:0:
160,288,137936,1,0,0:0:0:0:
160,96,138171,1,4,0:0:0:0:
160,288,138288,1,0,0:0:0:0:
160,288,138405,1,0,0:0:0:0:
352,288,138522,1,2,0:0:0:0:
352,288,138756,1,2,0:0:0:0:
352,96,138991,1,6,0:0:0:0:
160,288,139225,1,0,0:0:0:0:
352,288,139342,1,2,0:0:0:0:
352,288,139577,1,2,0:0:0:0:
160,288,139811,1,0,0:0:0:0:
256,192,140046,12,0,141335,0:0:0:0:
160,96,141921,5,4,0:0:0:0:
160,288,141973,1,0,0:0:0:0:
160,288,142025,1,0,0:0:0:0:
160,288,142077,1,0,0:0:0:0:
160,288,142129,1,0,0:0:0:0:
160,288,142181,1,0,0:0:0:0:
352,288,142233,1,2,0:0:0:0:
160,288,142285,1,0,0:0:0:0:
160,288,142337,1,0,0:0:0:0:
160,288,142389,1,0,0:0:0:0:
352,288,142441,1,2,0:0:0:0:
160,288,142493,1,0,0:0:0:0:
160,288,142546,1,0,0:0:0:0:
160,288,142598,1,0,0:0:0:0:
352,96,142650,1,6,0:0:0:0:
160,288,142702,1,0,0:0:0:0:
160,288,142754,1,0,0:0:0:0:
160,288,142806,1,0,0:0:0:0:
160,288,142858,1,0,0:0:0:0:
160,288,142910,1,0,0:0:0:0:
352,288,142962,1,2,0:0:0:0:
160,288,143014,1,0,0:0:0:0:
160,288,143066,1,0,0:0:0:0:
160,288,143118,1,0,0:0:0:0:
352,288,143171,1,2,0:0:0:0:
160,288,143223,1,0,0:0:0:0:
160,288,143275,1,0,0:0:0:0:
160,288,143327,1,0,0:0:0:0:
160,288,143379,1,0,0:0:0:0:
160,288,143431,1,0,0:0:0:0:
160,288,143483,1,0,0:0:0:0:
160,288,143535,1,0,0:0:0:0:
160,96,143587,1,0,0:0:0:0:
160,288,143639,1,0,0:0:0:0:
160,288,143691,1,0,0:0:0:0:
160,288,143743,1,0,0:0:0:0:
160,288,143795,1,0,0:0:0:0:
160,288,143848,1,0,0:0:0:0:
352,288,143899,1,2,0:0:0:0:
160,288,143952,1,0,0:0:0:0:
160,288,144004,1,0,0:0:0:0:
160,288,144056,1,0,0:0:0:0:
352,288,144107,1,2,0:0:0:0:
160,288,144160,1,0,0:0:0:0:
160,288,144212,1,0,0:0:0:0:
160,288,144264,1,0,0:0:0:0:
352,96,144316,1,6,0:0:0:0:
160,288,144368,1,0,0:0:0:0:
160,288,144421,1,0,0:0:0:0:
160,288,144473,1,0,0:0:0:0:
160,288,144524,1,0,0:0:0:0:
160,288,144577,1,0,0:0:0:0:
352,288,144628,1,2,0:0:0:0:
160,288,144681,1,0,0:0:0:0:
160,288,144733,1,0,0:0:0:0:
160,288,144785,1,0,0:0:0:0:
352,288,144837,1,2,0:0:0:0:
160,288,144889,1,0,0:0:0:0:
160,288,144941,1,0,0:0:0:0:
160,288,144993,1,0,0:0:0:0:
160,288,145045,1,0,0:0:0:0:
160,288,145098,1,0,0:0:0:0:
160,288,145150,1,0,0:0:0:0:
160,288,145202,1,0,0:0:0:0:
352,96,145254,1,6,0:0:0:0:
352,288,145306,1,2,0:0:0:0:
352,288,145358,1,2,0:0:0:0:
352,288,145410,1,2,0:0:0:0:
352,288,145462,1,2,0:0:0:0:
352,288,145514,1,2,0:0:0:0:
160,288,145566,1,0,0:0:0:0:
352,288,145618,1,2,0:0:0:0:
352,288,145671,1,2,0:0:0:0:
352,288,145723,1,2,0:0:0:0:
160,288,145775,1,0,0:0:0:0:
352,288,145827,1,2,0:0:0:0:
352,288,145879,1,2,0:0:0:0:
352,288,145931,1,2,0:0:0:0:
352,96,145983,1,6,0:0:0:0:
352,288,146035,1,2,0:0:0:0:
352,288,146087,1,2,0:0:0:0:
352,288,146139,1,2,0:0:0:0:
160,288,146191,1,0,0:0:0:0:
352,288,146243,1,2,0:0:0:0:
352,288,146296,1,2,0:0:0:0:
352,288,146348,1,2,0:0:0:0:
352,288,146400,1,2,0:0:0:0:
352,288,146452,1,2,0:0:0:0:
160,288,146504,1,0,0:0:0:0:
352,288,146556,1,2,0:0:0:0:
352,288,146608,1,2,0:0:0:0:
352,288,146660,1,2,0:0:0:0:
160,288,146712,1,0,0:0:0:0:
352,288,146764,1,2,0:0:0:0:
352,288,146816,1,2,0:0:0:0:
352,288,146868,1,2,0:0:0:0:
352,96,146921,1,6,0:0:0:0:
352,288,146973,1,2,0:0:0:0:
352,288,147025,1,2,0:0:0:0:
352,288,147077,1,2,0:0:0:0:
352,288,147129,1,2,0:0:0:0:
352,288,147181,1,2,0:0:0:0:
160,288,147233,1,0,0:0:0:0:
352,288,147285,1,2,0:0:0:0:
352,288,147337,1,2,0:0:0:0:
352,288,147389,1,2,0:0:0:0:
160,288,147442,1,0,0:0:0:0:
352,288,147493,1,2,0:0:0:0:
352,288,147546,1,2,0:0:0:0:
352,288,147598,1,2,0:0:0:0:
352,96,147650,1,6,0:0:0:0:
352,288,147702,1,2,0:0:0:0:
352,288,147754,1,2,0:0:0:0:
352,288,147806,1,2,0:0:0:0:
160,288,147858,1,0,0:0:0:0:
352,288,147910,1,2,0:0:0:0:
352,288,147963,1,2,0:0:0:0:
352,288,148014,1,2,0:0:0:0:
352,288,148066,1,2,0:0:0:0:
352,288,148118,1,2,0:0:0:0:
160,288,148171,1,0,0:0:0:0:
352,288,148223,1,2,0:0:0:0:
352,288,148275,1,2,0:0:0:0:
352,288,148327,1,2,0:0:0:0:
160,288,148379,1,0,0:0:0:0:
352,288,148431,1,2,0:0:0:0:
352,288,148483,1,2,0:0:0:0:
352,288,148535,1,2,0:0:0:0:
160,96,148587,1,4,0:0:0:0:
160,288,148639,1,0,0:0:0:0:
160,288,148691,1,0,0:0:0:0:
160,288,148743,1,0,0:0:0:0:
160,288,148795,1,0,0:0:0:0:
160,288,148847,1,0,0:0:0:0:
352,288,148899,1,2,0:0:0:0:
160,288,148951,1,0,0:0:0:0:
160,288,149003,1,0,0:0:0:0:
160,288,149055,1,0,0:0:0:0:
352,288,149107,1,2,0:0:0:0:
160,288,149159,1,0,0:0:0:0:
160,288,149212,1,0,0:0:0:0:
160,288,149264,1,0,0:0:0:0:
352,96,149316,1,6,0:0:0:0:
160,288,149368,1,0,0:0:0:0:
160,288,149420,1,0,0:0:0:0:
160,288,149472,1,0,0:0:0:0:
160,288,149524,1,0,0:0:0:0:
160,288,149576,1,0,0:0:0:0:
352,288,149628,1,2,0:0:0:0:
160,288,149680,1,0,0:0:0:0:
160,288,149732,1,0,0:0:0:0:
160,288,149784,1,0,0:0:0:0:
352,288,149837,1,2,0:0:0:0:
160,288,149889,1,0,0:0:0:0:
160,288,149941,1,0,0:0:0:0:
160,288,149993,1,0,0:0:0:0:
160,288,150045,1,0,0:0:0:0:
160,288,150097,1,0,0:0:0:0:
160,288,150149,1,0,0:0:0:0:
160,288,150201,1,0,0:0:0:0:
160,96,150253,1,0,0:0:0:0:
160,288,150305,1,0,0:0:0:0:
160,288,150357,1,0,0:0:0:0:
160,288,150409,1,0,0:0:0:0:
160,288,150461,1,0,0:0:0:0:
160,288,150514,1,0,0:0:0:0:
352,288,150565,1,2,0:0:0:0:
160,288,150618,1,0,0:0:0:0:
160,288,150670,1,0,0:0:0:0:
160,288,150722,1,0,0:0:0:0:
352,288,150773,1,2,0:0:0:0:
160,288,150826,1,0,0:0:0:0:
160,288,150878,1,0,0:0:0:0:
160,288,150930,1,0,0:0:0:0:
352,96,150982,1,6,0:0:0:0:
160,288,151034,1,0,0:0:0:0:
160,288,151087,1,0,0:0:0:0:
160,288,151139,1,0,0:0:0:0:
160,288,151190,1,0,0:0:0:0:
160,288,151243,1,0,0:0:0:0:
352,288,151294,1,2,0:0:0:0:
160,288,151347,1,0,0:0:0:0:
160,288,151399,1,0,0:0:0:0:
160,288,151451,1,0,0:0:0:0:
352,288,151503,1,2,0:0:0:0:
160,288,151555,1,0,0:0:0:0:
160,288,151607,1,0,0:0:0:0:
160,288,151659,1,0,0:0:0:0:
160,288,151711,1,0,0:0:0:0:
160,288,151764,1,0,0:0:0:0:
160,288,151816,1,0,0:0:0:0:
160,288,151868,1,0,0:0:0:0:
352,96,151920,1,6,0:0:0:0:
352,288,151972,1,2,0:0:0:0:
352,288,152024,1,2,0:0:0:0:
352,288,152076,1,2,0:0:0:0:
352,288,152128,1,2,0:0:0:0:
352,288,152180,1,2,0:0:0:0:
160,288,152232,1,0,0:0:0:0:
352,288,152284,1,2,0:0:0:0:
352,288,152337,1,2,0:0:0:0:
352,288,152389,1,2,0:0:0:0:
160,288,152441,1,0,0:0:0:0:
352,288,152493,1,2,0:0:0:0:
352,288,152545,1,2,0:0:0:0:
352,288,152597,1,2,0:0:0:0:
352,96,152649,1,6,0:0:0:0:
352,288,152701,1,2,0:0:0:0:
352,288,152753,1,2,0:0:0:0:
352,288,152805,1,2,0:0:0:0:
160,288,152857,1,0,0:0:0:0:
352,288,152909,1,2,0:0:0:0:
352,288,152962,1,2,0:0:0:0:
352,288,153014,1,2,0:0:0:0:
352,288,153066,1,2,0:0:0:0:
352,288,153118,1,2,0:0:0:0:
160,288,153170,1,0,0:0:0:0:
352,288,153222,1,2,0:0:0:0:
352,288,153274,1,2,0:0:0:0:
352,288,153326,1,2,0:0:0:0:
160,288,153378,1,0,0:0:0:0:
352,288,153430,1,2,0:0:0:0:
352,288,153482,1,2,0:0:0:0:
352,288,153534,1,2,0:0:0:0:
352,96,153587,1,6,0:0:0:0:
352,288,153639,1,2,0:0:0:0:
352,288,153691,1,2,0:0:0:0:
352,288,153743,1,2,0:0:0:0:
352,288,153795,1,2,0:0:0:0:
352,288,153847,1,2,0:0:0:0:
160,288,153899,1,0,0:0:0:0:
352,288,153951,1,2,0:0:0:0:
352,288,154003,1,2,0:0:0:0:
352,288,154055,1,2,0:0:0:0:
160,288,154108,1,0,0:0:0:0:
352,288,154159,1,2,0:0:0:0:
352,288,154212,1,2,0:0:0:0:
352,288,154264,1,2,0:0:0:0:
352,96,154316,1,6,0:0:0:0:
352,288,154368,1,2,0:0:0:0:
352,288,154420,1,2,0:0:0:0:
352,288,154472,1,2,0:0:0:0:
160,288,154524,1,0,0:0:0:0:
352,288,154576,1,2,0:0:0:0:
352,288,154629,1,2,0:0:0:0:
352,288,154680,1,2,0:0:0:0:
352,288,154732,1,2,0:0:0:0:
352,288,154784,1,2,0:0:0:0:
160,288,154837,1,0,0:0:0:0:
352,288,154889,1,2,0:0:0:0:
352,288,154941,1,2,0:0:0:0:
352,288,154993,1,2,0:0:0:0:
160,288,155045,1,0,0:0:0:0:
352,288,155097,1,2,0:0:0:0:
352,288,155149,1,2,0:0:0:0:
352,288,155201,1,2,0:0:0:0:
160,96,155254,1,4,0:0:0:0:
160,288,155306,1,0,0:0:0:0:
160,288,155358,1,0,0:0:0:0:
160,288,155410,1,0,0:0:0:0:
160,288,155462,1,0,0:0:0:0:
160,288,155514,1,0,0:0:0:0:
352,288,155566,1,2,0:0:0:0:
160,288,155618,1,0,0:0:0:0:
160,288,155670,1,0,0:0:0:0:
160,288,155722,1,0,0:0:0:0:
352,288,155774,1,2,0:0:0:0:
160,288,155826,1,0,0:0:0:0:
160,288,155879,1,0,0:0:0:0:
160,288,155931,1,0,0:0:0:0:
352,96,155983,1,6,0:0:0:0:
160,288,156035,1,0,0:0:0:0:
160,288,156087,1,0,0:0:0:0:
160,288,156139,1,0,0:0:0:0:
160,288,156191,1,0,0:0:0:0:
160,288,156243,1,0,0:0:0:0:
352,288,156295,1,2,0:0:0:0:
160,288,156347,1,0,0:0:0:0:
160,288,156399,1,0,0:0:0:0:
160,288,156451,1,0,0:0:0:0:
352,288,156504,1,2,0:0:0:0:
160,288,156556,1,0,0:0:0:0:
160,288,156608,1,0,0:0:0:0:
160,288,156660,1,0,0:0:0:0:
160,288,156712,1,0,0:0:0:0:
160,288,156764,1,0,0:0:0:0:
160,288,156816,1,0,0:0:0:0:
160,288,156868,1,0,0:0:0:0:
160,96,156920,1,0,0:0:0:0:
160,288,156972,1,0,0:0:0:0:
160,288,157024,1,0,0:0:0:0:
160,288,157076,1,0,0:0:0:0:
160,288,157128,1,0,0:0:0:0:
160,288,157181,1,0,0:0:0:0:
352,288,157232,1,2,0:0:0:0:
160,288,157285,1,0,0:0:0:0:
160,288,157337,1,0,0:0:0:0:
160,288,157389,1,0,0:0:0:0:
352,288,157440,1,2,0:0:0:0:
160,288,157493,1,0,0:0:0:0:
160,288,157545,1,0,0:0:0:0:
160,288,157597,1,0,0:0:0:0:
352,96,157649,1,6,0:0:0:0:
160,288,157701,1,0,0:0:0:0:
160,288,157754,1,0,0:0:0:0:
160,288,157806,1,0,0:0:0:0:
160,288,157857,1,0,0:0:0:0:
160,288,157910,1,0,0:0:0:0:
352,288,157961,1,2,0:0:0:0:
160,288,158014,1,0,0:0:0:0:
160,288,158066,1,0,0:0:0:0:
160,288,158118,1,0,0:0:0:0:
352,288,158170,1,2,0:0:0:0:
160,288,158222,1,0,0:0:0:0:
160,288,158274,1,0,0:0:0:0:
160,288,158326,1,0,0:0:0:0:
160,288,158378,1,0,0:0:0:0:
160,288,158431,1,0,0:0:0:0:
160,288,158483,1,0,0:0:0:0:
160,288,158535,1,0,0:0:0:0:
352,96,158587,1,6,0:0:0:0:
352,288,158639,1,2,0:0:0:0:
352,288,158691,1,2,0:0:0:0:
352,288,158743,1,2,0:0:0:0:
352,288,158795,1,2,0:0:0:0:
352,288,158847,1,2,0:0:0:0:
160,288,158899,1,0,0:0:0:0:
352,288,158951,1,2,0:0:0:0:
352,288,159004,1,2,0:0:0:0:
352,288,159056,1,2,0:0:0:0:
160,288,159108,1,0,0:0:0:0:
352,288,159160,1,2,0:0:0:0:
352,288,159212,1,2,0:0:0:0:
352,288,159264,1,2,0:0:0:0:
352,96,159316,1,6,0:0:0:0:
352,288,159368,1,2,0:0:0:0:
352,288,159420,1,2,0:0:0:0:
352,288,159472,1,2,0:0:0:0:
160,288,159524,1,0,0:0:0:0:
352,288,159576,1,2,0:0:0:0:
352,288,159629,1,2,0:0:0:0:
352,288,159681,1,2,0:0:0:0:
352,288,159733,1,2,0:0:0:0:
352,288,159785,1,2,0:0:0:0:
160,288,159837,1,0,0:0:0:0:
352,288,159889,1,2,0:0:0:0:
352,288,159941,1,2,0:0:0:0:
352,288,159993,1,2,0:0:0:0:
160,288,160045,1,0,0:0:0:0:
352,288,160097,1,2,0:0:0:0:
352,288,160149,1,2,0:0:0:0:
352,288,160201,1,2,0:0:0:0:
352,96,160254,1,6,0:0:0:0:
352,288,160306,1,2,0:0:0:0:
352,288,160358,1,2,0:0:0:0:
352,288,160410,1,2,0:0:0:0:
352,288,160462,1,2,0:0:0:0:
352,288,160514,1,2,0:0:0:0:
160,288,160566,1,0,0:0:0:0:
352,288,160618,1,2,0:0:0:0:
352,288,160670,1,2,0:0:0:0:
352,288,160722,1,2,0:0:0:0:
160,288,160775,1,0,0:0:0:0:
352,288,160826,1,2,0:0:0:0:
352,288,160879,1,2,0:0:0:0:
352,288,160931,1,2,0:0:0:0:
352,96,160983,1,6,0:0:0:0:
352,288,161035,1,2,0:0:0:0:
352,288,161087,1,2,0:0:0:0:
352,288,161139,1,2,0:0:0:0:
160,288,161191,1,0,0:0:0:0:
352,288,161243,1,2,0:0:0:0:
352,288,161296,1,2,0:0:0:0:
352,288,161347,1,2,0:0:0:0:
352,288,161399,1,2,0:0:0:0:
352,288,161451,1,2,0:0:0:0:
160,288,161504,1,0,0:0:0:0:
352,288,161556,1,2,0:0:0:0:
352,288,161608,1,2,0:0:0:0:
352,288,161660,1,2,0:0:0:0:
160,288,161712,1,0,0:0:0:0:
352,288,161764,1,2,0:0:0:0:
352,288,161816,1,2,0:0:0:0:
352,288,161868,1,2,0:0:0:0:
160,96,161921,1,4,0:0:0:0:
160,288,161973,1,0,0:0:0:0:
160,288,162025,1,0,0:0:0:0:
160,288,162077,1,0,0:0:0:0:
160,288,162129,1,0,0:0:0:0:
160,288,162181,1,0,0:0:0:0:
352,288,162233,1,2,0:0:0:0:
160,288,162285,1,0,0:0:0:0:
160,288,162337,1,0,0:0:0:0:
160,288,162389,1,0,0:0:0:0:
352,288,162441,1,2,0:0:0:0:
160,288,162493,1,0,0:0:0:0:
160,288,162546,1,0,0:0:0:0:
160,288,162598,1,0,0:0:0:0:
352,96,162650,1,6,0:0:0:0:
160,288,162702,1,0,0:0:0:0:
160,288,162754,1,0,0:0:0:0:
160,288,162806,1,0,0:0:0:0:
160,288,162858,1,0,0:0:0:0:
160,288,162910,1,0,0:0:0:0:
352,288,162962,1,2,0:0:0:0:
160,288,163014,1,0,0:0:0:0:
160,288,163066,1,0,0:0:0:0:
160,288,163118,1,0,0:0:0:0:
352,288,163171,1,2,0:0:0:0:
160,288,163223,1,0,0:0:0:0:
160,288,163275,1,0,0:0:0:0:
160,288,163327,1,0,0:0:0:0:
160,288,163379,1,0,0:0:0:0:
160,288,163431,1,0,0:0:0:0:
160,288,163483,1,0,0:0:0:0:
160,288,163535,1,0,0:0:0:0:
160,96,163587,1,0,0:0:0:0:
160,288,163639,1,0,0:0:0:0:
160,288,163691,1,0,0:0:0:0:
160,288,163743,1,0,0:0:0:0:
160,288,163795,1,0,0:0:0:0:
160,288,163848,1,0,0:0:0:0:
352,288,163899,1,2,0:0:0:0:
160,288,163952,1,0,0:0:0:0:
160,288,164004,1,0,0:0:0:0:
160,288,164056,1,0,0:0:0:0:
352,288,164107,1,2,0:0:0:0:
160,288,164160,1,0,0:0:0:0:
160,288,164212,1,0,0:0:0:0:
160,288,164264,1,0,0:0:0:0:
352,96,164316,1,6,0:0:0:0:
160,288,164368,1,0,0:0:0:0:
160,288,164421,1,0,0:0:0:0:
160,288,164473,1,0,0:0:0:0:
160,288,164524,1,0,0:0:0:0:
160,288,164577,1,0,0:0:0:0:
352,288,164628,1,2,0:0:0:0:
160,288,164681,1,0,0:0:0:0:
160,288,164733,1,0,0:0:0:0:
160,288,164785,1,0,0:0:0:0:
352,288,164837,1,2,0:0:0:0:
160,288,164889,1,0,0:0:0:0:
160,288,164941,1,0,0:0:0:0:
160,288,164993,1,0,0:0:0:0:
160,288,165045,1,0,0:0:0:0:
160,288,165098,1,0,0:0:0:0:
160,288,165150,1,0,0:0:0:0:
160,288,165202,1,0,0:0:0:0:
352,96,165254,1,6,0:0:0:0:
352,288,165306,1,2,0:0:0:0:
352,288,165358,1,2,0:0:0:0:
352,288,165410,1,2,0:0:0:0:
352,288,165462,1,2,0:0:0:0:
352,288,165514,1,2,0:0:0:0:
160,288,165566,1,0,0:0:0:0:
352,288,165618,1,2,0:0:0:0:
352,288,165671,1,2,0:0:0:0:
352,288,165723,1,2,0:0:0:0:
160,288,165775,1,0,0:0:0:0:
352,288,165827,1,2,0:0:0:0:
352,288,165879,1,2,0:0:0:0:
352,288,165931,1,2,0:0:0:0:
352,96,165983,1,6,0:0:0:0:
352,288,166035,1,2,0:0:0:0:
352,288,166087,1,2,0:0:0:0:
352,288,166139,1,2,0:0:0:0:
160,288,166191,1,0,0:0:0:0:
352,288,166243,1,2,0:0:0:0:
352,288,166296,1,2,0:0:0:0:
352,288,166348,1,2,0:0:0:0:
352,288,166400,1,2,0:0:0:0:
352,288,166452,1,2,0:0:0:0:
160,288,166504,1,0,0:0:0:0:
352,288,166556,1,2,0:0:0:0:
352,288,166608,1,2,0:0:0:0:
352,288,166660,1,2,0:0:0:0:
160,288,166712,1,0,0:0:0:0:
352,288,166764,1,2,0:0:0:0:
352,288,166816,1,2,0:0:0:0:
352,288,166868,1,2,0:0:0:0:
352,96,166921,1,6,0:0:0:0:
352,288,166973,1,2,0:0:0:0:
352,288,167025,1,2,0:0:0:0:
352,288,167077,1,2,0:0:0:0:
352,288,167129,1,2,0:0:0:0:
352,288,167181,1,2,0:0:0:0:
160,288,167233,1,0,0:0:0:0:
352,288,167285,1,2,0:0:0:0:
352,288,167337,1,2,0:0:0:0:
352,288,167389,1,2,0:0:0:0:
160,288,167442,1,0,0:0:0:0:
352,288,167493,1,2,0:0:0:0:
352,288,167546,1,2,0:0:0:0:
352,288,167598,1,2,0:0:0:0:
352,96,167650,1,6,0:0:0:0:
352,288,167702,1,2,0:0:0:0:
352,288,167754,1,2,0:0:0:0:
352,288,167806,1,2,0:0:0:0:
160,288,167858,1,0,0:0:0:0:
352,288,167910,1,2,0:0:0:0:
352,288,167963,1,2,0:0:0:0:
352,288,168014,1,2,0:0:0:0:
352,288,168066,1,2,0:0:0:0:
352,288,168118,1,2,0:0:0:0:
160,288,168171,1,0,0:0:0:0:
352,288,168223,1,2,0:0:0:0:
352,288,168275,1,2,0:0:0:0:
352,288,168327,1,2,0:0:0:0:
160,288,168379,1,0,0:0:0:0:
352,288,168431,1,2,0:0:0:0:
352,288,168483,1,2,0:0:0:0:
352,288,168535,1,2,0:0:0:0:
160,96,168587,5,4,0:0:0:0:
160,96,169055,1,4,0:0:0:0:
352,288,169290,1,2,0:0:0:0:
352,96,169524,1,6,0:0:0:0:
160,96,169993,1,4,0:0:0:0:
352,288,170227,1,2,0:0:0:0:
352,96,170462,1,6,0:0:0:0:
352,96,170930,1,6,0:0:0:0:
352,96,171399,1,6,0:0:0:0:
352,96,171868,1,6,0:0:0:0:
256,192,172337,12,0,172805,0:0:0:0:
352,288,173040,5,2,0:0:0:0:
352,96,173274,1,6,0:0:0:0:
160,96,173743,1,4,0:0:0:0:
352,288,173977,1,2,0:0:0:0:
160,96,174212,1,4,0:0:0:0:
352,96,174680,1,6,0:0:0:0:
352,96,175149,1,6,0:0:0:0:
352,96,175618,1,6,0:0:0:0:
256,192,176087,12,0,176555,0:0:0:0:
352,288,176790,5,2,0:0:0:0:
352,96,177024,1,6,0:0:0:0:
160,96,177493,1,4,0:0:0:0:
352,288,177727,1,2,0:0:0:0:
352,96,177962,1,6,0:0:0:0:
352,96,178430,1,6,0:0:0:0:
352,96,178899,1,6,0:0:0:0:
352,96,179368,1,6,0:0:0:0:
256,192,179837,12,6,180305,0:0:0:0:
352,288,180540,5,2,0:0:0:0:
352,96,180774,1,6,0:0:0:0:
160,96,181243,1,4,0:0:0:0:
352,288,181477,1,2,0:0:0:0:
352,96,181712,1,6,0:0:0:0:
352,96,182180,1,6,0:0:0:0:
352,96,182649,1,6,0:0:0:0:
352,96,183118,1,6,0:0:0:0:
256,192,183587,12,0,184055,0:0:0:0:
352,288,184290,5,2,0:0:0:0:
352,96,184524,1,6,0:0:0:0:
160,288,184915,1,0,0:0:0:0:
160,96,184993,1,4,0:0:0:0:
352,288,185227,1,2,0:0:0:0:
160,96,185462,1,4,0:0:0:0:
352,96,185930,1,6,0:0:0:0:
160,288,186165,1,0,0:0:0:0:
352,96,186399,1,6,0:0:0:0:
160,288,186790,1,0,0:0:0:0:
352,96,186868,1,6,0:0:0:0:
160,288,187102,1,0,0:0:0:0:
256,192,187337,12,0,187805,0:0:0:0:
352,288,188040,5,2,0:0:0:0:
352,96,188274,1,6,0:0:0:0:
160,288,188665,1,0,0:0:0:0:
160,96,188743,1,4,0:0:0:0:
352,288,188977,1,2,0:0:0:0:
352,96,189212,1,6,0:0:0:0:
352,96,189680,1,6,0:0:0:0:
160,288,189915,1,0,0:0:0:0:
352,96,190149,1,6,0:0:0:0:
160,288,190540,1,0,0:0:0:0:
352,96,190618,1,6,0:0:0:0:
160,288,190852,1,0,0:0:0:0:
256,192,191087,12,0,198118,0:0:0:0:
256,192,198587,5,4,0:0:0:0:
