osu file format v14

[General]
AudioFilename: audio.mp3
AudioLeadIn: 0
PreviewTime: -1
Countdown: 1
SampleSet: None
StackLeniency: 0.7
Mode: 0
LetterboxInBreaks: 0
WidescreenStoryboard: 1

[Editor]
DistanceSpacing: 2.4
BeatDivisor: 8
GridSize: 4
TimelineZoom: 1.9

[Metadata]
Title:Regnant
TitleUnicode:Regnant
Artist:fang
ArtistUnicode:fang
Creator:Lama Poluna
Version:123
Source:
Tags:C92 Sound Ave. Driven' De:st-ructure 7 NOT 4 BEAT
BeatmapID:1467119
BeatmapSetID:693361

[Difficulty]
HPDrainRate:5
CircleSize:4
OverallDifficulty:8.3
ApproachRate:9.7
SliderMultiplier:2.05
SliderTickRate:1

[Events]
//Background and Video events
0,0,"BG.jpg",0,0
//Break Periods
2,1727,5516
2,8279,10688
2,44486,54136
//Storyboard Layer 0 (Background)
//Storyboard Layer 1 (Fail)
//Storyboard Layer 2 (Pass)
//Storyboard Layer 3 (Foreground)
//Storyboard Sound Samples

[TimingPoints]
149,344.827586206897,4,2,1,100,1,0
493,-200,4,2,1,100,0,0
11528,-100,4,2,1,100,0,0
11873,-133.333333333333,4,2,1,100,0,0
12217,-200,4,2,1,100,0,0
13252,-133.333333333333,4,2,1,100,0,0
13597,-100,4,2,1,100,0,0
14286,-200,4,2,1,100,0,0
16011,-133.333333333333,4,2,1,100,0,0
16355,-100,4,2,1,100,0,0
17045,-200,4,2,1,100,0,0
17562,-166.666666666667,4,2,1,100,0,0
17907,-142.857142857143,4,2,1,100,0,0
18252,-125,4,2,1,100,0,0
18597,-111.111111111111,4,2,1,100,0,0
18942,-100,4,2,1,100,0,0
19286,-80,4,2,1,100,0,0
19631,-66.6666666666667,4,2,1,100,0,0
19976,-57.1428571428571,4,2,1,100,0,0
20321,-50,4,2,1,100,0,0
20838,-100,4,2,1,100,0,0
22217,-66.6666666666667,4,2,1,100,0,0
22735,-100,4,2,1,100,0,0
22993,-80,4,2,1,100,0,0
23252,-66.6666666666667,4,2,1,100,0,0
23597,-80,4,2,1,100,0,0
24114,-100,4,2,1,100,0,0
24286,-66.6666666666667,4,2,1,100,0,0
24804,-100,4,2,1,100,0,0
24976,-80,4,2,1,100,0,0
26355,-133.333333333333,4,2,1,100,0,0
26700,-100,4,2,1,100,0,0
27045,-80,4,2,1,100,0,0
27735,-66.6666666666667,4,2,1,100,0,0
28252,-100,4,2,1,100,0,0
28511,-80,4,2,1,100,0,0
28683,-66.6666666666667,4,2,1,100,0,0
29114,-80,4,2,1,100,0,0
29631,-100,4,2,1,100,0,0
29804,-66.6666666666667,4,2,1,100,0,0
30321,-100,4,2,1,100,0,0
30493,-80,4,2,1,100,0,0
32045,-200,4,2,1,100,0,0
32390,-133.333333333333,4,2,1,100,0,0
32735,-100,4,2,1,100,0,0
33080,-66.6666666666667,4,2,1,100,0,0
33769,-100,4,2,1,100,0,0
33942,-80,4,2,1,100,0,0
34200,-66.6666666666667,4,2,1,100,0,0
34631,-80,4,2,1,100,0,0
35149,-100,4,2,1,100,0,0
35321,-66.6666666666667,4,2,1,100,0,0
35838,-100,4,2,1,100,0,0
36011,-80,4,2,1,100,0,0
37390,-133.333333333333,4,2,1,100,0,0
37735,-100,4,2,1,100,0,0
38080,-80,4,2,1,100,0,0
38769,-66.6666666666667,4,2,1,100,0,0
39286,-100,4,2,1,100,0,0
39545,-80,4,2,1,100,0,0
39804,-66.6666666666667,4,2,1,100,0,0
40149,-80,4,2,1,100,0,0
40666,-100,4,2,1,100,0,0
40838,-66.6666666666667,4,2,1,100,0,0
41355,-100,4,2,1,100,0,0
41528,-80,4,2,1,100,0,0
41786,-66.6666666666667,4,2,1,100,0,0
42045,-57.1428571428571,4,2,1,100,0,0
42304,-50,4,2,1,100,0,0
42907,-200,4,2,1,100,0,0
43424,-80,4,2,1,100,0,0
43769,-50,4,2,1,100,0,0
55321,-100,4,2,1,100,0,0
62045,-80,4,2,1,100,0,0
62562,-66.6666666666667,4,2,1,100,0,0
63080,-133.333333333333,4,2,1,100,0,0
63597,-1000,4,2,1,100,0,0
66700,-40,4,2,1,100,0,0
66873,-44.4444444444445,4,2,1,100,0,0
67304,-50,4,2,1,100,0,0
67562,-40,4,2,1,100,0,0
68080,-66.6666666666667,4,2,1,100,0,0
68338,-40,4,2,1,100,0,0
69114,-100,4,2,1,100,0,0
69459,-40,4,2,1,100,0,0
69717,-44.4444444444445,4,2,1,100,0,0
70149,-50,4,2,1,100,0,0
70321,-40,4,2,1,100,0,0
70493,-100,4,2,1,100,0,0
70666,-200,4,2,1,100,0,0
70838,-40,4,2,1,100,0,0
71700,-80,4,2,1,100,0,0
71873,-1000,4,2,1,100,0,0

[Colours]
Combo1 : 128,128,192
Combo2 : 255,0,0
Combo3 : 0,64,128
Combo4 : 174,0,0

[HitObjects]
375,167,149,5,4,3:2:0:0:
442,74,493,2,0,B|442:42|482:26|510:42|530:82|506:126|454:138|426:102|418:90|410:82|390:74|362:78|330:82|302:122,1,307.5,2|2,0:0|0:0,0:0:0:0:
136,155,6011,6,0,B|96:172|60:150|60:150|92:175|103:201|102:230|86:251|56:261|25:248|15:218|34:197,1,256.25,2|0,0:0|0:0,0:0:0:0:
104,72,7045,6,0,B|140:160|136:284|136:284|156:292|186:275|192:244|164:224,1,307.5,2|0,0:0|0:0,0:0:0:0:
451,71,11183,5,0,0:0:0:0:
439,74,11355,1,0,0:0:0:0:
381,143,11528,6,0,P|427:163|441:162,3,51.25,2|0|0|0,0:0|0:0|0:0|0:0,0:0:0:0:
294,160,11873,6,0,P|316:204|327:213,3,38.4375014662743,2|0|0|0,0:0|0:0|0:0|0:0,0:0:0:0:
211,124,12217,6,0,P|200:150|200:161,3,25.625,2|0|0|0,0:0|0:0|0:0|0:0,0:0:0:0:
168,47,12562,5,2,0:0:0:0:
198,252,12907,6,0,L|205:294,3,25.625
287,271,13252,6,0,L|280:330,3,38.4375014662743
365,334,13597,5,0,0:0:0:0:
361,348,13683,2,0,B|407:328|407:328|438:340|474:341,1,102.5
457,245,13942,5,0,0:0:0:0:
506,14,14286,6,0,L|501:47,3,25.625
489,123,14631,1,0,0:0:0:0:
341,56,14976,6,0,L|358:84,3,25.625
398,150,15321,1,0,0:0:0:0:
235,196,15666,6,0,L|266:206,3,25.625
339,231,16011,6,0,L|390:248,3,38.4375014662743
454,274,16355,5,0,0:0:0:0:
472,280,16442,2,0,B|499:292|499:292|412:311,1,102.5
339,327,16700,5,0,0:0:0:0:
263,69,17045,5,0,0:0:0:0:
263,69,17131,1,0,0:0:0:0:
263,69,17217,2,0,P|264:62|246:72,1,51.25
352,60,17476,5,0,0:0:0:0:
352,60,17562,2,0,P|348:100|331:127,1,61.499998123169
191,167,17821,5,0,0:0:0:0:
178,173,17907,2,0,L|258:164,1,71.7499978103638
404,209,18166,5,0,0:0:0:0:
414,222,18252,2,0,B|375:210|375:210|334:213,1,82
208,319,18511,5,0,0:0:0:0:
196,329,18597,2,0,P|196:269|253:285,1,138.37499577713
332,354,18942,6,0,P|352:299|358:288,1,51.25
91,371,19114,2,0,P|71:316|65:305,1,51.25
323,110,19286,6,0,B|344:144|344:144|229:120,1,128.125
108,200,19545,5,0,0:0:0:0:
108,200,19631,2,0,B|105:136|161:124|161:124|159:157|197:195,1,153.750005865097
415,68,19890,5,0,0:0:0:0:
415,68,19976,2,0,B|353:6|353:6|255:33,1,179.375001710653
244,282,20235,5,0,0:0:0:0:
267,275,20321,2,0,P|367:256|502:242,1,205
329,148,20580,5,0,0:0:0:0:
308,137,20666,2,0,P|227:115|123:108,1,102.5
51,41,20838,6,0,B|31:31|31:31|20:76|52:117,1,102.5,0|0,3:0|0:0,0:0:0:0:
169,18,21097,2,0,B|156:0|156:0|124:32|131:84,1,102.5,0|0,1:0|0:0,0:0:0:0:
243,77,21355,2,0,P|218:94|207:117,1,51.25,0|0,1:0|0:0,0:0:0:0:
40,247,21528,6,0,L|97:236,1,51.25,2|0,0:3|0:0,0:0:0:0:
239,208,21700,2,0,L|188:217,1,51.25,2|0,0:3|0:0,0:0:0:0:
140,350,21873,5,0,3:0:0:0:
181,321,21959,5,0,0:0:0:0:
232,315,22045,5,0,3:0:0:0:
279,333,22131,5,2,0:0:0:0:
312,371,22217,6,0,B|348:280|468:313|468:313|434:359|380:330,1,230.625008797646,6|0,0:0|0:0,0:0:0:0:
239,208,22562,2,0,P|216:174|236:133,1,76.8750029325486,0|0,1:0|0:0,0:0:0:0:
453,169,22735,6,0,L|446:234,2,51.25,2|0|2,0:0|0:0|0:0,0:0:0:0:
438,74,22993,2,0,B|467:65|467:65|508:89,1,64.0625
329,28,23166,5,2,0:0:0:0:
332,58,23252,2,0,L|347:219,1,153.750005865097,2|0,0:0|0:0,0:0:0:0:
446,219,23597,6,0,B|320:217|415:303|267:301,1,192.1875,2|0,0:0|0:0,0:0:0:0:
440,356,23942,2,0,P|455:326|430:305,1,64.0625,2|0,0:0|0:0,0:0:0:0:
201,283,24114,6,0,B|192:310|192:310|210:337,1,51.25,2|0,0:0|0:0,0:0:0:0:
248,192,24286,5,2,0:0:0:0:
247,202,24373,2,0,B|229:197|222:174|222:174|203:194|173:191,1,76.8750029325486
109,247,24545,5,2,0:0:0:0:
108,237,24632,2,0,B|90:242|83:265|83:265|64:245|34:248,1,76.8750029325486
228,89,24804,6,0,B|254:80|254:80|286:117,1,51.25,2|0,0:0|0:0,0:0:0:0:
160,35,24976,6,0,B|124:19|124:19|148:126,1,128.125,2|0,0:0|0:0,0:0:0:0:
333,159,25235,2,0,B|369:175|369:175|345:68,1,128.125,2|0,0:0|0:0,0:0:0:0:
131,184,25493,6,0,B|163:191|163:191|206:167,2,64.0625,2|0|0,0:0|0:0|0:0,0:0:0:0:
270,244,25752,5,2,0:0:0:0:
274,260,25838,2,0,P|280:292|285:327,1,64.0625
173,315,26011,5,2,0:0:0:0:
380,360,26183,1,2,0:0:0:0:
427,232,26355,6,0,L|353:245,1,38.4375014662743
274,260,26528,1,2,0:0:0:0:
424,130,26700,6,0,L|347:144,1,51.25
234,163,26873,1,2,0:0:0:0:
432,29,27045,6,0,L|351:44,1,64.0625
196,68,27218,1,2,0:0:0:0:
470,318,27390,6,0,B|507:285|507:285|515:179,1,128.125,2|0,0:0|0:0,0:0:0:0:
234,163,27735,6,0,B|270:152|298:158|326:177|338:211|338:211|368:202|368:202|388:236|429:231,1,230.625008797646,2|0,0:0|0:0,0:0:0:0:
268,325,28080,2,0,P|262:287|255:250,1,76.8750029325486
424,132,28252,6,0,P|414:118|372:121,2,51.25
490,68,28511,2,0,P|510:104|504:160,1,64.0625
403,31,28683,5,0,0:0:0:0:
421,22,28769,2,0,B|346:7|346:7|280:77,1,153.750005865097
190,51,29114,6,0,B|206:123|206:123|237:142|237:142|257:237,1,192.1875
90,75,29459,2,0,B|83:43|83:43|108:-9,1,64.0625
85,179,29631,6,0,P|63:171|30:168,1,51.25
164,334,29804,5,0,0:0:0:0:
175,330,29890,2,0,B|182:291|182:291|149:252,1,76.8750029325486
46,282,30062,5,0,0:0:0:0:
34,285,30148,2,0,B|26:323|26:323|59:362,1,76.8750029325486
280,371,30321,6,0,L|352:377,1,51.25
486,328,30493,6,0,B|452:319|425:344|425:344|419:305|368:284,1,128.125
414,210,30752,2,0,B|448:219|475:194|475:194|481:233|532:254,1,128.125
412,111,31011,6,0,P|397:64|416:42,2,64.0625
283,132,31269,5,0,0:0:0:0:
264,141,31355,2,0,L|343:150,1,64.0625
501,80,31528,5,0,0:0:0:0:
414,210,31700,1,0,0:0:0:0:
36,340,32045,6,0,L|24:276,1,51.25
56,352,32390,6,0,L|40:276,1,76.8750029325486
76,364,32735,6,0,L|56:264,1,102.5
158,255,33080,6,0,B|180:287|180:287|166:343,1,76.8750029325486
90,121,33252,6,0,B|123:95|173:87|224:123|226:171|226:171|197:137|135:149,1,230.625008797646
19,179,33597,6,0,P|-1:144|39:63,1,76.8750029325486
235,41,33769,6,0,P|214:26|166:24,2,51.25
324,63,34028,2,0,P|321:10|314:-4,1,64.0625
263,143,34200,5,0,0:0:0:0:
254,128,34286,2,0,L|273:304,1,153.750005865097
215,344,34631,6,0,B|190:307|190:307|352:329,1,192.1875
489,350,34976,2,0,L|404:339,1,64.0625
409,210,35149,6,0,B|392:228|392:228|406:268,1,51.25
347,111,35321,5,0,0:0:0:0:
342,98,35407,2,0,P|357:34|372:28,1,76.8750029325486
506,58,35580,5,0,0:0:0:0:
511,71,35666,2,0,P|496:135|481:141,1,76.8750029325486
237,166,35838,6,0,L|177:173,1,51.25
67,292,36011,6,0,B|37:234|37:234|103:230,1,128.125
183,267,36269,2,0,B|213:325|213:325|147:329,1,128.125
66,138,36528,6,0,P|61:77|64:65,2,64.0625
191,29,36786,5,0,0:0:0:0:
180,39,36873,2,0,P|153:104|154:116,1,64.0625
67,292,37045,5,0,0:0:0:0:
183,267,37217,1,0,0:0:0:0:
331,234,37390,6,0,L|272:246,1,38.4375014662743
67,292,37562,1,0,0:0:0:0:
316,349,37735,6,0,P|289:338|249:333,1,51.25
52,295,37907,1,0,0:0:0:0:
273,129,38080,6,0,P|225:176|210:181,1,64.0625
37,299,38252,1,0,0:0:0:0:
391,159,38424,6,0,B|431:208|431:208|416:279,1,128.125
197,323,38769,6,0,B|252:270|324:304|324:304|333:328|344:348|368:364|405:364,1,230.625008797646
456,137,39114,2,0,P|393:154|388:165,1,76.8750029325486
417,271,39286,6,0,L|480:279,2,51.25
299,136,39545,2,0,P|291:166|299:197,1,64.0625
499,345,39717,5,0,0:0:0:0:
488,357,39804,2,0,P|501:286|506:189,1,153.750005865097
506,204,40149,6,0,B|380:192|471:279|305:260,1,192.1875
263,26,40493,2,0,B|293:14|293:14|339:54,1,64.0625
266,159,40666,6,0,L|276:93,1,51.25
165,238,40838,5,0,0:0:0:0:
157,225,40924,2,0,P|140:188|142:133,1,76.8750029325486
333,262,41097,5,0,0:0:0:0:
343,253,41183,2,0,P|370:223|385:170,1,76.8750029325486
151,335,41355,6,0,P|123:338|78:355,1,51.25
41,264,41528,6,0,B|58:270|68:247|68:247|23:240|1:298,1,128.125
202,350,41786,2,0,B|228:344|239:374|239:374|176:393|131:301,1,153.750005865097
221,187,42045,2,0,B|247:193|258:163|258:163|195:144|150:236,1,179.375001710653
439,334,42304,5,0,0:0:0:0:
439,334,42390,2,0,P|473:300|431:231,1,102.5
364,221,42562,2,0,P|330:255|372:324,1,102.5
482,225,42735,1,0,0:0:0:0:
353,57,42907,5,0,0:0:0:0:
354,69,42993,1,0,0:0:0:0:
356,82,43080,2,0,L|360:124,1,25.625
438,147,43252,2,0,L|445:103,1,25.625
247,33,43424,6,0,P|176:54|171:61,1,64.0625
136,276,43597,2,0,P|65:255|60:248,1,64.0625
0,161,43769,6,2,L|108:149,1,102.5
333,303,43942,5,2,0:0:0:0:
307,379,44028,2,0,B|315:312|315:312|307:293|307:293|321:277|321:277|336:161,1,205
353,56,44286,37,14,0:0:0:0:
490,163,54631,6,0,L|497:221,7,51.25
410,192,54976,6,0,L|415:226,12,25.625
330,221,55321,5,0,0:0:0:0:
300,230,55407,1,0,0:0:0:0:
270,229,55493,1,0,0:0:0:0:
242,218,55579,1,0,0:0:0:0:
172,179,55666,5,0,0:0:0:0:
142,169,55752,1,0,0:0:0:0:
112,170,55838,1,0,0:0:0:0:
84,181,55924,1,0,0:0:0:0:
23,234,56011,6,0,P|12:260|32:296,3,51.25
85,358,56355,6,0,L|146:353,1,51.25
186,349,56528,2,0,L|134:352,1,51.25
128,266,56700,6,0,L|101:321,1,51.25
85,358,56873,2,0,L|107:311,1,51.25
186,349,57045,6,0,L|151:297,1,51.25
127,264,57218,2,0,L|155:306,1,51.25
283,354,57390,5,0,0:0:0:0:
284,338,57476,1,0,0:0:0:0:
281,323,57562,1,0,0:0:0:0:
274,309,57648,1,0,0:0:0:0:
337,246,57735,5,0,0:0:0:0:
332,239,57821,1,0,0:0:0:0:
326,234,57907,1,0,0:0:0:0:
319,231,57993,1,0,0:0:0:0:
339,138,58080,5,0,0:0:0:0:
339,138,58166,1,0,0:0:0:0:
339,138,58252,2,0,P|285:144|266:163,1,51.25
380,336,58424,5,0,0:0:0:0:
380,336,58510,1,0,0:0:0:0:
380,336,58596,2,0,P|434:330|453:311,1,51.25
452,233,58769,5,0,0:0:0:0:
453,222,58855,1,0,0:0:0:0:
454,212,58941,1,0,0:0:0:0:
456,202,59027,1,0,0:0:0:0:
457,192,59113,1,0,0:0:0:0:
333,88,59286,5,0,0:0:0:0:
334,102,59372,1,0,0:0:0:0:
335,114,59458,1,0,0:0:0:0:
337,126,59544,1,0,0:0:0:0:
339,138,59630,1,0,0:0:0:0:
199,336,59804,5,0,0:0:0:0:
200,319,59890,1,0,0:0:0:0:
201,304,59976,1,0,0:0:0:0:
203,290,60062,1,0,0:0:0:0:
206,276,60148,1,0,0:0:0:0:
114,51,60321,5,0,0:0:0:0:
115,71,60407,1,0,0:0:0:0:
116,89,60493,1,0,0:0:0:0:
118,106,60579,1,0,0:0:0:0:
122,123,60665,1,0,0:0:0:0:
218,73,60838,5,0,0:0:0:0:
13,102,61011,1,0,0:0:0:0:
302,325,61183,5,0,0:0:0:0:
97,296,61356,1,0,0:0:0:0:
469,38,61528,6,0,L|395:47,1,51.25
218,73,61700,2,0,L|268:66,1,51.25
336,2,61873,1,0,0:0:0:0:
512,209,62045,6,0,L|438:200,1,64.0625
181,172,62217,2,0,L|248:180,1,64.0625
356,120,62390,1,0,0:0:0:0:
167,348,62562,6,0,P|152:254|160:236,1,76.8750029325486
465,381,62735,2,0,P|507:296|505:277,1,76.8750029325486
314,367,62907,1,0,0:0:0:0:
26,165,63080,5,0,0:0:0:0:
41,170,63166,5,0,0:0:0:0:
73,175,63252,5,0,0:0:0:0:
119,179,63338,5,0,0:0:0:0:
181,172,63424,5,0,0:0:0:0:
258,149,63511,5,0,0:0:0:0:
331,96,63597,6,0,P|349:72|364:40,1,61.5
362,43,64746,1,0,0:0:0:0:
362,43,64861,1,0,0:0:0:0:
362,43,64976,1,0,0:0:0:0:
468,162,65666,5,0,0:0:0:0:
321,123,65838,1,0,0:0:0:0:
463,69,66010,1,0,0:0:0:0:
380,196,66183,1,0,0:0:0:0:
373,44,66355,6,0,P|368:37|360:34,1,15.375,6|0,1:0|0:0,0:0:0:0:
159,127,66700,6,0,B|219:139|219:139|244:173|244:173|293:154|293:154|323:184|323:184|400:200,1,256.25,8|2,0:0|0:0,0:0:0:0:
180,335,66959,6,0,B|151:324|151:324|135:269|135:269|163:221,1,115.312504398823,2|0,0:0|0:0,0:0:0:0:
478,303,67131,5,2,0:0:0:0:
453,307,67217,2,0,L|323:324,1,115.312504398823,0|0,3:0|0:0,0:0:0:0:
242,59,67390,6,0,B|272:100|272:100|255:180,1,102.5,8|0,0:0|0:0,0:0:0:0:
36,139,67562,6,0,B|67:117|98:131|98:131|126:145|173:119,1,128.125,2|0,0:0|0:0,0:0:0:0:
362,84,67735,5,0,3:0:0:0:
183,249,67907,6,2,B|169:222|169:222|237:234|237:234|209:261,1,128.125,2|0,0:0|0:0,0:0:0:0:
50,210,68080,6,0,P|32:172|39:130,2,76.8750029325486,8|2|0,0:0|0:0|0:0,0:0:0:0:
277,140,68338,5,0,0:0:0:0:
277,140,68424,2,0,B|252:118|217:134|217:134|207:128|207:128|175:142|145:118,1,128.125,2|0,0:0|0:0,0:0:0:0:
304,352,68597,6,0,P|381:333|427:275,1,128.125,2|0,0:0|0:0,0:0:0:0:
497,182,68769,6,0,B|429:127|363:185|363:185|353:213|331:237|301:244|269:235,1,256.25,8|0,0:0|0:0,0:0:0:0:
236,48,69028,5,2,0:0:0:0:
250,42,69114,2,0,P|308:39|351:79,1,102.5,0|0,3:0|0:0,0:0:0:0:
98,172,69459,6,0,B|68:142|68:142|169:135|169:135|185:148|185:148|290:138,1,256.25,8|2,0:0|0:0,0:0:0:0:
450,19,69717,6,0,B|442:70|442:70|436:77|436:77|425:146,1,115.312504398823,2|0,0:0|0:0,0:0:0:0:
292,334,69890,5,0,0:0:0:0:
303,351,69976,2,0,L|281:207,1,115.312504398823
41,94,70149,6,0,B|80:59|80:59|145:90,1,102.5,8|0,0:0|0:0,0:0:0:0:
89,238,70321,6,0,B|90:255|102:263|102:263|132:219|86:152,1,128.125
212,49,70493,6,0,P|203:108|199:111,1,51.25
276,139,70666,2,0,P|250:161|244:162,1,25.625
89,238,70838,5,0,0:0:0:0:
2,213,70924,2,0,B|78:176|125:232|125:232|178:291|267:229,1,256.25
446,354,71183,2,0,P|443:322|433:291,1,64.0625
446,30,71528,6,0,P|443:61|433:92,1,64.0625
339,75,71700,2,0,P|341:43|351:12,1,64.0625
484,192,71873,6,0,L|468:192,1,15.375
