osu file format v14

[General]
AudioFilename: audio.mp3
AudioLeadIn: 0
PreviewTime: -1
Countdown: 0
SampleSet: Normal
StackLeniency: 0.7
Mode: 0
LetterboxInBreaks: 0
WidescreenStoryboard: 1

[Editor]
DistanceSpacing: 0.3
BeatDivisor: 4
GridSize: 16
TimelineZoom: 2.900001

[Metadata]
Title:Endymion
TitleUnicode:Endymion
Artist:fallen shepherd ft. RabbiTon Strings
ArtistUnicode:fallen shepherd ft. RabbiTon Strings
Creator:chezbananas
Version:Expert
Source:DanceDanceRevolution A
Tags:ddr ace rinon's adventure
BeatmapID:1435754
BeatmapSetID:656910

[Difficulty]
HPDrainRate:3
CircleSize:4
OverallDifficulty:9
ApproachRate:9.5
SliderMultiplier:1.59999990463257
SliderTickRate:1

[Events]
//Background and Video events
0,0,"ACE FOR ACES-bg.png",0,0
//Break Periods
//Storyboard Layer 0 (Background)
//Storyboard Layer 1 (Fail)
//Storyboard Layer 2 (Pass)
//Storyboard Layer 3 (Foreground)
//Storyboard Sound Samples

[TimingPoints]
1049.97711088084,272.727272727273,4,1,0,100,1,0
11512,-100,4,1,0,100,0,0
51330,-100,4,1,0,100,0,0
53400,-50,4,1,0,100,0,0
54058,-100,4,1,0,100,0,0
90200,-200,4,1,0,100,0,0
102140,-50,4,1,0,100,0,0
104890,-100,4,1,0,100,0,0

[HitObjects]
384,80,1051,6,0,P|416:120|408:160,2,79.9999952316285
240,60,1595,2,0,P|160:88|148:160,1,159.999990463257
160,272,2140,1,0,0:0:0:0:
404,276,2413,6,0,P|436:236|428:196,2,79.9999952316285
256,320,2959,2,0,P|176:292|128:224,1,159.999990463257
96,144,3504,1,0,0:0:0:0:
272,64,3777,5,0,0:0:0:0:
272,64,3845,1,0,0:0:0:0:
272,64,3913,1,0,0:0:0:0:
272,64,3981,1,0,0:0:0:0:
272,64,4049,1,0,0:0:0:0:
336,144,4322,1,0,0:0:0:0:
164,144,4595,5,0,0:0:0:0:
164,144,4663,1,0,0:0:0:0:
164,144,4731,1,0,0:0:0:0:
164,144,4799,1,0,0:0:0:0:
164,144,4867,1,0,0:0:0:0:
208,224,5140,1,0,0:0:0:0:
256,128,5413,5,0,0:0:0:0:
104,92,5686,5,0,0:0:0:0:
104,92,5754,1,0,0:0:0:0:
104,92,5822,1,0,0:0:0:0:
140,208,5959,1,0,0:0:0:0:
244,64,6163,1,0,0:0:0:0:
420,40,6368,1,0,0:0:0:0:
464,256,6640,1,0,0:0:0:0:
48,48,7186,1,0,0:0:0:0:
256,192,7254,12,0,8413,0:0:0:0:
144,240,8686,5,0,0:0:0:0:
224,80,8822,1,0,0:0:0:0:
64,144,8959,1,0,0:0:0:0:
368,240,9095,5,0,0:0:0:0:
288,80,9231,1,0,0:0:0:0:
448,144,9368,1,0,0:0:0:0:
256,320,9504,5,0,0:0:0:0:
256,64,9777,1,0,0:0:0:0:
192,240,10049,5,0,0:0:0:0:
320,112,10186,1,0,0:0:0:0:
400,272,10322,1,0,0:0:0:0:
160,176,10459,5,0,0:0:0:0:
336,176,10595,1,0,0:0:0:0:
208,48,10731,1,0,0:0:0:0:
256,304,10868,5,0,0:0:0:0:
256,36,11140,1,0,0:0:0:0:
128,112,11413,6,0,P|112:160|112:192,1,79.9999952316285
352,48,11686,1,0,0:0:0:0:
352,256,11822,6,0,P|368:208|368:176,1,79.9999952316285
128,320,12095,1,0,0:0:0:0:
256,44,12231,5,0,0:0:0:0:
256,304,12504,1,0,0:0:0:0:
460,204,12777,6,0,P|404:216|376:192,1,79.9999952316285
384,64,13049,1,0,0:0:0:0:
320,272,13186,6,0,P|260:284|232:264,1,79.9999952316285
244,132,13458,1,0,0:0:0:0:
128,288,13595,6,0,L|80:272,4,39.9999976158142
80,320,14140,6,0,P|116:336|154:329,1,79.9999952316285
134,191,14412,1,0,0:0:0:0:
236,112,14549,6,0,P|267:97|320:112,1,79.9999952316285
311,252,14821,1,0,0:0:0:0:
416,144,14959,5,0,0:0:0:0:
144,80,15231,1,0,0:0:0:0:
128,160,15504,6,0,P|128:208|164:240,1,79.9999952316285
236,44,15777,1,0,0:0:0:0:
192,288,15913,6,0,P|192:320|156:352,1,79.9999952316285
324,140,16186,1,0,0:0:0:0:
368,288,16322,6,0,L|416:272,4,39.9999976158142
176,240,16868,5,0,0:0:0:0:
324,100,17004,1,0,0:0:0:0:
248,304,17140,1,0,0:0:0:0:
160,112,17277,1,0,0:0:0:0:
396,172,17413,1,0,0:0:0:0:
104,304,17549,1,0,0:0:0:0:
184,168,17686,5,0,0:0:0:0:
248,60,17959,5,0,0:0:0:0:
428,80,18231,5,0,0:0:0:0:
380,272,18436,5,0,0:0:0:0:
96,344,18640,5,0,0:0:0:0:
112,112,18845,1,0,0:0:0:0:
332,48,19049,5,0,0:0:0:0:
369,80,19118,1,0,0:0:0:0:
385,126,19186,1,0,0:0:0:0:
367,171,19254,1,0,0:0:0:0:
332,205,19322,1,0,0:0:0:0:
311,249,19390,1,0,0:0:0:0:
333,293,19459,1,0,0:0:0:0:
369,325,19527,1,0,0:0:0:0:
345,368,19595,5,0,0:0:0:0:
156,224,19731,1,0,0:0:0:0:
368,116,19868,1,0,0:0:0:0:
368,116,19936,1,0,0:0:0:0:
368,116,20004,1,0,0:0:0:0:
124,56,20140,1,0,0:0:0:0:
124,56,20209,1,0,0:0:0:0:
124,56,20277,1,0,0:0:0:0:
160,176,20413,6,0,P|192:256|288:256,1,159.999990463257
448,240,20822,1,0,0:0:0:0:
228,332,20959,1,0,0:0:0:0:
76,148,21095,5,0,0:0:0:0:
300,208,21231,1,0,0:0:0:0:
300,208,21299,1,0,0:0:0:0:
300,208,21368,1,0,0:0:0:0:
216,32,21504,1,0,0:0:0:0:
216,32,21572,1,0,0:0:0:0:
216,32,21640,1,0,0:0:0:0:
304,128,21777,6,0,P|320:224|272:272,1,159.999990463257
128,292,22186,1,0,0:0:0:0:
64,120,22322,1,0,0:0:0:0:
224,156,22459,5,0,0:0:0:0:
396,64,22595,1,0,0:0:0:0:
396,64,22663,1,0,0:0:0:0:
396,64,22731,1,0,0:0:0:0:
340,276,22868,1,0,0:0:0:0:
340,276,22936,1,0,0:0:0:0:
340,276,23004,1,0,0:0:0:0:
240,192,23140,6,0,P|256:112|320:64,1,159.999990463257
448,88,23549,1,0,0:0:0:0:
448,264,23686,1,0,0:0:0:0:
272,264,23822,5,0,0:0:0:0:
152,80,23959,1,0,0:0:0:0:
152,80,24027,1,0,0:0:0:0:
152,80,24095,1,0,0:0:0:0:
112,280,24231,1,0,0:0:0:0:
112,280,24299,1,0,0:0:0:0:
112,280,24368,1,0,0:0:0:0:
192,224,24504,6,0,P|224:128|272:96,1,159.999990463257
400,80,24913,1,0,0:0:0:0:
304,240,25049,1,0,0:0:0:0:
216,48,25186,5,0,0:0:0:0:
408,48,25322,1,0,0:0:0:0:
408,48,25390,1,0,0:0:0:0:
408,48,25459,1,0,0:0:0:0:
272,200,25595,1,0,0:0:0:0:
272,200,25663,1,0,0:0:0:0:
272,200,25731,1,0,0:0:0:0:
384,256,25868,2,0,P|416:208|400:96,1,159.999990463257
328,56,26277,1,0,0:0:0:0:
432,232,26413,1,0,0:0:0:0:
256,336,26549,5,0,0:0:0:0:
80,232,26686,1,0,0:0:0:0:
80,232,26754,1,0,0:0:0:0:
80,232,26822,1,0,0:0:0:0:
256,96,26959,1,0,0:0:0:0:
256,96,27027,1,0,0:0:0:0:
256,96,27095,1,0,0:0:0:0:
200,272,27231,5,0,0:0:0:0:
408,160,27368,1,0,0:0:0:0:
408,160,27436,1,0,0:0:0:0:
408,160,27504,1,0,0:0:0:0:
360,320,27640,1,0,0:0:0:0:
72,296,27777,5,0,0:0:0:0:
256,192,27913,2,0,P|240:160|224:160,4,39.9999976158142
72,200,28322,5,0,0:0:0:0:
256,96,28458,2,0,P|240:64|224:64,4,39.9999976158142
440,296,28868,5,0,0:0:0:0:
256,192,29004,2,0,P|272:160|288:160,4,39.9999976158142
440,200,29413,5,0,0:0:0:0:
256,96,29549,2,0,P|272:64|288:64,4,39.9999976158142
72,88,29959,5,0,0:0:0:0:
256,192,30095,2,0,P|240:224|224:224,4,39.9999976158142
72,184,30504,5,0,0:0:0:0:
256,288,30640,2,0,P|240:320|224:320,4,39.9999976158142
440,88,31050,5,0,0:0:0:0:
256,192,31186,2,0,P|272:224|288:224,4,39.9999976158142
440,184,31595,5,0,0:0:0:0:
256,288,31731,2,0,P|272:320|288:320,4,39.9999976158142
211,42,32140,5,0,0:0:0:0:
168,47,32209,1,0,0:0:0:0:
128,60,32277,1,0,0:0:0:0:
88,74,32345,1,0,0:0:0:0:
56,101,32413,1,0,0:0:0:0:
37,138,32481,1,0,0:0:0:0:
43,179,32549,1,0,0:0:0:0:
76,205,32618,1,0,0:0:0:0:
116,213,32686,1,0,0:0:0:0:
157,209,32754,5,0,0:0:0:0:
198,204,32822,1,0,0:0:0:0:
238,192,32890,1,0,0:0:0:0:
272,208,32959,2,0,L|304:240,12,39.9999976158142
238,205,33845,5,0,0:0:0:0:
186,209,33913,1,0,0:0:0:0:
144,217,33982,1,0,0:0:0:0:
108,238,34050,1,0,0:0:0:0:
92,276,34118,1,0,0:0:0:0:
111,305,34186,1,0,0:0:0:0:
148,323,34254,1,0,0:0:0:0:
256,192,36504,5,0,0:0:0:0:
96,192,36777,5,0,0:0:0:0:
256,80,36913,1,0,0:0:0:0:
416,192,37049,1,0,0:0:0:0:
128,192,37186,5,0,0:0:0:0:
256,304,37322,1,0,0:0:0:0:
384,192,37458,1,0,0:0:0:0:
144,192,37595,5,0,0:0:0:0:
256,80,37731,1,0,0:0:0:0:
368,192,37867,1,0,0:0:0:0:
256,320,38004,1,0,0:0:0:0:
240,192,38140,5,0,0:0:0:0:
272,192,38209,1,0,0:0:0:0:
240,192,38277,1,0,0:0:0:0:
272,192,38346,1,0,0:0:0:0:
240,192,38413,1,0,0:0:0:0:
256,192,38686,5,0,0:0:0:0:
144,256,38959,5,0,0:0:0:0:
112,96,39095,1,0,0:0:0:0:
256,160,39231,1,0,0:0:0:0:
112,192,39368,5,0,0:0:0:0:
224,80,39504,1,0,0:0:0:0:
368,160,39640,1,0,0:0:0:0:
224,224,39777,5,0,0:0:0:0:
112,336,39913,1,0,0:0:0:0:
64,176,40049,1,0,0:0:0:0:
256,288,40186,5,0,0:0:0:0:
400,208,40322,2,0,L|432:176,4,39.9999976158142
256,192,40868,5,0,0:0:0:0:
144,256,41140,5,0,0:0:0:0:
304,192,41277,1,0,0:0:0:0:
448,288,41413,1,0,0:0:0:0:
288,336,41549,5,0,0:0:0:0:
208,176,41686,1,0,0:0:0:0:
48,256,41822,1,0,0:0:0:0:
80,80,41959,5,0,0:0:0:0:
160,240,42095,1,0,0:0:0:0:
256,96,42231,1,0,0:0:0:0:
368,208,42368,1,0,0:0:0:0:
240,192,42504,6,0,L|272:224,4,39.9999976158142
48,192,43049,5,0,0:0:0:0:
448,192,43322,1,0,0:0:0:0:
256,0,43595,5,0,0:0:0:0:
256,384,43868,1,0,0:0:0:0:
256,192,44140,6,0,L|272:208,32,19.9999988079071
352,96,45504,5,0,0:0:0:0:
128,288,45777,5,0,0:0:0:0:
320,224,45981,2,0,L|288:160,1,39.9999976158142
128,80,46186,5,0,0:0:0:0:
336,80,46322,1,0,0:0:0:0:
192,240,46459,5,0,0:0:0:0:
384,160,46595,1,0,0:0:0:0:
336,320,46731,5,0,0:0:0:0:
272,192,46868,2,0,P|272:160|256:160,3,39.9999976158142
224,160,47140,2,0,P|208:176|208:192,4,39.9999976158142
112,112,47686,5,0,0:0:0:0:
416,192,47959,5,0,0:0:0:0:
272,240,48163,2,0,L|224:224,1,39.9999976158142
112,144,48368,5,0,0:0:0:0:
176,304,48504,1,0,0:0:0:0:
336,64,48640,5,0,0:0:0:0:
384,288,48777,1,0,0:0:0:0:
208,112,48913,5,0,0:0:0:0:
368,176,49049,2,0,P|384:192|368:208,3,39.9999976158142
320,208,49322,2,0,P|320:192|336:176,4,39.9999976158142
144,304,49868,5,0,0:0:0:0:
432,304,50140,5,0,0:0:0:0:
320,192,50345,2,0,L|272:160,1,39.9999976158142
240,192,50549,5,0,0:0:0:0:
240,32,50686,1,0,0:0:0:0:
128,208,50822,5,0,0:0:0:0:
384,48,50959,1,0,0:0:0:0:
384,176,51095,5,0,0:0:0:0:
464,96,51231,2,0,L|464:144,4,35
256,128,51777,5,0,0:0:0:0:
176,240,51913,1,0,0:0:0:0:
336,240,52049,1,0,0:0:0:0:
256,192,52186,5,0,0:0:0:0:
256,320,52322,5,0,0:0:0:0:
352,144,52459,1,0,0:0:0:0:
144,144,52595,1,0,0:0:0:0:
256,192,52731,5,0,0:0:0:0:
208,112,52868,2,0,L|272:64,1,79.9999952316285
208,144,53140,2,0,L|288:96,1,79.9999952316285
208,176,53413,6,0,L|304:112,1,79.9999952316285
208,208,53549,6,0,L|304:144,1,79.9999952316285
208,240,53686,6,0,L|304:176,1,79.9999952316285
208,272,53822,6,0,L|304:208,1,79.9999952316285
208,304,53959,5,0,0:0:0:0:
256,96,54231,1,0,0:0:0:0:
400,256,54504,2,0,P|432:144|400:96,1,159.999990463257
400,256,54913,2,0,P|304:304|224:288,1,159.999990463257
208,192,55459,5,0,0:0:0:0:
336,80,55595,1,0,0:0:0:0:
192,80,55731,5,0,0:0:0:0:
416,208,55868,1,0,0:0:0:0:
256,272,56004,5,0,0:0:0:0:
256,64,56277,6,0,P|176:128|192:192,1,159.999990463257
208,208,56686,1,0,0:0:0:0:
288,288,56822,1,0,0:0:0:0:
400,256,56959,1,0,0:0:0:0:
464,160,57095,1,0,0:0:0:0:
384,80,57231,1,0,0:0:0:0:
256,192,57436,6,0,L|208:208,1,39.9999976158142
368,128,57640,1,0,0:0:0:0:
354,206,57913,6,0,L|370:110,1,79.9999952316284
256,192,58322,5,0,0:0:0:0:
256,192,58595,1,0,0:0:0:0:
112,64,58868,2,0,P|64:144|48:240,1,159.999990463257
112,64,59277,2,0,P|192:32|272:64,1,159.999990463257
224,96,59822,5,0,0:0:0:0:
320,304,59959,1,0,0:0:0:0:
368,48,60095,5,0,0:0:0:0:
160,304,60231,1,0,0:0:0:0:
144,64,60368,5,0,0:0:0:0:
352,128,60504,5,0,0:0:0:0:
112,256,60640,1,0,0:0:0:0:
112,256,60709,1,0,0:0:0:0:
112,256,60777,1,0,0:0:0:0:
224,96,60913,5,0,0:0:0:0:
368,272,61049,1,0,0:0:0:0:
144,208,61186,1,0,0:0:0:0:
368,112,61322,5,0,0:0:0:0:
288,336,61459,1,0,0:0:0:0:
144,128,61595,1,0,0:0:0:0:
368,128,61731,5,0,0:0:0:0:
176,256,61868,1,0,0:0:0:0:
400,272,62004,1,0,0:0:0:0:
128,160,62140,5,0,0:0:0:0:
448,192,62277,1,0,0:0:0:0:
96,64,62413,1,0,0:0:0:0:
256,192,62549,5,0,0:0:0:0:
368,96,62686,5,0,0:0:0:0:
320,288,62959,1,0,0:0:0:0:
128,144,63231,2,0,P|176:80|256:64,1,159.999990463257
128,144,63640,2,0,P|176:208|256:224,1,159.999990463257
336,144,64186,5,0,0:0:0:0:
112,224,64322,1,0,0:0:0:0:
384,240,64459,5,0,0:0:0:0:
96,144,64595,1,0,0:0:0:0:
272,48,64731,1,0,0:0:0:0:
432,80,65004,6,0,P|432:176|368:224,1,159.999990463257
272,256,65413,1,0,0:0:0:0:
208,80,65549,1,0,0:0:0:0:
192,304,65686,1,0,0:0:0:0:
320,64,65822,1,0,0:0:0:0:
112,320,65959,1,0,0:0:0:0:
352,192,66163,6,0,L|320:256,1,39.9999976158142
400,80,66368,1,0,0:0:0:0:
144,80,66640,1,0,0:0:0:0:
400,80,66777,1,0,0:0:0:0:
198,261,67049,5,0,0:0:0:0:
160,245,67118,1,0,0:0:0:0:
135,213,67186,1,0,0:0:0:0:
133,173,67254,1,0,0:0:0:0:
155,135,67322,5,0,0:0:0:0:
181,99,67390,1,0,0:0:0:0:
222,81,67459,1,0,0:0:0:0:
265,87,67527,1,0,0:0:0:0:
309,105,67595,5,0,0:0:0:0:
344,73,67663,1,0,0:0:0:0:
388,55,67731,1,0,0:0:0:0:
433,68,67799,1,0,0:0:0:0:
445,119,67868,5,0,0:0:0:0:
438,170,67936,1,0,0:0:0:0:
418,218,68004,1,0,0:0:0:0:
373,244,68072,1,0,0:0:0:0:
336,256,68140,6,0,L|286:230,4,39.9999976158142
280,246,68481,5,0,0:0:0:0:
229,269,68549,1,0,0:0:0:0:
184,304,68618,1,0,0:0:0:0:
143,342,68686,1,0,0:0:0:0:
79,337,68754,5,0,0:0:0:0:
41,285,68822,1,0,0:0:0:0:
59,223,68890,1,0,0:0:0:0:
121,206,68959,1,0,0:0:0:0:
192,200,69027,5,0,0:0:0:0:
212,143,69095,1,0,0:0:0:0:
173,95,69163,1,0,0:0:0:0:
139,47,69231,2,0,L|169:34,32,19.9999988079071
240,112,70459,5,0,0:0:0:0:
336,144,70595,1,0,0:0:0:0:
400,224,70731,1,0,0:0:0:0:
176,192,70868,5,0,0:0:0:0:
272,224,71004,1,0,0:0:0:0:
336,304,71140,1,0,0:0:0:0:
349,49,71413,5,0,0:0:0:0:
368,79,71481,1,0,0:0:0:0:
375,114,71549,1,0,0:0:0:0:
371,150,71618,1,0,0:0:0:0:
358,183,71686,1,0,0:0:0:0:
333,208,71754,1,0,0:0:0:0:
299,219,71822,1,0,0:0:0:0:
263,214,71890,1,0,0:0:0:0:
232,194,71959,1,0,0:0:0:0:
214,162,72027,5,0,0:0:0:0:
202,128,72095,1,0,0:0:0:0:
177,101,72163,1,0,0:0:0:0:
141,95,72231,1,0,0:0:0:0:
105,102,72299,1,0,0:0:0:0:
78,127,72368,1,0,0:0:0:0:
61,158,72436,1,0,0:0:0:0:
62,193,72504,1,0,0:0:0:0:
72,227,72572,1,0,0:0:0:0:
95,254,72640,5,0,0:0:0:0:
124,274,72709,1,0,0:0:0:0:
154,293,72777,1,0,0:0:0:0:
189,300,72845,1,0,0:0:0:0:
224,297,72913,1,0,0:0:0:0:
258,285,72981,1,0,0:0:0:0:
290,269,73049,2,0,L|329:244,8,39.9999976158142
356,220,73663,5,0,0:0:0:0:
358,184,73731,1,0,0:0:0:0:
336,155,73799,1,0,0:0:0:0:
311,128,73868,1,0,0:0:0:0:
275,101,73936,1,0,0:0:0:0:
231,92,74004,1,0,0:0:0:0:
187,95,74072,1,0,0:0:0:0:
148,115,74140,1,0,0:0:0:0:
126,153,74209,1,0,0:0:0:0:
107,192,74277,5,0,0:0:0:0:
122,233,74345,1,0,0:0:0:0:
149,267,74413,1,0,0:0:0:0:
191,276,74481,1,0,0:0:0:0:
234,272,74549,1,0,0:0:0:0:
274,252,74618,1,0,0:0:0:0:
307,223,74686,2,0,L|341:188,16,39.9999976158142
268,246,75845,5,0,0:0:0:0:
229,267,75913,1,0,0:0:0:0:
185,274,75981,1,0,0:0:0:0:
142,265,76049,1,0,0:0:0:0:
109,234,76118,1,0,0:0:0:0:
102,190,76186,1,0,0:0:0:0:
122,150,76254,1,0,0:0:0:0:
165,151,76322,1,0,0:0:0:0:
206,164,76390,1,0,0:0:0:0:
247,180,76459,5,0,0:0:0:0:
290,174,76527,1,0,0:0:0:0:
324,146,76595,1,0,0:0:0:0:
342,106,76663,1,0,0:0:0:0:
317,69,76731,1,0,0:0:0:0:
274,59,76799,1,0,0:0:0:0:
245,49,76868,2,0,P|248:31|267:27,16,39.9999976158142
273,82,78027,5,0,0:0:0:0:
298,117,78095,1,0,0:0:0:0:
291,160,78163,1,0,0:0:0:0:
275,201,78231,1,0,0:0:0:0:
252,238,78299,1,0,0:0:0:0:
227,274,78368,1,0,0:0:0:0:
188,295,78436,1,0,0:0:0:0:
145,282,78504,1,0,0:0:0:0:
111,253,78572,1,0,0:0:0:0:
103,209,78640,5,0,0:0:0:0:
114,165,78709,1,0,0:0:0:0:
134,126,78777,1,0,0:0:0:0:
161,91,78845,1,0,0:0:0:0:
204,94,78913,1,0,0:0:0:0:
242,115,78981,1,0,0:0:0:0:
278,139,79049,5,0,0:0:0:0:
398,79,79231,1,0,0:0:0:0:
160,128,79413,1,0,0:0:0:0:
336,304,79595,5,0,0:0:0:0:
144,256,79777,1,0,0:0:0:0:
336,96,79959,1,0,0:0:0:0:
176,288,80140,5,0,0:0:0:0:
160,96,80322,1,0,0:0:0:0:
352,176,80504,1,0,0:0:0:0:
368,288,80686,5,0,0:0:0:0:
112,192,80868,1,0,0:0:0:0:
368,64,81049,1,0,0:0:0:0:
176,80,81231,5,0,0:0:0:0:
336,176,81413,1,0,0:0:0:0:
144,272,81595,1,0,0:0:0:0:
272,80,81777,6,0,L|256:128,6,39.9999976158142
400,112,82322,5,0,0:0:0:0:
320,320,82504,1,0,0:0:0:0:
160,144,82686,1,0,0:0:0:0:
144,272,82868,5,0,0:0:0:0:
384,208,83049,1,0,0:0:0:0:
160,80,83231,1,0,0:0:0:0:
336,96,83413,5,0,0:0:0:0:
256,320,83595,1,0,0:0:0:0:
48,160,83777,1,0,0:0:0:0:
176,208,83959,5,0,0:0:0:0:
272,112,84095,1,0,0:0:0:0:
176,288,84231,1,0,0:0:0:0:
336,64,84368,1,0,0:0:0:0:
160,272,84504,5,0,0:0:0:0:
480,160,84686,1,0,0:0:0:0:
112,64,84868,1,0,0:0:0:0:
384,320,85049,5,0,0:0:0:0:
32,192,85231,1,0,0:0:0:0:
368,32,85413,1,0,0:0:0:0:
112,320,85595,5,0,0:0:0:0:
64,16,85777,1,0,0:0:0:0:
416,160,85959,1,0,0:0:0:0:
176,16,86140,5,0,0:0:0:0:
432,288,86322,1,0,0:0:0:0:
80,160,86504,1,0,0:0:0:0:
432,32,86686,5,0,0:0:0:0:
112,288,86868,1,0,0:0:0:0:
320,0,87049,1,0,0:0:0:0:
336,320,87231,5,0,0:0:0:0:
32,32,87413,1,0,0:0:0:0:
448,112,87595,1,0,0:0:0:0:
332,114,87777,5,0,0:0:0:0:
336,153,87845,1,0,0:0:0:0:
328,192,87913,1,0,0:0:0:0:
314,229,87981,1,0,0:0:0:0:
283,254,88049,1,0,0:0:0:0:
242,259,88118,1,0,0:0:0:0:
204,245,88186,1,0,0:0:0:0:
175,217,88254,1,0,0:0:0:0:
157,181,88322,1,0,0:0:0:0:
171,143,88390,5,0,0:0:0:0:
205,121,88459,1,0,0:0:0:0:
244,125,88527,1,0,0:0:0:0:
281,139,88595,1,0,0:0:0:0:
305,170,88663,1,0,0:0:0:0:
278,200,88731,1,0,0:0:0:0:
239,210,88799,1,0,0:0:0:0:
211,179,88868,1,0,0:0:0:0:
160,64,90231,6,0,B|352:128|352:128|288:320,3,399.999976158142
128,224,94731,1,0,0:0:0:0:
224,64,95140,1,0,0:0:0:0:
336,128,95413,1,0,0:0:0:0:
64,144,95686,5,0,0:0:0:0:
80,248,95822,1,0,0:0:0:0:
184,96,96095,5,0,0:0:0:0:
208,256,96231,1,0,0:0:0:0:
304,56,96504,5,0,0:0:0:0:
352,304,96641,1,0,0:0:0:0:
440,16,96913,5,0,0:0:0:0:
480,336,97049,1,0,0:0:0:0:
192,64,97322,5,0,0:0:0:0:
336,304,97459,1,0,0:0:0:0:
320,32,97595,5,0,0:0:0:0:
176,352,97731,1,0,0:0:0:0:
192,96,98140,6,0,L|224:80,2,19.9999988079071
336,224,98413,2,0,L|368:208,2,19.9999988079071
96,320,98686,2,0,L|128:304,2,19.9999988079071
304,80,98959,2,0,L|336:64,2,19.9999988079071
400,304,99231,2,0,L|432:288,2,19.9999988079071
64,192,99504,2,0,L|96:176,2,19.9999988079071
400,96,99777,2,0,L|432:80,2,19.9999988079071
256,192,100049,5,0,0:0:0:0:
336,72,100413,5,0,0:0:0:0:
336,72,100504,1,0,0:0:0:0:
336,72,100595,1,0,0:0:0:0:
144,288,100777,1,0,0:0:0:0:
80,80,100959,1,0,0:0:0:0:
368,192,101140,1,0,0:0:0:0:
160,176,101322,1,0,0:0:0:0:
320,320,101504,1,0,0:0:0:0:
256,32,101686,1,0,0:0:0:0:
256,192,101959,5,0,0:0:0:0:
160,160,102231,6,0,B|112:192|112:192|176:256,1,106.666660308838
320,64,102413,2,0,B|384:48|384:48|384:96,1,106.666660308838
272,304,102595,2,0,B|208:320|208:320|208:256,1,106.666660308838
432,176,102777,2,0,B|432:112|432:112|384:128,1,106.666660308838
208,112,102959,2,0,B|144:128|144:128|144:64,1,106.666660308838
96,288,103140,2,0,B|144:240|144:240|160:288,1,106.666660308838
336,224,103322,5,0,0:0:0:0:
336,224,103390,1,0,0:0:0:0:
336,224,103459,1,0,0:0:0:0:
167,203,103595,2,0,B|100:187|100:187|156:130,1,106.666660308838
224,96,103777,1,0,0:0:0:0:
352,64,103868,5,0,0:0:0:0:
352,64,103936,1,0,0:0:0:0:
352,64,104004,1,0,0:0:0:0:
272,176,104140,6,0,B|224:240|224:240|160:240,1,106.666660308838
128,192,104322,2,0,B|160:128|160:128|208:128,1,106.666660308838
304,288,104549,5,0,0:0:0:0:
304,288,104618,1,0,0:0:0:0:
304,288,104686,1,0,0:0:0:0:
176,224,104822,1,0,0:0:0:0:
192,112,104959,6,0,P|272:96|352:128,1,159.999990463257
384,192,105368,1,0,0:0:0:0:
256,256,105504,5,0,0:0:0:0:
256,256,105572,1,0,0:0:0:0:
256,256,105640,1,0,0:0:0:0:
128,176,105777,1,0,0:0:0:0:
80,320,105913,1,0,0:0:0:0:
80,192,106049,2,0,P|128:128|208:80,1,159.999990463257
304,80,106459,1,0,0:0:0:0:
368,208,106595,5,0,0:0:0:0:
368,208,106663,1,0,0:0:0:0:
368,208,106731,1,0,0:0:0:0:
272,304,106868,1,0,0:0:0:0:
160,208,107004,1,0,0:0:0:0:
256,112,107140,5,0,0:0:0:0:
256,112,107209,1,0,0:0:0:0:
256,112,107277,1,0,0:0:0:0:
384,64,107413,1,0,0:0:0:0:
240,32,107549,1,0,0:0:0:0:
128,128,107686,5,0,0:0:0:0:
128,128,107754,1,0,0:0:0:0:
128,128,107822,1,0,0:0:0:0:
240,224,107959,1,0,0:0:0:0:
352,144,108095,1,0,0:0:0:0:
384,288,108231,5,0,0:0:0:0:
384,288,108299,1,0,0:0:0:0:
384,288,108368,1,0,0:0:0:0:
192,304,108504,1,0,0:0:0:0:
224,144,108640,1,0,0:0:0:0:
320,112,108777,5,0,0:0:0:0:
256,336,108913,1,0,0:0:0:0:
240,48,109049,1,0,0:0:0:0:
128,64,109322,5,0,0:0:0:0:
176,272,109459,1,0,0:0:0:0:
336,64,109595,1,0,0:0:0:0:
400,288,109731,1,0,0:0:0:0:
320,160,110004,5,0,0:0:0:0:
128,256,110140,1,0,0:0:0:0:
240,64,110277,1,0,0:0:0:0:
320,304,110413,1,0,0:0:0:0:
112,144,110549,1,0,0:0:0:0:
320,64,110686,1,0,0:0:0:0:
208,304,110822,1,0,0:0:0:0:
384,160,110959,1,0,0:0:0:0:
128,48,111231,5,0,0:0:0:0:
352,144,111504,5,0,0:0:0:0:
352,320,111913,5,0,0:0:0:0:
208,96,112049,1,0,0:0:0:0:
384,176,112322,5,0,0:0:0:0:
144,272,112459,1,0,0:0:0:0:
416,32,112595,1,0,0:0:0:0:
64,144,112732,1,0,0:0:0:0:
160,96,113004,5,0,0:0:0:0:
432,224,113140,1,0,0:0:0:0:
192,304,113413,5,0,0:0:0:0:
224,32,113549,1,0,0:0:0:0:
416,64,113686,1,0,0:0:0:0:
80,208,113822,1,0,0:0:0:0:
160,64,114095,5,0,0:0:0:0:
352,288,114231,1,0,0:0:0:0:
64,272,114368,1,0,0:0:0:0:
256,64,114640,5,0,0:0:0:0:
256,352,114777,1,0,0:0:0:0:
128,128,114913,5,0,0:0:0:0:
416,160,115049,1,0,0:0:0:0:
64,224,115186,5,0,0:0:0:0:
368,288,115322,1,0,0:0:0:0:
48,320,115459,5,0,0:0:0:0:
352,64,115595,1,0,0:0:0:0:
448,320,115731,5,0,0:0:0:0:
96,112,115868,1,0,0:0:0:0:
256,192,116686,5,0,0:0:0:0:
256,192,116754,12,0,120913,0:0:0:0:
