osu file format v14

[General]
AudioFilename: audio.mp3
AudioLeadIn: 0
PreviewTime: -1
Countdown: 0
SampleSet: None
StackLeniency: 0.7
Mode: 0
LetterboxInBreaks: 0
WidescreenStoryboard: 1

[Editor]
DistanceSpacing: 4.7
BeatDivisor: 4
GridSize: 16
TimelineZoom: 2.900001

[Metadata]
Title:Endymion
TitleUnicode:Endymion
Artist:fallen shepherd ft. RabbiTon Strings
ArtistUnicode:fallen shepherd ft. RabbiTon Strings
Creator:chezbananas
Version:Difficult
Source:DanceDanceRevolution A
Tags:ddr ace rinon's adventure
BeatmapID:1443520
BeatmapSetID:656910

[Difficulty]
HPDrainRate:4
CircleSize:4
OverallDifficulty:9
ApproachRate:9.5
SliderMultiplier:1.39999990463257
SliderTickRate:1

[Events]
//Background and Video events
0,0,"ACE FOR ACES-bg.png",0,0
//Break Periods
//Storyboard Layer 0 (Background)
//Storyboard Layer 1 (Fail)
//Storyboard Layer 2 (Pass)
//Storyboard Layer 3 (Foreground)
//Storyboard Sound Samples

[TimingPoints]
1049.97711088084,272.727272727273,4,1,0,100,1,0
11512,-100,4,1,0,100,0,0
51330,-100,4,1,0,100,0,0
53400,-50,4,1,0,100,0,0
54058,-100,4,1,0,100,0,0
90200,-200,4,1,0,100,0,0
102140,-50,4,1,0,100,0,0
104890,-100,4,1,0,100,0,0

[HitObjects]
384,80,1051,6,0,P|416:120|408:160,2,69.9999952316285
240,60,1595,2,0,P|160:88|148:160,1,139.999990463257
160,272,2140,1,0,0:0:0:0:
404,276,2413,6,0,P|436:236|428:196,2,69.9999952316285
256,320,2959,2,0,P|176:292|128:224,1,139.999990463257
96,144,3504,1,0,0:0:0:0:
224,80,3777,6,0,L|208:48,4,34.9999976158142
336,144,4322,1,0,0:0:0:0:
144,112,4595,6,0,L|128:80,4,34.9999976158142
208,224,5140,1,0,0:0:0:0:
256,128,5413,5,0,0:0:0:0:
104,92,5686,5,0,0:0:0:0:
104,92,5754,1,0,0:0:0:0:
104,92,5822,1,0,0:0:0:0:
140,208,5959,1,0,0:0:0:0:
208,112,6163,1,0,0:0:0:0:
320,64,6368,1,0,0:0:0:0:
384,256,6640,1,0,0:0:0:0:
128,96,7186,1,0,0:0:0:0:
256,192,7254,12,0,8413,0:0:0:0:
140,162,8686,6,0,P|155:219|177:227,1,69.9999952316285
288,64,8959,1,0,0:0:0:0:
224,288,9095,6,0,P|239:345|261:353,1,69.9999952316285
372,190,9368,5,0,0:0:0:0:
256,320,9504,5,0,0:0:0:0:
256,64,9777,1,0,0:0:0:0:
368,64,10049,6,0,P|416:80|432:112,1,69.9999952316285
224,128,10322,1,0,0:0:0:0:
288,192,10459,6,0,P|336:208|352:240,1,69.9999952316285
144,256,10732,1,0,0:0:0:0:
256,304,10868,5,0,0:0:0:0:
256,36,11140,1,0,0:0:0:0:
128,112,11413,6,0,P|112:160|112:192,1,79.9999952316285
352,48,11686,1,0,0:0:0:0:
352,256,11822,6,0,P|368:208|368:176,1,79.9999952316285
128,320,12095,1,0,0:0:0:0:
256,44,12231,5,0,0:0:0:0:
256,304,12504,1,0,0:0:0:0:
460,204,12777,6,0,P|404:216|376:192,1,79.9999952316285
384,64,13049,1,0,0:0:0:0:
320,272,13186,6,0,P|260:284|232:264,1,79.9999952316285
244,132,13458,1,0,0:0:0:0:
128,288,13595,6,0,L|80:272,4,39.9999976158142
80,320,14140,6,0,P|116:336|154:329,1,79.9999952316285
134,191,14412,1,0,0:0:0:0:
236,112,14549,6,0,P|267:97|320:112,1,79.9999952316285
311,252,14821,1,0,0:0:0:0:
416,144,14959,5,0,0:0:0:0:
144,80,15231,1,0,0:0:0:0:
128,160,15504,6,0,P|128:208|164:240,1,79.9999952316285
236,44,15777,1,0,0:0:0:0:
240,208,15913,6,0,P|240:240|204:272,1,79.9999952316285
384,48,16186,1,0,0:0:0:0:
368,288,16322,6,0,L|416:272,4,39.9999976158142
176,240,16868,5,0,0:0:0:0:
324,100,17004,1,0,0:0:0:0:
272,240,17140,1,0,0:0:0:0:
176,128,17277,1,0,0:0:0:0:
368,240,17413,1,0,0:0:0:0:
256,80,17549,1,0,0:0:0:0:
184,168,17686,5,0,0:0:0:0:
248,60,17959,5,0,0:0:0:0:
428,80,18231,5,0,0:0:0:0:
368,224,18436,5,0,0:0:0:0:
192,304,18640,5,0,0:0:0:0:
144,128,18845,1,0,0:0:0:0:
332,48,19049,5,0,0:0:0:0:
353,71,19118,1,0,0:0:0:0:
356,102,19186,1,0,0:0:0:0:
343,130,19254,1,0,0:0:0:0:
334,160,19322,1,0,0:0:0:0:
343,190,19390,1,0,0:0:0:0:
365,212,19459,1,0,0:0:0:0:
361,243,19527,1,0,0:0:0:0:
340,266,19595,5,0,0:0:0:0:
176,208,19731,1,0,0:0:0:0:
352,112,19868,1,0,0:0:0:0:
352,112,19936,1,0,0:0:0:0:
352,112,20004,1,0,0:0:0:0:
176,64,20140,1,0,0:0:0:0:
176,64,20209,1,0,0:0:0:0:
176,64,20277,1,0,0:0:0:0:
160,176,20413,6,0,P|192:256|288:256,1,159.999990463257
400,256,20822,1,0,0:0:0:0:
272,96,20959,1,0,0:0:0:0:
96,192,21095,5,0,0:0:0:0:
256,304,21231,1,0,0:0:0:0:
256,304,21299,1,0,0:0:0:0:
256,304,21368,1,0,0:0:0:0:
400,160,21504,1,0,0:0:0:0:
400,160,21572,1,0,0:0:0:0:
400,160,21640,1,0,0:0:0:0:
304,128,21777,6,0,P|320:224|272:272,1,159.999990463257
144,288,22186,1,0,0:0:0:0:
112,96,22322,1,0,0:0:0:0:
272,160,22459,5,0,0:0:0:0:
384,96,22595,1,0,0:0:0:0:
384,96,22663,1,0,0:0:0:0:
384,96,22731,1,0,0:0:0:0:
400,304,22868,1,0,0:0:0:0:
400,304,22936,1,0,0:0:0:0:
400,304,23004,1,0,0:0:0:0:
240,192,23140,6,0,P|256:112|320:64,1,159.999990463257
464,80,23549,1,0,0:0:0:0:
400,272,23686,1,0,0:0:0:0:
208,240,23822,5,0,0:0:0:0:
112,64,23959,1,0,0:0:0:0:
112,64,24027,1,0,0:0:0:0:
112,64,24095,1,0,0:0:0:0:
320,80,24231,1,0,0:0:0:0:
320,80,24299,1,0,0:0:0:0:
320,80,24368,1,0,0:0:0:0:
144,176,24504,6,0,P|176:224|256:256,1,139.999990463257
368,96,24913,1,0,0:0:0:0:
432,288,25049,1,0,0:0:0:0:
240,240,25186,5,0,0:0:0:0:
160,48,25322,1,0,0:0:0:0:
160,48,25390,1,0,0:0:0:0:
160,48,25459,1,0,0:0:0:0:
48,208,25595,1,0,0:0:0:0:
48,208,25663,1,0,0:0:0:0:
48,208,25731,1,0,0:0:0:0:
240,272,25868,6,0,P|272:224|256:128,1,139.999990463257
224,64,26277,1,0,0:0:0:0:
384,192,26413,1,0,0:0:0:0:
240,336,26549,5,0,0:0:0:0:
80,216,26686,1,0,0:0:0:0:
80,216,26754,1,0,0:0:0:0:
80,216,26822,1,0,0:0:0:0:
256,96,26959,1,0,0:0:0:0:
256,96,27027,1,0,0:0:0:0:
256,96,27095,1,0,0:0:0:0:
208,224,27231,5,0,0:0:0:0:
384,192,27368,1,0,0:0:0:0:
384,192,27436,1,0,0:0:0:0:
384,192,27504,1,0,0:0:0:0:
256,352,27640,1,0,0:0:0:0:
112,256,27777,5,0,0:0:0:0:
256,192,27913,2,0,P|240:160|224:160,4,39.9999976158142
112,160,28322,5,0,0:0:0:0:
256,96,28458,2,0,P|240:64|224:64,4,39.9999976158142
400,256,28868,5,0,0:0:0:0:
256,192,29004,2,0,P|272:160|288:160,4,39.9999976158142
400,160,29413,5,0,0:0:0:0:
256,96,29549,2,0,P|272:64|288:64,4,39.9999976158142
112,128,29959,5,0,0:0:0:0:
256,192,30095,2,0,P|240:224|224:224,4,39.9999976158142
112,224,30504,5,0,0:0:0:0:
256,288,30640,2,0,P|240:320|224:320,4,39.9999976158142
400,128,31050,5,0,0:0:0:0:
256,192,31186,2,0,P|272:224|288:224,4,39.9999976158142
400,224,31595,5,0,0:0:0:0:
256,288,31731,2,0,P|272:320|288:320,4,39.9999976158142
211,42,32140,5,0,0:0:0:0:
168,47,32209,1,0,0:0:0:0:
128,60,32277,1,0,0:0:0:0:
88,74,32345,1,0,0:0:0:0:
56,101,32413,1,0,0:0:0:0:
37,138,32481,1,0,0:0:0:0:
43,179,32549,1,0,0:0:0:0:
76,205,32618,1,0,0:0:0:0:
116,213,32686,1,0,0:0:0:0:
160,224,32754,6,0,L|208:240,7,34.9999976158143
226,254,33299,1,0,0:0:0:0:
264,255,33368,1,0,0:0:0:0:
301,245,33436,1,0,0:0:0:0:
329,219,33504,1,0,0:0:0:0:
347,185,33572,1,0,0:0:0:0:
357,148,33640,1,0,0:0:0:0:
364,109,33709,1,0,0:0:0:0:
359,70,33777,1,0,0:0:0:0:
328,46,33845,2,0,L|285:23,7,34.9999976158143
256,192,36504,5,0,0:0:0:0:
128,192,36777,5,0,0:0:0:0:
256,80,36913,1,0,0:0:0:0:
384,192,37049,1,0,0:0:0:0:
160,192,37186,5,0,0:0:0:0:
256,304,37322,1,0,0:0:0:0:
352,192,37458,1,0,0:0:0:0:
176,192,37595,5,0,0:0:0:0:
256,80,37731,1,0,0:0:0:0:
336,192,37867,1,0,0:0:0:0:
256,320,38004,1,0,0:0:0:0:
256,192,38140,6,0,P|304:192|307:195,4,34.9999976158143
256,192,38686,5,0,0:0:0:0:
160,208,38959,5,0,0:0:0:0:
224,96,39095,1,0,0:0:0:0:
352,128,39231,1,0,0:0:0:0:
304,256,39368,5,0,0:0:0:0:
416,192,39504,1,0,0:0:0:0:
288,144,39640,1,0,0:0:0:0:
176,224,39777,6,0,P|160:208|160:192,7,34.9999976158143
176,176,40322,2,0,P|192:160|208:160,2,34.9999976158143
432,272,40595,5,0,0:0:0:0:
304,288,40731,1,0,0:0:0:0:
256,192,40868,1,0,0:0:0:0:
144,256,41140,5,0,0:0:0:0:
176,128,41277,1,0,0:0:0:0:
304,80,41413,1,0,0:0:0:0:
384,192,41549,5,0,0:0:0:0:
304,304,41686,1,0,0:0:0:0:
208,224,41822,1,0,0:0:0:0:
96,160,41959,5,0,0:0:0:0:
176,64,42095,1,0,0:0:0:0:
256,176,42231,1,0,0:0:0:0:
336,80,42368,1,0,0:0:0:0:
240,192,42504,6,0,L|272:224,4,39.9999976158142
96,112,43049,5,0,0:0:0:0:
416,256,43322,1,0,0:0:0:0:
416,64,43595,5,0,0:0:0:0:
128,272,43868,1,0,0:0:0:0:
256,192,44140,6,0,L|272:208,32,19.9999988079071
352,96,45504,5,0,0:0:0:0:
128,288,45777,5,0,0:0:0:0:
320,224,45981,2,0,L|288:160,1,39.9999976158142
192,128,46186,5,0,0:0:0:0:
352,80,46322,1,0,0:0:0:0:
208,256,46459,5,0,0:0:0:0:
416,176,46595,1,0,0:0:0:0:
336,320,46731,5,0,0:0:0:0:
272,192,46868,2,0,P|272:160|256:160,3,39.9999976158142
224,160,47140,2,0,P|208:176|208:192,4,39.9999976158142
112,112,47686,5,0,0:0:0:0:
416,192,47959,5,0,0:0:0:0:
272,240,48163,2,0,L|224:224,1,39.9999976158142
128,144,48368,5,0,0:0:0:0:
176,304,48504,1,0,0:0:0:0:
320,96,48640,5,0,0:0:0:0:
400,272,48777,1,0,0:0:0:0:
208,112,48913,5,0,0:0:0:0:
368,176,49049,2,0,P|384:192|368:208,3,39.9999976158142
320,208,49322,2,0,P|320:192|336:176,4,39.9999976158142
144,304,49868,5,0,0:0:0:0:
432,304,50140,5,0,0:0:0:0:
320,192,50345,2,0,L|272:160,1,39.9999976158142
240,192,50549,5,0,0:0:0:0:
240,32,50686,1,0,0:0:0:0:
144,176,50822,5,0,0:0:0:0:
352,96,50959,1,0,0:0:0:0:
384,176,51095,5,0,0:0:0:0:
464,96,51231,2,0,L|464:144,4,35
256,160,51777,5,0,0:0:0:0:
208,240,51913,1,0,0:0:0:0:
304,240,52049,1,0,0:0:0:0:
256,192,52186,5,0,0:0:0:0:
256,288,52322,5,0,0:0:0:0:
336,160,52459,1,0,0:0:0:0:
176,160,52595,1,0,0:0:0:0:
256,192,52731,5,0,0:0:0:0:
208,112,52868,2,0,L|272:64,1,69.9999952316285
208,144,53140,2,0,L|272:96,1,69.9999952316285
208,176,53413,6,0,L|288:112,1,69.9999952316285
208,208,53549,6,0,L|288:144,1,69.9999952316285
208,240,53686,6,0,L|288:176,1,69.9999952316285
208,272,53822,6,0,L|288:208,1,69.9999952316285
208,304,53959,5,0,0:0:0:0:
256,96,54231,1,0,0:0:0:0:
400,256,54504,2,0,P|432:144|416:112,1,139.999990463257
400,256,54913,2,0,P|304:304|256:304,1,139.999990463257
208,192,55459,5,0,0:0:0:0:
368,96,55595,1,0,0:0:0:0:
352,272,55731,5,0,0:0:0:0:
256,112,55868,1,0,0:0:0:0:
256,272,56004,5,0,0:0:0:0:
256,64,56277,6,0,P|176:128|192:176,1,139.999990463257
336,160,56686,1,0,0:0:0:0:
288,288,56822,1,0,0:0:0:0:
176,176,56959,1,0,0:0:0:0:
304,96,57095,1,0,0:0:0:0:
416,208,57231,1,0,0:0:0:0:
256,192,57436,6,0,L|224:208,1,34.9999976158143
368,128,57640,1,0,0:0:0:0:
354,206,57913,6,0,L|370:110,1,79.9999952316284
256,192,58322,5,0,0:0:0:0:
256,192,58595,1,0,0:0:0:0:
112,64,58868,2,0,P|64:144|48:208,1,139.999990463257
112,64,59277,2,0,P|192:32|256:64,1,139.999990463257
224,96,59822,5,0,0:0:0:0:
320,256,59959,1,0,0:0:0:0:
384,112,60095,5,0,0:0:0:0:
256,256,60231,1,0,0:0:0:0:
176,96,60368,5,0,0:0:0:0:
352,128,60504,5,0,0:0:0:0:
160,208,60640,1,0,0:0:0:0:
160,208,60709,1,0,0:0:0:0:
160,208,60777,1,0,0:0:0:0:
256,96,60913,5,0,0:0:0:0:
368,240,61049,1,0,0:0:0:0:
176,288,61186,1,0,0:0:0:0:
304,144,61322,5,0,0:0:0:0:
288,336,61459,1,0,0:0:0:0:
432,208,61595,1,0,0:0:0:0:
256,144,61731,5,0,0:0:0:0:
128,288,61868,1,0,0:0:0:0:
320,272,62004,1,0,0:0:0:0:
160,176,62140,5,0,0:0:0:0:
384,224,62277,1,0,0:0:0:0:
160,80,62413,1,0,0:0:0:0:
256,192,62549,5,0,0:0:0:0:
368,96,62686,5,0,0:0:0:0:
320,288,62959,1,0,0:0:0:0:
128,144,63231,2,0,P|176:80|256:64,1,159.999990463257
128,144,63640,2,0,P|176:208|256:224,1,159.999990463257
336,144,64186,5,0,0:0:0:0:
112,224,64322,1,0,0:0:0:0:
384,240,64459,5,0,0:0:0:0:
96,144,64595,1,0,0:0:0:0:
272,48,64731,1,0,0:0:0:0:
432,80,65004,6,0,P|432:176|368:224,1,159.999990463257
272,256,65413,1,0,0:0:0:0:
208,80,65549,1,0,0:0:0:0:
192,304,65686,1,0,0:0:0:0:
320,64,65822,1,0,0:0:0:0:
112,320,65959,1,0,0:0:0:0:
352,192,66163,6,0,L|320:256,1,39.9999976158142
400,80,66368,1,0,0:0:0:0:
144,80,66640,1,0,0:0:0:0:
400,80,66777,1,0,0:0:0:0:
216,208,67049,5,0,0:0:0:0:
239,234,67118,1,0,0:0:0:0:
273,237,67186,1,0,0:0:0:0:
307,232,67254,1,0,0:0:0:0:
335,211,67322,1,0,0:0:0:0:
351,180,67390,1,0,0:0:0:0:
351,144,67459,1,0,0:0:0:0:
334,113,67527,1,0,0:0:0:0:
305,92,67595,2,0,P|263:80|249:87,8,34.9999976158143
270,99,68209,5,0,0:0:0:0:
238,114,68277,1,0,0:0:0:0:
213,138,68345,1,0,0:0:0:0:
197,169,68413,1,0,0:0:0:0:
190,203,68481,1,0,0:0:0:0:
173,233,68549,1,0,0:0:0:0:
143,253,68618,1,0,0:0:0:0:
110,241,68686,1,0,0:0:0:0:
96,208,68754,1,0,0:0:0:0:
102,173,68822,1,0,0:0:0:0:
115,140,68890,1,0,0:0:0:0:
138,113,68959,1,0,0:0:0:0:
168,95,69027,1,0,0:0:0:0:
201,85,69095,1,0,0:0:0:0:
235,82,69163,1,0,0:0:0:0:
268,90,69231,6,0,L|289:97,32,17.4999988079071
240,112,70459,5,0,0:0:0:0:
336,144,70595,1,0,0:0:0:0:
400,224,70731,1,0,0:0:0:0:
176,192,70868,5,0,0:0:0:0:
272,224,71004,1,0,0:0:0:0:
336,304,71140,1,0,0:0:0:0:
163,84,71413,5,0,0:0:0:0:
193,101,71481,1,0,0:0:0:0:
218,124,71549,1,0,0:0:0:0:
239,152,71618,1,0,0:0:0:0:
243,186,71686,1,0,0:0:0:0:
248,220,71754,1,0,0:0:0:0:
263,251,71822,1,0,0:0:0:0:
292,269,71890,1,0,0:0:0:0:
336,256,71959,2,0,L|368:240,8,34.9999976158143
368,224,72572,5,0,0:0:0:0:
368,176,72640,1,0,0:0:0:0:
336,144,72709,1,0,0:0:0:0:
304,112,72777,1,0,0:0:0:0:
256,96,72845,1,0,0:0:0:0:
208,96,72913,1,0,0:0:0:0:
176,128,72981,1,0,0:0:0:0:
144,160,73049,2,0,L|112:208,8,34.9999976158143
144,208,73663,5,0,0:0:0:0:
160,240,73731,1,0,0:0:0:0:
192,272,73799,1,0,0:0:0:0:
240,272,73868,1,0,0:0:0:0:
288,256,73936,1,0,0:0:0:0:
320,224,74004,1,0,0:0:0:0:
320,176,74072,1,0,0:0:0:0:
288,144,74140,2,0,L|240:112,8,34.9999976158143
240,160,74754,2,0,L|176:160,15,34.9999976158143
176,133,75845,5,0,0:0:0:0:
190,97,75913,1,0,0:0:0:0:
218,71,75981,1,0,0:0:0:0:
252,54,76049,1,0,0:0:0:0:
290,49,76118,1,0,0:0:0:0:
327,55,76186,1,0,0:0:0:0:
360,74,76254,1,0,0:0:0:0:
385,102,76322,1,0,0:0:0:0:
396,138,76390,1,0,0:0:0:0:
381,174,76459,5,0,0:0:0:0:
356,203,76527,1,0,0:0:0:0:
325,225,76595,1,0,0:0:0:0:
286,228,76663,1,0,0:0:0:0:
248,219,76731,1,0,0:0:0:0:
216,196,76799,1,0,0:0:0:0:
177,190,76868,2,0,L|124:194,16,34.9999976158143
154,221,78027,5,0,0:0:0:0:
172,254,78095,1,0,0:0:0:0:
200,279,78163,1,0,0:0:0:0:
236,290,78231,1,0,0:0:0:0:
273,297,78299,1,0,0:0:0:0:
311,291,78368,1,0,0:0:0:0:
345,273,78436,1,0,0:0:0:0:
364,239,78504,1,0,0:0:0:0:
371,201,78572,1,0,0:0:0:0:
357,164,78640,5,0,0:0:0:0:
347,126,78709,1,0,0:0:0:0:
326,93,78777,1,0,0:0:0:0:
292,74,78845,1,0,0:0:0:0:
253,73,78913,1,0,0:0:0:0:
216,86,78981,1,0,0:0:0:0:
189,113,79049,5,0,0:0:0:0:
336,176,79231,1,0,0:0:0:0:
144,208,79413,1,0,0:0:0:0:
336,304,79595,5,0,0:0:0:0:
144,256,79777,1,0,0:0:0:0:
336,96,79959,1,0,0:0:0:0:
176,288,80140,5,0,0:0:0:0:
160,96,80322,1,0,0:0:0:0:
352,176,80504,1,0,0:0:0:0:
288,320,80686,5,0,0:0:0:0:
160,224,80868,1,0,0:0:0:0:
368,128,81049,1,0,0:0:0:0:
176,80,81231,5,0,0:0:0:0:
384,208,81413,1,0,0:0:0:0:
128,256,81595,1,0,0:0:0:0:
272,80,81777,6,0,L|256:128,6,39.9999976158142
400,112,82322,5,0,0:0:0:0:
320,320,82504,1,0,0:0:0:0:
160,144,82686,1,0,0:0:0:0:
144,272,82868,5,0,0:0:0:0:
384,208,83049,1,0,0:0:0:0:
160,80,83231,1,0,0:0:0:0:
352,112,83413,5,0,0:0:0:0:
256,320,83595,1,0,0:0:0:0:
80,160,83777,1,0,0:0:0:0:
192,192,83959,5,0,0:0:0:0:
272,112,84095,1,0,0:0:0:0:
192,272,84231,1,0,0:0:0:0:
352,112,84368,1,0,0:0:0:0:
160,272,84504,5,0,0:0:0:0:
416,160,84686,1,0,0:0:0:0:
160,80,84868,1,0,0:0:0:0:
352,288,85049,5,0,0:0:0:0:
80,208,85231,1,0,0:0:0:0:
336,64,85413,1,0,0:0:0:0:
144,288,85595,5,0,0:0:0:0:
48,16,85777,1,0,0:0:0:0:
304,160,85959,1,0,0:0:0:0:
176,16,86140,5,0,0:0:0:0:
368,240,86322,1,0,0:0:0:0:
80,176,86504,1,0,0:0:0:0:
416,112,86686,5,0,0:0:0:0:
128,272,86868,1,0,0:0:0:0:
320,0,87049,1,0,0:0:0:0:
320,320,87231,5,0,0:0:0:0:
80,96,87413,1,0,0:0:0:0:
400,176,87595,1,0,0:0:0:0:
288,192,87777,6,0,P|288:160|281:159,3,34.9999976158143
284,154,88049,6,0,P|268:149|256:160,3,34.9999976158143
238,166,88322,6,0,P|238:198|245:199,3,34.9999976158143
241,203,88594,6,0,P|256:208|269:197,3,34.9999976158143
256,192,88868,5,0,0:0:0:0:
160,80,90231,6,0,B|304:112|304:112|208:320,2,367.49997496605
304,128,94322,5,0,0:0:0:0:
128,224,94731,1,0,0:0:0:0:
224,64,95140,1,0,0:0:0:0:
336,128,95413,1,0,0:0:0:0:
64,144,95686,5,0,0:0:0:0:
80,248,95822,1,0,0:0:0:0:
176,112,96095,5,0,0:0:0:0:
208,256,96231,1,0,0:0:0:0:
304,80,96504,5,0,0:0:0:0:
352,304,96641,1,0,0:0:0:0:
432,32,96913,5,0,0:0:0:0:
480,320,97049,1,0,0:0:0:0:
192,112,97322,5,0,0:0:0:0:
304,256,97459,1,0,0:0:0:0:
320,64,97595,5,0,0:0:0:0:
176,304,97731,1,0,0:0:0:0:
144,112,98140,6,0,L|160:96,2,17.4999988079071
368,80,98413,2,0,L|384:96,2,17.4999988079071
368,256,98686,2,0,L|352:272,2,17.4999988079071
112,240,98959,2,0,L|96:224,2,17.4999988079071
272,96,99231,2,0,L|292:104,2,17.4999988079071
256,288,99504,2,0,L|240:304,2,17.4999988079071
96,128,99777,2,0,L|96:96,2,17.4999988079071
256,192,100049,5,0,0:0:0:0:
336,72,100413,5,0,0:0:0:0:
336,72,100504,1,0,0:0:0:0:
336,72,100595,1,0,0:0:0:0:
176,192,100777,1,0,0:0:0:0:
272,16,100959,1,0,0:0:0:0:
400,176,101140,1,0,0:0:0:0:
192,240,101322,1,0,0:0:0:0:
400,288,101504,1,0,0:0:0:0:
304,96,101686,1,0,0:0:0:0:
256,192,101959,5,0,0:0:0:0:
160,160,102231,6,0,B|112:192|112:192|176:256,1,106.666660308838
320,64,102413,2,0,B|384:48|384:48|384:96,1,106.666660308838
272,304,102595,2,0,B|208:320|208:320|208:256,1,106.666660308838
432,176,102777,2,0,B|432:112|432:112|384:128,1,106.666660308838
208,112,102959,2,0,B|144:128|144:128|144:64,1,106.666660308838
96,288,103140,2,0,B|144:240|144:240|160:288,1,106.666660308838
336,224,103322,5,0,0:0:0:0:
336,224,103390,1,0,0:0:0:0:
336,224,103459,1,0,0:0:0:0:
167,203,103595,2,0,B|100:187|100:187|156:130,1,106.666660308838
224,96,103777,1,0,0:0:0:0:
352,64,103868,5,0,0:0:0:0:
352,64,103936,1,0,0:0:0:0:
352,64,104004,1,0,0:0:0:0:
272,176,104140,6,0,B|224:240|224:240|160:240,1,106.666660308838
128,192,104322,2,0,B|160:128|160:128|208:128,1,106.666660308838
304,288,104549,5,0,0:0:0:0:
304,288,104618,1,0,0:0:0:0:
304,288,104686,1,0,0:0:0:0:
176,224,104822,1,0,0:0:0:0:
192,112,104959,6,0,P|272:96|352:128,1,159.999990463257
384,192,105368,1,0,0:0:0:0:
256,256,105504,5,0,0:0:0:0:
256,256,105572,1,0,0:0:0:0:
256,256,105640,1,0,0:0:0:0:
128,176,105777,1,0,0:0:0:0:
80,320,105913,1,0,0:0:0:0:
80,192,106049,2,0,P|128:128|208:80,1,159.999990463257
304,80,106459,1,0,0:0:0:0:
368,208,106595,5,0,0:0:0:0:
368,208,106663,1,0,0:0:0:0:
368,208,106731,1,0,0:0:0:0:
272,304,106868,1,0,0:0:0:0:
160,208,107004,1,0,0:0:0:0:
256,112,107140,5,0,0:0:0:0:
256,112,107209,1,0,0:0:0:0:
256,112,107277,1,0,0:0:0:0:
384,64,107413,1,0,0:0:0:0:
240,32,107549,1,0,0:0:0:0:
128,128,107686,5,0,0:0:0:0:
128,128,107754,1,0,0:0:0:0:
128,128,107822,1,0,0:0:0:0:
240,224,107959,1,0,0:0:0:0:
352,144,108095,1,0,0:0:0:0:
384,288,108231,5,0,0:0:0:0:
384,288,108299,1,0,0:0:0:0:
384,288,108368,1,0,0:0:0:0:
192,304,108504,1,0,0:0:0:0:
224,144,108640,1,0,0:0:0:0:
336,208,108777,5,0,0:0:0:0:
256,336,108913,1,0,0:0:0:0:
192,128,109049,1,0,0:0:0:0:
128,96,109322,5,0,0:0:0:0:
192,256,109459,1,0,0:0:0:0:
352,96,109595,1,0,0:0:0:0:
352,256,109731,1,0,0:0:0:0:
320,176,110004,5,0,0:0:0:0:
128,240,110140,1,0,0:0:0:0:
256,96,110277,1,0,0:0:0:0:
288,272,110413,1,0,0:0:0:0:
112,160,110549,1,0,0:0:0:0:
320,96,110686,1,0,0:0:0:0:
208,272,110822,1,0,0:0:0:0:
368,192,110959,1,0,0:0:0:0:
128,48,111231,5,0,0:0:0:0:
352,144,111504,5,0,0:0:0:0:
352,320,111913,5,0,0:0:0:0:
208,96,112049,1,0,0:0:0:0:
320,224,112322,5,0,0:0:0:0:
144,272,112459,1,0,0:0:0:0:
352,96,112595,1,0,0:0:0:0:
112,176,112732,1,0,0:0:0:0:
160,96,113004,5,0,0:0:0:0:
432,224,113140,1,0,0:0:0:0:
192,304,113413,5,0,0:0:0:0:
208,96,113549,1,0,0:0:0:0:
336,144,113686,1,0,0:0:0:0:
112,224,113822,1,0,0:0:0:0:
160,144,114095,5,0,0:0:0:0:
256,288,114231,1,0,0:0:0:0:
64,272,114368,1,0,0:0:0:0:
256,64,114640,5,0,0:0:0:0:
256,352,114777,1,0,0:0:0:0:
128,128,114913,5,0,0:0:0:0:
368,176,115049,1,0,0:0:0:0:
64,224,115186,5,0,0:0:0:0:
336,288,115322,1,0,0:0:0:0:
48,320,115459,5,0,0:0:0:0:
272,128,115595,1,0,0:0:0:0:
208,288,115731,5,0,0:0:0:0:
416,96,115868,1,0,0:0:0:0:
256,192,116686,5,0,0:0:0:0:
256,192,116754,12,0,120913,0:0:0:0:
