osu file format v14

[General]
AudioFilename: audio.mp3
AudioLeadIn: 0
PreviewTime: -1
Countdown: 0
SampleSet: Normal
StackLeniency: 0.7
Mode: 0
LetterboxInBreaks: 0
WidescreenStoryboard: 0

[Editor]
DistanceSpacing: 0.6
BeatDivisor: 4
GridSize: 16
TimelineZoom: 2.3

[Metadata]
Title:Endymion
TitleUnicode:Endymion
Artist:fallen shepherd ft. RabbiTon Strings
ArtistUnicode:fallen shepherd ft. RabbiTon Strings
Creator:chezbananas
Version:Challenge
Source:DanceDanceRevolution A
Tags:ddr ace rinon's adventure
BeatmapID:1391622
BeatmapSetID:656910

[Difficulty]
HPDrainRate:2
CircleSize:4
OverallDifficulty:9
ApproachRate:9.3
SliderMultiplier:1.59999990463257
SliderTickRate:1

[Events]
//Background and Video events
0,0,"ACE FOR ACES-bg.png",0,0
//Break Periods
//Storyboard Layer 0 (Background)
//Storyboard Layer 1 (Fail)
//Storyboard Layer 2 (Pass)
//Storyboard Layer 3 (Foreground)
//Storyboard Sound Samples

[TimingPoints]
1049.97711088084,272.727272727273,4,1,0,100,1,0
42467,-50,4,1,0,100,0,0
51163,-100,4,1,0,100,0,0
52731,-50,4,1,0,100,0,0
53004,-50,4,1,0,100,0,0
53512,-50,4,1,0,100,0,0
54058,-100,4,1,0,100,0,0
90027,-200,4,1,0,100,0,0
95786,-100,4,1,0,100,0,0

[HitObjects]
384,80,1059,6,0,P|416:120|408:160,2,79.9999952316285
240,60,1595,2,0,P|160:88|148:160,1,159.999990463257
160,272,2140,1,0,0:0:0:0:
404,276,2413,6,0,P|436:236|428:196,2,79.9999952316285
256,320,2959,2,0,P|176:292|128:224,1,159.999990463257
96,144,3504,1,0,0:0:0:0:
340,72,3777,5,0,0:0:0:0:
340,72,3845,1,0,0:0:0:0:
340,72,3913,1,0,0:0:0:0:
340,72,3981,1,0,0:0:0:0:
340,72,4049,1,0,0:0:0:0:
404,180,4322,1,0,0:0:0:0:
164,144,4595,5,0,0:0:0:0:
164,144,4663,1,0,0:0:0:0:
164,144,4731,1,0,0:0:0:0:
164,144,4799,1,0,0:0:0:0:
164,144,4867,1,0,0:0:0:0:
228,252,5140,1,0,0:0:0:0:
256,188,5413,5,0,0:0:0:0:
104,92,5686,5,0,0:0:0:0:
104,92,5754,1,0,0:0:0:0:
104,92,5822,1,0,0:0:0:0:
140,208,5959,1,0,0:0:0:0:
244,64,6163,1,0,0:0:0:0:
420,40,6368,1,0,0:0:0:0:
464,256,6640,1,0,0:0:0:0:
48,48,7186,1,0,0:0:0:0:
256,192,7254,12,0,8413,0:0:0:0:
156,76,8686,5,0,0:0:0:0:
92,176,8822,1,0,0:0:0:0:
256,188,8959,5,0,0:0:0:0:
356,76,9095,5,0,0:0:0:0:
420,176,9231,1,0,0:0:0:0:
256,300,9368,5,0,0:0:0:0:
256,84,9504,1,0,0:0:0:0:
256,348,9777,1,0,0:0:0:0:
356,308,10049,5,0,0:0:0:0:
420,208,10185,1,0,0:0:0:0:
256,196,10322,5,0,0:0:0:0:
156,308,10458,5,0,0:0:0:0:
92,208,10594,1,0,0:0:0:0:
256,84,10731,5,0,0:0:0:0:
256,300,10867,1,0,0:0:0:0:
256,36,11140,1,0,0:0:0:0:
176,280,11413,5,0,0:0:0:0:
256,96,11549,1,0,0:0:0:0:
336,280,11686,1,0,0:0:0:0:
140,152,11822,1,0,0:0:0:0:
372,152,11959,1,0,0:0:0:0:
256,192,12095,5,0,0:0:0:0:
256,332,12231,1,0,0:0:0:0:
256,44,12504,1,0,0:0:0:0:
460,204,12777,6,0,P|404:216|376:192,1,79.9999952316285
384,64,13049,1,0,0:0:0:0:
320,272,13186,6,0,P|260:284|232:264,1,79.9999952316285
244,132,13458,1,0,0:0:0:0:
128,288,13595,5,0,0:0:0:0:
84,284,13663,1,0,0:0:0:0:
128,288,13731,1,0,0:0:0:0:
84,284,13799,1,0,0:0:0:0:
128,288,13868,1,0,0:0:0:0:
60,52,14140,6,0,P|90:37|144:48,1,79.9999952316285
134,191,14412,1,0,0:0:0:0:
236,112,14549,6,0,P|267:97|320:112,1,79.9999952316285
311,252,14821,1,0,0:0:0:0:
136,316,14959,5,0,0:0:0:0:
376,68,15231,1,0,0:0:0:0:
68,192,15504,6,0,P|68:240|104:272,1,79.9999952316285
236,44,15777,1,0,0:0:0:0:
156,288,15913,6,0,P|156:336|192:368,1,79.9999952316285
324,140,16186,1,0,0:0:0:0:
384,288,16322,5,0,0:0:0:0:
420,288,16390,1,0,0:0:0:0:
384,288,16458,1,0,0:0:0:0:
420,288,16526,1,0,0:0:0:0:
384,288,16595,1,0,0:0:0:0:
160,240,16868,5,0,0:0:0:0:
324,100,17004,1,0,0:0:0:0:
248,304,17140,1,0,0:0:0:0:
144,80,17277,1,0,0:0:0:0:
396,172,17413,1,0,0:0:0:0:
104,304,17549,1,0,0:0:0:0:
184,168,17686,5,0,0:0:0:0:
248,60,17959,5,0,0:0:0:0:
428,80,18231,5,0,0:0:0:0:
380,272,18436,5,0,0:0:0:0:
96,344,18640,5,0,0:0:0:0:
112,112,18845,1,0,0:0:0:0:
332,48,19049,5,0,0:0:0:0:
369,80,19118,1,0,0:0:0:0:
385,126,19186,1,0,0:0:0:0:
367,171,19254,1,0,0:0:0:0:
332,205,19322,1,0,0:0:0:0:
311,249,19390,1,0,0:0:0:0:
333,293,19459,1,0,0:0:0:0:
369,325,19527,1,0,0:0:0:0:
345,368,19595,5,0,0:0:0:0:
156,224,19731,1,0,0:0:0:0:
368,116,19868,1,0,0:0:0:0:
368,116,19936,1,0,0:0:0:0:
368,116,20004,1,0,0:0:0:0:
124,56,20140,1,0,0:0:0:0:
124,56,20209,1,0,0:0:0:0:
124,56,20277,1,0,0:0:0:0:
140,256,20413,5,0,0:0:0:0:
404,72,20549,1,0,0:0:0:0:
404,72,20618,1,0,0:0:0:0:
404,72,20686,1,0,0:0:0:0:
448,240,20822,1,0,0:0:0:0:
228,332,20959,1,0,0:0:0:0:
76,148,21095,5,0,0:0:0:0:
300,208,21231,1,0,0:0:0:0:
300,208,21299,1,0,0:0:0:0:
300,208,21368,1,0,0:0:0:0:
216,32,21504,1,0,0:0:0:0:
216,32,21572,1,0,0:0:0:0:
216,32,21640,1,0,0:0:0:0:
416,68,21777,5,0,0:0:0:0:
380,292,21913,1,0,0:0:0:0:
380,292,21981,1,0,0:0:0:0:
380,292,22049,1,0,0:0:0:0:
128,292,22186,1,0,0:0:0:0:
64,120,22322,1,0,0:0:0:0:
224,156,22459,5,0,0:0:0:0:
396,64,22595,1,0,0:0:0:0:
396,64,22663,1,0,0:0:0:0:
396,64,22731,1,0,0:0:0:0:
340,276,22868,1,0,0:0:0:0:
340,276,22936,1,0,0:0:0:0:
340,276,23004,1,0,0:0:0:0:
104,192,23140,5,0,0:0:0:0:
272,88,23277,1,0,0:0:0:0:
272,88,23345,1,0,0:0:0:0:
272,88,23413,1,0,0:0:0:0:
448,88,23549,1,0,0:0:0:0:
448,264,23686,1,0,0:0:0:0:
272,264,23822,5,0,0:0:0:0:
152,80,23959,1,0,0:0:0:0:
152,80,24027,1,0,0:0:0:0:
152,80,24095,1,0,0:0:0:0:
112,280,24231,1,0,0:0:0:0:
112,280,24299,1,0,0:0:0:0:
112,280,24368,1,0,0:0:0:0:
296,152,24504,5,0,0:0:0:0:
376,248,24640,1,0,0:0:0:0:
376,248,24709,1,0,0:0:0:0:
376,248,24777,1,0,0:0:0:0:
240,328,24913,1,0,0:0:0:0:
96,200,25049,1,0,0:0:0:0:
216,48,25186,5,0,0:0:0:0:
408,48,25322,1,0,0:0:0:0:
408,48,25390,1,0,0:0:0:0:
408,48,25459,1,0,0:0:0:0:
272,200,25595,1,0,0:0:0:0:
272,200,25663,1,0,0:0:0:0:
272,200,25731,1,0,0:0:0:0:
96,312,25868,5,0,0:0:0:0:
136,112,26004,1,0,0:0:0:0:
136,112,26072,1,0,0:0:0:0:
136,112,26140,1,0,0:0:0:0:
328,56,26277,1,0,0:0:0:0:
432,232,26413,1,0,0:0:0:0:
256,336,26549,5,0,0:0:0:0:
80,232,26686,1,0,0:0:0:0:
80,232,26754,1,0,0:0:0:0:
80,232,26822,1,0,0:0:0:0:
256,96,26959,1,0,0:0:0:0:
256,96,27027,1,0,0:0:0:0:
256,96,27095,1,0,0:0:0:0:
200,272,27231,5,0,0:0:0:0:
408,160,27368,1,0,0:0:0:0:
408,160,27436,1,0,0:0:0:0:
408,160,27504,1,0,0:0:0:0:
360,320,27640,1,0,0:0:0:0:
72,296,27777,5,0,0:0:0:0:
256,192,27913,2,0,P|240:160|224:160,4,39.9999976158142
72,200,28322,5,0,0:0:0:0:
256,96,28458,2,0,P|240:64|224:64,4,39.9999976158142
440,296,28868,5,0,0:0:0:0:
256,192,29004,2,0,P|272:160|288:160,4,39.9999976158142
440,200,29413,5,0,0:0:0:0:
256,96,29549,2,0,P|272:64|288:64,4,39.9999976158142
72,88,29959,5,0,0:0:0:0:
256,192,30095,2,0,P|240:224|224:224,4,39.9999976158142
72,184,30504,5,0,0:0:0:0:
256,288,30640,2,0,P|240:320|224:320,4,39.9999976158142
440,88,31050,5,0,0:0:0:0:
256,192,31186,2,0,P|272:224|288:224,4,39.9999976158142
440,184,31595,5,0,0:0:0:0:
256,288,31731,2,0,P|272:320|288:320,4,39.9999976158142
211,42,32140,5,0,0:0:0:0:
168,47,32209,1,0,0:0:0:0:
128,60,32277,1,0,0:0:0:0:
88,74,32345,1,0,0:0:0:0:
56,101,32413,1,0,0:0:0:0:
37,138,32481,1,0,0:0:0:0:
43,179,32549,1,0,0:0:0:0:
76,205,32618,1,0,0:0:0:0:
116,213,32686,1,0,0:0:0:0:
157,209,32754,5,0,0:0:0:0:
198,204,32822,1,0,0:0:0:0:
238,192,32890,1,0,0:0:0:0:
280,198,32959,2,0,L|326:213,8,39.9999976158142
238,205,33572,5,0,0:0:0:0:
186,209,33640,1,0,0:0:0:0:
144,217,33709,1,0,0:0:0:0:
108,238,33777,1,0,0:0:0:0:
92,276,33845,1,0,0:0:0:0:
111,305,33913,1,0,0:0:0:0:
148,323,33981,1,0,0:0:0:0:
188,333,34049,1,0,0:0:0:0:
230,338,34118,1,0,0:0:0:0:
271,332,34186,1,0,0:0:0:0:
309,315,34254,1,0,0:0:0:0:
335,282,34322,1,0,0:0:0:0:
256,192,36504,5,0,0:0:0:0:
64,192,36777,5,0,0:0:0:0:
256,96,36913,1,0,0:0:0:0:
448,192,37049,1,0,0:0:0:0:
64,192,37186,5,0,0:0:0:0:
256,288,37322,1,0,0:0:0:0:
448,192,37458,1,0,0:0:0:0:
64,192,37595,5,0,0:0:0:0:
256,96,37731,1,0,0:0:0:0:
448,192,37867,1,0,0:0:0:0:
256,288,38004,1,0,0:0:0:0:
240,192,38140,5,0,0:0:0:0:
272,192,38209,1,0,0:0:0:0:
240,192,38277,1,0,0:0:0:0:
272,192,38346,1,0,0:0:0:0:
240,192,38413,1,0,0:0:0:0:
256,192,38686,5,0,0:0:0:0:
400,272,38959,5,0,0:0:0:0:
320,128,39095,1,0,0:0:0:0:
272,288,39231,1,0,0:0:0:0:
96,64,39368,5,0,0:0:0:0:
176,224,39504,1,0,0:0:0:0:
240,64,39640,1,0,0:0:0:0:
304,208,39777,5,0,0:0:0:0:
128,128,39913,1,0,0:0:0:0:
304,48,40049,1,0,0:0:0:0:
256,288,40186,5,0,0:0:0:0:
416,224,40322,1,0,0:0:0:0:
448,208,40390,1,0,0:0:0:0:
416,224,40459,1,0,0:0:0:0:
448,208,40527,1,0,0:0:0:0:
416,224,40595,1,0,0:0:0:0:
256,192,40868,5,0,0:0:0:0:
208,144,41140,5,0,0:0:0:0:
208,240,41277,1,0,0:0:0:0:
304,240,41413,1,0,0:0:0:0:
304,144,41549,1,0,0:0:0:0:
144,80,41686,5,0,0:0:0:0:
144,304,41822,1,0,0:0:0:0:
368,304,41959,1,0,0:0:0:0:
368,80,42095,1,0,0:0:0:0:
96,192,42231,1,0,0:0:0:0:
432,192,42368,1,0,0:0:0:0:
224,160,42504,6,0,L|304:240,4,70
48,192,43049,5,0,0:0:0:0:
448,192,43322,1,0,0:0:0:0:
256,0,43595,5,0,0:0:0:0:
256,384,43868,1,0,0:0:0:0:
224,192,44140,6,0,L|272:192,24,35
352,96,45504,5,0,0:0:0:0:
128,288,45777,5,0,0:0:0:0:
432,240,45981,1,0,0:0:0:0:
352,176,46049,1,0,0:0:0:0:
160,80,46186,5,0,0:0:0:0:
400,112,46322,1,0,0:0:0:0:
80,176,46459,5,0,0:0:0:0:
448,208,46595,1,0,0:0:0:0:
32,256,46731,5,0,0:0:0:0:
256,192,46868,5,0,0:0:0:0:
290,192,46936,1,0,0:0:0:0:
278,158,47004,1,0,0:0:0:0:
243,165,47072,1,0,0:0:0:0:
223,194,47140,1,0,0:0:0:0:
235,227,47209,1,0,0:0:0:0:
269,228,47277,1,0,0:0:0:0:
297,207,47345,1,0,0:0:0:0:
297,172,47413,1,0,0:0:0:0:
112,112,47686,5,0,0:0:0:0:
416,192,47959,5,0,0:0:0:0:
128,288,48163,1,0,0:0:0:0:
48,112,48231,1,0,0:0:0:0:
112,144,48368,5,0,0:0:0:0:
128,272,48504,1,0,0:0:0:0:
224,80,48640,5,0,0:0:0:0:
240,336,48777,1,0,0:0:0:0:
352,16,48913,5,0,0:0:0:0:
352,176,49049,5,0,0:0:0:0:
352,208,49118,1,0,0:0:0:0:
352,176,49186,1,0,0:0:0:0:
352,208,49254,1,0,0:0:0:0:
352,176,49322,1,0,0:0:0:0:
352,208,49390,1,0,0:0:0:0:
352,176,49459,1,0,0:0:0:0:
352,208,49527,1,0,0:0:0:0:
352,176,49595,1,0,0:0:0:0:
144,304,49868,5,0,0:0:0:0:
432,304,50140,5,0,0:0:0:0:
288,128,50345,1,0,0:0:0:0:
112,48,50413,1,0,0:0:0:0:
80,160,50549,5,0,0:0:0:0:
240,32,50686,1,0,0:0:0:0:
112,288,50822,5,0,0:0:0:0:
384,48,50959,1,0,0:0:0:0:
176,368,51095,5,0,0:0:0:0:
464,96,51231,2,0,L|464:144,4,35
256,128,51777,5,0,0:0:0:0:
176,240,51913,1,0,0:0:0:0:
336,240,52049,1,0,0:0:0:0:
256,192,52186,5,0,0:0:0:0:
256,320,52322,5,0,0:0:0:0:
384,144,52459,1,0,0:0:0:0:
112,144,52595,1,0,0:0:0:0:
256,192,52731,5,0,0:0:0:0:
208,112,52868,6,0,L|304:48,1,109.999995231628
208,144,53140,2,0,L|352:48,1,139.999995231628
208,176,53413,6,0,L|304:112,1,79.9999952316285
208,208,53549,6,0,L|304:144,1,79.9999952316285
208,240,53686,6,0,L|304:176,1,79.9999952316285
208,272,53822,6,0,L|304:208,1,79.9999952316285
208,304,53959,5,0,0:0:0:0:
256,96,54231,1,0,0:0:0:0:
400,256,54504,2,0,P|432:144|400:96,1,159.999990463257
400,256,54913,2,0,P|304:304|224:288,1,159.999990463257
176,80,55459,5,0,0:0:0:0:
336,80,55595,1,0,0:0:0:0:
80,160,55731,5,0,0:0:0:0:
432,160,55868,1,0,0:0:0:0:
256,272,56004,5,0,0:0:0:0:
256,64,56277,6,0,P|176:128|192:192,1,159.999990463257
208,208,56686,1,0,0:0:0:0:
288,288,56822,1,0,0:0:0:0:
400,256,56959,1,0,0:0:0:0:
464,160,57095,1,0,0:0:0:0:
384,80,57231,1,0,0:0:0:0:
240,112,57436,5,0,0:0:0:0:
224,240,57504,1,0,0:0:0:0:
368,128,57640,1,0,0:0:0:0:
354,206,57913,6,0,L|370:110,1,79.9999952316284
256,192,58322,5,0,0:0:0:0:
256,192,58595,1,0,0:0:0:0:
112,64,58868,2,0,P|64:144|48:240,1,159.999990463257
112,64,59277,2,0,P|192:32|272:64,1,159.999990463257
208,64,59822,5,0,0:0:0:0:
304,304,59959,1,0,0:0:0:0:
336,32,60095,5,0,0:0:0:0:
160,320,60231,1,0,0:0:0:0:
192,0,60368,5,0,0:0:0:0:
352,128,60504,5,0,0:0:0:0:
112,256,60640,1,0,0:0:0:0:
112,256,60709,1,0,0:0:0:0:
112,256,60777,1,0,0:0:0:0:
224,64,60913,5,0,0:0:0:0:
384,288,61049,1,0,0:0:0:0:
96,224,61186,1,0,0:0:0:0:
368,64,61322,5,0,0:0:0:0:
288,336,61459,1,0,0:0:0:0:
80,64,61595,1,0,0:0:0:0:
480,128,61731,5,0,0:0:0:0:
64,128,61868,1,0,0:0:0:0:
464,288,62004,1,0,0:0:0:0:
80,256,62140,5,0,0:0:0:0:
480,192,62277,1,0,0:0:0:0:
80,48,62413,1,0,0:0:0:0:
256,192,62549,5,0,0:0:0:0:
368,96,62686,5,0,0:0:0:0:
320,288,62959,1,0,0:0:0:0:
128,144,63231,2,0,P|176:80|256:64,1,159.999990463257
128,144,63640,2,0,P|176:208|256:224,1,159.999990463257
336,144,64186,5,0,0:0:0:0:
112,224,64322,1,0,0:0:0:0:
416,240,64459,5,0,0:0:0:0:
64,144,64595,1,0,0:0:0:0:
240,48,64731,1,0,0:0:0:0:
432,80,65004,6,0,P|432:176|368:224,1,159.999990463257
272,256,65413,1,0,0:0:0:0:
208,80,65549,1,0,0:0:0:0:
192,304,65686,1,0,0:0:0:0:
320,64,65822,1,0,0:0:0:0:
112,320,65959,1,0,0:0:0:0:
368,272,66163,5,0,0:0:0:0:
240,176,66231,1,0,0:0:0:0:
400,80,66368,5,0,0:0:0:0:
144,80,66640,1,0,0:0:0:0:
400,80,66777,1,0,0:0:0:0:
304,112,67049,5,0,0:0:0:0:
288,129,67118,1,0,0:0:0:0:
256,128,67186,1,0,0:0:0:0:
226,140,67254,1,0,0:0:0:0:
192,192,67322,5,0,0:0:0:0:
160,186,67390,1,0,0:0:0:0:
139,161,67459,1,0,0:0:0:0:
134,129,67527,1,0,0:0:0:0:
175,67,67595,5,0,0:0:0:0:
201,49,67663,1,0,0:0:0:0:
232,43,67731,1,0,0:0:0:0:
263,48,67799,1,0,0:0:0:0:
306,87,67868,5,0,0:0:0:0:
330,107,67936,1,0,0:0:0:0:
345,135,68004,1,0,0:0:0:0:
345,166,68072,1,0,0:0:0:0:
336,256,68140,6,0,L|286:230,4,39.9999976158142
384,224,68481,5,0,0:0:0:0:
413,212,68549,1,0,0:0:0:0:
438,186,68618,1,0,0:0:0:0:
450,152,68686,1,0,0:0:0:0:
381,126,68754,5,0,0:0:0:0:
317,103,68822,1,0,0:0:0:0:
253,125,68890,1,0,0:0:0:0:
204,173,68959,1,0,0:0:0:0:
150,266,69027,5,0,0:0:0:0:
82,204,69095,1,0,0:0:0:0:
75,112,69163,1,0,0:0:0:0:
139,47,69231,2,0,L|169:34,32,19.9999988079071
240,112,70459,5,0,0:0:0:0:
336,144,70595,1,0,0:0:0:0:
400,224,70731,1,0,0:0:0:0:
176,192,70868,5,0,0:0:0:0:
272,224,71004,1,0,0:0:0:0:
336,304,71140,1,0,0:0:0:0:
349,49,71413,5,0,0:0:0:0:
368,79,71481,1,0,0:0:0:0:
375,114,71549,1,0,0:0:0:0:
371,150,71618,1,0,0:0:0:0:
358,183,71686,1,0,0:0:0:0:
333,208,71754,1,0,0:0:0:0:
299,219,71822,1,0,0:0:0:0:
263,214,71890,1,0,0:0:0:0:
232,194,71959,1,0,0:0:0:0:
214,162,72027,5,0,0:0:0:0:
202,128,72095,1,0,0:0:0:0:
177,101,72163,1,0,0:0:0:0:
141,95,72231,1,0,0:0:0:0:
105,102,72299,1,0,0:0:0:0:
78,127,72368,1,0,0:0:0:0:
61,158,72436,1,0,0:0:0:0:
62,193,72504,1,0,0:0:0:0:
72,227,72572,1,0,0:0:0:0:
95,254,72640,5,0,0:0:0:0:
124,274,72709,1,0,0:0:0:0:
154,293,72777,1,0,0:0:0:0:
189,300,72845,1,0,0:0:0:0:
224,297,72913,1,0,0:0:0:0:
258,285,72981,1,0,0:0:0:0:
290,269,73049,2,0,L|329:244,8,39.9999976158142
356,220,73663,5,0,0:0:0:0:
358,184,73731,1,0,0:0:0:0:
336,155,73799,1,0,0:0:0:0:
311,128,73868,1,0,0:0:0:0:
275,101,73936,1,0,0:0:0:0:
231,92,74004,1,0,0:0:0:0:
187,95,74072,1,0,0:0:0:0:
148,115,74140,1,0,0:0:0:0:
126,153,74209,1,0,0:0:0:0:
107,192,74277,5,0,0:0:0:0:
122,233,74345,1,0,0:0:0:0:
149,267,74413,1,0,0:0:0:0:
191,276,74481,1,0,0:0:0:0:
234,272,74549,1,0,0:0:0:0:
274,252,74618,1,0,0:0:0:0:
307,223,74686,2,0,L|341:188,16,39.9999976158142
361,167,75845,5,0,0:0:0:0:
337,112,75913,1,0,0:0:0:0:
283,84,75981,1,0,0:0:0:0:
223,82,76049,1,0,0:0:0:0:
165,102,76118,1,0,0:0:0:0:
122,144,76186,1,0,0:0:0:0:
93,196,76254,1,0,0:0:0:0:
107,254,76322,1,0,0:0:0:0:
152,292,76390,1,0,0:0:0:0:
212,300,76459,5,0,0:0:0:0:
271,295,76527,1,0,0:0:0:0:
325,269,76595,1,0,0:0:0:0:
329,209,76663,1,0,0:0:0:0:
298,157,76731,1,0,0:0:0:0:
262,109,76799,1,0,0:0:0:0:
245,49,76868,2,0,P|248:31|267:27,16,39.9999976158142
305,45,78027,5,0,0:0:0:0:
357,88,78095,1,0,0:0:0:0:
388,148,78163,1,0,0:0:0:0:
409,212,78231,1,0,0:0:0:0:
380,273,78299,1,0,0:0:0:0:
316,299,78368,1,0,0:0:0:0:
248,298,78436,1,0,0:0:0:0:
184,273,78504,1,0,0:0:0:0:
131,230,78572,1,0,0:0:0:0:
98,170,78640,5,0,0:0:0:0:
107,101,78709,1,0,0:0:0:0:
144,44,78777,1,0,0:0:0:0:
183,98,78845,1,0,0:0:0:0:
210,160,78913,1,0,0:0:0:0:
260,204,78981,1,0,0:0:0:0:
321,176,79049,5,0,0:0:0:0:
416,64,79231,1,0,0:0:0:0:
96,128,79413,1,0,0:0:0:0:
336,304,79595,5,0,0:0:0:0:
96,240,79777,1,0,0:0:0:0:
336,96,79959,1,0,0:0:0:0:
176,288,80140,5,0,0:0:0:0:
144,80,80322,1,0,0:0:0:0:
384,176,80504,1,0,0:0:0:0:
368,288,80686,5,0,0:0:0:0:
112,192,80868,1,0,0:0:0:0:
400,64,81049,1,0,0:0:0:0:
176,80,81231,5,0,0:0:0:0:
400,176,81413,1,0,0:0:0:0:
96,288,81595,1,0,0:0:0:0:
304,48,81777,5,0,0:0:0:0:
272,80,81845,1,0,0:0:0:0:
240,128,81913,1,0,0:0:0:0:
224,176,81981,1,0,0:0:0:0:
224,224,82049,1,0,0:0:0:0:
240,272,82118,1,0,0:0:0:0:
272,320,82186,1,0,0:0:0:0:
384,96,82322,5,0,0:0:0:0:
320,320,82504,1,0,0:0:0:0:
112,80,82686,1,0,0:0:0:0:
144,272,82868,5,0,0:0:0:0:
432,192,83049,1,0,0:0:0:0:
144,64,83231,1,0,0:0:0:0:
352,48,83413,5,0,0:0:0:0:
256,320,83595,1,0,0:0:0:0:
96,64,83777,1,0,0:0:0:0:
176,208,83959,5,0,0:0:0:0:
288,96,84095,1,0,0:0:0:0:
176,288,84231,1,0,0:0:0:0:
352,32,84368,1,0,0:0:0:0:
80,320,84504,5,0,0:0:0:0:
448,208,84686,1,0,0:0:0:0:
48,48,84868,1,0,0:0:0:0:
464,336,85049,5,0,0:0:0:0:
16,192,85231,1,0,0:0:0:0:
480,16,85413,1,0,0:0:0:0:
112,320,85595,5,0,0:0:0:0:
64,16,85777,1,0,0:0:0:0:
496,176,85959,1,0,0:0:0:0:
176,0,86140,5,0,0:0:0:0:
496,336,86322,1,0,0:0:0:0:
0,128,86504,1,0,0:0:0:0:
496,0,86686,5,0,0:0:0:0:
16,336,86868,1,0,0:0:0:0:
304,0,87049,1,0,0:0:0:0:
352,352,87231,5,0,0:0:0:0:
16,16,87413,1,0,0:0:0:0:
512,80,87595,1,0,0:0:0:0:
332,114,87777,5,0,0:0:0:0:
336,153,87845,1,0,0:0:0:0:
328,192,87913,1,0,0:0:0:0:
314,229,87981,1,0,0:0:0:0:
283,254,88049,1,0,0:0:0:0:
242,259,88118,1,0,0:0:0:0:
204,245,88186,1,0,0:0:0:0:
175,217,88254,1,0,0:0:0:0:
157,181,88322,1,0,0:0:0:0:
171,143,88390,5,0,0:0:0:0:
205,121,88459,1,0,0:0:0:0:
244,125,88527,1,0,0:0:0:0:
281,139,88595,1,0,0:0:0:0:
305,170,88663,1,0,0:0:0:0:
278,200,88731,1,0,0:0:0:0:
239,210,88799,1,0,0:0:0:0:
211,179,88868,1,0,0:0:0:0:
160,64,90231,6,0,B|352:128|352:128|288:320,3,399.999976158142
128,224,94731,1,0,0:0:0:0:
224,64,95140,1,0,0:0:0:0:
336,128,95413,1,0,0:0:0:0:
64,144,95686,5,0,0:0:0:0:
80,248,95822,1,0,0:0:0:0:
184,96,96095,5,0,0:0:0:0:
208,280,96231,1,0,0:0:0:0:
304,56,96504,5,0,0:0:0:0:
352,328,96641,1,0,0:0:0:0:
440,16,96913,5,0,0:0:0:0:
480,368,97049,1,0,0:0:0:0:
120,48,97322,5,0,0:0:0:0:
392,112,97459,1,0,0:0:0:0:
96,208,97595,1,0,0:0:0:0:
400,288,97731,1,0,0:0:0:0:
333,143,98140,6,0,P|345:169|341:177,3,39.9999976158142
192,264,98413,2,0,P|160:264|152:248,3,39.9999976158142
136,96,98686,2,0,P|160:80|168:88,3,39.9999976158142
384,112,98959,2,0,P|400:136|384:152,3,39.9999976158142
216,288,99231,2,0,P|192:288|192:264,3,39.9999976158142
216,48,99504,2,0,P|240:48|248:64,3,39.9999976158142
400,208,99777,2,0,P|416:224|400:232,2,39.9999976158142
128,152,100049,1,0,0:0:0:0:
336,72,100413,5,0,0:0:0:0:
336,72,100504,1,0,0:0:0:0:
336,72,100595,1,0,0:0:0:0:
96,320,100777,1,0,0:0:0:0:
80,64,100959,1,0,0:0:0:0:
416,144,101140,1,0,0:0:0:0:
80,160,101322,1,0,0:0:0:0:
384,304,101504,1,0,0:0:0:0:
256,32,101686,1,0,0:0:0:0:
256,192,101959,5,0,0:0:0:0:
160,64,102231,5,0,0:0:0:0:
304,32,102322,1,0,0:0:0:0:
176,144,102413,1,0,0:0:0:0:
320,112,102504,1,0,0:0:0:0:
192,224,102595,1,0,0:0:0:0:
336,192,102686,1,0,0:0:0:0:
208,304,102777,1,0,0:0:0:0:
352,272,102868,1,0,0:0:0:0:
320,112,102959,5,0,0:0:0:0:
352,256,103050,1,0,0:0:0:0:
240,128,103141,1,0,0:0:0:0:
272,272,103232,1,0,0:0:0:0:
160,224,103322,5,0,0:0:0:0:
160,224,103368,1,0,0:0:0:0:
160,224,103413,1,0,0:0:0:0:
160,224,103459,1,0,0:0:0:0:
160,224,103504,1,0,0:0:0:0:
192,224,103595,5,0,0:0:0:0:
256,144,103686,1,0,0:0:0:0:
320,224,103777,1,0,0:0:0:0:
256,304,103868,5,0,0:0:0:0:
256,304,103913,1,0,0:0:0:0:
256,304,103959,1,0,0:0:0:0:
256,304,104004,1,0,0:0:0:0:
256,304,104049,1,0,0:0:0:0:
320,224,104140,5,0,0:0:0:0:
256,144,104231,1,0,0:0:0:0:
192,224,104322,1,0,0:0:0:0:
256,224,104413,5,0,0:0:0:0:
304,288,104549,5,0,0:0:0:0:
304,288,104618,1,0,0:0:0:0:
304,288,104686,1,0,0:0:0:0:
176,224,104822,1,0,0:0:0:0:
176,80,104959,5,0,0:0:0:0:
176,80,105027,1,0,0:0:0:0:
176,80,105095,1,0,0:0:0:0:
320,64,105231,1,0,0:0:0:0:
384,192,105368,1,0,0:0:0:0:
256,256,105504,5,0,0:0:0:0:
256,256,105572,1,0,0:0:0:0:
256,256,105640,1,0,0:0:0:0:
128,176,105777,1,0,0:0:0:0:
80,320,105913,1,0,0:0:0:0:
64,176,106049,5,0,0:0:0:0:
64,176,106118,1,0,0:0:0:0:
64,176,106186,1,0,0:0:0:0:
160,80,106322,1,0,0:0:0:0:
304,80,106459,1,0,0:0:0:0:
368,208,106595,5,0,0:0:0:0:
368,208,106663,1,0,0:0:0:0:
368,208,106731,1,0,0:0:0:0:
272,304,106868,1,0,0:0:0:0:
160,208,107004,1,0,0:0:0:0:
256,112,107140,5,0,0:0:0:0:
256,112,107209,1,0,0:0:0:0:
256,112,107277,1,0,0:0:0:0:
384,64,107413,1,0,0:0:0:0:
240,32,107549,1,0,0:0:0:0:
128,128,107686,5,0,0:0:0:0:
128,128,107754,1,0,0:0:0:0:
128,128,107822,1,0,0:0:0:0:
240,224,107959,1,0,0:0:0:0:
352,144,108095,1,0,0:0:0:0:
384,288,108231,5,0,0:0:0:0:
384,288,108299,1,0,0:0:0:0:
384,288,108368,1,0,0:0:0:0:
192,304,108504,1,0,0:0:0:0:
160,112,108640,1,0,0:0:0:0:
320,80,108777,5,0,0:0:0:0:
256,336,108913,1,0,0:0:0:0:
208,16,109049,1,0,0:0:0:0:
128,64,109322,5,0,0:0:0:0:
160,336,109459,1,0,0:0:0:0:
416,64,109595,1,0,0:0:0:0:
464,288,109731,1,0,0:0:0:0:
432,128,110004,5,0,0:0:0:0:
128,256,110140,1,0,0:0:0:0:
352,32,110277,1,0,0:0:0:0:
208,352,110413,1,0,0:0:0:0:
416,16,110549,1,0,0:0:0:0:
128,368,110686,1,0,0:0:0:0:
512,80,110822,1,0,0:0:0:0:
16,320,110959,1,0,0:0:0:0:
128,48,111231,5,0,0:0:0:0:
352,144,111504,5,0,0:0:0:0:
416,352,111913,5,0,0:0:0:0:
144,16,112049,1,0,0:0:0:0:
480,112,112322,5,0,0:0:0:0:
32,272,112459,1,0,0:0:0:0:
480,0,112595,1,0,0:0:0:0:
32,160,112732,1,0,0:0:0:0:
144,16,113004,5,0,0:0:0:0:
496,208,113140,1,0,0:0:0:0:
144,320,113413,5,0,0:0:0:0:
224,16,113549,1,0,0:0:0:0:
496,32,113686,1,0,0:0:0:0:
16,288,113822,1,0,0:0:0:0:
160,48,114095,5,0,0:0:0:0:
496,368,114231,1,0,0:0:0:0:
64,144,114368,1,0,0:0:0:0:
256,0,114640,5,0,0:0:0:0:
256,384,114777,1,0,0:0:0:0:
80,48,114913,5,0,0:0:0:0:
432,336,115049,1,0,0:0:0:0:
0,160,115186,5,0,0:0:0:0:
512,224,115322,1,0,0:0:0:0:
32,320,115459,5,0,0:0:0:0:
480,64,115595,1,0,0:0:0:0:
512,384,115731,5,0,0:0:0:0:
0,0,115868,1,0,0:0:0:0:
256,192,116686,5,0,0:0:0:0:
256,192,116754,12,0,120913,0:0:0:0:
