osu file format v14

[General]
AudioFilename: audio.mp3
AudioLeadIn: 0
PreviewTime: 90282
Countdown: 1
SampleSet: Normal
StackLeniency: 0.7
Mode: 1
LetterboxInBreaks: 0
WidescreenStoryboard: 1

[Editor]
Bookmarks: 10374
DistanceSpacing: 1.5
BeatDivisor: 4
GridSize: 32
TimelineZoom: 4.299997

[Metadata]
Title:ENDYMION
TitleUnicode:ENDYMION
Artist:fallen shepherd ft. RabbiTon Strings
ArtistUnicode:fallen shepherd ft. RabbiTon Strings
Creator:ShroudedBowkeys
Version:Muzukashii
Source:
Tags:
BeatmapID:1445256
BeatmapSetID:649870

[Difficulty]
HPDrainRate:5
CircleSize:5
OverallDifficulty:5
ApproachRate:6
SliderMultiplier:0.95
SliderTickRate:1

[Events]
//Background and Video events
0,0,"maxresdefault.jpg",0,0
//Break Periods
//Storyboard Layer 0 (Background)
//Storyboard Layer 1 (Fail)
//Storyboard Layer 2 (Pass)
//Storyboard Layer 3 (Foreground)
//Storyboard Sound Samples

[TimingPoints]
1102,272.727272727273,5,1,0,50,1,0
1102,-133.333333333333,5,1,0,50,0,0
3829,272.727272727273,3,1,0,50,1,0
3829,-133.333333333333,3,1,0,50,0,0
5601,-142.857142857143,3,1,0,50,0,0
5806,-153.846153846154,3,1,0,50,0,0
5942,-166.666666666667,3,1,0,50,0,0
6147,-181.818181818182,3,1,0,50,0,0
6283,272.727272727273,3,1,0,50,1,0
6283,-200,3,1,0,50,0,0
6555,-222.222222222222,3,1,0,50,0,0
7101,136.363636363636,3,1,0,50,1,0
7101,-66.6666666666667,3,1,0,50,0,0
8738,272.727272727273,5,1,0,50,1,0
8738,-125,5,1,0,50,0,0
18385,-104.166666666667,5,1,0,50,0,0
18590,-89.2857142857143,5,1,0,50,0,0
18863,-78.125,5,1,0,50,0,0
18931,-76.9230769230769,5,1,0,50,0,0
18999,-75.7575757575758,5,1,0,50,0,0
19067,-74.6268656716418,5,1,0,50,0,0
19135,-73.5294117647059,5,1,0,50,0,0
19203,-72.463768115942,5,1,0,50,0,0
19272,-71.4285714285714,5,1,0,50,0,0
19340,-70.4225352112676,5,1,0,50,0,0
19408,-69.4444444444444,5,1,0,50,0,0
19476,-68.4931506849315,5,1,0,50,0,0
19544,-67.5675675675676,5,1,0,50,0,0
19647,272.727272727273,5,1,0,50,1,0
19647,-66.6666666666667,5,1,0,50,0,1
26840,-67.1140939597315,5,1,0,50,0,1
26908,-68.0272108843537,5,1,0,50,0,1
26976,-68.9655172413793,5,1,0,50,0,1
27078,-69.9300699300699,5,1,0,50,0,1
27249,-70.9219858156028,5,1,0,50,0,1
27317,-71.9424460431655,5,1,0,50,0,1
27385,-72.992700729927,5,1,0,50,0,1
27453,-74.0740740740741,5,1,0,50,0,1
27522,-75.187969924812,5,1,0,50,0,1
27590,-76.3358778625954,5,1,0,50,0,1
27658,-77.5193798449612,5,1,0,50,0,1
27726,-78.7401574803149,5,1,0,50,0,1
27828,272.727272727273,4,1,0,50,1,0
27828,-80,4,1,0,50,0,0
32157,-78.7401574803149,4,1,0,50,0,0
32157,-78.7401574803149,4,1,0,50,0,0
32225,-77.5193798449612,4,1,0,50,0,0
32293,-76.3358778625954,4,1,0,50,0,0
32362,-75.187969924812,4,1,0,50,0,0
32430,-74.0740740740741,4,1,0,50,0,0
32498,-72.992700729927,4,1,0,50,0,0
32566,-71.9424460431655,4,1,0,50,0,0
32634,-70.9219858156028,4,1,0,50,0,0
32703,-69.9300699300699,4,1,0,50,0,0
32771,-68.9655172413793,4,1,0,50,0,0
32839,-68.0272108843537,4,1,0,50,0,0
32907,-67.1140939597315,4,1,0,50,0,0
32975,-66.2251655629139,4,1,0,50,0,0
33043,-65.359477124183,4,1,0,50,0,0
33112,-64.5161290322581,4,1,0,50,0,0
33180,-63.6942675159236,4,1,0,50,0,0
33248,-62.8930817610063,4,1,0,50,0,0
33316,-62.111801242236,4,1,0,50,0,0
33384,-61.3496932515337,4,1,0,50,0,0
33453,-60.6060606060606,4,1,0,50,0,0
33521,-59.8802395209581,4,1,0,50,0,0
33589,-59.1715976331361,4,1,0,50,0,0
33657,-58.4795321637427,4,1,0,50,0,0
33725,-57.8034682080925,4,1,0,50,0,0
33793,-57.1428571428571,4,1,0,50,0,0
33862,-56.4971751412429,4,1,0,50,0,0
33930,-55.8659217877095,4,1,0,50,0,0
33998,-55.2486187845304,4,1,0,50,0,0
34066,-54.6448087431694,4,1,0,50,0,0
34134,-54.054054054054,4,1,0,50,0,0
34203,-53.475935828877,4,1,0,50,0,0
34271,-52.9100529100529,4,1,0,50,0,0
34373,-52.9100529100529,4,1,0,50,0,1
34646,-52.9100529100529,4,1,0,50,0,0
34918,-52.9100529100529,4,1,0,50,0,1
35191,-52.9100529100529,4,1,0,50,0,0
35464,-125,4,1,0,50,0,0
44157,-55.5555555555556,4,1,0,50,0,1
45282,-125,4,1,0,50,0,0
62430,-55.5555555555556,4,1,0,50,0,1
62634,-125,4,1,0,50,0,0
67100,-80,4,1,0,50,0,1
70373,-100,4,1,0,50,0,0
70447,-96.1538461538461,4,1,0,50,0,0
70543,-93.4579439252336,4,1,0,50,0,0
70680,-90.9090909090909,4,1,0,50,0,0
70850,-88.4955752212389,4,1,0,50,0,0
70987,-86.2068965517241,4,1,0,50,0,0
71089,-84.0336134453781,4,1,0,50,0,0
71259,-81.9672131147541,4,1,0,50,0,0
71464,-80,4,1,0,50,0,1
79100,-81.9672131147541,4,1,0,50,0,0
79168,-84.0336134453781,4,1,0,50,0,0
79237,-86.2068965517241,4,1,0,50,0,0
79305,-88.4955752212389,4,1,0,50,0,0
79407,-90.9090909090909,4,1,0,50,0,0
79509,-93.4579439252336,4,1,0,50,0,0
79612,-96.1538461538461,4,1,0,50,0,0
79680,-99.009900990099,4,1,0,50,0,0
79782,-103.092783505155,4,1,0,50,0,0
79884,-106.382978723404,4,1,0,50,0,0
79953,-109.89010989011,4,1,0,50,0,0
80055,-113.636363636364,4,1,0,50,0,0
80191,-117.647058823529,4,1,0,50,0,1
80293,-116.279069767442,4,1,0,50,0,1
80498,-114.942528735632,4,1,0,50,0,1
80668,-113.636363636364,4,1,0,50,0,1
80839,-112.359550561798,4,1,0,50,0,1
81043,-111.111111111111,4,1,0,50,0,1
81214,-109.89010989011,4,1,0,50,0,1
81350,-108.695652173913,4,1,0,50,0,1
81555,-107.52688172043,4,1,0,50,0,1
81793,-106.382978723404,4,1,0,50,0,1
81862,-105.263157894737,4,1,0,50,0,1
81930,-104.166666666667,4,1,0,50,0,1
81998,-103.092783505155,4,1,0,50,0,1
82066,-102.040816326531,4,1,0,50,0,1
82134,-101.010101010101,4,1,0,50,0,1
82203,-100,4,1,0,50,0,1
82271,-99.009900990099,4,1,0,50,0,1
82339,-98.0392156862745,4,1,0,50,0,1
82475,-97.0873786407767,4,1,0,50,0,1
82680,-96.1538461538461,4,1,0,50,0,1
82850,-95.2380952380952,4,1,0,50,0,1
83021,-94.3396226415094,4,1,0,50,0,1
83225,-93.4579439252336,4,1,0,50,0,1
83396,-92.5925925925926,4,1,0,50,0,1
83498,-91.743119266055,4,1,0,50,0,1
83566,-90.9090909090909,4,1,0,50,0,1
83634,-90.0900900900901,4,1,0,50,0,1
83703,-89.2857142857143,4,1,0,50,0,1
83771,-88.4955752212389,4,1,0,50,0,1
83839,-87.719298245614,4,1,0,50,0,1
83907,-86.9565217391304,4,1,0,50,0,1
83975,-86.2068965517241,4,1,0,50,0,1
84521,-85.4700854700855,4,1,0,50,0,1
84657,-84.7457627118644,4,1,0,50,0,1
84828,-84.0336134453781,4,1,0,50,0,1
85032,-83.3333333333333,4,1,0,50,0,1
85168,-82.6446280991736,4,1,0,50,0,1
85407,-81.9672131147541,4,1,0,50,0,1
85543,-81.3008130081301,4,1,0,50,0,1
85714,-80.6451612903226,4,1,0,50,0,1
85953,-80,4,1,0,50,0,1
86123,-79.3650793650794,4,1,0,50,0,1
86293,-78.7401574803149,4,1,0,50,0,1
86498,-78.125,4,1,0,50,0,1
86668,-77.5193798449612,4,1,0,50,0,1
86805,-76.9230769230769,4,1,0,50,0,1
87043,-76.3358778625954,4,1,0,50,0,1
87214,-75.7575757575758,4,1,0,50,0,1
87350,-75.187969924812,4,1,0,50,0,1
87589,-74.6268656716418,4,1,0,50,0,1
87759,-74.0740740740741,4,1,0,50,0,1
88918,-74.0740740740741,4,1,0,50,0,0
90282,272.727272727273,5,1,0,50,1,0
90282,-125,5,1,0,50,0,0
95736,272.727272727273,4,1,0,50,1,0
98156,-99.009900990099,4,1,0,50,0,0
98224,-98.0392156862745,4,1,0,50,0,0
98292,-97.0873786407767,4,1,0,50,0,0
98361,-96.1538461538461,4,1,0,50,0,0
98429,-95.2380952380952,4,1,0,50,0,0
98497,-94.3396226415094,4,1,0,50,0,0
98565,-93.4579439252336,4,1,0,50,0,0
98633,-92.5925925925926,4,1,0,50,0,0
98701,-91.743119266055,4,1,0,50,0,0
98770,-90.9090909090909,4,1,0,50,0,0
98838,-90.0900900900901,4,1,0,50,0,0
98906,-89.2857142857143,4,1,0,50,0,0
98974,-88.4955752212389,4,1,0,50,0,0
99042,-87.719298245614,4,1,0,50,0,0
99111,-86.9565217391304,4,1,0,50,0,0
99179,-86.2068965517241,4,1,0,50,0,0
99247,-85.4700854700855,4,1,0,50,0,0
99315,-84.7457627118644,4,1,0,50,0,0
99383,-84.0336134453781,4,1,0,50,0,0
99451,-83.3333333333333,4,1,0,50,0,0
99520,-82.6446280991736,4,1,0,50,0,0
99588,-81.9672131147541,4,1,0,50,0,0
99656,-81.3008130081301,4,1,0,50,0,0
99724,-80.6451612903226,4,1,0,50,0,0
99792,-80,4,1,0,50,0,0
99861,-79.3650793650794,4,1,0,50,0,0
99929,-78.7401574803149,4,1,0,50,0,0
99997,-78.125,4,1,0,50,0,0
100065,-76.9230769230769,4,1,0,50,0,1
103372,-76.3358778625954,4,1,0,50,0,1
104463,-75.7575757575758,4,1,0,50,0,1
105008,-75.187969924812,4,1,0,50,0,1
105554,-74.6268656716418,4,1,0,50,0,1
106099,-74.0740740740741,4,1,0,50,0,1
106645,-73.5294117647059,4,1,0,50,0,1
107190,-72.992700729927,4,1,0,50,0,1
107736,-72.463768115942,4,1,0,50,0,1
108281,-71.9424460431655,4,1,0,50,0,1
108826,-71.4285714285714,4,1,0,50,0,1
109372,-70.9219858156028,4,1,0,50,0,1
109917,-70.4225352112676,4,1,0,50,0,1
110463,-69.9300699300699,4,1,0,50,0,1
111008,-69.4444444444444,4,1,0,50,0,1
111554,-68.9655172413793,4,1,0,50,0,1
112099,-68.4931506849315,4,1,0,50,0,1
112645,-68.0272108843537,4,1,0,50,0,1
113190,-67.5675675675676,4,1,0,50,0,1
113736,-67.1140939597315,4,1,0,50,0,1
114281,-66.6666666666667,4,1,0,50,0,1
114826,-64.5161290322581,4,1,0,50,0,1
114895,-62.5,4,1,0,50,0,1
115031,-60.6060606060606,4,1,0,50,0,1
115167,-58.8235294117647,4,1,0,50,0,1
115304,-57.1428571428571,4,1,0,50,0,1
115474,-55.5555555555556,4,1,0,50,0,1
115576,-54.054054054054,4,1,0,50,0,1
115713,-52.6315789473684,4,1,0,50,0,1
115849,-51.2820512820513,4,1,0,50,0,1
115951,-50,4,1,0,50,0,0
116736,272.727272727273,4,1,0,50,1,0
116736,-100,4,1,0,50,0,0
116906,-102.040816326531,4,1,0,50,0,0
117145,-104.166666666667,4,1,0,50,0,0
117281,-106.382978723404,4,1,0,50,0,0
117417,-108.695652173913,4,1,0,50,0,0
117588,-111.111111111111,4,1,0,50,0,0
117895,-113.636363636364,4,1,0,50,0,0
118372,-117.647058823529,4,1,0,50,0,0

[HitObjects]
256,192,7237,5,4,0:0:0:0:
256,192,8738,1,12,0:0:0:0:
256,192,10101,1,4,0:0:0:0:
256,192,10510,1,4,0:0:0:0:
256,192,11465,1,12,0:0:0:0:
256,192,12828,1,4,0:0:0:0:
256,192,13238,1,4,0:0:0:0:
256,192,13647,1,0,0:0:0:0:
256,192,13783,1,0,0:0:0:0:
256,192,13851,1,0,0:0:0:0:
256,192,13919,1,8,0:0:0:0:
256,192,14192,1,4,0:0:0:0:
256,192,15556,1,4,0:0:0:0:
256,192,15965,1,4,0:0:0:0:
256,192,16374,1,0,0:0:0:0:
256,192,16510,1,0,0:0:0:0:
256,192,16578,1,0,0:0:0:0:
256,192,16647,1,8,0:0:0:0:
256,192,16919,1,4,0:0:0:0:
256,192,18010,1,12,0:0:0:0:
256,192,18283,1,4,0:0:0:0:
256,192,18965,1,0,0:0:0:0:
256,192,19101,1,0,0:0:0:0:
256,192,19238,1,8,0:0:0:0:
224,288,19374,1,8,0:0:0:0:
288,64,19647,1,8,0:0:0:0:
256,192,19919,1,0,0:0:0:0:
256,192,20056,1,0,0:0:0:0:
256,192,20192,1,0,0:0:0:0:
256,192,20260,1,0,0:0:0:0:
256,192,20328,1,0,0:0:0:0:
256,192,20465,1,8,0:0:0:0:
256,192,20601,1,0,0:0:0:0:
256,192,20737,1,8,0:0:0:0:
256,192,20874,1,0,0:0:0:0:
256,192,21010,1,8,0:0:0:0:
256,192,21283,1,0,0:0:0:0:
256,192,21419,1,0,0:0:0:0:
256,192,21556,1,0,0:0:0:0:
256,192,21692,1,0,0:0:0:0:
256,192,21760,1,0,0:0:0:0:
256,192,21828,1,8,0:0:0:0:
256,192,21965,1,0,0:0:0:0:
256,192,22101,1,8,0:0:0:0:
256,192,22237,1,0,0:0:0:0:
256,192,22374,1,8,0:0:0:0:
256,192,22647,1,0,0:0:0:0:
256,192,22783,1,0,0:0:0:0:
256,192,22851,1,0,0:0:0:0:
256,192,22920,1,0,0:0:0:0:
256,192,23056,1,0,0:0:0:0:
256,192,23192,1,8,0:0:0:0:
256,192,23329,1,0,0:0:0:0:
256,192,23465,1,8,0:0:0:0:
256,192,23601,1,0,0:0:0:0:
256,192,23738,1,8,0:0:0:0:
256,192,24010,1,0,0:0:0:0:
256,192,24146,1,0,0:0:0:0:
256,192,24283,1,0,0:0:0:0:
256,192,24419,1,0,0:0:0:0:
256,192,24487,1,0,0:0:0:0:
256,192,24555,1,8,0:0:0:0:
256,192,24692,1,0,0:0:0:0:
256,192,24828,1,8,0:0:0:0:
256,192,24964,1,0,0:0:0:0:
256,192,25033,1,0,0:0:0:0:
256,192,25101,1,8,0:0:0:0:
256,192,25374,1,0,0:0:0:0:
256,192,25510,1,0,0:0:0:0:
256,192,25578,1,0,0:0:0:0:
256,192,25647,1,0,0:0:0:0:
256,192,25783,1,0,0:0:0:0:
256,192,25919,1,8,0:0:0:0:
256,192,26056,1,0,0:0:0:0:
256,192,26192,1,8,0:0:0:0:
256,192,26328,1,0,0:0:0:0:
256,192,26465,1,8,0:0:0:0:
256,192,26737,1,0,0:0:0:0:
256,192,26873,1,0,0:0:0:0:
256,192,26942,1,0,0:0:0:0:
256,192,27010,1,0,0:0:0:0:
256,192,27146,1,0,0:0:0:0:
256,192,27282,1,8,0:0:0:0:
256,192,27419,1,0,0:0:0:0:
256,192,27555,1,8,0:0:0:0:
256,192,27691,1,0,0:0:0:0:
256,192,27828,1,0,0:0:0:0:
256,192,27964,1,8,0:0:0:0:
256,192,28032,1,8,0:0:0:0:
256,192,28100,1,8,0:0:0:0:
256,192,28373,1,0,0:0:0:0:
256,192,28509,1,0,0:0:0:0:
256,192,28578,1,8,0:0:0:0:
256,192,28646,1,8,0:0:0:0:
256,192,28918,1,0,0:0:0:0:
256,192,29055,1,8,0:0:0:0:
256,192,29123,1,8,0:0:0:0:
256,192,29191,1,8,0:0:0:0:
256,192,29464,1,0,0:0:0:0:
256,192,29600,1,0,0:0:0:0:
256,192,29668,1,8,0:0:0:0:
256,192,29736,1,8,0:0:0:0:
256,192,30009,1,0,0:0:0:0:
256,192,30146,1,8,0:0:0:0:
256,192,30214,1,8,0:0:0:0:
256,192,30282,1,8,0:0:0:0:
256,192,30555,1,0,0:0:0:0:
256,192,30691,1,0,0:0:0:0:
256,192,30759,1,8,0:0:0:0:
256,192,30828,1,8,0:0:0:0:
256,192,31100,1,0,0:0:0:0:
256,192,31237,1,8,0:0:0:0:
256,192,31305,1,8,0:0:0:0:
256,192,31373,1,8,0:0:0:0:
256,192,31646,1,0,0:0:0:0:
256,192,31782,1,0,0:0:0:0:
256,192,31850,1,8,0:0:0:0:
256,192,31918,1,8,0:0:0:0:
256,192,32191,1,0,0:0:0:0:
256,192,32328,1,8,0:0:0:0:
256,192,32396,1,8,0:0:0:0:
256,192,32464,1,0,0:0:0:0:
256,192,32600,1,8,0:0:0:0:
256,192,32668,1,8,0:0:0:0:
256,192,32737,1,0,0:0:0:0:
256,192,32874,1,8,0:0:0:0:
256,192,32941,1,8,0:0:0:0:
256,192,33010,1,0,0:0:0:0:
256,192,33146,1,8,0:0:0:0:
256,192,33214,1,8,0:0:0:0:
256,192,33282,1,0,0:0:0:0:
256,192,33419,1,8,0:0:0:0:
256,192,33487,1,8,0:0:0:0:
256,192,33555,1,0,0:0:0:0:
256,192,33691,1,8,0:0:0:0:
256,192,33759,1,8,0:0:0:0:
256,192,33828,1,0,0:0:0:0:
256,192,33965,1,8,0:0:0:0:
256,192,34032,1,8,0:0:0:0:
256,192,34101,1,0,0:0:0:0:
256,192,34237,1,8,0:0:0:0:
256,192,36555,1,4,0:0:0:0:
256,192,36828,1,0,0:0:0:0:
256,192,37100,1,0,0:0:0:0:
256,192,37373,1,0,0:0:0:0:
256,192,37646,1,0,0:0:0:0:
256,192,37782,1,0,0:0:0:0:
256,192,37918,1,0,0:0:0:0:
256,192,38191,1,0,0:0:0:0:
256,192,38464,1,0,0:0:0:0:
256,192,38600,1,8,0:0:0:0:
256,192,38668,1,8,0:0:0:0:
256,192,38737,1,0,0:0:0:0:
256,192,39009,1,0,0:0:0:0:
256,192,39282,1,0,0:0:0:0:
256,192,39555,1,0,0:0:0:0:
256,192,39828,1,0,0:0:0:0:
256,192,39964,1,0,0:0:0:0:
256,192,40100,1,0,0:0:0:0:
256,192,40373,1,8,0:0:0:0:
256,192,40441,1,8,0:0:0:0:
256,192,40509,1,0,0:0:0:0:
256,192,40578,1,0,0:0:0:0:
256,192,40646,1,0,0:0:0:0:
256,192,40782,1,0,0:0:0:0:
256,192,40918,1,0,0:0:0:0:
256,192,41191,1,0,0:0:0:0:
256,192,41464,1,0,0:0:0:0:
256,192,41737,1,0,0:0:0:0:
256,192,42009,1,0,0:0:0:0:
256,192,42282,1,8,0:0:0:0:
256,192,42555,1,0,0:0:0:0:
256,192,42623,1,0,0:0:0:0:
233,183,42691,1,8,0:0:0:0:
233,183,42759,1,0,0:0:0:0:
233,183,42828,1,0,0:0:0:0:
233,183,42964,1,0,0:0:0:0:
233,183,43100,1,8,0:0:0:0:
233,183,43373,1,0,0:0:0:0:
233,183,43646,1,8,0:0:0:0:
233,183,43918,1,0,0:0:0:0:
233,183,44191,2,0,L|277:193,15,42.7499986953736
