osu file format v14

[General]
AudioFilename: audio.mp3
AudioLeadIn: 0
PreviewTime: 90282
Countdown: 1
SampleSet: Normal
StackLeniency: 0.7
Mode: 1
LetterboxInBreaks: 0
WidescreenStoryboard: 1

[Editor]
Bookmarks: 10374
DistanceSpacing: 1.5
BeatDivisor: 8
GridSize: 32
TimelineZoom: 4.299997

[Metadata]
Title:ENDYMION
TitleUnicode:ENDYMION
Artist:fallen shepherd ft. RabbiTon Strings
ArtistUnicode:fallen shepherd ft. RabbiTon Strings
Creator:ShroudedBowkeys
Version:Destroy the Data
Source:
Tags:
BeatmapID:1439404
BeatmapSetID:649870

[Difficulty]
HPDrainRate:8
CircleSize:6
OverallDifficulty:6
ApproachRate:7
SliderMultiplier:1.1
SliderTickRate:1

[Events]
//Background and Video events
0,0,"maxresdefault.jpg",0,0
//Break Periods
//Storyboard Layer 0 (Background)
//Storyboard Layer 1 (Fail)
//Storyboard Layer 2 (Pass)
//Storyboard Layer 3 (Foreground)
//Storyboard Sound Samples

[TimingPoints]
1102,272.727272727273,5,1,0,50,1,0
1102,-133.333333333333,5,1,0,50,0,0
3829,272.727272727273,3,1,0,50,1,0
3829,-133.333333333333,3,1,0,50,0,0
5601,-142.857142857143,3,1,0,50,0,0
5806,-153.846153846154,3,1,0,50,0,0
5942,-166.666666666667,3,1,0,50,0,0
6147,-181.818181818182,3,1,0,50,0,0
6283,272.727272727273,3,1,0,50,1,0
6283,-200,3,1,0,50,0,0
6555,-222.222222222222,3,1,0,50,0,0
7101,136.363636363636,3,1,0,50,1,0
7101,-66.6666666666667,3,1,0,50,0,0
8738,272.727272727273,5,1,0,50,1,0
8738,-125,5,1,0,50,0,0
18385,-104.166666666667,5,1,0,50,0,0
18590,-89.2857142857143,5,1,0,50,0,0
18863,-78.125,5,1,0,50,0,0
18931,-76.9230769230769,5,1,0,50,0,0
18999,-75.7575757575758,5,1,0,50,0,0
19067,-74.6268656716418,5,1,0,50,0,0
19135,-73.5294117647059,5,1,0,50,0,0
19203,-72.463768115942,5,1,0,50,0,0
19272,-71.4285714285714,5,1,0,50,0,0
19340,-70.4225352112676,5,1,0,50,0,0
19408,-69.4444444444444,5,1,0,50,0,0
19476,-68.4931506849315,5,1,0,50,0,0
19544,-67.5675675675676,5,1,0,50,0,0
19647,272.727272727273,5,1,0,50,1,0
19647,-66.6666666666667,5,1,0,50,0,1
26840,-67.1140939597315,5,1,0,50,0,1
26908,-68.0272108843537,5,1,0,50,0,1
26976,-68.9655172413793,5,1,0,50,0,1
27078,-69.9300699300699,5,1,0,50,0,1
27249,-70.9219858156028,5,1,0,50,0,1
27317,-71.9424460431655,5,1,0,50,0,1
27385,-72.992700729927,5,1,0,50,0,1
27453,-74.0740740740741,5,1,0,50,0,1
27522,-75.187969924812,5,1,0,50,0,1
27590,-76.3358778625954,5,1,0,50,0,1
27658,-77.5193798449612,5,1,0,50,0,1
27726,-78.7401574803149,5,1,0,50,0,1
27828,272.727272727273,4,1,0,50,1,0
27828,-80,4,1,0,50,0,0
32157,-78.7401574803149,4,1,0,50,0,0
32157,-78.7401574803149,4,1,0,50,0,0
32225,-77.5193798449612,4,1,0,50,0,0
32293,-76.3358778625954,4,1,0,50,0,0
32362,-75.187969924812,4,1,0,50,0,0
32430,-74.0740740740741,4,1,0,50,0,0
32498,-72.992700729927,4,1,0,50,0,0
32566,-71.9424460431655,4,1,0,50,0,0
32634,-70.9219858156028,4,1,0,50,0,0
32703,-69.9300699300699,4,1,0,50,0,0
32771,-68.9655172413793,4,1,0,50,0,0
32839,-68.0272108843537,4,1,0,50,0,0
32907,-67.1140939597315,4,1,0,50,0,0
32975,-66.2251655629139,4,1,0,50,0,0
33043,-65.359477124183,4,1,0,50,0,0
33112,-64.5161290322581,4,1,0,50,0,0
33180,-63.6942675159236,4,1,0,50,0,0
33248,-62.8930817610063,4,1,0,50,0,0
33316,-62.111801242236,4,1,0,50,0,0
33384,-61.3496932515337,4,1,0,50,0,0
33453,-60.6060606060606,4,1,0,50,0,0
33521,-59.8802395209581,4,1,0,50,0,0
33589,-59.1715976331361,4,1,0,50,0,0
33657,-58.4795321637427,4,1,0,50,0,0
33725,-57.8034682080925,4,1,0,50,0,0
33793,-57.1428571428571,4,1,0,50,0,0
33862,-56.4971751412429,4,1,0,50,0,0
33930,-55.8659217877095,4,1,0,50,0,0
33998,-55.2486187845304,4,1,0,50,0,0
34066,-54.6448087431694,4,1,0,50,0,0
34134,-54.054054054054,4,1,0,50,0,0
34203,-53.475935828877,4,1,0,50,0,0
34271,-52.9100529100529,4,1,0,50,0,0
34373,-52.9100529100529,4,1,0,50,0,1
34646,-52.9100529100529,4,1,0,50,0,0
34918,-52.9100529100529,4,1,0,50,0,1
35191,-52.9100529100529,4,1,0,50,0,0
35464,-125,4,1,0,50,0,0
44157,-55.5555555555556,4,1,0,50,0,1
45282,-125,4,1,0,50,0,0
62430,-55.5555555555556,4,1,0,50,0,1
62634,-125,4,1,0,50,0,0
67100,-80,4,1,0,50,0,1
70373,-100,4,1,0,50,0,0
70447,-96.1538461538461,4,1,0,50,0,0
70543,-93.4579439252336,4,1,0,50,0,0
70680,-90.9090909090909,4,1,0,50,0,0
70850,-88.4955752212389,4,1,0,50,0,0
70987,-86.2068965517241,4,1,0,50,0,0
71089,-84.0336134453781,4,1,0,50,0,0
71259,-81.9672131147541,4,1,0,50,0,0
71464,-80,4,1,0,50,0,1
79100,-81.9672131147541,4,1,0,50,0,0
79168,-84.0336134453781,4,1,0,50,0,0
79237,-86.2068965517241,4,1,0,50,0,0
79305,-88.4955752212389,4,1,0,50,0,0
79407,-90.9090909090909,4,1,0,50,0,0
79509,-93.4579439252336,4,1,0,50,0,0
79612,-96.1538461538461,4,1,0,50,0,0
79680,-99.009900990099,4,1,0,50,0,0
79782,-103.092783505155,4,1,0,50,0,0
79884,-106.382978723404,4,1,0,50,0,0
79953,-109.89010989011,4,1,0,50,0,0
80055,-113.636363636364,4,1,0,50,0,0
80191,-117.647058823529,4,1,0,50,0,1
80293,-116.279069767442,4,1,0,50,0,1
80498,-114.942528735632,4,1,0,50,0,1
80668,-113.636363636364,4,1,0,50,0,1
80839,-112.359550561798,4,1,0,50,0,1
81043,-111.111111111111,4,1,0,50,0,1
81214,-109.89010989011,4,1,0,50,0,1
81350,-108.695652173913,4,1,0,50,0,1
81555,-107.52688172043,4,1,0,50,0,1
81793,-106.382978723404,4,1,0,50,0,1
81862,-105.263157894737,4,1,0,50,0,1
81930,-104.166666666667,4,1,0,50,0,1
81998,-103.092783505155,4,1,0,50,0,1
82066,-102.040816326531,4,1,0,50,0,1
82134,-101.010101010101,4,1,0,50,0,1
82203,-100,4,1,0,50,0,1
82271,-99.009900990099,4,1,0,50,0,1
82339,-98.0392156862745,4,1,0,50,0,1
82475,-97.0873786407767,4,1,0,50,0,1
82680,-96.1538461538461,4,1,0,50,0,1
82850,-95.2380952380952,4,1,0,50,0,1
83021,-94.3396226415094,4,1,0,50,0,1
83225,-93.4579439252336,4,1,0,50,0,1
83396,-92.5925925925926,4,1,0,50,0,1
83498,-91.743119266055,4,1,0,50,0,1
83566,-90.9090909090909,4,1,0,50,0,1
83634,-90.0900900900901,4,1,0,50,0,1
83703,-89.2857142857143,4,1,0,50,0,1
83771,-88.4955752212389,4,1,0,50,0,1
83839,-87.719298245614,4,1,0,50,0,1
83907,-86.9565217391304,4,1,0,50,0,1
83975,-86.2068965517241,4,1,0,50,0,1
84521,-85.4700854700855,4,1,0,50,0,1
84657,-84.7457627118644,4,1,0,50,0,1
84828,-84.0336134453781,4,1,0,50,0,1
85032,-83.3333333333333,4,1,0,50,0,1
85168,-82.6446280991736,4,1,0,50,0,1
85407,-81.9672131147541,4,1,0,50,0,1
85543,-81.3008130081301,4,1,0,50,0,1
85714,-80.6451612903226,4,1,0,50,0,1
85953,-80,4,1,0,50,0,1
86123,-79.3650793650794,4,1,0,50,0,1
86293,-78.7401574803149,4,1,0,50,0,1
86498,-78.125,4,1,0,50,0,1
86668,-77.5193798449612,4,1,0,50,0,1
86805,-76.9230769230769,4,1,0,50,0,1
87043,-76.3358778625954,4,1,0,50,0,1
87214,-75.7575757575758,4,1,0,50,0,1
87350,-75.187969924812,4,1,0,50,0,1
87589,-74.6268656716418,4,1,0,50,0,1
87759,-74.0740740740741,4,1,0,50,0,1
88918,-74.0740740740741,4,1,0,50,0,0
90282,272.727272727273,5,1,0,50,1,0
90282,-125,5,1,0,50,0,0
95736,272.727272727273,4,1,0,50,1,0
98156,-99.009900990099,4,1,0,50,0,0
98224,-98.0392156862745,4,1,0,50,0,0
98292,-97.0873786407767,4,1,0,50,0,0
98361,-96.1538461538461,4,1,0,50,0,0
98429,-95.2380952380952,4,1,0,50,0,0
98497,-94.3396226415094,4,1,0,50,0,0
98565,-93.4579439252336,4,1,0,50,0,0
98633,-92.5925925925926,4,1,0,50,0,0
98701,-91.743119266055,4,1,0,50,0,0
98770,-90.9090909090909,4,1,0,50,0,0
98838,-90.0900900900901,4,1,0,50,0,0
98906,-89.2857142857143,4,1,0,50,0,0
98974,-88.4955752212389,4,1,0,50,0,0
99042,-87.719298245614,4,1,0,50,0,0
99111,-86.9565217391304,4,1,0,50,0,0
99179,-86.2068965517241,4,1,0,50,0,0
99247,-85.4700854700855,4,1,0,50,0,0
99315,-84.7457627118644,4,1,0,50,0,0
99383,-84.0336134453781,4,1,0,50,0,0
99451,-83.3333333333333,4,1,0,50,0,0
99520,-82.6446280991736,4,1,0,50,0,0
99588,-81.9672131147541,4,1,0,50,0,0
99656,-81.3008130081301,4,1,0,50,0,0
99724,-80.6451612903226,4,1,0,50,0,0
99792,-80,4,1,0,50,0,0
99861,-79.3650793650794,4,1,0,50,0,0
99929,-78.7401574803149,4,1,0,50,0,0
99997,-78.125,4,1,0,50,0,0
100065,-76.9230769230769,4,1,0,50,0,1
103372,-76.3358778625954,4,1,0,50,0,1
104463,-75.7575757575758,4,1,0,50,0,1
105008,-75.187969924812,4,1,0,50,0,1
105554,-74.6268656716418,4,1,0,50,0,1
106099,-74.0740740740741,4,1,0,50,0,1
106645,-73.5294117647059,4,1,0,50,0,1
107190,-72.992700729927,4,1,0,50,0,1
107736,-72.463768115942,4,1,0,50,0,1
108281,-71.9424460431655,4,1,0,50,0,1
108826,-71.4285714285714,4,1,0,50,0,1
109372,-70.9219858156028,4,1,0,50,0,1
109917,-70.4225352112676,4,1,0,50,0,1
110463,-69.9300699300699,4,1,0,50,0,1
111008,-69.4444444444444,4,1,0,50,0,1
111554,-68.9655172413793,4,1,0,50,0,1
112099,-68.4931506849315,4,1,0,50,0,1
112645,-68.0272108843537,4,1,0,50,0,1
113190,-67.5675675675676,4,1,0,50,0,1
113736,-67.1140939597315,4,1,0,50,0,1
114281,-66.6666666666667,4,1,0,50,0,1
114826,-64.5161290322581,4,1,0,50,0,1
114895,-62.5,4,1,0,50,0,1
115031,-60.6060606060606,4,1,0,50,0,1
115167,-58.8235294117647,4,1,0,50,0,1
115304,-57.1428571428571,4,1,0,50,0,1
115474,-55.5555555555556,4,1,0,50,0,1
115576,-54.054054054054,4,1,0,50,0,1
115713,-52.6315789473684,4,1,0,50,0,1
115849,-51.2820512820513,4,1,0,50,0,1
115951,-50,4,1,0,50,0,0
116736,272.727272727273,4,1,0,50,1,0
116736,-100,4,1,0,50,0,0
116906,-102.040816326531,4,1,0,50,0,0
117145,-104.166666666667,4,1,0,50,0,0
117281,-106.382978723404,4,1,0,50,0,0
117417,-108.695652173913,4,1,0,50,0,0
117588,-111.111111111111,4,1,0,50,0,0
117895,-113.636363636364,4,1,0,50,0,0
118372,-117.647058823529,4,1,0,50,0,0

[HitObjects]
256,192,1102,5,8,0:0:0:0:
256,192,1238,1,0,0:0:0:0:
256,192,1374,1,8,0:0:0:0:
256,192,1647,1,8,0:0:0:0:
256,192,1920,1,8,0:0:0:0:
256,192,2192,1,0,0:0:0:0:
256,192,2465,1,8,0:0:0:0:
256,192,2602,1,0,0:0:0:0:
256,192,2738,1,8,0:0:0:0:
256,192,3011,1,0,0:0:0:0:
256,192,3283,1,8,0:0:0:0:
256,192,3556,1,8,0:0:0:0:
256,192,3829,1,0,0:0:0:0:
256,192,3919,1,0,0:0:0:0:
256,192,4010,1,8,0:0:0:0:
256,192,4101,1,8,0:0:0:0:
256,192,4374,1,0,0:0:0:0:
256,192,4647,1,0,0:0:0:0:
256,192,4738,1,8,0:0:0:0:
256,192,4829,1,8,0:0:0:0:
256,192,4919,1,8,0:0:0:0:
256,192,5192,1,0,0:0:0:0:
256,192,5465,1,0,0:0:0:0:
256,192,5715,1,0,0:0:0:0:
256,192,5874,1,0,0:0:0:0:
256,192,6033,1,0,0:0:0:0:
256,192,6215,1,0,0:0:0:0:
256,192,6419,1,8,0:0:0:0:
256,192,6692,1,8,0:0:0:0:
256,192,7237,1,4,0:0:0:0:
256,192,7510,12,0,8600,0:0:0:0:
256,192,8738,5,12,0:0:0:0:
256,192,8874,1,0,0:0:0:0:
256,192,9010,1,0,0:0:0:0:
256,192,9147,1,8,0:0:0:0:
256,192,9283,1,0,0:0:0:0:
256,192,9419,1,0,0:0:0:0:
256,192,9556,1,8,0:0:0:0:
256,192,9692,1,0,0:0:0:0:
256,192,9828,1,8,0:0:0:0:
256,192,9965,1,0,0:0:0:0:
256,192,10101,1,12,0:0:0:0:
256,192,10238,1,0,0:0:0:0:
256,192,10374,1,0,0:0:0:0:
256,192,10510,1,12,0:0:0:0:
256,192,10647,1,0,0:0:0:0:
256,192,10783,1,0,0:0:0:0:
256,192,10919,1,8,0:0:0:0:
256,192,11056,1,0,0:0:0:0:
256,192,11192,1,8,0:0:0:0:
256,192,11328,1,0,0:0:0:0:
256,192,11465,1,12,0:0:0:0:
256,192,11601,1,0,0:0:0:0:
256,192,11738,1,0,0:0:0:0:
256,192,11874,1,8,0:0:0:0:
256,192,12010,1,0,0:0:0:0:
256,192,12147,1,0,0:0:0:0:
256,192,12283,1,8,0:0:0:0:
256,192,12419,1,0,0:0:0:0:
256,192,12556,1,8,0:0:0:0:
256,192,12692,1,0,0:0:0:0:
256,192,12828,1,12,0:0:0:0:
256,192,12965,1,0,0:0:0:0:
256,192,13101,1,0,0:0:0:0:
256,192,13238,1,12,0:0:0:0:
256,192,13374,1,0,0:0:0:0:
256,192,13510,1,0,0:0:0:0:
256,192,13647,1,0,0:0:0:0:
256,192,13715,1,0,0:0:0:0:
256,192,13783,1,0,0:0:0:0:
256,192,13851,1,0,0:0:0:0:
256,192,13919,1,8,0:0:0:0:
256,192,14056,1,0,0:0:0:0:
256,192,14192,1,12,0:0:0:0:
256,192,14328,1,0,0:0:0:0:
256,192,14465,1,8,0:0:0:0:
256,192,14601,1,8,0:0:0:0:
256,192,14738,1,0,0:0:0:0:
256,192,14874,1,8,0:0:0:0:
256,192,15010,1,8,0:0:0:0:
256,192,15147,1,0,0:0:0:0:
256,192,15283,1,8,0:0:0:0:
256,192,15419,1,0,0:0:0:0:
256,192,15556,1,12,0:0:0:0:
256,192,15692,1,0,0:0:0:0:
256,192,15828,1,0,0:0:0:0:
256,192,15965,1,12,0:0:0:0:
256,192,16101,1,0,0:0:0:0:
256,192,16238,1,0,0:0:0:0:
256,192,16374,1,0,0:0:0:0:
256,192,16442,1,0,0:0:0:0:
256,192,16510,1,0,0:0:0:0:
256,192,16578,1,0,0:0:0:0:
256,192,16647,1,8,0:0:0:0:
256,192,16783,1,0,0:0:0:0:
256,192,16919,1,4,0:0:0:0:
256,192,17056,1,0,0:0:0:0:
256,192,17192,1,0,0:0:0:0:
256,192,17328,1,8,0:0:0:0:
256,192,17465,1,0,0:0:0:0:
256,192,17601,1,0,0:0:0:0:
256,192,17738,1,8,0:0:0:0:
256,192,17874,1,0,0:0:0:0:
256,192,18010,1,12,0:0:0:0:
256,192,18147,1,0,0:0:0:0:
256,192,18283,1,4,0:0:0:0:
256,192,18488,1,4,0:0:0:0:
256,192,18692,1,4,0:0:0:0:
256,192,18897,1,0,0:0:0:0:
256,192,18965,1,0,0:0:0:0:
256,192,19033,1,0,0:0:0:0:
256,192,19101,1,8,0:0:0:0:
256,192,19169,1,0,0:0:0:0:
256,192,19238,1,8,0:0:0:0:
256,192,19306,1,0,0:0:0:0:
256,192,19374,1,8,0:0:0:0:
256,192,19442,1,0,0:0:0:0:
256,192,19510,1,0,0:0:0:0:
256,192,19578,1,0,0:0:0:0:
256,192,19647,1,8,0:0:0:0:
256,192,19783,1,0,0:0:0:0:
256,192,19919,1,0,0:0:0:0:
256,192,19988,1,0,0:0:0:0:
256,192,20056,1,0,0:0:0:0:
256,192,20124,1,0,0:0:0:0:
256,192,20192,1,0,0:0:0:0:
256,192,20328,1,0,0:0:0:0:
256,192,20465,1,8,0:0:0:0:
256,192,20533,1,0,0:0:0:0:
256,192,20601,1,0,0:0:0:0:
256,192,20738,1,8,0:0:0:0:
256,192,20806,1,0,0:0:0:0:
256,192,20874,1,0,0:0:0:0:
256,192,20942,1,0,0:0:0:0:
256,192,21010,1,8,0:0:0:0:
256,192,21147,1,0,0:0:0:0:
256,192,21283,1,0,0:0:0:0:
256,192,21351,1,0,0:0:0:0:
256,192,21419,1,0,0:0:0:0:
256,192,21488,1,0,0:0:0:0:
256,192,21556,1,0,0:0:0:0:
256,192,21692,1,0,0:0:0:0:
256,192,21828,1,8,0:0:0:0:
256,192,21897,1,0,0:0:0:0:
256,192,21965,1,0,0:0:0:0:
256,192,22033,1,0,0:0:0:0:
256,192,22101,1,8,0:0:0:0:
256,192,22169,1,0,0:0:0:0:
256,192,22238,1,0,0:0:0:0:
256,192,22306,1,0,0:0:0:0:
256,192,22374,1,8,0:0:0:0:
256,192,22510,1,0,0:0:0:0:
256,192,22646,1,0,0:0:0:0:
256,192,22715,1,0,0:0:0:0:
256,192,22783,1,0,0:0:0:0:
256,192,22851,1,0,0:0:0:0:
256,192,22919,1,0,0:0:0:0:
256,192,23055,1,0,0:0:0:0:
256,192,23192,1,8,0:0:0:0:
256,192,23260,1,0,0:0:0:0:
256,192,23328,1,0,0:0:0:0:
256,192,23465,1,8,0:0:0:0:
256,192,23533,1,0,0:0:0:0:
256,192,23601,1,0,0:0:0:0:
256,192,23669,1,0,0:0:0:0:
256,192,23737,1,8,0:0:0:0:
256,192,23874,1,0,0:0:0:0:
256,192,24010,1,0,0:0:0:0:
256,192,24078,1,0,0:0:0:0:
256,192,24146,1,0,0:0:0:0:
256,192,24215,1,0,0:0:0:0:
256,192,24283,1,0,0:0:0:0:
256,192,24419,1,0,0:0:0:0:
256,192,24555,1,8,0:0:0:0:
256,192,24624,1,0,0:0:0:0:
256,192,24692,1,0,0:0:0:0:
256,192,24760,1,0,0:0:0:0:
256,192,24828,1,8,0:0:0:0:
256,192,24896,1,0,0:0:0:0:
256,192,24965,1,0,0:0:0:0:
256,192,25033,1,0,0:0:0:0:
256,192,25101,1,8,0:0:0:0:
256,192,25237,1,0,0:0:0:0:
256,192,25373,1,0,0:0:0:0:
256,192,25442,1,0,0:0:0:0:
256,192,25510,1,0,0:0:0:0:
256,192,25578,1,0,0:0:0:0:
256,192,25646,1,0,0:0:0:0:
256,192,25782,1,0,0:0:0:0:
256,192,25919,1,8,0:0:0:0:
256,192,25987,1,0,0:0:0:0:
256,192,26055,1,0,0:0:0:0:
256,192,26192,1,8,0:0:0:0:
256,192,26260,1,0,0:0:0:0:
256,192,26328,1,0,0:0:0:0:
256,192,26396,1,0,0:0:0:0:
256,192,26464,1,8,0:0:0:0:
256,192,26601,1,0,0:0:0:0:
256,192,26737,1,0,0:0:0:0:
256,192,26805,1,0,0:0:0:0:
256,192,26873,1,0,0:0:0:0:
256,192,26942,1,0,0:0:0:0:
256,192,27010,1,0,0:0:0:0:
256,192,27146,1,0,0:0:0:0:
256,192,27282,1,8,0:0:0:0:
256,192,27351,1,0,0:0:0:0:
256,192,27419,1,0,0:0:0:0:
256,192,27487,1,0,0:0:0:0:
256,192,27555,1,8,0:0:0:0:
256,192,27623,1,0,0:0:0:0:
256,192,27692,1,0,0:0:0:0:
256,192,27760,1,0,0:0:0:0:
256,192,27828,1,0,0:0:0:0:
256,192,27896,1,0,0:0:0:0:
256,192,27964,1,8,0:0:0:0:
256,192,28032,1,8,0:0:0:0:
256,192,28100,1,8,0:0:0:0:
256,192,28168,1,8,0:0:0:0:
256,192,28237,1,0,0:0:0:0:
256,192,28305,1,0,0:0:0:0:
256,192,28373,1,0,0:0:0:0:
256,192,28441,1,0,0:0:0:0:
256,192,28509,1,8,0:0:0:0:
256,192,28578,1,8,0:0:0:0:
256,192,28646,1,8,0:0:0:0:
256,192,28714,1,0,0:0:0:0:
256,192,28782,1,0,0:0:0:0:
256,192,28850,1,0,0:0:0:0:
256,192,28918,1,0,0:0:0:0:
256,192,28986,1,0,0:0:0:0:
256,192,29054,1,8,0:0:0:0:
256,192,29122,1,8,0:0:0:0:
256,192,29190,1,8,0:0:0:0:
256,192,29258,1,8,0:0:0:0:
256,192,29327,1,0,0:0:0:0:
256,192,29395,1,0,0:0:0:0:
256,192,29463,1,0,0:0:0:0:
256,192,29531,1,0,0:0:0:0:
256,192,29599,1,8,0:0:0:0:
256,192,29668,1,8,0:0:0:0:
256,192,29736,1,8,0:0:0:0:
256,192,29804,1,0,0:0:0:0:
256,192,29872,1,0,0:0:0:0:
256,192,29940,1,0,0:0:0:0:
256,192,30009,1,0,0:0:0:0:
256,192,30077,1,0,0:0:0:0:
256,192,30145,1,8,0:0:0:0:
256,192,30213,1,8,0:0:0:0:
256,192,30281,1,8,0:0:0:0:
256,192,30349,1,8,0:0:0:0:
256,192,30418,1,0,0:0:0:0:
256,192,30486,1,0,0:0:0:0:
256,192,30554,1,0,0:0:0:0:
256,192,30622,1,0,0:0:0:0:
256,192,30690,1,8,0:0:0:0:
256,192,30759,1,8,0:0:0:0:
256,192,30827,1,8,0:0:0:0:
256,192,30895,1,0,0:0:0:0:
256,192,30963,1,0,0:0:0:0:
256,192,31031,1,0,0:0:0:0:
256,192,31100,1,0,0:0:0:0:
256,192,31168,1,0,0:0:0:0:
256,192,31236,1,8,0:0:0:0:
256,192,31304,1,8,0:0:0:0:
256,192,31372,1,8,0:0:0:0:
256,192,31440,1,8,0:0:0:0:
256,192,31509,1,0,0:0:0:0:
256,192,31577,1,0,0:0:0:0:
256,192,31645,1,0,0:0:0:0:
256,192,31713,1,0,0:0:0:0:
256,192,31781,1,8,0:0:0:0:
256,192,31850,1,8,0:0:0:0:
256,192,31918,1,8,0:0:0:0:
256,192,31986,1,0,0:0:0:0:
256,192,32054,1,0,0:0:0:0:
256,192,32122,1,0,0:0:0:0:
256,192,32191,1,0,0:0:0:0:
256,192,32259,1,0,0:0:0:0:
256,192,32328,1,8,0:0:0:0:
256,192,32396,1,8,0:0:0:0:
256,192,32464,1,0,0:0:0:0:
256,192,32532,1,0,0:0:0:0:
256,192,32600,1,8,0:0:0:0:
256,192,32668,1,8,0:0:0:0:
256,192,32737,1,0,0:0:0:0:
256,192,32805,1,0,0:0:0:0:
256,192,32873,1,8,0:0:0:0:
256,192,32941,1,8,0:0:0:0:
256,192,33009,1,0,0:0:0:0:
256,192,33078,1,0,0:0:0:0:
256,192,33146,1,8,0:0:0:0:
256,192,33214,1,8,0:0:0:0:
256,192,33282,1,0,0:0:0:0:
256,192,33350,1,0,0:0:0:0:
256,192,33418,1,8,0:0:0:0:
256,192,33487,1,8,0:0:0:0:
256,192,33555,1,0,0:0:0:0:
256,192,33623,1,0,0:0:0:0:
256,192,33691,1,8,0:0:0:0:
256,192,33759,1,8,0:0:0:0:
256,192,33828,1,0,0:0:0:0:
256,192,33896,1,0,0:0:0:0:
256,192,33964,1,8,0:0:0:0:
256,192,34032,1,8,0:0:0:0:
256,192,34100,1,0,0:0:0:0:
256,192,34168,1,0,0:0:0:0:
256,192,34237,1,8,0:0:0:0:
256,192,34305,1,8,0:0:0:0:
256,192,35464,1,8,0:0:0:0:
256,192,35600,1,0,0:0:0:0:
256,192,35737,1,0,0:0:0:0:
256,192,35873,1,8,0:0:0:0:
256,192,36009,1,0,0:0:0:0:
256,192,36146,1,0,0:0:0:0:
256,192,36282,1,8,0:0:0:0:
256,192,36418,1,0,0:0:0:0:
256,192,36555,1,4,0:0:0:0:
256,192,36691,1,0,0:0:0:0:
256,192,36828,1,4,0:0:0:0:
256,192,36964,1,0,0:0:0:0:
256,192,37100,1,4,0:0:0:0:
256,192,37237,1,0,0:0:0:0:
256,192,37373,1,4,0:0:0:0:
256,192,37509,1,0,0:0:0:0:
256,192,37646,1,4,0:0:0:0:
256,192,37782,1,4,0:0:0:0:
256,192,37918,1,4,0:0:0:0:
256,192,38055,1,0,0:0:0:0:
256,192,38191,1,0,0:0:0:0:
256,192,38259,1,0,0:0:0:0:
256,192,38328,1,8,0:0:0:0:
256,192,38396,1,8,0:0:0:0:
256,192,38464,1,8,0:0:0:0:
256,192,38532,1,8,0:0:0:0:
256,192,38600,1,0,0:0:0:0:
256,192,38668,1,0,0:0:0:0:
256,192,38737,1,0,0:0:0:0:
256,192,38873,1,8,0:0:0:0:
256,192,39009,1,4,0:0:0:0:
256,192,39146,1,0,0:0:0:0:
256,192,39282,1,4,0:0:0:0:
256,192,39418,1,8,0:0:0:0:
256,192,39555,1,4,0:0:0:0:
256,192,39691,1,0,0:0:0:0:
256,192,39828,1,0,0:0:0:0:
256,192,39896,1,8,0:0:0:0:
256,192,39964,1,0,0:0:0:0:
256,192,40032,1,8,0:0:0:0:
256,192,40100,1,0,0:0:0:0:
256,192,40168,1,0,0:0:0:0:
256,192,40237,1,0,0:0:0:0:
256,192,40305,1,0,0:0:0:0:
256,192,40373,1,8,0:0:0:0:
256,192,40441,1,8,0:0:0:0:
256,192,40509,1,8,0:0:0:0:
256,192,40578,1,8,0:0:0:0:
256,192,40646,1,0,0:0:0:0:
256,192,40714,1,0,0:0:0:0:
256,192,40782,1,8,0:0:0:0:
256,192,40850,1,8,0:0:0:0:
256,192,40918,1,0,0:0:0:0:
256,192,41055,1,8,0:0:0:0:
256,192,41191,1,4,0:0:0:0:
256,192,41328,1,0,0:0:0:0:
256,192,41464,1,4,0:0:0:0:
256,192,41600,1,0,0:0:0:0:
256,192,41737,1,4,0:0:0:0:
256,192,41873,1,0,0:0:0:0:
256,192,42009,1,4,0:0:0:0:
256,192,42146,1,0,0:0:0:0:
256,192,42282,1,12,0:0:0:0:
256,192,42418,1,8,0:0:0:0:
256,192,42555,1,8,0:0:0:0:
258,193,42623,1,8,0:0:0:0:
258,193,42691,1,8,0:0:0:0:
256,192,42759,1,0,0:0:0:0:
256,192,42828,1,0,0:0:0:0:
256,192,42896,1,0,0:0:0:0:
256,192,42964,1,8,0:0:0:0:
258,193,43032,1,0,0:0:0:0:
256,192,43100,1,8,0:0:0:0:
256,192,43237,1,0,0:0:0:0:
256,192,43373,1,8,0:0:0:0:
256,192,43509,1,0,0:0:0:0:
258,193,43646,1,12,0:0:0:0:
256,192,43782,1,0,0:0:0:0:
256,192,43918,1,0,0:0:0:0:
258,193,44055,1,0,0:0:0:0:
256,192,44191,1,8,0:0:0:0:
256,192,44259,1,8,0:0:0:0:
256,192,44328,1,8,0:0:0:0:
256,192,44396,1,8,0:0:0:0:
256,192,44464,1,8,0:0:0:0:
256,192,44532,1,8,0:0:0:0:
258,193,44600,1,8,0:0:0:0:
258,193,44668,1,8,0:0:0:0:
256,192,44737,1,8,0:0:0:0:
256,192,44805,1,8,0:0:0:0:
256,192,44873,1,8,0:0:0:0:
256,192,44941,1,8,0:0:0:0:
258,193,45009,1,8,0:0:0:0:
256,192,45078,1,8,0:0:0:0:
256,192,45146,1,8,0:0:0:0:
256,192,45180,1,8,0:0:0:0:
256,192,45214,1,8,0:0:0:0:
256,192,45248,1,8,0:0:0:0:
258,193,45555,1,4,0:0:0:0:
258,193,45828,1,4,0:0:0:0:
256,192,46032,1,8,0:0:0:0:
258,193,46100,1,4,0:0:0:0:
258,193,46237,1,4,0:0:0:0:
258,193,46373,1,4,0:0:0:0:
258,193,46509,1,4,0:0:0:0:
258,193,46646,1,4,0:0:0:0:
256,192,46782,1,4,0:0:0:0:
258,193,46918,1,0,0:0:0:0:
258,193,46987,1,0,0:0:0:0:
258,193,47055,1,8,0:0:0:0:
258,193,47123,1,8,0:0:0:0:
258,193,47191,1,8,0:0:0:0:
258,193,47259,1,8,0:0:0:0:
258,193,47328,1,0,0:0:0:0:
258,193,47396,1,0,0:0:0:0:
258,193,47464,1,0,0:0:0:0:
258,193,47737,1,4,0:0:0:0:
258,193,48009,1,4,0:0:0:0:
258,193,48214,1,0,0:0:0:0:
258,193,48282,1,4,0:0:0:0:
258,193,48418,1,4,0:0:0:0:
258,193,48555,1,0,0:0:0:0:
258,193,48623,1,8,0:0:0:0:
258,193,48691,1,0,0:0:0:0:
258,193,48759,1,0,0:0:0:0:
258,193,48828,1,8,0:0:0:0:
258,193,48896,1,8,0:0:0:0:
258,193,48964,1,0,0:0:0:0:
258,193,49032,1,0,0:0:0:0:
258,193,49100,1,8,0:0:0:0:
258,193,49168,1,8,0:0:0:0:
258,193,49237,1,8,0:0:0:0:
258,193,49305,1,8,0:0:0:0:
258,193,49373,1,0,0:0:0:0:
258,193,49441,1,8,0:0:0:0:
258,193,49509,1,0,0:0:0:0:
258,193,49578,1,8,0:0:0:0:
258,193,49646,1,0,0:0:0:0:
258,193,49918,1,4,0:0:0:0:
258,193,50191,1,4,0:0:0:0:
258,193,50396,1,8,0:0:0:0:
258,193,50464,1,4,0:0:0:0:
258,193,50600,1,4,0:0:0:0:
258,193,50737,1,4,0:0:0:0:
258,193,50941,1,8,0:0:0:0:
258,193,51009,1,4,0:0:0:0:
258,193,51146,1,4,0:0:0:0:
258,193,51282,1,0,0:0:0:0:
258,193,51350,1,0,0:0:0:0:
258,193,51418,1,8,0:0:0:0:
258,193,51487,1,0,0:0:0:0:
258,193,51555,1,8,0:0:0:0:
258,193,51623,1,8,0:0:0:0:
258,193,51691,1,8,0:0:0:0:
258,193,51759,1,8,0:0:0:0:
258,193,51828,1,0,0:0:0:0:
258,193,51964,1,8,0:0:0:0:
258,193,52100,1,8,0:0:0:0:
258,193,52237,1,0,0:0:0:0:
258,193,52373,1,0,0:0:0:0:
258,193,52509,1,8,0:0:0:0:
258,193,52646,1,8,0:0:0:0:
258,193,52782,1,0,0:0:0:0:
258,193,52918,1,12,0:0:0:0:
258,193,53055,1,0,0:0:0:0:
258,193,53191,1,12,0:0:0:0:
258,193,53328,1,8,0:0:0:0:
258,193,53464,1,12,0:0:0:0:
258,193,53600,1,4,0:0:0:0:
258,193,53737,1,12,0:0:0:0:
258,193,53873,1,12,0:0:0:0:
258,193,54009,1,12,0:0:0:0:
258,193,54146,1,0,0:0:0:0:
258,193,54282,1,8,0:0:0:0:
258,193,54418,1,0,0:0:0:0:
258,193,54555,1,8,0:0:0:0:
258,193,54691,1,0,0:0:0:0:
258,193,54828,1,0,0:0:0:0:
258,193,54964,1,8,0:0:0:0:
258,193,55100,1,0,0:0:0:0:
258,193,55237,1,8,0:0:0:0:
258,193,55373,1,0,0:0:0:0:
258,193,55509,1,8,0:0:0:0:
258,193,55646,1,0,0:0:0:0:
258,193,55782,1,0,0:0:0:0:
258,193,55850,1,0,0:0:0:0:
258,193,55918,1,8,0:0:0:0:
258,193,56055,1,8,0:0:0:0:
258,193,56191,1,0,0:0:0:0:
258,193,56328,1,8,0:0:0:0:
258,193,56464,1,0,0:0:0:0:
258,193,56600,1,8,0:0:0:0:
258,193,56737,1,8,0:0:0:0:
258,193,56873,1,8,0:0:0:0:
258,193,57009,1,8,0:0:0:0:
258,193,57146,1,8,0:0:0:0:
258,193,57282,1,8,0:0:0:0:
258,193,57418,1,0,0:0:0:0:
258,193,57487,1,0,0:0:0:0:
258,193,57555,1,0,0:0:0:0:
258,193,57691,1,8,0:0:0:0:
258,193,57828,1,0,0:0:0:0:
258,193,57896,1,0,0:0:0:0:
258,193,57964,1,0,0:0:0:0:
258,193,58100,1,8,0:0:0:0:
258,193,58373,1,8,0:0:0:0:
258,193,58509,1,0,0:0:0:0:
258,193,58646,1,8,0:0:0:0:
258,193,58782,1,0,0:0:0:0:
258,193,58918,1,8,0:0:0:0:
258,193,59055,1,0,0:0:0:0:
258,193,59191,1,0,0:0:0:0:
258,193,59328,1,8,0:0:0:0:
258,193,59464,1,0,0:0:0:0:
258,193,59600,1,8,0:0:0:0:
258,193,59737,1,0,0:0:0:0:
258,193,59873,1,8,0:0:0:0:
258,193,60009,1,0,0:0:0:0:
258,193,60146,1,0,0:0:0:0:
258,193,60214,1,0,0:0:0:0:
258,193,60282,1,8,0:0:0:0:
258,193,60418,1,8,0:0:0:0:
258,193,60555,1,0,0:0:0:0:
258,193,60691,1,0,0:0:0:0:
258,193,60759,1,0,0:0:0:0:
258,193,60828,1,0,0:0:0:0:
258,193,60964,1,0,0:0:0:0:
258,193,61100,1,0,0:0:0:0:
258,193,61237,1,0,0:0:0:0:
258,193,61373,1,0,0:0:0:0:
258,193,61509,1,0,0:0:0:0:
258,193,61646,1,8,0:0:0:0:
258,193,61782,1,0,0:0:0:0:
258,193,61918,1,0,0:0:0:0:
258,193,62055,1,8,0:0:0:0:
258,193,62191,1,0,0:0:0:0:
258,193,62328,1,0,0:0:0:0:
258,193,62464,1,12,0:0:0:0:
258,193,62737,1,8,0:0:0:0:
258,193,62873,1,0,0:0:0:0:
258,193,63009,1,8,0:0:0:0:
258,193,63146,1,0,0:0:0:0:
258,193,63282,1,8,0:0:0:0:
258,193,63418,1,0,0:0:0:0:
258,193,63555,1,0,0:0:0:0:
258,193,63691,1,8,0:0:0:0:
258,193,63828,1,0,0:0:0:0:
258,193,63964,1,8,0:0:0:0:
258,193,64100,1,0,0:0:0:0:
258,193,64237,1,8,0:0:0:0:
258,193,64373,1,0,0:0:0:0:
258,193,64509,1,8,0:0:0:0:
258,193,64578,1,0,0:0:0:0:
258,193,64646,1,8,0:0:0:0:
258,193,64782,1,8,0:0:0:0:
258,193,64918,1,0,0:0:0:0:
258,193,65055,1,8,0:0:0:0:
258,193,65191,1,0,0:0:0:0:
258,193,65328,1,8,0:0:0:0:
258,193,65464,1,8,0:0:0:0:
258,193,65600,1,8,0:0:0:0:
258,193,65737,1,8,0:0:0:0:
258,193,65873,1,8,0:0:0:0:
258,193,66009,1,8,0:0:0:0:
258,193,66146,1,0,0:0:0:0:
258,193,66214,1,0,0:0:0:0:
258,193,66282,1,0,0:0:0:0:
258,193,66418,1,8,0:0:0:0:
258,193,66555,1,0,0:0:0:0:
258,193,66623,1,0,0:0:0:0:
258,193,66691,1,0,0:0:0:0:
258,193,66828,1,8,0:0:0:0:
258,193,67100,1,0,0:0:0:0:
258,193,67168,1,0,0:0:0:0:
258,193,67237,1,0,0:0:0:0:
258,193,67305,1,8,0:0:0:0:
258,193,67373,1,8,0:0:0:0:
258,193,67441,1,0,0:0:0:0:
258,193,67509,1,0,0:0:0:0:
258,193,67578,1,8,0:0:0:0:
258,193,67646,1,8,0:0:0:0:
258,193,67714,1,0,0:0:0:0:
258,193,67782,1,0,0:0:0:0:
258,193,67850,1,0,0:0:0:0:
258,193,67918,1,8,0:0:0:0:
258,193,67987,1,0,0:0:0:0:
258,193,68055,1,0,0:0:0:0:
258,193,68123,1,0,0:0:0:0:
258,193,68191,1,8,0:0:0:0:
258,193,68259,1,8,0:0:0:0:
258,193,68328,1,8,0:0:0:0:
258,193,68396,1,8,0:0:0:0:
258,193,68464,1,8,0:0:0:0:
258,193,68532,1,8,0:0:0:0:
258,193,68600,1,8,0:0:0:0:
258,193,68668,1,8,0:0:0:0:
258,193,68737,1,0,0:0:0:0:
258,193,68805,1,0,0:0:0:0:
258,193,68873,1,0,0:0:0:0:
258,193,68941,1,8,0:0:0:0:
258,193,69009,1,0,0:0:0:0:
258,193,69078,1,8,0:0:0:0:
258,193,69146,1,0,0:0:0:0:
258,193,69214,1,8,0:0:0:0:
258,193,69282,2,0,L|224:192,14,34.375
258,193,70373,1,8,0:0:0:0:
258,193,70509,1,8,0:0:0:0:
258,193,70646,1,0,0:0:0:0:
258,193,70782,1,8,0:0:0:0:
258,193,70918,1,8,0:0:0:0:
258,193,71055,1,0,0:0:0:0:
258,193,71191,1,8,0:0:0:0:
258,193,71328,1,0,0:0:0:0:
258,193,71464,1,0,0:0:0:0:
258,193,71532,1,0,0:0:0:0:
258,193,71600,1,0,0:0:0:0:
258,193,71668,1,8,0:0:0:0:
258,193,71737,1,8,0:0:0:0:
258,193,71805,1,0,0:0:0:0:
258,193,71873,1,0,0:0:0:0:
258,193,71941,1,8,0:0:0:0:
258,193,72009,1,8,0:0:0:0:
258,193,72078,1,0,0:0:0:0:
258,193,72146,1,0,0:0:0:0:
258,193,72214,1,0,0:0:0:0:
258,193,72282,1,8,0:0:0:0:
258,193,72350,1,8,0:0:0:0:
258,193,72418,1,0,0:0:0:0:
258,193,72487,1,8,0:0:0:0:
258,193,72555,1,8,0:0:0:0:
258,193,72623,1,0,0:0:0:0:
258,193,72691,1,0,0:0:0:0:
258,193,72759,1,8,0:0:0:0:
258,193,72828,1,8,0:0:0:0:
258,193,72896,1,8,0:0:0:0:
258,193,72964,1,0,0:0:0:0:
288,192,73032,1,0,0:0:0:0:
258,193,73100,1,8,0:0:0:0:
258,193,73168,1,0,0:0:0:0:
258,193,73237,1,8,0:0:0:0:
258,193,73305,1,8,0:0:0:0:
258,193,73373,1,0,0:0:0:0:
258,193,73441,1,0,0:0:0:0:
258,193,73509,1,8,0:0:0:0:
258,193,73578,1,8,0:0:0:0:
258,193,73646,1,0,0:0:0:0:
258,193,73714,1,0,0:0:0:0:
258,193,73782,1,0,0:0:0:0:
258,193,73850,1,8,0:0:0:0:
258,193,73918,1,8,0:0:0:0:
258,193,73987,1,0,0:0:0:0:
258,193,74055,1,8,0:0:0:0:
258,193,74123,1,0,0:0:0:0:
258,193,74191,1,8,0:0:0:0:
258,193,74259,1,0,0:0:0:0:
258,193,74328,1,0,0:0:0:0:
258,193,74396,1,8,0:0:0:0:
258,193,74464,1,8,0:0:0:0:
258,193,74532,1,0,0:0:0:0:
258,193,74600,1,8,0:0:0:0:
258,193,74668,1,0,0:0:0:0:
258,193,74737,1,8,0:0:0:0:
258,193,74805,1,8,0:0:0:0:
258,193,74873,1,0,0:0:0:0:
258,193,74941,1,8,0:0:0:0:
258,193,75009,1,8,0:0:0:0:
258,193,75078,1,0,0:0:0:0:
258,193,75146,1,0,0:0:0:0:
258,193,75214,1,0,0:0:0:0:
258,193,75282,1,8,0:0:0:0:
258,193,75350,1,0,0:0:0:0:
258,193,75418,1,0,0:0:0:0:
258,193,75487,1,8,0:0:0:0:
258,193,75555,1,0,0:0:0:0:
258,193,75623,1,0,0:0:0:0:
258,193,75691,1,0,0:0:0:0:
258,193,75759,1,8,0:0:0:0:
258,193,75828,1,8,0:0:0:0:
258,193,75896,1,8,0:0:0:0:
258,193,75964,1,0,0:0:0:0:
258,193,76032,1,8,0:0:0:0:
258,193,76100,1,8,0:0:0:0:
258,193,76168,1,8,0:0:0:0:
258,193,76237,1,0,0:0:0:0:
258,193,76305,1,8,0:0:0:0:
258,193,76373,1,0,0:0:0:0:
258,193,76441,1,0,0:0:0:0:
258,193,76509,1,8,0:0:0:0:
258,193,76578,1,8,0:0:0:0:
258,193,76646,1,8,0:0:0:0:
258,193,76714,1,8,0:0:0:0:
258,193,76782,1,0,0:0:0:0:
258,193,76850,1,0,0:0:0:0:
258,193,76918,1,8,0:0:0:0:
258,193,76987,1,0,0:0:0:0:
258,193,77055,1,0,0:0:0:0:
258,193,77123,1,8,0:0:0:0:
258,193,77191,1,8,0:0:0:0:
258,193,77259,1,0,0:0:0:0:
258,193,77328,1,8,0:0:0:0:
258,193,77396,1,0,0:0:0:0:
258,193,77464,1,8,0:0:0:0:
258,193,77532,1,0,0:0:0:0:
258,193,77600,1,0,0:0:0:0:
258,193,77668,1,8,0:0:0:0:
258,193,77737,1,8,0:0:0:0:
258,193,77805,1,0,0:0:0:0:
258,193,77873,1,8,0:0:0:0:
258,193,77941,1,0,0:0:0:0:
258,193,78009,1,8,0:0:0:0:
258,193,78078,1,0,0:0:0:0:
258,193,78146,1,0,0:0:0:0:
258,193,78214,1,8,0:0:0:0:
258,193,78282,1,8,0:0:0:0:
258,193,78350,1,0,0:0:0:0:
258,193,78418,1,0,0:0:0:0:
258,193,78487,1,8,0:0:0:0:
258,193,78555,1,8,0:0:0:0:
258,193,78623,1,0,0:0:0:0:
258,193,78691,1,0,0:0:0:0:
258,193,78759,1,8,0:0:0:0:
258,193,78828,1,8,0:0:0:0:
258,193,78896,1,0,0:0:0:0:
258,193,78964,1,0,0:0:0:0:
258,193,79032,1,0,0:0:0:0:
258,193,79100,1,8,0:0:0:0:
258,193,79191,1,8,0:0:0:0:
258,193,79282,1,8,0:0:0:0:
258,193,79373,1,0,0:0:0:0:
258,193,79464,1,8,0:0:0:0:
258,193,79555,1,0,0:0:0:0:
258,193,79646,1,8,0:0:0:0:
258,193,79737,1,8,0:0:0:0:
258,193,79828,1,0,0:0:0:0:
258,193,79918,1,8,0:0:0:0:
258,193,80009,1,0,0:0:0:0:
258,193,80100,1,0,0:0:0:0:
258,193,80191,1,4,0:0:0:0:
258,193,80373,1,4,0:0:0:0:
258,193,80600,1,12,0:0:0:0:
258,193,80737,1,4,0:0:0:0:
258,193,80918,1,4,0:0:0:0:
258,193,81146,1,12,0:0:0:0:
258,193,81282,1,4,0:0:0:0:
258,193,81464,1,4,0:0:0:0:
258,193,81691,1,12,0:0:0:0:
258,193,81828,1,8,0:0:0:0:
258,193,81896,1,8,0:0:0:0:
258,193,81964,1,0,0:0:0:0:
258,193,82032,1,0,0:0:0:0:
258,193,82100,1,8,0:0:0:0:
258,193,82168,1,0,0:0:0:0:
258,193,82237,1,8,0:0:0:0:
258,193,82305,1,0,0:0:0:0:
258,193,82373,1,0,0:0:0:0:
258,193,82555,1,4,0:0:0:0:
258,193,82782,1,12,0:0:0:0:
258,193,82918,1,4,0:0:0:0:
258,193,83100,1,4,0:0:0:0:
258,193,83328,1,12,0:0:0:0:
258,193,83464,1,8,0:0:0:0:
258,193,83532,1,0,0:0:0:0:
258,193,83600,1,0,0:0:0:0:
258,193,83668,1,8,0:0:0:0:
258,193,83737,1,8,0:0:0:0:
258,193,83805,1,0,0:0:0:0:
258,193,83873,1,8,0:0:0:0:
258,193,83941,1,8,0:0:0:0:
258,193,84009,1,0,0:0:0:0:
258,193,84043,1,0,0:0:0:0:
258,193,84146,1,0,0:0:0:0:
258,193,84180,1,0,0:0:0:0:
258,193,84282,1,8,0:0:0:0:
258,193,84316,1,8,0:0:0:0:
258,193,84418,1,8,0:0:0:0:
258,193,84453,1,8,0:0:0:0:
258,193,84555,1,12,0:0:0:0:
258,193,84737,1,4,0:0:0:0:
258,193,84964,1,12,0:0:0:0:
258,193,85100,1,12,0:0:0:0:
258,193,85282,1,4,0:0:0:0:
258,193,85509,1,4,0:0:0:0:
258,193,85646,1,12,0:0:0:0:
258,193,85828,1,4,0:0:0:0:
258,193,86055,1,12,0:0:0:0:
258,193,86191,1,12,0:0:0:0:
258,193,86373,1,4,0:0:0:0:
258,193,86600,1,4,0:0:0:0:
258,193,86737,1,12,0:0:0:0:
258,193,86918,1,12,0:0:0:0:
258,193,87146,1,12,0:0:0:0:
258,193,87282,1,4,0:0:0:0:
258,193,87464,1,12,0:0:0:0:
258,193,87691,1,12,0:0:0:0:
258,193,87828,1,8,0:0:0:0:
258,193,87896,1,8,0:0:0:0:
258,193,87964,1,8,0:0:0:0:
258,193,88032,1,8,0:0:0:0:
258,193,88100,1,0,0:0:0:0:
258,193,88168,1,0,0:0:0:0:
258,193,88237,1,0,0:0:0:0:
258,193,88305,1,0,0:0:0:0:
258,193,88373,1,0,0:0:0:0:
258,193,88441,1,0,0:0:0:0:
258,193,88509,1,0,0:0:0:0:
258,193,88578,1,0,0:0:0:0:
258,193,88646,1,0,0:0:0:0:
258,193,88714,1,0,0:0:0:0:
258,193,88782,1,8,0:0:0:0:
258,193,88850,1,0,0:0:0:0:
258,193,90282,1,4,0:0:0:0:
258,193,90418,1,0,0:0:0:0:
258,193,90691,1,8,0:0:0:0:
258,193,90827,1,0,0:0:0:0:
258,193,91100,1,0,0:0:0:0:
258,193,91372,1,8,0:0:0:0:
258,193,91645,1,8,0:0:0:0:
258,193,91782,1,0,0:0:0:0:
258,193,92054,1,8,0:0:0:0:
258,193,92191,1,0,0:0:0:0:
258,193,92463,1,8,0:0:0:0:
258,193,92736,1,8,0:0:0:0:
258,193,93009,1,8,0:0:0:0:
258,193,93145,1,0,0:0:0:0:
258,193,93418,1,0,0:0:0:0:
258,193,93554,1,0,0:0:0:0:
258,193,93827,1,0,0:0:0:0:
258,193,94100,1,8,0:0:0:0:
258,193,94372,1,4,0:0:0:0:
258,193,94509,1,0,0:0:0:0:
258,193,94782,1,4,0:0:0:0:
258,193,94918,1,0,0:0:0:0:
258,193,94986,1,0,0:0:0:0:
258,193,95054,1,0,0:0:0:0:
258,193,95122,1,0,0:0:0:0:
258,193,95191,1,8,0:0:0:0:
258,193,95259,1,0,0:0:0:0:
258,193,95327,1,0,0:0:0:0:
258,193,95395,1,0,0:0:0:0:
258,193,95463,1,8,0:0:0:0:
258,193,95736,1,12,0:0:0:0:
258,193,95872,1,4,0:0:0:0:
258,193,96008,1,0,0:0:0:0:
258,193,96145,1,12,0:0:0:0:
258,193,96281,1,4,0:0:0:0:
258,193,96417,1,0,0:0:0:0:
258,193,96554,1,12,0:0:0:0:
258,193,96690,1,4,0:0:0:0:
258,193,96826,1,0,0:0:0:0:
258,193,96963,1,12,0:0:0:0:
258,193,97099,1,4,0:0:0:0:
258,193,97236,1,0,0:0:0:0:
258,193,97372,1,12,0:0:0:0:
258,193,97508,1,12,0:0:0:0:
258,193,97645,1,4,0:0:0:0:
258,193,97781,1,4,0:0:0:0:
258,193,97917,1,0,0:0:0:0:
258,193,98190,1,0,0:0:0:0:
258,193,98258,1,0,0:0:0:0:
258,193,98326,1,0,0:0:0:0:
258,193,98395,1,0,0:0:0:0:
258,193,98463,1,8,0:0:0:0:
258,193,98531,1,8,0:0:0:0:
258,193,98599,1,8,0:0:0:0:
258,193,98667,1,8,0:0:0:0:
258,193,98736,1,0,0:0:0:0:
258,193,98804,1,0,0:0:0:0:
258,193,98872,1,0,0:0:0:0:
258,193,98940,1,0,0:0:0:0:
258,193,99008,1,8,0:0:0:0:
258,193,99076,1,8,0:0:0:0:
258,193,99145,1,0,0:0:0:0:
258,193,99213,1,0,0:0:0:0:
258,193,99281,1,8,0:0:0:0:
258,193,99349,1,8,0:0:0:0:
258,193,99417,1,0,0:0:0:0:
258,193,99486,1,0,0:0:0:0:
258,193,99554,1,8,0:0:0:0:
258,193,99622,1,0,0:0:0:0:
258,193,99690,1,0,0:0:0:0:
258,193,99758,1,0,0:0:0:0:
258,193,99826,1,8,0:0:0:0:
258,193,99895,1,0,0:0:0:0:
258,193,99963,1,8,0:0:0:0:
258,193,100031,1,8,0:0:0:0:
258,193,100099,1,4,0:0:0:0:
256,192,100463,1,8,0:0:0:0:
256,192,100554,1,8,0:0:0:0:
256,192,100645,1,8,0:0:0:0:
256,192,100826,1,0,0:0:0:0:
256,192,101008,1,8,0:0:0:0:
256,192,101190,1,4,0:0:0:0:
256,192,101372,1,4,0:0:0:0:
256,192,101554,1,4,0:0:0:0:
256,192,101736,1,12,0:0:0:0:
256,192,102008,1,4,0:0:0:0:
256,192,102281,1,0,0:0:0:0:
256,192,102372,1,8,0:0:0:0:
256,192,102463,1,0,0:0:0:0:
256,192,102554,1,8,0:0:0:0:
256,192,102645,1,8,0:0:0:0:
256,192,102736,1,0,0:0:0:0:
256,192,102826,1,0,0:0:0:0:
256,192,102917,1,8,0:0:0:0:
256,192,103008,1,0,0:0:0:0:
256,192,103099,1,0,0:0:0:0:
256,192,103190,1,0,0:0:0:0:
256,192,103281,1,8,0:0:0:0:
256,192,103372,1,8,0:0:0:0:
256,192,103463,1,0,0:0:0:0:
256,192,103554,1,0,0:0:0:0:
256,192,103645,1,8,0:0:0:0:
256,192,103736,1,8,0:0:0:0:
256,192,103826,1,8,0:0:0:0:
256,192,103917,1,8,0:0:0:0:
256,192,104008,1,0,0:0:0:0:
256,192,104099,1,0,0:0:0:0:
256,192,104190,1,8,0:0:0:0:
256,192,104281,1,8,0:0:0:0:
256,192,104372,1,8,0:0:0:0:
256,192,104463,1,0,0:0:0:0:
256,192,104531,1,0,0:0:0:0:
256,192,104599,1,8,0:0:0:0:
256,192,104667,1,0,0:0:0:0:
256,192,104736,1,0,0:0:0:0:
256,192,104804,1,0,0:0:0:0:
256,192,104872,1,8,0:0:0:0:
256,192,104940,1,0,0:0:0:0:
256,192,105008,1,8,0:0:0:0:
256,192,105076,1,0,0:0:0:0:
256,192,105145,1,8,0:0:0:0:
256,192,105213,1,0,0:0:0:0:
256,192,105281,1,0,0:0:0:0:
256,192,105349,1,0,0:0:0:0:
256,192,105417,1,8,0:0:0:0:
256,192,105486,1,0,0:0:0:0:
256,192,105554,1,8,0:0:0:0:
256,192,105622,1,0,0:0:0:0:
256,192,105690,1,8,0:0:0:0:
256,192,105758,1,0,0:0:0:0:
256,192,105826,1,0,0:0:0:0:
256,192,105895,1,0,0:0:0:0:
256,192,105963,1,8,0:0:0:0:
256,192,106031,1,0,0:0:0:0:
256,192,106099,1,8,0:0:0:0:
256,192,106167,1,0,0:0:0:0:
256,192,106236,1,8,0:0:0:0:
256,192,106304,1,0,0:0:0:0:
256,192,106372,1,0,0:0:0:0:
256,192,106440,1,0,0:0:0:0:
256,192,106508,1,8,0:0:0:0:
256,192,106576,1,0,0:0:0:0:
256,192,106645,1,8,0:0:0:0:
256,192,106713,1,0,0:0:0:0:
256,192,106781,1,8,0:0:0:0:
256,192,106849,1,0,0:0:0:0:
256,192,106917,1,0,0:0:0:0:
256,192,106986,1,0,0:0:0:0:
256,192,107054,1,8,0:0:0:0:
256,192,107122,1,0,0:0:0:0:
256,192,107190,1,8,0:0:0:0:
256,192,107258,1,0,0:0:0:0:
256,192,107326,1,8,0:0:0:0:
256,192,107395,1,0,0:0:0:0:
256,192,107463,1,0,0:0:0:0:
256,192,107531,1,0,0:0:0:0:
256,192,107599,1,8,0:0:0:0:
256,192,107667,1,8,0:0:0:0:
256,192,107736,1,8,0:0:0:0:
256,192,107804,1,0,0:0:0:0:
256,192,107872,1,8,0:0:0:0:
256,192,107940,1,0,0:0:0:0:
256,192,108008,1,0,0:0:0:0:
256,192,108076,1,8,0:0:0:0:
256,192,108145,1,8,0:0:0:0:
256,192,108213,1,0,0:0:0:0:
256,192,108281,1,8,0:0:0:0:
256,192,108349,1,0,0:0:0:0:
256,192,108417,1,0,0:0:0:0:
256,192,108486,1,8,0:0:0:0:
256,192,108554,1,0,0:0:0:0:
256,192,108622,1,0,0:0:0:0:
256,192,108690,1,8,0:0:0:0:
256,192,108758,1,8,0:0:0:0:
256,192,108826,1,4,0:0:0:0:
256,192,108963,1,4,0:0:0:0:
256,192,109099,1,4,0:0:0:0:
256,192,109167,1,8,0:0:0:0:
256,192,109236,1,8,0:0:0:0:
256,192,109304,1,8,0:0:0:0:
256,192,109372,1,4,0:0:0:0:
256,192,109508,1,4,0:0:0:0:
256,192,109645,1,4,0:0:0:0:
256,192,109781,1,4,0:0:0:0:
256,192,109917,1,8,0:0:0:0:
256,192,110054,1,4,0:0:0:0:
256,192,110190,1,4,0:0:0:0:
256,192,110326,1,4,0:0:0:0:
256,192,110463,1,4,0:0:0:0:
256,192,110599,1,4,0:0:0:0:
256,192,110736,1,4,0:0:0:0:
256,192,110872,1,4,0:0:0:0:
256,192,111008,1,4,0:0:0:0:
256,192,111076,1,8,0:0:0:0:
256,192,111145,1,8,0:0:0:0:
256,192,111213,1,8,0:0:0:0:
256,192,111281,1,4,0:0:0:0:
256,192,111417,1,8,0:0:0:0:
256,192,111554,1,4,0:0:0:0:
256,192,111690,1,8,0:0:0:0:
256,192,111826,1,8,0:0:0:0:
256,192,111963,1,4,0:0:0:0:
256,192,112099,1,4,0:0:0:0:
256,192,112236,1,8,0:0:0:0:
256,192,112372,1,4,0:0:0:0:
256,192,112508,1,4,0:0:0:0:
256,192,112645,1,4,0:0:0:0:
256,192,112781,1,4,0:0:0:0:
256,192,112917,1,8,0:0:0:0:
256,192,112986,1,8,0:0:0:0:
256,192,113054,1,4,0:0:0:0:
256,192,113190,1,4,0:0:0:0:
256,192,113326,1,8,0:0:0:0:
256,192,113463,1,4,0:0:0:0:
256,192,113599,1,4,0:0:0:0:
256,192,113736,1,4,0:0:0:0:
256,192,113872,1,4,0:0:0:0:
256,192,114008,1,0,0:0:0:0:
256,192,114076,1,0,0:0:0:0:
256,192,114145,1,12,0:0:0:0:
256,192,114281,1,12,0:0:0:0:
256,192,114417,1,12,0:0:0:0:
256,192,114554,1,0,0:0:0:0:
256,192,114690,1,12,0:0:0:0:
256,192,114826,1,12,0:0:0:0:
256,192,114963,1,12,0:0:0:0:
256,192,115099,1,12,0:0:0:0:
256,192,115236,1,12,0:0:0:0:
256,192,115372,1,12,0:0:0:0:
256,192,115508,1,12,0:0:0:0:
256,192,115645,1,12,0:0:0:0:
256,192,115781,1,12,0:0:0:0:
256,192,115917,1,12,0:0:0:0:
256,192,116736,1,4,0:0:0:0:
256,192,117076,1,0,0:0:0:0:
256,192,117213,1,8,0:0:0:0:
256,192,117349,1,8,0:0:0:0:
256,192,117486,1,0,0:0:0:0:
256,192,117690,1,8,0:0:0:0:
256,192,118031,1,8,0:0:0:0:
256,192,118508,1,12,0:0:0:0:
