osu file format v14

[General]
AudioFilename: audio.mp3
AudioLeadIn: 0
PreviewTime: 19616
Countdown: 1
SampleSet: None
StackLeniency: 0.7
Mode: 1
LetterboxInBreaks: 0
WidescreenStoryboard: 1

[Editor]
DistanceSpacing: 3.2
BeatDivisor: 3
GridSize: 8
TimelineZoom: 2.276

[Metadata]
Title:ENDYMION
TitleUnicode:ENDYMION
Artist:fallen shepherd ft. RabbiTon Strings
ArtistUnicode:fallen shepherd ft. RabbiTon Strings
Creator:Ryu Sei
Version:Muzukashii
Source:DanceDanceRevolution A
Tags:DDR ENCORE EXTRA STAGE ARM
BeatmapID:1857641
BeatmapSetID:888739

[Difficulty]
HPDrainRate:7
CircleSize:4
OverallDifficulty:5
ApproachRate:5
SliderMultiplier:1.4
SliderTickRate:1

[Events]
//Background and Video events
0,0,"cutout supernova alter.png",0,0
//Break Periods
//Storyboard Layer 0 (Background)
//Storyboard Layer 1 (Fail)
//Storyboard Layer 2 (Pass)
//Storyboard Layer 3 (Foreground)
//Storyboard Sound Samples

[TimingPoints]
1343,272.727272727273,4,1,0,73,1,0
3797,272.727272727273,3,1,0,73,1,0
5433,272.727272727273,7,1,0,73,1,0
7205,545.454545454546,6,1,0,73,1,0
7205,-50,6,1,0,73,0,0
8707,545.454545454546,5,1,0,73,1,0
19616,272.727272727273,5,1,0,73,1,1
27797,272.727272727273,4,1,0,73,1,1
34342,-100,4,1,0,73,0,0
36524,-200,4,1,0,73,0,0
44160,68.1818181818182,1,1,0,73,1,0
44160,-400,1,1,0,73,0,0
45251,272.727272727273,4,1,0,73,1,0
45251,-50,4,1,0,73,0,0
45523,-100,4,1,0,73,0,0
52887,-200,4,1,0,73,0,0
67069,-100,4,1,0,73,0,0
71432,-100,4,1,0,73,0,1
79069,-100,4,1,0,73,0,0
88887,272.727272727273,5,1,0,73,1,0
90250,-200,5,1,0,73,0,0
95705,272.727272727273,4,1,0,73,1,0
104432,-100,4,1,0,73,0,1
116705,272.727272727273,7,1,0,73,1,0
118477,272.727272727273,4,1,0,73,1,0

[HitObjects]
183,177,3797,5,0,0:0:0:0:
183,177,4615,1,8,0:0:0:0:
227,180,5433,1,0,0:0:0:0:
216,188,7205,5,12,0:0:0:0:
147,170,8707,1,4,0:0:0:0:
270,194,9116,1,0,0:0:0:0:
85,227,9252,1,0,0:0:0:0:
270,194,9525,1,0,0:0:0:0:
270,194,9797,1,0,0:0:0:0:
227,178,10070,1,0,0:0:0:0:
227,178,10479,1,0,0:0:0:0:
85,227,10616,1,0,0:0:0:0:
143,226,10888,1,0,0:0:0:0:
270,194,11161,1,8,0:0:0:0:
227,178,11434,1,4,0:0:0:0:
270,194,11843,1,0,0:0:0:0:
81,224,11979,1,0,0:0:0:0:
270,194,12252,1,0,0:0:0:0:
270,194,12525,1,0,0:0:0:0:
266,178,12797,1,0,0:0:0:0:
266,178,13207,1,0,0:0:0:0:
266,178,13616,1,0,0:0:0:0:
68,214,13752,1,8,0:0:0:0:
177,231,13888,1,8,0:0:0:0:
266,178,14161,1,4,0:0:0:0:
270,194,14570,1,0,0:0:0:0:
270,194,14979,1,0,0:0:0:0:
270,194,15252,1,8,0:0:0:0:
265,173,15525,1,0,0:0:0:0:
265,173,15934,1,0,0:0:0:0:
177,231,16343,1,0,0:0:0:0:
121,147,16479,1,8,0:0:0:0:
177,231,16616,1,8,0:0:0:0:
138,168,16888,1,4,0:0:0:0:
270,192,17297,1,8,0:0:0:0:
270,192,17707,1,0,0:0:0:0:
270,192,17979,1,8,0:0:0:0:
146,212,18252,1,0,0:0:0:0:
146,212,18661,1,0,0:0:0:0:
141,202,19070,1,8,0:0:0:0:
269,186,19343,1,8,0:0:0:0:
140,198,19616,1,4,0:0:0:0:
277,127,19888,1,0,0:0:0:0:
232,246,20161,1,0,0:0:0:0:
183,179,20434,1,0,0:0:0:0:
183,179,20706,1,8,0:0:0:0:
158,129,20843,1,0,0:0:0:0:
183,179,20979,1,0,0:0:0:0:
277,127,21252,1,0,0:0:0:0:
223,242,21525,1,0,0:0:0:0:
183,179,21797,1,8,0:0:0:0:
183,179,22070,1,8,0:0:0:0:
158,129,22206,1,8,0:0:0:0:
183,179,22343,1,0,0:0:0:0:
270,126,22616,1,0,0:0:0:0:
222,242,22888,1,0,0:0:0:0:
183,179,23161,1,8,0:0:0:0:
155,127,23434,1,0,0:0:0:0:
155,127,23570,1,0,0:0:0:0:
183,179,23706,1,0,0:0:0:0:
264,124,23979,1,8,0:0:0:0:
294,232,24252,1,0,0:0:0:0:
183,179,24525,1,0,0:0:0:0:
183,179,24797,1,8,0:0:0:0:
150,124,24934,1,8,0:0:0:0:
183,179,25070,1,8,0:0:0:0:
258,121,25343,1,0,0:0:0:0:
286,231,25616,1,0,0:0:0:0:
183,179,25888,1,0,0:0:0:0:
183,179,26161,1,8,0:0:0:0:
146,120,26297,1,0,0:0:0:0:
183,179,26434,1,8,0:0:0:0:
285,137,26706,1,8,0:0:0:0:
279,228,26979,1,0,0:0:0:0:
183,179,27252,1,0,0:0:0:0:
183,179,27525,1,8,0:0:0:0:
143,119,27661,1,0,0:0:0:0:
183,179,27797,1,0,0:0:0:0:
284,116,28069,1,0,0:0:0:0:
183,179,28342,1,8,0:0:0:0:
284,116,28615,1,8,0:0:0:0:
284,116,28887,1,0,0:0:0:0:
284,116,29160,1,0,0:0:0:0:
284,116,29433,1,8,0:0:0:0:
284,116,29706,1,8,0:0:0:0:
284,116,29978,1,0,0:0:0:0:
284,116,30251,1,0,0:0:0:0:
284,116,30524,1,8,0:0:0:0:
284,116,30797,1,8,0:0:0:0:
284,116,31069,1,0,0:0:0:0:
284,116,31342,1,0,0:0:0:0:
284,116,31615,1,8,0:0:0:0:
284,116,31887,1,8,0:0:0:0:
284,116,32160,1,0,0:0:0:0:
139,118,32297,1,0,0:0:0:0:
284,116,32433,1,0,0:0:0:0:
284,116,32706,1,0,0:0:0:0:
284,116,32978,1,0,0:0:0:0:
284,116,33251,1,8,0:0:0:0:
139,118,33387,1,8,0:0:0:0:
284,116,33524,1,8,0:0:0:0:
284,116,33797,1,8,0:0:0:0:
284,116,34069,1,8,0:0:0:0:
154,167,36524,1,0,0:0:0:0:
139,118,36797,1,0,0:0:0:0:
115,231,37069,1,0,0:0:0:0:
115,231,37342,1,0,0:0:0:0:
153,167,37615,1,0,0:0:0:0:
153,167,37887,1,0,0:0:0:0:
153,167,38160,1,0,0:0:0:0:
139,118,38297,1,0,0:0:0:0:
241,119,38433,1,0,0:0:0:0:
241,119,38569,1,0,0:0:0:0:
153,167,38706,1,8,0:0:0:0:
139,118,38978,1,0,0:0:0:0:
185,244,39251,1,8,0:0:0:0:
185,244,39524,1,8,0:0:0:0:
151,166,39797,1,8,0:0:0:0:
151,166,40069,1,0,0:0:0:0:
151,166,40342,1,8,0:0:0:0:
139,118,40478,1,8,0:0:0:0:
223,111,40615,1,0,0:0:0:0:
223,111,40751,1,0,0:0:0:0:
151,166,40887,1,0,0:0:0:0:
139,118,41160,1,0,0:0:0:0:
162,228,41433,1,0,0:0:0:0:
162,228,41706,1,0,0:0:0:0:
151,166,41978,1,8,0:0:0:0:
151,166,42251,1,8,0:0:0:0:
139,118,42524,1,8,0:0:0:0:
139,118,42660,1,8,0:0:0:0:
139,118,42797,1,8,0:0:0:0:
216,108,42933,1,8,0:0:0:0:
151,166,43069,1,0,0:0:0:0:
216,108,43342,1,0,0:0:0:0:
151,166,43615,1,0,0:0:0:0:
216,108,43887,1,0,0:0:0:0:
159,258,44160,2,0,L|441:177,2,280
150,165,45523,1,0,0:0:0:0:
150,165,45796,1,0,0:0:0:0:
240,217,46069,1,0,0:0:0:0:
150,165,46341,1,0,0:0:0:0:
150,165,46614,1,0,0:0:0:0:
257,136,46887,1,8,0:0:0:0:
257,136,47023,1,8,0:0:0:0:
257,136,47160,1,8,0:0:0:0:
123,118,47296,1,0,0:0:0:0:
243,123,47432,1,0,0:0:0:0:
150,165,47705,1,8,0:0:0:0:
150,165,47978,1,8,0:0:0:0:
150,165,48251,1,8,0:0:0:0:
234,118,48523,1,8,0:0:0:0:
234,118,48660,1,8,0:0:0:0:
234,118,48796,1,8,0:0:0:0:
123,118,48932,1,0,0:0:0:0:
234,118,49069,1,0,0:0:0:0:
234,118,49341,1,8,0:0:0:0:
234,118,49614,1,0,0:0:0:0:
148,164,49887,1,0,0:0:0:0:
148,164,50160,1,0,0:0:0:0:
228,231,50432,1,0,0:0:0:0:
148,164,50705,1,8,0:0:0:0:
234,118,50978,1,8,0:0:0:0:
148,164,51251,1,8,0:0:0:0:
120,116,51387,1,0,0:0:0:0:
234,118,51523,1,8,0:0:0:0:
120,116,51660,1,0,0:0:0:0:
148,164,51796,1,0,0:0:0:0:
147,163,52887,1,8,0:0:0:0:
147,163,53160,1,8,0:0:0:0:
147,163,53432,1,8,0:0:0:0:
221,228,53569,1,8,0:0:0:0:
221,228,53705,1,8,0:0:0:0:
221,228,53841,1,8,0:0:0:0:
150,155,53978,1,0,0:0:0:0:
233,171,54251,1,0,0:0:0:0:
233,171,54523,1,0,0:0:0:0:
292,137,54796,1,0,0:0:0:0:
150,155,54932,1,8,0:0:0:0:
150,155,55205,1,8,0:0:0:0:
150,155,55478,1,8,0:0:0:0:
279,135,55751,1,0,0:0:0:0:
279,135,55887,1,0,0:0:0:0:
248,122,56023,1,0,0:0:0:0:
150,155,56160,1,0,0:0:0:0:
248,122,56432,1,8,0:0:0:0:
150,155,56705,1,8,0:0:0:0:
270,221,56978,1,8,0:0:0:0:
150,155,57251,1,0,0:0:0:0:
239,113,57387,1,0,0:0:0:0:
150,155,57523,1,8,0:0:0:0:
150,155,57796,1,8,0:0:0:0:
150,155,58341,1,0,0:0:0:0:
150,155,58614,1,0,0:0:0:0:
150,155,58887,1,0,0:0:0:0:
220,105,59160,1,0,0:0:0:0:
150,155,59296,1,8,0:0:0:0:
150,155,59569,1,8,0:0:0:0:
150,155,59841,1,8,0:0:0:0:
220,105,60114,1,0,0:0:0:0:
220,105,60251,1,8,0:0:0:0:
150,155,60523,1,0,0:0:0:0:
224,202,60796,1,0,0:0:0:0:
217,206,61069,1,0,0:0:0:0:
220,105,61341,1,0,0:0:0:0:
150,155,61614,1,8,0:0:0:0:
88,96,61751,1,0,0:0:0:0:
150,155,61887,1,0,0:0:0:0:
88,96,62023,1,0,0:0:0:0:
150,155,62160,1,8,0:0:0:0:
220,105,62432,1,8,0:0:0:0:
150,155,62705,1,0,0:0:0:0:
150,155,62978,1,0,0:0:0:0:
150,155,63251,1,0,0:0:0:0:
219,104,63523,1,0,0:0:0:0:
219,104,63660,1,8,0:0:0:0:
150,155,63932,1,8,0:0:0:0:
150,155,64205,1,8,0:0:0:0:
219,104,64478,1,0,0:0:0:0:
219,104,64614,1,8,0:0:0:0:
150,155,64887,1,0,0:0:0:0:
134,235,65160,1,0,0:0:0:0:
150,155,65432,1,8,0:0:0:0:
219,104,65705,1,0,0:0:0:0:
150,155,65978,1,0,0:0:0:0:
88,95,66114,1,0,0:0:0:0:
150,155,66251,1,8,0:0:0:0:
150,155,66523,1,8,0:0:0:0:
219,104,66796,1,8,0:0:0:0:
150,155,67069,1,0,0:0:0:0:
205,244,67341,1,0,0:0:0:0:
150,155,67614,1,0,0:0:0:0:
88,95,67751,1,0,0:0:0:0:
219,104,67887,1,0,0:0:0:0:
150,155,68160,1,8,0:0:0:0:
204,244,68432,1,8,0:0:0:0:
150,155,68705,1,8,0:0:0:0:
88,95,68841,1,8,0:0:0:0:
219,104,68978,1,8,0:0:0:0:
150,155,69251,1,0,0:0:0:0:
178,235,70341,1,0,0:0:0:0:
178,235,70478,1,0,0:0:0:0:
178,235,70614,1,0,0:0:0:0:
219,104,70751,1,0,0:0:0:0:
87,95,70887,1,8,0:0:0:0:
87,95,71023,1,8,0:0:0:0:
87,95,71160,1,8,0:0:0:0:
87,95,71296,1,8,0:0:0:0:
135,146,71432,1,0,0:0:0:0:
135,146,71705,1,0,0:0:0:0:
135,146,71978,1,0,0:0:0:0:
257,140,72251,1,8,0:0:0:0:
257,140,72387,1,8,0:0:0:0:
135,146,72523,1,0,0:0:0:0:
173,242,72796,1,0,0:0:0:0:
135,146,73069,1,8,0:0:0:0:
252,135,73341,1,0,0:0:0:0:
252,135,73478,1,0,0:0:0:0:
135,146,73614,1,0,0:0:0:0:
135,146,73887,1,8,0:0:0:0:
135,146,74160,1,8,0:0:0:0:
248,129,74432,1,8,0:0:0:0:
248,129,74569,1,8,0:0:0:0:
135,146,74705,1,0,0:0:0:0:
171,241,74978,1,8,0:0:0:0:
135,146,75251,1,0,0:0:0:0:
248,129,75523,1,0,0:0:0:0:
248,129,75660,1,0,0:0:0:0:
135,146,75796,1,8,0:0:0:0:
135,146,76069,1,8,0:0:0:0:
135,146,76341,1,8,0:0:0:0:
248,129,76614,1,8,0:0:0:0:
248,129,76751,1,8,0:0:0:0:
135,146,76887,1,0,0:0:0:0:
157,236,77160,1,8,0:0:0:0:
135,146,77432,1,8,0:0:0:0:
248,129,77705,1,0,0:0:0:0:
248,129,77841,1,0,0:0:0:0:
135,146,77978,1,0,0:0:0:0:
135,146,78251,1,8,0:0:0:0:
135,146,78523,1,0,0:0:0:0:
135,146,79069,1,0,0:0:0:0:
316,231,79160,1,0,0:0:0:0:
316,231,79251,1,0,0:0:0:0:
308,227,79341,1,0,0:0:0:0:
296,225,79432,1,0,0:0:0:0:
308,227,79523,1,0,0:0:0:0:
316,231,79614,1,0,0:0:0:0:
308,226,79705,1,0,0:0:0:0:
305,227,79796,1,0,0:0:0:0:
294,225,79887,1,0,0:0:0:0:
266,217,79978,1,0,0:0:0:0:
266,217,80069,1,0,0:0:0:0:
135,146,80160,1,8,0:0:0:0:
135,146,80705,1,8,0:0:0:0:
135,146,81251,1,8,0:0:0:0:
135,146,81796,1,8,0:0:0:0:
135,146,82069,1,8,0:0:0:0:
135,146,82341,1,0,0:0:0:0:
135,146,82887,1,0,0:0:0:0:
135,146,83432,1,0,0:0:0:0:
135,146,83978,1,8,0:0:0:0:
135,146,84251,1,8,0:0:0:0:
129,142,84523,1,0,0:0:0:0:
129,142,85069,1,0,0:0:0:0:
129,142,85614,1,8,0:0:0:0:
129,142,86160,1,8,0:0:0:0:
129,142,86705,1,0,0:0:0:0:
129,142,87251,1,0,0:0:0:0:
231,136,87796,1,0,0:0:0:0:
231,136,87932,1,0,0:0:0:0:
231,136,88069,1,0,0:0:0:0:
231,136,88205,1,0,0:0:0:0:
231,136,88341,1,0,0:0:0:0:
231,136,88478,1,0,0:0:0:0:
231,136,88614,1,0,0:0:0:0:
231,136,88751,1,0,0:0:0:0:
128,142,90250,1,4,0:0:0:0:
127,139,94341,1,4,0:0:0:0:
127,139,94750,1,4,0:0:0:0:
127,139,95705,1,0,0:0:0:0:
161,262,95977,1,8,0:0:0:0:
127,139,96250,1,0,0:0:0:0:
161,262,96523,1,8,0:0:0:0:
127,139,96795,1,8,0:0:0:0:
161,262,97068,1,8,0:0:0:0:
127,139,97341,1,8,0:0:0:0:
161,262,97614,1,8,0:0:0:0:
241,165,97886,1,0,0:0:0:0:
123,134,100068,1,4,0:0:0:0:
257,143,101159,1,0,0:0:0:0:
314,179,101341,1,0,0:0:0:0:
314,179,101523,1,0,0:0:0:0:
314,179,101705,1,0,0:0:0:0:
314,179,101977,1,0,0:0:0:0:
121,132,102250,1,0,0:0:0:0:
225,254,102341,1,0,0:0:0:0:
225,254,102432,1,0,0:0:0:0:
143,253,102523,1,0,0:0:0:0:
225,254,102795,1,0,0:0:0:0:
225,254,102886,1,0,0:0:0:0:
225,254,102977,1,0,0:0:0:0:
225,254,103068,1,0,0:0:0:0:
225,254,103341,1,8,0:0:0:0:
225,254,103432,1,8,0:0:0:0:
225,254,103523,1,8,0:0:0:0:
143,253,103614,1,8,0:0:0:0:
225,254,103886,1,8,0:0:0:0:
217,254,103977,1,8,0:0:0:0:
225,254,104068,1,8,0:0:0:0:
219,255,104159,1,8,0:0:0:0:
121,132,104432,1,0,0:0:0:0:
143,253,104705,1,0,0:0:0:0:
121,132,104977,1,0,0:0:0:0:
260,169,105250,1,0,0:0:0:0:
317,141,105386,1,0,0:0:0:0:
121,132,105523,1,8,0:0:0:0:
274,208,105795,1,0,0:0:0:0:
121,132,106068,1,8,0:0:0:0:
143,253,106341,1,8,0:0:0:0:
316,141,106477,1,0,0:0:0:0:
121,132,106614,1,0,0:0:0:0:
143,253,106886,1,8,0:0:0:0:
121,132,107159,1,8,0:0:0:0:
316,141,107432,1,0,0:0:0:0:
316,141,107568,1,0,0:0:0:0:
121,132,107705,1,0,0:0:0:0:
194,208,107977,1,0,0:0:0:0:
121,132,108250,1,8,0:0:0:0:
143,253,108523,1,8,0:0:0:0:
121,132,108795,1,0,0:0:0:0:
300,122,108932,1,8,0:0:0:0:
143,253,109068,1,0,0:0:0:0:
121,132,109341,1,8,0:0:0:0:
300,122,109477,1,8,0:0:0:0:
143,253,109614,1,8,0:0:0:0:
300,122,109750,1,8,0:0:0:0:
121,132,110023,1,0,0:0:0:0:
300,122,110159,1,0,0:0:0:0:
143,253,110295,1,0,0:0:0:0:
300,122,110432,1,0,0:0:0:0:
143,253,110568,1,0,0:0:0:0:
300,122,110705,1,0,0:0:0:0:
239,255,110841,1,0,0:0:0:0:
300,122,110977,1,0,0:0:0:0:
300,122,111250,1,8,0:0:0:0:
300,122,111523,1,8,0:0:0:0:
300,122,111932,1,0,0:0:0:0:
300,122,112068,1,0,0:0:0:0:
300,122,112341,1,8,0:0:0:0:
300,122,112477,1,8,0:0:0:0:
300,122,112614,1,8,0:0:0:0:
300,122,112750,1,8,0:0:0:0:
300,122,113023,1,8,0:0:0:0:
300,122,113159,1,8,0:0:0:0:
300,122,113432,1,8,0:0:0:0:
300,122,113568,1,8,0:0:0:0:
239,255,113705,1,8,0:0:0:0:
300,122,113841,1,8,0:0:0:0:
121,132,114114,1,0,0:0:0:0:
292,122,114250,1,0,0:0:0:0:
239,255,114386,1,0,0:0:0:0:
121,132,114659,1,8,0:0:0:0:
292,122,114795,1,8,0:0:0:0:
239,255,114932,1,8,0:0:0:0:
292,122,115068,1,8,0:0:0:0:
239,255,115205,1,8,0:0:0:0:
292,122,115341,1,8,0:0:0:0:
239,255,115477,1,8,0:0:0:0:
292,122,115614,1,8,0:0:0:0:
239,255,115750,1,8,0:0:0:0:
292,122,115886,1,8,0:0:0:0:
121,132,116705,1,0,0:0:0:0:
185,164,118477,1,12,0:0:0:0:
