osu file format v14

[General]
AudioFilename: audio.mp3
AudioLeadIn: 0
PreviewTime: 57881
Countdown: 0
SampleSet: Soft
StackLeniency: 0.2
Mode: 0
LetterboxInBreaks: 0
EpilepsyWarning: 1
WidescreenStoryboard: 1

[Editor]
DistanceSpacing: 1
BeatDivisor: 4
GridSize: 4
TimelineZoom: 6.599996

[Metadata]
Title:ENDYMION (long edit)
TitleUnicode:ENDYMION (long edit)
Artist:fallen shepherd feat. RabbiTon Strings
ArtistUnicode:fallen shepherd feat. RabbiTon Strings
Creator:hehe
Version:ULTRA feat. Luscent
Source:DanceDanceRevolution A
Tags:ARM アニマル・ストライク!Animal Strike! DDRA IOSYS COOL&CREATE zyukucho SDVX SOUND VOLTEX VIVID WAVE 木村洋平 Youhei Kimura instrumental japanese video game jezag akeruyri luscent english electronic heilia 三輪紫乃 松岡あずさ
BeatmapID:3083782
BeatmapSetID:1243733

[Difficulty]
HPDrainRate:4
CircleSize:4
OverallDifficulty:9.3
ApproachRate:9.7
SliderMultiplier:1.8
SliderTickRate:0.5

[Events]
//Background and Video events
0,0,"endymion.jpg",0,0
//Break Periods
2,12322,16059
2,58008,66236
//Storyboard Layer 0 (Background)
//Storyboard Layer 1 (Fail)
//Storyboard Layer 2 (Pass)
//Storyboard Layer 3 (Foreground)
//Storyboard Layer 4 (Overlay)
//Storyboard Sound Samples

[TimingPoints]
191,272.727272727273,4,2,1,40,1,0
2645,-100,4,2,1,50,0,0
3463,-41.6666666666667,4,2,1,70,0,0
3600,-66.6666666666667,4,2,1,70,0,0
5645,-66.6666666666667,4,2,1,50,0,0
7827,-41.6666666666667,4,2,1,70,0,0
7963,-66.6666666666667,4,2,1,70,0,0
10009,-66.6666666666667,4,2,1,50,0,0
16554,-66.6666666666667,4,2,1,60,0,0
19827,-1000,4,2,1,60,0,0
21054,-71.4285714285714,4,2,1,70,0,0
24054,-71.4285714285714,4,2,2,70,0,0
25418,-71.4285714285714,4,2,1,70,0,0
27463,-71.4285714285714,4,2,2,70,0,0
29781,-71.4285714285714,4,2,1,70,0,0
32781,-71.4285714285714,4,2,2,70,0,0
34009,-55.5555555555556,4,2,2,65,0,0
37281,-55.5555555555556,4,2,1,50,0,0
38372,-55.5555555555556,4,2,1,70,0,0
39191,-1000,4,2,1,70,0,0
41645,-1000,4,2,1,60,0,0
43554,-1000,4,2,1,70,0,0
46009,-1000,4,2,1,60,0,0
47100,-71.4285714285714,4,2,1,70,0,0
49281,-71.4285714285714,4,2,1,75,0,0
51463,-55.5555555555556,4,2,1,80,0,0
53781,-55.5555555555556,4,2,1,50,0,0
53918,-250,4,2,1,50,0,0
54736,-166.666666666667,4,2,1,50,0,0
55297,-166.666666666667,4,2,1,5,0,0
66745,272.727272727273,4,2,1,40,1,0
66745,-125,4,2,1,40,0,0
67835,-125,4,2,1,50,0,0
68381,-125,4,2,1,60,0,0
68926,-125,4,2,1,40,0,0
70017,-125,4,2,1,50,0,0
70563,-125,4,2,1,60,0,0
71108,-83.3333333333333,4,2,1,40,0,0
71654,-100,4,2,1,40,0,0
72199,-125,4,2,1,40,0,0
72745,-166.666666666667,4,2,1,40,0,0
73290,-83.3333333333333,4,2,1,40,0,0
73835,-100,4,2,1,40,0,0
74381,-125,4,2,1,40,0,0
74926,-166.666666666667,4,2,1,40,0,0
75472,-166.666666666667,4,2,1,50,0,0
76563,-166.666666666667,4,2,1,60,0,0
77654,-250,4,2,3,30,0,0
79835,-50,4,2,3,45,0,0
80107,-50,4,2,1,45,0,0
82017,-50,4,2,1,55,0,0
82085,-66.6666666666667,4,2,1,55,0,0
82289,-66.6666666666667,4,2,3,55,0,0
84916,306.122448979592,4,2,1,40,1,0
85528,335.195530726257,4,2,1,40,1,0
85528,-200,4,2,1,40,0,0
86868,444.444444444444,4,2,3,40,1,0
87312,454.545454545455,4,2,1,40,1,0
87539,342.857142857143,4,2,1,40,1,0
87710,281.69014084507,4,2,1,40,1,0
87850,275.229357798165,4,2,1,40,1,0
87987,260.869565217391,4,2,1,40,1,0
88117,230.769230769231,4,2,1,40,1,0
88232,292.682926829268,4,2,1,40,1,0
88232,-50,4,2,1,40,0,0
88305,279.06976744186,4,2,1,40,1,0
88444,272.727272727273,4,2,1,40,1,0
88716,300,4,2,1,40,1,0
89016,300,4,2,1,40,1,0
89316,315.789473684211,4,2,1,40,1,0
89421,292.682926829268,4,2,1,40,1,0
89518,400,4,2,1,40,1,0
89651,285.714285714286,4,2,1,40,1,0
89746,315.789473684211,4,2,1,40,1,0
89903,337.078651685393,4,2,3,40,1,0
90577,500,4,2,3,40,1,0
91077,461.538461538462,4,2,1,40,1,0
91307,300,4,2,1,40,1,0
91457,240,4,2,1,40,1,0
91577,272.727272727273,4,2,1,40,1,0
91713,218.181818181818,4,2,1,40,1,0
91822,300,4,2,1,40,1,0
91972,272.727272727273,4,2,3,40,1,0
92244,254.237288135593,4,2,3,40,1,0
92625,285.714285714286,4,2,1,40,1,0
92625,-166.666666666667,4,2,1,40,0,0
93196,319.148936170213,4,2,3,40,1,0
93834,352.941176470588,4,2,1,40,1,0
94010,307.692307692308,4,2,1,40,1,0
94010,-166.666666666667,4,2,1,40,0,0
95240,258.620689655172,4,2,1,40,1,0
96015,292.682926829268,4,2,1,40,1,0
96015,-151.515151515152,4,2,1,40,0,0
96307,357.142857142857,4,2,1,40,1,0
96664,461.538461538462,4,2,1,40,1,0
96894,250,4,2,1,40,1,0
97144,255.31914893617,4,2,1,40,1,0
97144,-166.666666666667,4,2,1,40,0,0
97272,397.350993377483,4,2,1,40,1,0
97471,375,4,2,1,40,1,0
97564,458.015267175573,4,2,1,40,1,0
97679,250,4,2,1,40,1,0
97804,335.195530726257,4,2,1,40,1,0
97972,357.142857142857,4,2,1,40,1,0
98061,444.444444444444,4,2,1,40,1,0
98172,342.857142857143,4,2,1,40,1,0
98343,389.61038961039,4,2,1,40,1,0
98537,259.74025974026,4,2,1,40,1,0
99056,300,4,2,3,40,1,0
99056,-125,4,2,3,40,0,0
99806,285.714285714286,4,2,1,40,1,0
99996,265.486725663717,4,2,3,40,1,0
99996,-500,4,2,3,40,0,0
100792,291.686922702965,4,2,3,40,1,0
101959,297.029702970297,4,2,3,40,1,0
102256,232.558139534884,4,2,3,40,1,0
102488,218.181818181818,4,2,3,40,1,0
102706,319.148936170213,4,2,3,40,1,0
102865,361.44578313253,4,2,3,40,1,0
103045,392.156862745098,4,2,3,40,1,0
103242,276.497695852535,4,2,3,40,1,0
103518,285.714285714286,4,2,3,40,1,0
104375,-250,4,2,3,40,0,0
105599,272.727272727273,6,2,1,50,1,0
105599,-263.157894736842,6,2,1,50,0,0
105659,-263.157894736842,6,2,1,5,0,0
107099,272.727272727273,5,2,1,45,1,0
107508,-83.3333333333333,5,2,1,45,0,0
112553,-83.3333333333333,5,2,1,55,0,0
116644,-45.4545454545455,5,2,1,65,0,0
117053,-41.6666666666667,5,2,1,65,0,0
117258,-45.4545454545455,5,2,1,65,0,0
118008,-33.3333333333333,5,2,1,85,0,1
126189,272.727272727273,4,2,1,85,1,0
126189,-50,4,2,1,85,0,0
127279,-45.4545454545455,4,2,1,85,0,0
133825,-45.4545454545455,4,2,1,50,0,0
134234,-62.5,4,2,1,50,0,0
134643,-50,4,2,1,50,0,0
134916,-28.5714285714286,4,2,2,90,0,1
135052,-28.5714285714286,4,2,2,70,0,0
135461,-50,4,2,2,70,0,0
135870,-151.515151515152,4,2,2,70,0,0
136143,-50,4,2,2,70,0,0
137098,-28.5714285714286,4,2,2,90,0,1
137234,-28.5714285714286,4,2,2,70,0,0
137643,-50,4,2,2,70,0,0
138052,-151.515151515152,4,2,2,70,0,0
138325,-50,4,2,2,70,0,0
139279,-28.5714285714286,4,2,2,90,0,1
139416,-28.5714285714286,4,2,2,70,0,0
139825,-50,4,2,2,70,0,0
140234,-151.515151515152,4,2,2,70,0,0
140507,-50,4,2,2,70,0,0
141189,-28.5714285714286,4,2,2,70,0,0
141734,-250,4,2,2,50,0,0
141870,-125,4,2,2,55,0,0
142007,-83.3333333333333,4,2,2,60,0,0
142143,-62.5,4,2,2,65,0,0
142279,-50,4,2,2,70,0,0
142416,-41.6666666666667,4,2,2,70,0,0
142552,-35.7142857142857,4,2,2,80,0,0
142689,-31.25,4,2,2,80,0,0
142825,-27.7777777777778,4,2,2,80,0,0
142961,-25,4,2,2,80,0,0
143234,-62.5,4,2,2,60,0,0
143643,-28.5714285714286,4,2,2,90,0,1
143779,-28.5714285714286,4,2,2,70,0,0
144189,-33.3333333333333,4,2,2,70,0,0
145416,-62.5,4,2,2,70,0,0
145825,-28.5714285714286,4,2,2,90,0,1
145961,-28.5714285714286,4,2,2,70,0,0
146370,-33.3333333333333,4,2,2,70,0,0
147598,-62.5,4,2,2,70,0,0
148007,-62.5,4,2,1,75,0,0
150189,-62.5,4,2,1,50,0,0
152370,-62.5,4,2,1,70,0,0
154416,-62.5,4,2,1,40,0,0
154552,-83.3333333333333,4,2,1,40,0,0
155506,-83.3333333333333,4,2,2,50,0,0
156734,-83.3333333333333,4,2,1,70,0,0
158779,-83.3333333333333,4,2,1,40,0,0
159461,-83.3333333333333,4,2,2,40,0,0
160007,-55.5555555555556,4,2,1,50,0,0
161098,-50,4,2,1,70,0,0
163279,-50,4,2,1,40,0,0
164234,-50,4,2,2,50,0,0
164370,-71.4285714285714,4,2,2,50,0,0
165461,-62.5,4,2,2,60,0,0
165597,-62.5,4,2,2,5,0,0
165643,-62.5,4,2,2,60,0,0
165779,-62.5,4,2,2,5,0,0
165825,-62.5,4,2,2,60,0,0
165915,-62.5,4,2,2,5,0,0
166007,-55.5555555555556,4,2,2,60,0,0
166143,-55.5555555555556,4,2,2,5,0,0
166189,-55.5555555555556,4,2,2,60,0,0
166325,-55.5555555555556,4,2,2,5,0,0
166370,-55.5555555555556,4,2,2,60,0,0
166460,-55.5555555555556,4,2,2,5,0,0
166552,-50,4,2,2,60,0,0
166688,-50,4,2,2,5,0,0
166734,-50,4,2,2,60,0,0
166870,-50,4,2,2,5,0,0
166916,-50,4,2,2,60,0,0
167006,-50,4,2,2,5,0,0
167098,-50,4,2,2,60,0,0
167643,-62.5,4,2,0,40,0,0
169825,-50,4,2,1,70,0,0
171189,-40,4,2,1,70,0,0
172007,-50,4,2,1,70,0,0
175552,-40,4,2,1,70,0,0
176370,-50,4,2,1,75,0,0
177461,-50,4,2,2,50,0,0
178552,-71.4285714285714,4,2,2,50,0,0
178825,-50,4,2,2,70,0,0
179098,-33.3333333333333,4,2,2,70,0,0
180189,-33.3333333333333,4,2,1,70,0,0
180734,-50,4,2,2,70,0,0
181279,-33.3333333333333,4,2,2,70,0,0
181825,-33.3333333333333,4,2,1,70,0,0
182916,-50,4,2,2,70,0,0
183461,-33.3333333333333,4,2,2,70,0,0
184552,-33.3333333333333,4,2,1,70,0,0
185098,-71.4285714285714,4,2,1,50,0,0
185643,-100,4,2,1,50,0,0
186189,-100,4,2,2,55,0,0
187279,-71.4285714285714,4,2,1,75,0,0
190552,-55.5555555555556,4,2,2,65,0,0
191643,-71.4285714285714,4,2,1,75,0,0
194916,-71.4285714285714,4,2,2,65,0,0
195734,-55.5555555555556,4,2,2,65,0,0
196007,-71.4285714285714,4,2,1,75,0,0
199279,-55.5555555555556,4,2,2,65,0,0
200098,-111.111111111111,4,2,2,65,0,0
200370,-111.111111111111,4,2,2,70,0,0
201461,-111.111111111111,4,2,1,70,0,0
202689,-28.5714285714286,4,2,0,20,0,0
204734,-50,4,2,1,80,0,1
212370,-71.4285714285714,4,2,1,55,0,0
213461,-71.4285714285714,4,2,1,90,0,1
215098,-71.4285714285714,4,2,1,75,0,1
215643,-71.4285714285714,4,2,1,90,0,1
216734,-50,4,2,1,75,0,1
217825,-71.4285714285714,4,2,1,90,0,1
219461,-71.4285714285714,4,2,1,100,0,1
220007,-71.4285714285714,4,2,1,75,0,0
220552,-71.4285714285714,4,2,1,50,0,0
221098,-71.4285714285714,4,2,1,40,0,0
222189,272.727272727273,5,2,1,40,1,0
223552,-100,5,2,2,40,0,0
223689,-83.3333333333333,5,2,2,40,0,0
227643,-83.3333333333333,5,2,2,60,0,0
229007,272.727272727273,4,2,1,70,1,0
229007,-71.4285714285714,4,2,1,70,0,0
229825,-71.4285714285714,4,2,1,80,0,0
230643,-50,4,2,1,80,0,0
230916,-50,4,2,1,70,0,0
231461,-50,4,2,1,40,0,0
231734,-50,4,2,1,50,0,0
232007,-50,4,2,1,60,0,0
232279,-50,4,2,1,70,0,0
233734,-62.5,4,2,1,60,0,0
235279,-76.9230769230769,4,2,1,60,0,0
235552,-76.9230769230769,4,2,1,70,0,0
237734,-76.9230769230769,4,2,1,80,0,1
242097,-76.9230769230769,4,2,1,90,0,0
245643,-76.9230769230769,4,2,1,100,0,0
250007,-86.9565217391304,4,2,4,60,0,0
251779,-86.9565217391304,4,2,4,60,0,1
254234,-86.9565217391304,4,2,4,75,0,0

[Colours]
Combo1 : 255,0,0
Combo2 : 233,233,233

[HitObjects]
137,353,1281,5,10,2:0:0:0:
327,265,1418,1,2,2:0:0:0:
202,196,1554,1,2,2:0:0:0:
284,196,1691,1,2,2:0:0:0:
401,328,1827,5,2,2:0:0:0:
356,97,1963,1,2,2:0:0:0:
462,241,2100,1,2,2:0:0:0:
451,153,2236,1,2,2:0:0:0:
179,290,2372,5,10,3:0:0:0:
183,294,2509,1,0,2:0:0:0:
255,263,2645,1,10,3:0:0:0:
77,171,2781,1,2,2:0:0:0:
46,261,2918,1,10,3:0:0:0:
317,363,3054,1,10,3:0:0:0:
256,162,3191,1,10,3:0:0:0:
182,180,3327,1,10,3:0:0:0:
337,283,3463,6,0,B|379:295|379:295|495:271|495:271,1,162,4|0,1:0|2:0,2:0:0:0:
512,240,3600,2,0,B|512:221|512:221|504:207|504:207,4,33.75,0|0|0|0|8,3:0|3:0|3:0|3:0|3:0,3:0:0:0:
317,363,3872,1,0,3:0:0:0:
187,321,4009,1,0,1:0:0:0:
194,275,4077,1,0,3:0:0:0:
201,228,4145,1,0,3:0:0:0:
244,207,4213,1,0,3:0:0:0:
288,192,4281,1,0,3:0:0:0:
301,146,4350,1,0,3:0:0:0:
303,98,4418,1,8,1:0:0:0:
304,50,4486,1,0,3:0:0:0:
259,34,4554,1,4,3:2:0:0:
34,160,4691,1,0,3:0:0:0:
34,160,4759,1,0,3:0:0:0:
34,160,4827,2,0,L|-14:165,4,33.75,8|0|0|0|0,3:0|3:0|3:0|3:0|3:0,3:0:0:0:
100,347,5100,5,0,3:0:0:0:
110,301,5168,1,0,3:0:0:0:
121,255,5236,1,0,3:0:0:0:
133,209,5304,1,0,3:0:0:0:
162,171,5372,1,0,3:0:0:0:
160,123,5441,1,0,3:0:0:0:
154,76,5509,1,8,1:0:0:0:
0,242,5645,5,4,1:2:0:0:
4,246,5781,1,4,2:3:0:0:
260,192,5918,1,0,1:0:0:0:
264,196,6054,1,4,2:3:0:0:
353,260,6191,1,0,1:0:0:0:
357,264,6327,1,4,2:3:0:0:
238,60,6463,1,0,3:0:0:0:
107,298,6600,5,0,1:0:0:0:
107,298,6668,1,0,1:0:0:0:
107,298,6736,1,4,1:2:0:0:
190,286,6872,1,0,3:0:0:0:
274,275,7009,1,0,1:0:0:0:
357,264,7145,1,0,3:0:0:0:
442,254,7281,1,0,1:0:0:0:
404,84,7418,1,0,1:0:0:0:
404,84,7486,1,0,1:0:0:0:
404,84,7554,1,0,1:0:0:0:
67,75,7691,1,0,1:0:0:0:
72,124,7759,1,0,1:0:0:0:
79,174,7827,6,0,B|203:190|203:190|236:173,1,162,4|0,1:0|2:0,2:0:0:0:
255,149,7963,2,0,B|259:131|259:131|254:116,4,33.75,0|0|0|0|8,3:0|3:0|3:0|3:0|3:0,3:0:0:0:
27,278,8236,1,0,3:0:0:0:
330,371,8372,1,0,1:0:0:0:
316,325,8441,1,0,3:0:0:0:
296,282,8509,1,0,3:0:0:0:
249,273,8577,1,0,3:0:0:0:
202,264,8645,1,0,3:0:0:0:
154,255,8713,1,0,3:0:0:0:
158,208,8781,1,8,1:0:0:0:
162,161,8850,1,0,3:0:0:0:
166,114,8918,1,4,1:2:0:0:
378,174,9054,1,0,3:0:0:0:
378,174,9122,1,0,3:0:0:0:
378,174,9191,2,0,L|411:176,4,33.75,8|0|0|0|0,3:0|3:0|3:0|3:0|3:0,3:0:0:0:
244,31,9463,5,0,1:0:0:0:
256,77,9531,1,0,3:0:0:0:
267,123,9600,1,0,3:0:0:0:
279,169,9668,1,0,3:0:0:0:
242,199,9736,1,0,3:0:0:0:
237,245,9804,1,0,3:0:0:0:
234,293,9872,1,8,1:0:0:0:
390,375,10009,5,0,1:0:0:0:
394,379,10145,1,4,2:3:0:0:
150,251,10281,1,0,1:0:0:0:
154,255,10418,1,4,2:3:0:0:
37,291,10554,1,0,1:0:0:0:
41,295,10691,1,4,2:3:0:0:
234,293,10827,1,0,1:0:0:0:
392,157,10963,1,0,1:0:0:0:
385,117,11031,1,0,1:0:0:0:
378,77,11100,1,0,1:0:0:0:
115,186,11236,1,0,1:0:0:0:
317,339,11372,1,0,1:0:0:0:
492,191,11509,1,0,1:0:0:0:
325,215,11645,1,0,1:0:0:0:
325,215,11713,1,0,3:0:0:0:
325,215,11781,1,0,3:0:0:0:
325,215,11850,1,0,3:0:0:0:
325,215,11918,1,0,1:0:0:0:
325,215,11986,1,0,3:0:0:0:
325,215,12054,1,0,3:0:0:0:
325,215,12122,1,0,3:0:0:0:
305,75,16554,5,8,1:0:0:0:
70,161,16691,1,2,2:0:0:0:
201,209,16827,1,2,2:0:0:0:
58,175,16963,1,2,2:0:0:0:
305,75,17100,5,8,1:0:0:0:
82,147,17236,1,2,2:0:0:0:
210,229,17372,1,2,2:0:0:0:
46,189,17509,1,2,2:0:0:0:
305,75,17645,5,8,1:0:0:0:
94,133,17781,1,2,2:0:0:0:
222,255,17918,1,2,2:0:0:0:
34,203,18054,1,2,2:0:0:0:
305,75,18191,5,8,1:0:0:0:
106,119,18327,1,2,2:0:0:0:
231,277,18463,1,2,2:0:0:0:
22,217,18600,1,2,2:0:0:0:
312,194,18736,6,0,B|418:180|418:180|453:201,1,135,8|0,1:0|3:0,2:0:0:0:
512,235,19009,1,8,1:0:0:0:
242,140,19145,1,0,1:0:0:0:
242,140,19213,1,0,1:0:0:0:
242,140,19281,1,8,1:0:0:0:
503,48,19418,1,0,3:0:0:0:
436,274,19554,1,8,1:0:0:0:
160,194,19691,1,0,1:0:0:0:
160,194,19759,1,0,1:0:0:0:
160,194,19827,2,0,L|158:157,1,36,12|2,1:0|2:1,2:0:0:0:
463,5,20918,5,0,3:0:0:0:
388,33,21054,2,0,B|367:65|367:65|382:180,1,126,2|0,2:1|3:0,2:0:0:0:
463,5,21327,1,0,2:0:0:0:
512,66,21463,2,0,B|514:104|514:104|444:197,1,126,2|0,3:1|2:0,2:0:0:0:
388,33,21736,2,0,B|367:65|367:65|382:180,1,126,2|0,3:1|2:0,2:0:0:0:
463,5,22009,1,0,3:0:0:0:
388,33,22145,2,0,B|367:65|367:65|382:180,1,126,2|0,2:1|3:0,2:0:0:0:
463,5,22418,1,0,2:0:0:0:
512,66,22554,2,0,B|514:104|514:104|444:197,1,126,2|0,3:1|2:0,2:0:0:0:
388,33,22827,2,0,B|367:65|367:65|382:180,1,126,2|0,3:1|2:0,2:0:0:0:
463,5,23100,1,0,3:0:0:0:
388,33,23236,2,0,B|367:65|367:65|382:180,1,126,2|0,2:1|3:0,2:0:0:0:
463,5,23509,1,0,2:0:0:0:
512,66,23645,2,0,B|514:104|514:104|444:197,1,126,2|0,3:1|2:0,2:0:0:0:
388,33,23918,2,0,B|367:65|367:65|370:90,1,63,2|0,3:1|2:0,2:0:0:0:
351,275,24054,5,2,2:3:0:0:
351,275,24122,1,2,2:3:0:0:
351,275,24191,2,0,L|261:262,1,63,2|0,3:0|2:0,2:0:0:0:
108,362,24327,2,0,L|151:302,1,63,2|0,2:3|2:0,2:0:0:0:
204,145,24463,2,0,L|236:233,1,63,2|0,3:0|2:0,2:0:0:0:
272,341,24600,1,2,2:3:0:0:
272,341,24668,1,0,2:0:0:0:
272,341,24736,2,0,L|199:291,1,63,2|0,3:0|2:0,2:0:0:0:
33,234,24872,2,0,L|56:153,1,63,2|0,2:3|2:0,2:0:0:0:
141,229,25009,1,0,1:0:0:0:
145,233,25145,1,0,1:0:0:0:
49,5,25281,5,0,1:0:0:0:
124,33,25418,2,0,B|145:65|145:65|130:180,1,126,2|0,2:1|3:0,2:0:0:0:
49,5,25691,1,0,2:0:0:0:
0,66,25827,2,0,B|-2:104|-2:104|68:197,1,126,2|0,3:1|2:0,2:0:0:0:
124,33,26100,2,0,B|145:65|145:65|130:180,1,126,2|0,3:1|2:0,2:0:0:0:
49,5,26372,1,0,3:0:0:0:
124,33,26509,2,0,B|145:65|145:65|130:180,1,126,2|0,2:1|3:0,2:0:0:0:
49,5,26781,1,0,2:0:0:0:
0,66,26918,2,0,B|-2:104|-2:104|68:197,1,126,2|0,3:1|2:0,2:0:0:0:
135,246,27191,1,0,3:0:0:0:
183,233,27259,1,0,2:0:0:0:
231,220,27327,1,0,2:0:0:0:
279,208,27395,1,0,2:0:0:0:
302,162,27463,1,4,3:0:0:0:
70,84,27600,1,4,2:3:0:0:
129,343,27736,1,4,3:0:0:0:
215,136,28009,5,2,3:0:0:0:
216,123,28145,1,2,2:3:0:0:
135,246,28281,5,0,3:0:0:0:
183,233,28350,1,0,2:0:0:0:
231,220,28418,1,0,2:0:0:0:
279,208,28486,1,0,2:0:0:0:
302,162,28554,1,4,3:0:0:0:
70,84,28691,1,4,2:3:0:0:
129,343,28827,1,4,3:0:0:0:
215,136,29100,5,2,3:0:0:0:
470,247,29236,2,0,B|474:296|474:296|462:321,1,63,0|0,3:0|3:0,2:0:0:0:
404,354,29372,1,0,1:0:0:0:
256,280,29509,1,0,1:0:0:0:
16,340,29645,5,0,1:0:0:0:
91,384,29781,2,0,B|117:357|117:357|203:337,1,126,2|0,2:1|3:0,2:0:0:0:
16,340,30054,1,0,2:0:0:0:
64,267,30191,2,0,B|99:279|99:279|185:259,1,126,2|0,3:1|2:0,2:0:0:0:
91,384,30463,2,0,B|117:357|117:357|203:337,1,126,2|0,3:1|2:0,2:0:0:0:
16,340,30736,1,0,3:0:0:0:
91,384,30872,2,0,B|117:357|117:357|203:337,1,126,2|0,2:1|3:0,2:0:0:0:
16,340,31145,1,0,2:0:0:0:
64,267,31281,2,0,B|99:279|99:279|185:259,1,126,2|0,3:1|2:0,2:0:0:0:
91,384,31554,2,0,B|117:357|117:357|203:337,1,126,2|0,3:1|2:0,2:0:0:0:
16,340,31827,1,0,3:0:0:0:
91,384,31963,2,0,B|117:357|117:357|203:337,1,126,2|0,2:1|3:0,2:0:0:0:
16,340,32236,1,0,2:0:0:0:
64,267,32372,2,0,B|99:279|99:279|185:259,1,126,2|0,3:1|2:0,2:0:0:0:
91,384,32645,2,0,B|117:357|117:357|189:341,1,63,2|0,3:1|2:0,2:0:0:0:
343,276,32781,5,2,2:3:0:0:
343,276,32850,1,2,2:3:0:0:
343,276,32918,2,0,L|327:187,1,63,2|0,3:0|2:0,2:0:0:0:
146,119,33054,2,0,L|208:129,1,63,2|0,2:3|2:0,2:0:0:0:
438,194,33191,2,0,L|392:152,1,63,2|0,3:0|2:0,2:0:0:0:
257,8,33327,1,2,3:0:0:0:
257,8,33395,1,0,2:0:0:0:
257,8,33463,2,0,L|282:79,1,63,2|0,3:0|2:0,2:0:0:0:
484,50,33600,2,0,L|399:73,1,63,2|0,3:0|2:0,2:0:0:0:
286,154,33736,1,0,3:0:0:0:
290,158,33872,1,0,3:0:0:0:
27,15,34009,6,0,B|13:37|13:37|46:187,1,162,4|0,3:2|2:0,2:0:0:0:
87,337,34191,6,0,L|128:171,1,162,4|0,3:2|2:0,2:0:0:0:
232,48,34372,6,0,B|212:163|212:163|206:130|206:130|192:116,1,162,4|0,3:2|2:0,2:0:0:0:
21,266,34554,6,0,B|67:246|67:246|186:271,1,162,4|0,3:2|2:0,2:0:0:0:
328,82,34736,6,0,B|293:117|293:117|273:237,1,162,4|0,3:2|2:0,2:0:0:0:
272,384,34918,6,0,B|241:347|241:347|249:305|249:305|279:335|279:335|272:385,1,162,4|0,3:2|2:0,2:0:0:0:
404,94,35100,6,0,B|424:139|424:139|399:258,1,162,4|0,3:2|2:0,2:0:0:0:
387,320,35304,1,4,3:2:0:0:
21,266,35509,1,0,1:0:0:0:
201,192,35645,1,0,3:0:0:0:
275,228,35781,1,0,1:0:0:0:
196,384,35918,1,0,3:0:0:0:
70,118,36054,1,0,1:0:0:0:
69,111,36122,1,0,1:0:0:0:
68,104,36191,5,0,3:0:0:0:
106,71,36259,1,0,3:0:0:0:
144,38,36327,1,0,3:0:0:0:
192,50,36395,1,0,3:0:0:0:
241,62,36463,1,8,3:1:0:0:
303,292,36600,1,0,1:0:0:0:
253,301,36668,1,0,3:0:0:0:
204,311,36736,1,0,3:0:0:0:
168,276,36804,1,0,3:0:0:0:
132,241,36872,1,8,3:1:0:0:
469,141,37009,1,0,1:0:0:0:
464,191,37077,1,0,3:0:0:0:
459,241,37145,1,0,3:0:0:0:
468,291,37213,1,0,3:0:0:0:
460,340,37281,1,8,3:0:0:0:
468,349,37554,1,8,3:0:0:0:
476,357,37827,1,8,3:0:0:0:
263,225,37963,1,8,3:0:0:0:
391,260,38100,1,8,3:0:0:0:
153,309,38236,1,8,3:0:0:0:
18,257,38372,5,6,1:0:0:0:
9,207,38441,1,0,3:0:0:0:
0,157,38509,1,0,3:0:0:0:
24,113,38577,1,0,3:0:0:0:
48,69,38645,1,0,3:0:0:0:
73,24,38713,1,0,3:0:0:0:
117,46,38781,1,6,1:2:0:0:
167,46,38850,1,0,3:0:0:0:
217,46,38918,1,0,3:0:0:0:
255,74,38986,1,0,3:0:0:0:
293,106,39054,1,0,3:0:0:0:
332,138,39122,1,0,3:0:0:0:
322,187,39191,2,0,L|320:200,1,13.5,2|0,1:0|2:0,2:0:0:0:
436,16,39463,1,4,1:2:0:0:
430,65,39531,1,0,3:0:0:0:
424,114,39600,1,0,3:0:0:0:
418,163,39668,1,0,3:0:0:0:
442,206,39736,1,0,3:0:0:0:
467,249,39804,1,0,3:0:0:0:
455,298,39872,1,4,1:2:0:0:
444,347,39941,1,4,2:3:0:0:
393,342,40009,1,4,2:3:0:0:
342,338,40077,1,4,2:3:0:0:
291,334,40145,1,4,2:3:0:0:
240,329,40213,1,4,2:3:0:0:
189,325,40281,2,0,L|175:323,1,13.5,2|0,1:0|2:0,2:0:0:0:
1,282,40554,1,0,1:0:0:0:
7,231,40622,1,0,3:0:0:0:
13,181,40691,1,2,3:1:0:0:
19,131,40759,1,0,3:0:0:0:
9,290,41100,1,2,1:0:0:0:
15,239,41168,1,0,3:0:0:0:
21,189,41236,1,0,3:0:0:0:
27,139,41304,1,0,3:0:0:0:
17,298,41645,5,4,2:3:0:0:
20,272,41713,1,4,2:3:0:0:
23,247,41781,1,4,2:3:0:0:
26,222,41850,1,4,2:3:0:0:
29,197,41918,1,4,2:3:0:0:
32,171,41986,1,4,2:3:0:0:
35,146,42054,1,4,2:3:0:0:
38,121,42122,1,4,2:3:0:0:
153,187,42259,1,4,2:3:0:0:
0,384,42395,1,12,2:3:0:0:
146,293,42736,5,6,1:0:0:0:
195,282,42804,1,0,3:0:0:0:
244,271,42872,1,0,3:0:0:0:
293,278,42941,1,0,3:0:0:0:
310,231,43009,1,0,3:0:0:0:
328,184,43077,1,0,3:0:0:0:
346,136,43145,1,4,1:2:0:0:
321,92,43213,1,0,3:0:0:0:
297,47,43281,1,0,3:0:0:0:
247,54,43350,1,0,3:0:0:0:
197,61,43418,1,0,3:0:0:0:
202,111,43486,1,0,3:0:0:0:
207,160,43554,2,0,L|208:174,1,13.5,2|0,1:0|2:0,2:0:0:0:
480,273,43827,1,4,1:2:0:0:
429,265,43895,1,0,3:0:0:0:
379,257,43963,1,0,3:0:0:0:
347,295,44031,1,0,3:0:0:0:
296,296,44100,1,0,3:0:0:0:
245,298,44168,1,0,3:0:0:0:
198,318,44236,1,4,1:2:0:0:
161,283,44304,1,4,2:3:0:0:
124,248,44372,1,4,2:3:0:0:
129,198,44441,1,4,2:3:0:0:
134,148,44509,1,4,2:3:0:0:
139,98,44577,1,4,2:3:0:0:
145,47,44645,2,0,L|147:34,1,13.5,2|0,1:0|2:0,2:0:0:0:
389,165,44918,1,0,1:0:0:0:
338,159,44986,1,0,3:0:0:0:
288,153,45054,1,2,3:1:0:0:
238,147,45122,1,0,3:0:0:0:
397,157,45463,1,2,1:0:0:0:
346,151,45531,1,0,3:0:0:0:
296,145,45600,1,0,3:0:0:0:
246,139,45668,1,0,3:0:0:0:
405,149,46009,5,4,2:3:0:0:
379,146,46077,1,4,2:3:0:0:
354,143,46145,1,4,2:3:0:0:
329,140,46213,1,4,2:3:0:0:
304,137,46281,1,4,2:3:0:0:
278,134,46350,1,4,2:3:0:0:
253,131,46418,1,4,2:3:0:0:
228,128,46486,1,4,2:3:0:0:
131,63,46622,1,4,2:3:0:0:
321,1,46759,1,4,2:3:0:0:
0,246,47100,6,0,B|95:226|95:226|138:245,1,126,14|0,1:0|3:0,2:0:0:0:
279,378,47372,2,0,L|307:225,1,126,8|2,1:0|3:1,2:0:0:0:
188,26,47645,2,0,B|155:88|155:88|178:106|178:106|175:75,1,126,8|0,1:0|3:0,2:0:0:0:
403,248,47918,2,0,B|417:221|417:221|402:158|402:158|371:134,1,126,10|0,1:0|3:0,2:0:0:0:
199,177,48122,1,0,3:0:0:0:
199,177,48191,2,0,B|185:204|185:204|200:267|200:267|231:291,1,126,10|0,1:0|3:0,2:0:0:0:
500,355,48463,2,0,B|477:352|477:352|394:368|394:368|360:358,1,126,8|2,1:0|3:1,2:0:0:0:
225,286,48736,2,0,B|276:222|276:222|268:178,1,126,8|0,1:0|3:0,2:0:0:0:
0,42,49009,2,0,B|29:118|29:118|71:133,1,126,10|0,1:0|3:0,2:0:0:0:
194,111,49213,1,0,3:0:0:0:
194,111,49281,2,0,B|227:81|227:81|227:0,1,126,8|2,1:0|3:1,2:0:0:0:
45,257,49486,1,0,3:0:0:0:
45,257,49554,2,0,B|90:215|90:215|164:197,1,126,8|0,1:0|3:0,2:0:0:0:
358,247,49759,1,0,3:0:0:0:
358,247,49827,2,0,B|334:139|334:139|343:127,1,126,10|0,1:0|3:0,2:0:0:0:
512,98,50031,1,0,3:0:0:0:
512,98,50100,2,0,B|486:205|486:205|472:211,1,126,10|0,1:0|3:0,2:0:0:0:
352,329,50304,1,0,3:0:0:0:
352,329,50372,2,0,B|345:320|345:320|241:302|241:302|233:310,1,126,10|0,1:0|3:0,2:0:0:0:
91,372,50577,1,0,3:0:0:0:
91,372,50645,2,0,B|124:321|124:321|119:233,1,126,8|0,1:0|3:0,2:0:0:0:
197,216,50850,1,0,3:0:0:0:
197,216,50918,2,0,B|192:155|192:155|135:88,1,126,10|0,1:0|3:0,2:0:0:0:
180,27,51122,1,0,3:0:0:0:
180,27,51191,2,0,B|128:-5|128:-5|40:1,1,126,10|0,1:0|3:0,2:0:0:0:
0,61,51395,1,0,3:0:0:0:
0,61,51463,2,0,B|-5:103|-5:103|16:148,1,80.9999999999999,10|0,1:0|3:0,2:0:0:0:
46,209,51600,2,0,B|58:197|58:197|146:177,1,80.9999999999999,8|0,1:0|3:0,2:0:0:0:
257,38,51736,2,0,B|251:58|251:58|259:131,1,80.9999999999999,8|0,1:0|3:0,2:0:0:0:
192,271,51872,2,0,B|190:237|190:237|217:179,1,80.9999999999999,10|0,1:0|3:0,2:0:0:0:
374,86,52009,2,0,B|362:108|362:108|358:170,1,80.9999999999999,8|0,1:0|3:0,2:0:0:0:
444,261,52145,2,0,B|443:220|443:220|465:187,1,80.9999999999999,8|0,1:0|3:0,2:0:0:0:
209,194,52281,2,0,B|273:175|273:175|295:179,1,80.9999999999999,10|0,1:0|3:0,2:0:0:0:
340,322,52418,2,0,B|361:258|361:258|357:236,1,80.9999999999999,10|0,1:0|3:0,2:0:0:0:
111,102,52554,2,0,B|119:129|119:129|120:213,1,80.9999999999999,10|0,1:0|3:0,2:0:0:0:
145,334,52691,2,0,B|160:296|160:296|201:263,1,80.9999999999999,8|0,1:0|3:0,2:0:0:0:
261,51,52827,2,0,B|234:80|234:80|222:121,1,80.9999999999999,8|0,1:0|3:0,2:0:0:0:
69,257,52963,2,0,B|111:260|111:260|154:277,1,80.9999999999999,10|0,1:0|3:0,2:0:0:0:
358,244,53100,1,8,3:1:0:0:
356,228,53168,1,0,3:1:0:0:
355,213,53236,1,8,3:1:0:0:
353,198,53304,1,0,3:1:0:0:
352,183,53372,1,10,3:1:0:0:
350,168,53441,1,0,3:1:0:0:
349,153,53509,1,10,3:1:0:0:
347,138,53577,1,0,3:1:0:0:
67,319,53781,5,2,2:0:0:0:
71,323,53918,2,0,L|-14:334,2,72,2|2|2,2:0|2:0|2:0,2:0:0:0:
176,355,54736,2,0,B|169:369|169:369|150:297|150:297|154:274|154:274|134:201|134:201|123:240,2,216,2|2|0,2:0|2:0|2:0,2:0:0:0:
145,111,66745,6,0,B|78:136|78:136|53:129,2,96,2|2|2,2:0|2:0|2:0,2:0:0:0:
212,0,67290,2,0,B|226:76|226:76|205:128,2,96,2|2|2,2:0|2:0|2:0,2:0:0:0:
301,205,67835,2,0,B|287:129|287:129|294:111,2,96,2|2|2,2:0|2:0|2:0,2:0:0:0:
164,262,68381,2,0,B|182:257|182:257|249:271|249:271|262:261,2,96,2|2|2,2:0|2:0|2:0,2:0:0:0:
96,304,68926,2,0,B|105:383|105:383|122:353,2,96,2|2|2,2:0|2:0|2:0,2:0:0:0:
37,167,69472,2,0,B|26:177|26:177|17:234|17:234|26:255,2,96,2|2|2,2:0|2:0|2:0,2:0:0:0:
145,111,70017,2,0,B|216:127|216:127|250:122,2,96,2|2|2,2:0|2:0|2:0,2:0:0:0:
49,0,70563,2,0,B|56:11|56:11|42:86|42:86|45:91,2,96,2|2|2,2:0|2:0|2:0,2:0:0:0:
107,212,71108,6,0,B|129:224|129:224|244:194,2,144,2|2|2,2:0|2:0|2:0,2:0:0:0:
245,94,71654,2,0,B|267:87|267:87|353:105|353:105|370:92,2,120,2|2|2,2:0|2:0|2:0,2:0:0:0:
353,300,72199,2,0,B|362:283|362:283|337:179,2,96,2|2|2,2:0|2:0|2:0,2:0:0:0:
239,301,72745,2,0,B|230:330|230:330|235:357|235:357|245:329,2,71.9999999999998,2|2|2,2:0|2:0|2:0,2:0:0:0:
140,238,73290,2,0,B|93:250|93:250|0:230,2,144,2|2|2,2:0|2:0|2:0,2:0:0:0:
174,152,73835,2,0,B|120:117|120:117|60:28,2,120,2|2|2,2:0|2:0|2:0,2:0:0:0:
248,99,74381,2,0,B|229:48|229:48|234:-14,2,96,2|2|2,2:0|2:0|2:0,2:0:0:0:
341,110,74926,2,0,B|348:69|348:69|370:35,2,71.9999999999998,2|2|2,2:0|2:0|2:0,2:0:0:0:
472,237,75472,5,2,2:0:0:0:
400,267,75608,1,0,2:0:0:0:
329,199,75745,1,0,2:0:0:0:
226,223,75881,1,0,2:0:0:0:
475,237,76017,5,2,2:0:0:0:
402,268,76154,1,0,2:0:0:0:
329,198,76290,1,0,2:0:0:0:
222,222,76426,1,0,2:0:0:0:
482,245,76563,5,2,2:0:0:0:
404,273,76699,1,0,2:0:0:0:
332,197,76835,1,0,2:0:0:0:
221,216,76972,1,0,2:0:0:0:
489,254,77108,5,2,2:0:0:0:
407,279,77245,1,0,2:0:0:0:
336,196,77381,1,0,2:0:0:0:
220,210,77517,1,0,2:0:0:0:
236,359,77654,6,0,L|240:314,3,36,2|0|0|0,2:0|2:0|2:0|2:0,2:0:0:0:
158,331,78199,2,0,L|153:293,3,36,2|0|0|0,2:0|2:0|2:0|2:0,2:0:0:0:
75,364,78745,2,0,L|80:325,3,36,2|0|0|0,2:0|2:0|2:0|2:0,2:0:0:0:
3,313,79290,2,0,L|0:261,3,36,2|0|0|0,2:0|2:0|2:0|2:0,2:0:0:0:
103,186,79835,6,0,B|86:192|86:192|33:185|33:185|10:190,4,90,0|0|0|0|2,2:0|2:0|2:0|2:0|2:0,2:0:0:0:
270,52,80381,2,0,B|283:63|283:63|304:113|304:113|319:130,4,90,0|0|0|0|2,2:0|2:0|2:0|2:0|2:0,2:0:0:0:
221,340,80926,2,0,B|233:326|233:326|253:276|253:276|267:265,4,90,0|0|0|0|2,2:0|2:0|2:0|2:0|2:0,2:0:0:0:
495,220,81472,2,0,B|476:216|476:216|423:223|423:223|406:217,4,90,0|0|0|0|2,2:0|2:0|2:0|2:0|2:0,2:0:0:0:
166,123,82017,1,0,2:0:0:0:
166,123,82085,2,0,B|159:143|159:143|177:186|177:186|182:154,3,67.5,0|0|0|2,2:0|2:0|2:0|2:0,2:0:0:0:
475,88,82563,1,0,2:0:0:0:
475,88,82631,2,0,B|474:56|474:56|465:39|465:39|469:7,3,67.5,0|0|0|2,2:0|2:0|2:0|2:0,2:0:0:0:
262,196,83108,1,0,2:0:0:0:
262,196,83176,2,0,B|255:213|255:213|258:232|258:232|250:257|250:257|255:287,3,67.5,0|0|0|2,2:0|2:0|2:0|2:0,2:0:0:0:
476,317,83654,1,0,2:0:0:0:
476,317,83722,2,0,B|469:277|469:277|477:269|477:269|475:255|475:255|482:221,3,67.5,0|0|0|2,2:0|2:0|2:0|2:0,2:0:0:0:
253,377,84916,5,2,2:0:0:0:
19,259,85528,2,2,B|54:210|54:210|58:207|58:207|98:252|98:252|93:256|93:256|137:290|137:290|141:286|141:286|206:259|206:259|206:255|206:255|234:238|234:238|238:240|238:240|310:259,1,360,0|2,2:0|2:0,2:1:0:0:
291,254,87312,2,0,B|363:250|363:250|412:269,1,90,2|2,2:0|2:0,2:0:0:0:
448,317,87710,2,0,B|470:254|470:254|468:218,1,90,2|2,2:0|2:0,2:0:0:0:
500,161,87987,2,0,B|482:131|482:131|426:88,1,90,2|2,2:0|2:0,2:0:0:0:
367,57,88232,2,0,B|322:87|322:87|311:162,1,90.23,2|2,2:0|2:0,2:0:0:0:
258,187,88444,2,0,B|218:171|218:171|166:177,2,60,2|2|0,2:0|2:0|2:0,2:0:0:0:
12,74,88716,2,0,L|21:144,1,60,2|2,2:0|2:0,2:0:0:0:
77,191,88916,2,0,L|66:263,1,60,2|2,2:0|2:0,2:0:0:0:
0,311,89116,2,0,L|67:338,1,60,2|2,2:0|2:0,2:0:0:0:
123,378,89316,2,0,L|185:353,1,60,2|2,2:0|2:0,2:0:0:0:
259,358,89518,2,0,L|284:302,1,60,2|2,2:0|2:0,2:0:0:0:
362,275,89746,2,0,L|337:169,1,90,2|2,2:0|2:0,2:0:0:0:
51,68,90577,5,2,2:1:0:0:
290,91,91077,2,0,B|268:84|268:84|189:106,1,90,2|2,2:0|2:0,2:0:0:0:
138,152,91457,2,0,B|150:245,1,90,2|2,2:0|2:0,2:0:0:0:
230,337,91713,2,0,B|239:289|239:289|224:224,1,90,2|2,2:0|2:0,2:0:0:0:
303,200,91972,2,0,B|346:194|346:194|481:235,1,180,2|0,2:0|2:0,2:0:0:0:
476,233,92625,2,0,B|499:44|499:44|472:14,1,215.999993408203,2|2,2:0|2:0,2:0:0:0:
236,19,93834,5,2,2:0:0:0:
236,19,93922,1,2,2:0:0:0:
236,19,94010,2,0,B|240:121|240:121|235:121|235:121|175:200|175:200|170:200|170:200|199:307|199:307|199:312|199:312|277:223,1,431.999986816407,2|2,2:0|2:0,2:0:0:0:
472,201,96015,2,0,B|483:288|483:288|454:326,1,118.799999637451,2|2,2:0|2:0,2:0:0:0:
359,358,96664,2,0,B|303:340|303:340|262:341,1,90,2|2,2:0|2:0,2:0:0:0:
171,358,97144,2,0,B|160:321|160:321|164:291,1,54.4229983520508,2|2,2:0|2:0,2:0:0:0:
221,242,97471,2,0,B|223:209|223:209|216:179,1,45,2|0,2:0|2:0,2:0:0:0:
147,140,97679,2,0,B|143:117|143:117|163:37,1,90,2|2,2:0|2:0,2:0:0:0:
246,51,97972,2,0,B|299:55,1,45,2|0,2:0|2:0,2:0:0:0:
372,7,98172,2,0,B|395:80|395:80|369:65,1,90,2|2,2:0|2:0,2:0:0:0:
308,215,98537,2,0,B|454:197|454:197|419:231,1,180,2|2,2:0|2:0,2:0:0:0:
200,371,99056,2,0,B|183:291|183:291|188:291|188:291|218:218|218:218|223:218|223:218|204:81,1,288,2|0,2:0|2:0,2:0:0:0:
35,28,99806,5,2,2:0:0:0:
35,28,99901,1,2,2:0:0:0:
35,28,99996,2,2,B|63:111|63:111|62:117|62:117|91:176|91:176|160:117|160:117|158:114|158:114|218:98|218:98|228:92|228:92|327:66|327:66|374:93,1,477.6,2|2,2:0|2:0,2:1:0:0:
333,249,104375,6,2,B|308:281|308:281|305:313|305:313|301:316|301:316|268:226|268:226|263:224|263:224|232:117,1,288,2|0,2:1|2:0,2:1:0:0:
202,27,105599,6,0,L|235:376,1,342,6|0,1:0|2:0,2:1:0:0:
9,106,107099,5,4,1:0:0:0:
161,190,107235,1,2,2:0:0:0:
240,152,107371,1,0,2:0:0:0:
110,23,107508,2,0,B|94:103|94:103|112:145,1,108,2|2,2:0|2:0,2:0:0:0:
195,284,107780,1,0,2:0:0:0:
322,189,107917,2,0,B|330:270|330:270|309:310,1,108,2|0,2:1|2:0,2:0:0:0:
155,374,108189,2,0,B|250:361|250:361|270:339,1,108,2|0,2:1|2:0,2:0:0:0:
449,223,108462,1,2,3:0:0:0:
264,118,108599,2,0,B|249:135|249:135|233:232,1,108,0|0,2:0|2:0,2:0:0:0:
465,136,108871,1,2,3:0:0:0:
192,0,109008,2,0,B|174:83|174:83|182:104,1,108,2|0,2:0|2:0,2:0:0:0:
363,218,109280,2,0,B|384:196|384:196|408:43|408:43|396:5,1,216,2|2,2:1|2:1,2:0:0:0:
25,157,109826,1,4,1:0:0:0:
214,225,109962,1,2,2:0:0:0:
200,316,110099,1,0,2:0:0:0:
31,240,110235,1,2,2:0:0:0:
279,175,110371,2,0,B|292:213|292:213|276:306,1,108,2|0,2:0|2:0,2:0:0:0:
0,318,110644,1,2,2:1:0:0:
136,262,110780,1,0,2:0:0:0:
244,380,110917,1,2,2:1:0:0:
79,322,111053,1,0,2:0:0:0:
279,175,111189,2,0,B|292:213|292:213|276:306,1,108,2|2,3:0|2:0,2:0:0:0:
160,149,111462,1,0,2:0:0:0:
32,13,111599,2,0,B|23:52|23:52|48:142,1,108,2|2,3:0|2:0,2:0:0:0:
213,215,111871,1,0,2:0:0:0:
330,76,112008,5,2,1:0:0:0:
280,54,112076,1,0,3:0:0:0:
227,67,112144,1,0,3:0:0:0:
178,42,112212,1,0,3:0:0:0:
127,61,112280,1,10,1:0:0:0:
325,354,112553,6,0,B|346:332|346:332|370:179|370:179|358:141,1,216,4|0,1:0|2:0,2:0:0:0:
108,134,112962,2,0,B|92:164|92:164|113:271,1,108,2|2,2:0|2:0,2:0:0:0:
217,268,113235,1,0,2:0:0:0:
283,183,113371,2,0,B|263:166|263:166|175:154|175:154,1,108,2|0,2:1|2:0,2:0:0:0:
31,349,113644,2,0,B|120:332|120:332|154:343,1,108,2|0,2:1|2:0,2:0:0:0:
492,120,113917,1,2,3:0:0:0:
338,329,114053,2,0,B|330:301|330:301|342:223,1,108,2|0,2:0|2:0,2:0:0:0:
505,200,114326,1,2,3:0:0:0:
263,26,114462,2,0,B|249:108|249:108|269:158,1,108,2|0,2:0|2:0,2:0:0:0:
404,360,114735,5,2,1:0:0:0:
425,310,114803,1,0,3:0:0:0:
411,257,114871,1,0,3:0:0:0:
430,206,114939,1,0,3:0:0:0:
419,152,115008,1,10,1:0:0:0:
2,251,115280,6,0,B|29:266|29:266|105:254,1,108,4|2,1:0|2:0,2:0:0:0:
133,143,115553,1,0,2:0:0:0:
225,308,115689,2,0,B|238:276|238:276|224:169,1,108,2|2,2:0|2:0,2:0:0:0:
66,67,115962,1,0,2:0:0:0:
24,161,116099,1,2,2:1:0:0:
237,122,116235,1,0,2:0:0:0:
336,0,116371,2,0,B|322:39|322:39|354:194,1,162,2|0,2:1|2:0,2:0:0:0:
418,363,116644,6,0,B|462:314|462:314|436:157,1,198,6|2,1:2|2:1,2:0:0:0:
159,214,116849,2,0,B|123:232|123:232|303:258,1,198,0|0,1:0|2:0,2:0:0:0:
346,156,117053,2,0,B|315:140|315:140|175:183|175:183|159:214,1,216,6|2,1:2|2:1,2:0:0:0:
202,316,117258,2,0,B|248:291|248:291|281:253|281:253|330:257|330:257|385:242,1,198,0|0,1:0|2:0,2:0:0:0:
512,166,117462,1,0,1:0:0:0:
506,215,117530,1,0,3:0:0:0:
500,264,117599,1,2,3:1:0:0:
495,313,117667,1,0,3:0:0:0:
450,335,117735,1,2,1:0:0:0:
406,357,117803,1,0,3:0:0:0:
362,379,117871,1,2,3:1:0:0:
317,357,117939,1,0,3:0:0:0:
267,350,118008,6,0,B|249:304|249:304|272:196,1,135,6|0,1:0|2:0,2:0:0:0:
266,220,118144,2,0,B|284:266|284:266|261:374,1,135,0|0,3:1|2:0,2:1:0:0:
167,376,118280,1,0,1:0:0:0:
119,379,118349,1,0,3:0:0:0:
71,381,118417,1,0,3:0:0:0:
38,347,118485,1,0,3:0:0:0:
9,309,118553,2,0,B|2:276|2:276|52:175,1,135,2|0,1:0|2:0,2:0:0:0:
200,171,118689,2,0,B|175:193|175:193|62:200,1,135,0|0,3:0|2:0,2:0:0:0:
24,18,118826,1,2,1:0:0:0:
24,18,118894,1,0,3:0:0:0:
24,18,118962,2,0,B|56:28|56:28|118:122,1,135,0|0,3:0|2:0,2:0:0:0:
202,296,119099,1,2,1:0:0:0:
248,287,119167,1,0,3:0:0:0:
294,282,119235,1,0,3:0:0:0:
325,247,119303,1,0,3:0:0:0:
352,208,119371,2,0,B|371:110|371:110|354:79,1,135,6|0,1:0|2:0,2:0:0:0:
354,79,119508,2,0,B|335:177|335:177|351:207,1,135,0|0,3:1|2:0,2:0:0:0:
447,356,119644,1,0,1:0:0:0:
437,309,119712,1,0,3:0:0:0:
426,263,119780,1,0,3:0:0:0:
443,218,119849,1,0,3:0:0:0:
465,176,119917,2,0,B|470:141|470:141|453:70|453:70|424:45,1,135,2|0,1:0|2:0,2:0:0:0:
230,46,120053,2,0,B|257:67|257:67|327:88|327:88|363:75,1,135,0|0,3:0|2:0,2:0:0:0:
297,195,120189,1,2,1:0:0:0:
249,199,120258,1,0,3:0:0:0:
202,202,120326,1,0,3:0:0:0:
155,208,120394,1,0,3:0:0:0:
111,225,120462,1,2,1:0:0:0:
89,182,120530,1,0,3:0:0:0:
67,139,120599,1,0,3:0:0:0:
46,96,120667,1,0,3:0:0:0:
29,52,120735,2,0,B|4:88|4:88|33:200,1,135,6|0,1:0|2:0,2:0:0:0:
26,176,120871,2,0,B|51:140|51:140|22:28,1,135,0|0,3:1|2:0,2:0:0:0:
113,27,121008,1,0,1:0:0:0:
158,15,121076,1,0,3:0:0:0:
203,3,121144,1,0,3:0:0:0:
240,31,121212,1,0,3:0:0:0:
271,66,121280,2,0,B|244:169|244:169|194:188,1,135,2|0,1:0|2:0,2:0:0:0:
111,225,121417,2,0,B|213:196|213:196|255:230,1,135,0|0,3:0|2:0,2:0:0:0:
383,355,121553,1,2,1:0:0:0:
383,355,121621,1,0,3:0:0:0:
383,355,121689,2,0,B|307:280|307:280|315:227,1,135,0|0,3:0|2:0,2:0:0:0:
485,279,121826,1,2,1:0:0:0:
491,232,121894,1,0,3:0:0:0:
498,185,121962,1,0,3:0:0:0:
473,144,122030,1,0,3:0:0:0:
441,108,122099,2,0,B|410:94|410:94|312:116,1,135,6|0,1:0|2:0,2:0:0:0:
311,116,122235,2,0,B|342:130|342:130|440:108,1,135,0|0,3:1|2:0,2:0:0:0:
192,200,122371,1,0,1:0:0:0:
155,170,122439,1,0,3:0:0:0:
115,143,122508,1,0,3:0:0:0:
112,95,122576,1,0,3:0:0:0:
116,48,122644,2,0,B|214:31|214:31|261:54,1,135,2|0,1:0|2:0,2:0:0:0:
103,253,122780,2,0,B|39:176|39:176|35:124,1,135,0|0,3:0|2:0,2:0:0:0:
280,174,122917,1,2,1:0:0:0:
280,174,122985,1,0,3:0:0:0:
280,174,123053,2,0,B|245:267|245:267|202:297,1,135,0|0,3:0|3:0,2:0:0:0:
78,384,123189,1,2,1:0:0:0:
122,367,123258,1,0,3:0:0:0:
166,352,123326,1,0,3:0:0:0:
212,359,123394,1,0,3:0:0:0:
257,369,123462,2,0,B|351:360|351:360|383:309,1,135,6|0,1:0|2:0,2:0:0:0:
372,325,123599,2,0,B|278:334|278:334|246:385,1,135,0|0,3:1|2:0,2:0:0:0:
462,384,123735,1,0,1:0:0:0:
474,338,123803,1,0,3:0:0:0:
486,292,123871,1,0,3:0:0:0:
461,251,123939,1,0,3:0:0:0:
435,210,124008,2,0,B|411:200|411:200|282:229,1,135,2|0,1:0|2:0,2:0:0:0:
235,91,124144,2,0,B|238:116|238:116|327:214,1,135,0|0,3:0|2:0,2:0:0:0:
162,283,124280,1,2,1:0:0:0:
162,283,124349,1,0,3:0:0:0:
162,283,124417,2,0,B|182:267|182:267|222:140,1,135,0|0,3:0|2:0,2:0:0:0:
87,52,124553,1,2,1:0:0:0:
53,85,124621,1,0,3:0:0:0:
21,119,124689,1,0,3:0:0:0:
21,166,124758,1,0,3:0:0:0:
24,212,124826,2,0,B|84:225|84:225|188:192,1,135,6|0,1:0|2:0,2:0:0:0:
154,202,124962,2,0,B|94:189|94:189|-10:222,1,135,0|0,3:1|2:0,2:0:0:0:
281,97,125099,1,0,1:0:0:0:
299,140,125167,1,0,3:0:0:0:
319,182,125235,1,0,3:0:0:0:
308,227,125303,1,0,3:0:0:0:
293,271,125371,2,0,B|267:263|267:263|133:288,1,135,2|0,1:0|2:0,2:0:0:0:
187,49,125508,2,0,B|184:76|184:76|236:201,1,135,0|0,3:0|2:0,2:0:0:0:
382,309,125644,1,2,1:0:0:0:
387,275,125712,1,0,3:0:0:0:
393,241,125780,1,0,3:0:0:0:
400,207,125849,1,0,3:0:0:0:
405,173,125917,1,2,1:0:0:0:
411,139,125985,1,0,3:0:0:0:
417,105,126053,1,0,3:0:0:0:
424,73,126121,1,0,3:0:0:0:
426,41,126189,6,0,B|403:19|403:19|271:0,1,90,6|0,1:0|2:0,2:0:0:0:
426,41,126325,2,0,B|394:39|394:39|281:109,1,90,0|0,3:0|2:0,2:0:0:0:
250,240,126461,2,0,B|211:184|211:184|226:107,1,90,2|0,1:0|2:0,2:0:0:0:
250,240,126598,2,0,B|306:201|306:201|320:124,1,90,0|0,3:0|2:0,2:0:0:0:
31,26,126734,2,0,B|108:44|108:44|92:65,1,90,2|0,1:0|2:0,2:0:0:0:
31,26,126870,2,0,B|55:100|55:100|67:79,1,90,0|0,3:0|2:0,2:0:0:0:
0,224,127007,2,0,B|21:237|21:237|95:213,1,90,2|0,1:0|2:0,2:0:0:0:
0,224,127143,2,0,B|18:207|18:207|95:219,1,90,0|0,3:0|2:0,2:0:0:0:
182,384,127279,2,0,B|196:308|196:308|187:286,1,98.9999999999999,2|0,1:0|2:0,2:0:0:0:
182,384,127416,2,0,B|141:317|141:317|141:294,1,98.9999999999999,0|0,3:0|2:0,2:0:0:0:
380,232,127552,2,0,L|399:354,1,98.9999999999999,2|0,1:0|2:0,2:0:0:0:
380,232,127689,2,0,L|342:360,1,98.9999999999999,0|0,3:0|2:0,2:0:0:0:
277,22,127825,2,0,B|264:20|264:20|199:45|199:45|182:44,1,98.9999999999999,2|0,1:0|2:0,2:0:0:0:
277,22,127961,2,0,B|266:29|266:29|196:36|196:36|182:44,1,98.9999999999999,0|0,3:0|2:0,2:0:0:0:
269,271,128098,2,0,B|308:206|308:206|284:162,1,98.9999999999999,2|0,1:0|2:0,2:0:0:0:
269,271,128234,2,0,B|218:214|218:214|233:166,1,98.9999999999999,0|0,3:0|2:0,2:0:0:0:
418,29,128370,6,0,B|404:59|404:59|411:137,1,98.9999999999999,2|0,1:0|2:0,2:0:0:0:
507,116,128507,2,0,B|472:111|472:111|387:129,1,98.9999999999999,0|0,3:0|2:0,2:0:0:0:
372,27,128643,2,0,B|364:67|364:67|389:140,1,98.9999999999999,2|0,1:0|2:0,2:0:0:0:
495,188,128779,2,0,B|477:168|477:168|382:136,1,98.9999999999999,0|0,3:0|2:0,2:0:0:0:
283,70,128916,2,0,B|281:101|281:101|359:172,1,98.9999999999999,2|0,1:0|2:0,2:0:0:0:
400,267,129052,2,0,B|416:232|416:232|407:131,1,98.9999999999999,0|0,3:0|2:0,2:0:0:0:
173,98,129189,2,0,B|187:143|187:143|171:256,1,98.9999999999999,2|0,1:0|2:0,2:0:0:0:
269,271,129325,2,0,B|262:245|262:245|279:175,1,98.9999999999999,0|0,3:0|2:0,2:0:0:0:
283,70,129461,2,0,L|303:202,1,98.9999999999999,2|0,1:0|2:0,2:0:0:0:
223,331,129598,2,0,B|239:296|239:296|230:195,1,98.9999999999999,0|0,3:0|2:0,2:0:0:0:
148,104,129734,2,0,B|144:131|144:131|194:220,1,98.9999999999999,2|0,1:0|2:0,2:0:0:0:
269,271,129870,2,0,B|262:245|262:245|279:175,1,98.9999999999999,0|0,3:0|2:0,2:0:0:0:
283,70,130007,2,0,B|281:101|281:101|359:172,1,98.9999999999999,2|0,1:0|2:0,2:0:0:0:
363,306,130143,2,0,B|379:271|379:271|370:170,1,98.9999999999999,0|0,3:0|2:0,2:0:0:0:
372,27,130279,2,0,B|364:67|364:67|389:140,1,98.9999999999999,2|0,1:0|2:0,2:0:0:0:
480,249,130416,2,0,B|471:203|471:203|497:117,1,98.9999999999999,0|0,3:0|2:0,2:0:0:0:
490,61,130552,5,6,1:0:0:0:
441,69,130620,1,0,3:0:0:0:
390,77,130689,1,2,1:0:0:0:
341,84,130757,1,0,3:0:0:0:
305,119,130825,1,2,1:0:0:0:
256,112,130893,1,0,3:0:0:0:
206,105,130961,1,2,1:0:0:0:
157,98,131029,1,0,3:0:0:0:
115,69,131098,1,2,1:0:0:0:
93,113,131166,1,0,3:0:0:0:
71,158,131234,1,2,1:0:0:0:
49,202,131302,1,0,3:0:0:0:
13,236,131370,1,2,1:0:0:0:
55,262,131439,1,0,3:0:0:0:
96,290,131507,1,2,1:0:0:0:
136,318,131575,1,0,3:0:0:0:
181,339,131643,5,2,1:0:0:0:
189,280,131711,1,0,3:0:0:0:
198,221,131779,1,2,1:0:0:0:
208,160,131848,1,0,3:0:0:0:
217,102,131916,1,2,1:0:0:0:
225,42,131984,1,0,3:0:0:0:
279,67,132052,1,2,1:0:0:0:
332,92,132120,1,0,3:0:0:0:
386,118,132189,1,2,1:0:0:0:
440,142,132257,1,0,3:0:0:0:
416,197,132325,1,2,1:0:0:0:
391,251,132393,1,0,3:0:0:0:
367,305,132461,1,2,1:0:0:0:
308,296,132529,1,0,3:0:0:0:
248,287,132598,1,2,1:0:0:0:
63,241,133825,6,2,B|40:242|40:242|10:202|10:202|14:176,4,98.9999999999999,10|2|2|2|2,1:0|2:0|2:0|2:0|2:0,2:0:0:0:
149,235,134234,2,2,B|128:359|128:359|134:392,1,144,10|2,1:0|2:0,2:0:0:0:
233,201,134507,1,0,3:0:0:0:
233,201,134575,1,0,3:0:0:0:
233,201,134643,2,0,B|222:92|222:92|198:45|198:45|199:20,1,180,8|0,1:0|2:0,2:0:0:0:
199,27,134916,6,0,L|232:358,1,315,4|0,1:0|3:0,2:0:0:0:
230,340,135120,1,0,3:0:0:0:
230,340,135189,1,8,1:0:0:0:
512,252,135325,5,0,3:0:0:0:
512,252,135393,1,0,3:0:0:0:
512,252,135461,2,0,B|445:241|445:241|417:250,1,90,2|0,1:0|2:0,2:0:0:0:
333,182,135598,1,0,3:0:0:0:
333,182,135666,1,0,3:0:0:0:
333,182,135734,2,0,B|376:129|376:129|382:100,1,90,10|0,1:0|2:0,2:0:0:0:
199,27,135870,6,0,B|222:90|222:90|244:110,1,89.0999999999997,2|0,3:1|3:0,2:0:0:0:
234,239,136143,6,0,B|166:229|166:229|138:239,1,90,2|0,3:1|3:0,2:0:0:0:
0,117,136279,1,8,1:0:0:0:
0,117,136348,1,0,3:0:0:0:
0,117,136416,2,0,B|25:180|25:180|47:199,1,90,2|0,3:1|3:0,2:0:0:0:
22,375,136552,2,0,B|64:322|64:322|70:293,1,90,2|0,1:0|2:0,2:0:0:0:
263,92,136689,1,0,3:0:0:0:
252,39,136757,1,0,3:0:0:0:
199,27,136825,1,8,1:3:0:0:
146,15,136893,1,0,2:0:0:0:
134,67,136961,1,0,2:0:0:0:
122,119,137029,1,0,2:0:0:0:
115,169,137098,6,0,L|467:153,1,315,4|0,1:0|3:0,2:0:0:0:
430,155,137302,1,0,3:0:0:0:
430,155,137370,1,8,1:0:0:0:
324,336,137507,5,0,3:0:0:0:
324,336,137575,1,0,3:0:0:0:
324,336,137643,2,0,B|309:329|309:329|289:275|289:275|295:261,1,90,2|0,1:0|2:0,2:0:0:0:
371,84,137779,1,0,3:0:0:0:
371,84,137848,1,0,3:0:0:0:
371,84,137916,2,0,B|372:99|372:99|336:144|336:144|320:146,1,90,10|0,1:0|2:0,2:0:0:0:
85,250,138052,6,0,B|97:242|97:242|154:250|154:250|164:263,1,89.0999999999997,2|0,3:1|3:0,2:0:0:0:
231,181,138325,6,0,B|239:169|239:169|233:112|233:112|220:101,1,90,2|0,3:1|3:0,2:0:0:0:
0,128,138461,1,8,1:0:0:0:
0,128,138529,1,0,2:0:0:0:
0,128,138598,2,0,B|6:140|6:140|58:164|58:164|74:158,1,90,0|0,3:0|3:0,2:0:0:0:
145,0,138734,2,0,B|134:7|134:7|118:62|118:62|126:77,1,90,0|0,1:0|2:0,2:0:0:0:
148,345,138870,1,0,3:0:0:0:
148,345,138939,1,0,3:0:0:0:
148,345,139007,2,2,B|158:337|158:337|174:282|174:282|166:267,1,90,8|0,1:0|2:0,2:1:0:0:
22,274,139143,5,0,2:0:0:0:
22,274,139211,1,0,2:0:0:0:
22,274,139279,2,0,L|378:248,1,315,4|0,1:0|3:0,2:0:0:0:
336,251,139484,1,0,3:0:0:0:
336,251,139552,1,8,1:0:0:0:
491,47,139689,5,0,3:0:0:0:
491,47,139757,1,0,3:0:0:0:
491,47,139825,2,0,B|501:69|501:69|485:159,1,90,2|0,1:0|2:0,2:0:0:0:
256,134,139961,1,0,3:0:0:0:
256,134,140029,1,0,3:0:0:0:
256,134,140098,2,0,B|306:176|306:176|330:178,1,90,10|0,1:0|2:0,2:0:0:0:
512,241,140234,6,0,B|450:263|450:263|436:283,1,89.0999999999997,2|0,3:1|3:0,2:0:0:0:
292,370,140507,6,0,B|277:306|277:306|259:290,1,90,2|0,3:1|3:0,2:0:0:0:
32,280,140643,1,8,1:0:0:0:
32,280,140711,1,0,3:0:0:0:
32,280,140779,2,0,B|94:299|94:299|117:291,1,90,2|0,3:1|2:0,2:0:0:0:
184,93,140916,2,0,B|136:137|136:137|131:161,1,90,2|0,1:0|2:0,2:0:0:0:
330,178,141052,5,0,3:0:0:0:
330,178,141120,1,0,3:0:0:0:
330,178,141189,2,2,L|7:198,1,315,8|0,1:0|3:0,2:1:0:0:
15,197,141393,1,0,3:0:0:0:
15,197,141461,1,0,1:0:0:0:
48,10,141734,6,0,L|15:17,1,18,2|0,3:2|2:0,2:0:0:0:
31,14,141870,6,0,L|83:20,1,36,2|0,1:2|1:0,2:0:0:0:
66,18,142007,6,0,L|1:41,1,54,2|0,1:2|2:0,2:0:0:0:
15,36,142143,6,0,L|115:43,1,72,2|0,3:2|2:0,2:0:0:0:
86,41,142279,6,0,L|2:96,1,90,2|0,2:0|2:0,2:0:0:0:
11,89,142416,6,0,L|164:51,1,108,0|0,1:0|1:0,2:0:0:0:
184,113,142552,6,0,L|8:100,1,126,2|0,2:3|2:0,2:0:0:0:
32,179,142689,6,0,L|187:133,1,144,2|0,2:3|2:0,2:0:0:0:
271,169,142825,6,0,L|81:144,1,162,2|0,2:3|2:0,2:0:0:0:
37,260,142961,6,0,L|217:198,1,180,2|0,2:3|2:0,2:0:0:0:
460,119,143098,5,2,2:3:0:0:
348,2,143234,2,0,B|339:29|339:29|364:118|364:118|358:140,2,144,4|12|4,3:0|1:3|2:3,2:0:0:0:
348,2,143643,6,0,L|371:332,1,315,4|0,1:0|3:0,2:0:0:0:
369,316,143848,1,0,3:0:0:0:
369,316,143916,1,8,1:0:0:0:
143,384,144052,5,0,2:0:0:0:
269,218,144189,2,0,B|256:207|256:207|121:191,1,135,2|0,3:1|2:0,2:0:0:0:
96,68,144461,2,0,B|92:84|92:84|139:193,1,135,10|0,1:0|2:0,2:0:0:0:
7,291,144598,2,0,B|19:279|19:279|49:165,1,135,2|0,3:1|2:0,2:0:0:0:
298,23,144870,2,0,B|281:17|281:17|168:48,1,135,2|0,3:1|2:0,2:0:0:0:
138,192,145143,2,0,B|141:208|141:208|225:291,1,135,10|0,2:1|2:0,2:0:0:0:
364,246,145279,2,0,B|376:234|376:234|406:120,1,135,2|0,3:1|2:0,2:0:0:0:
485,35,145416,2,0,B|476:62|476:62|501:151|501:151|495:173,2,144,4|12|4,3:0|1:3|2:3,2:0:0:0:
485,35,145825,6,0,L|508:354,1,315,4|0,1:0|2:0,2:0:0:0:
507,349,146029,1,0,3:0:0:0:
507,349,146098,1,8,1:0:0:0:
222,250,146234,5,0,2:0:0:0:
429,304,146370,2,0,B|438:270|438:270|431:197|431:197|406:168,1,135,2|0,3:1|2:0,2:0:0:0:
122,128,146643,2,0,B|112:161|112:161|119:234|119:234|144:263,1,135,10|0,1:0|2:0,2:0:0:0:
273,349,146779,2,0,B|282:314|282:314|325:256|325:256|361:244,1,135,2|0,3:1|2:0,2:0:0:0:
320,58,147052,2,0,B|286:48|286:48|213:55|213:55|184:80,1,135,2|0,3:1|2:0,2:0:0:0:
53,259,147325,2,0,B|79:255|79:255|144:288|144:288|167:315,1,135,10|0,1:0|2:0,2:0:0:0:
328,182,147461,2,0,B|311:161|311:161|306:76|306:76|321:56,1,135,2|0,3:1|2:0,2:0:0:0:
62,120,147598,2,0,B|71:147|71:147|46:236|46:236|52:258,2,144,4|12|4,3:0|1:3|2:3,2:0:0:0:
21,31,148007,5,4,1:0:0:0:
70,36,148075,1,0,3:0:0:0:
119,41,148143,1,0,1:0:0:0:
168,46,148211,1,0,3:0:0:0:
217,51,148279,1,0,1:0:0:0:
267,56,148348,1,0,3:0:0:0:
264,106,148416,1,0,1:0:0:0:
262,156,148484,1,0,3:0:0:0:
260,206,148552,1,0,1:0:0:0:
258,256,148620,1,0,3:0:0:0:
214,282,148689,1,0,1:0:0:0:
171,308,148757,1,0,3:0:0:0:
128,334,148825,1,0,1:0:0:0:
130,283,148893,1,0,3:0:0:0:
132,232,148961,1,0,1:0:0:0:
134,181,149029,1,0,3:0:0:0:
137,130,149098,1,0,1:0:0:0:
182,151,149166,1,0,3:0:0:0:
227,172,149234,1,0,1:0:0:0:
272,193,149302,1,0,3:0:0:0:
317,214,149370,1,0,1:0:0:0:
362,236,149439,1,0,3:0:0:0:
407,258,149507,1,0,1:0:0:0:
452,280,149575,1,0,3:0:0:0:
462,230,149643,1,0,1:0:0:0:
473,181,149711,1,0,3:0:0:0:
484,132,149779,1,0,1:0:0:0:
495,82,149848,1,0,3:0:0:0:
507,33,149916,1,0,1:0:0:0:
457,38,149984,1,0,3:0:0:0:
407,43,150052,1,0,1:0:0:0:
357,49,150120,1,0,3:0:0:0:
306,55,150189,5,2,3:1:0:0:
310,59,150325,1,0,3:0:0:0:
383,169,150461,1,2,3:1:0:0:
387,173,150598,1,0,3:0:0:0:
204,250,150734,1,2,3:1:0:0:
208,254,150870,1,0,3:0:0:0:
256,355,151007,1,2,3:1:0:0:
260,359,151143,1,0,3:0:0:0:
0,0,152370,5,4,1:0:0:0:
233,60,152507,1,0,1:0:0:0:
63,135,152643,1,0,1:0:0:0:
321,90,152779,1,0,1:0:0:0:
146,32,152916,1,0,1:0:0:0:
268,152,153052,1,0,1:0:0:0:
455,74,153189,1,0,1:0:0:0:
384,20,153325,1,0,1:0:0:0:
384,20,153393,1,0,1:0:0:0:
384,20,153461,1,0,1:0:0:0:
268,152,153598,1,0,1:0:0:0:
146,32,153734,1,0,1:0:0:0:
455,74,153870,1,0,1:0:0:0:
233,60,154007,1,0,1:0:0:0:
321,90,154143,1,0,1:0:0:0:
63,135,154279,1,0,1:0:0:0:
0,0,154416,1,0,1:0:0:0:
0,0,154484,1,0,1:0:0:0:
0,0,154552,2,0,B|12:19|12:19|-1:104,1,108,2|2,1:0|2:0,2:0:0:0:
186,64,154825,2,0,B|159:51|159:51|60:64,1,108,2|2,1:0|2:0,2:0:0:0:
143,154,155098,2,0,L|266:139,1,108,2|2,1:0|2:0,2:0:0:0:
342,0,155370,2,0,B|332:7|332:7|349:137,1,108,2|2,1:0|3:0,2:0:0:0:
377,172,155575,5,2,3:0:0:0:
377,172,155643,2,0,L|434:166,1,54,2|0,3:0|2:0,2:0:0:0:
512,112,155779,2,0,L|503:185,1,54,2|0,2:3|2:0,2:0:0:0:
468,237,155916,2,0,L|478:299,1,54,2|0,3:0|2:0,2:0:0:0:
446,366,156052,2,0,L|371:375,1,54,2|0,2:3|2:0,2:0:0:0:
277,334,156189,2,0,L|359:304,1,54,2|0,3:0|2:0,2:0:0:0:
392,248,156325,2,0,L|297:235,1,54,2|0,2:3|2:0,2:0:0:0:
199,359,156461,1,0,3:0:0:0:
203,363,156598,1,0,3:0:0:0:
0,291,156734,5,4,1:0:0:0:
277,334,156870,1,0,1:0:0:0:
119,371,157007,1,0,1:0:0:0:
338,240,157143,1,0,1:0:0:0:
164,283,157279,1,0,1:0:0:0:
446,366,157416,1,0,1:0:0:0:
225,229,157552,1,0,1:0:0:0:
479,297,157689,1,0,1:0:0:0:
479,297,157757,1,0,1:0:0:0:
479,297,157825,1,0,1:0:0:0:
277,334,157961,1,0,1:0:0:0:
225,229,158098,1,0,1:0:0:0:
446,366,158234,1,0,1:0:0:0:
164,283,158370,1,0,1:0:0:0:
338,240,158507,1,0,1:0:0:0:
119,371,158643,1,0,1:0:0:0:
0,291,158779,1,0,1:0:0:0:
0,291,158848,1,0,1:0:0:0:
0,291,158916,2,0,B|23:267|23:267|104:257,1,108,2|2,1:0|2:0,2:0:0:0:
204,375,159189,2,0,B|193:285|193:285|182:319,1,108,0|2,1:0|2:0,2:0:0:0:
276,256,159461,6,0,L|340:249,1,54,2|0,1:3|2:0,2:0:0:0:
409,306,159598,2,0,L|473:299,1,54,2|0,2:3|2:0,2:0:0:0:
276,352,159734,2,0,L|340:345,1,54,2|0,1:3|2:0,2:0:0:0:
508,238,159870,1,0,3:0:0:0:
508,238,159939,1,0,3:0:0:0:
508,238,160007,2,2,B|486:35|486:35|474:100,1,243,2|0,1:3|2:0,2:3:0:0:
476,89,160279,2,0,B|468:104|468:104|390:122,1,80.9999999999999,2|0,1:0|2:0,2:0:0:0:
203,150,160416,2,0,B|194:136|194:136|217:59,1,80.9999999999999,2|0,2:1|2:0,2:0:0:0:
276,256,160552,2,0,B|259:260|259:260|146:236|146:236|101:239,1,162,8|0,1:3|3:0,2:0:0:0:
117,237,160757,1,0,3:0:0:0:
117,237,160825,1,8,1:3:0:0:
334,94,160961,1,0,3:0:0:0:
31,19,161098,6,2,B|12:47|12:47|56:209,1,180,4|0,1:0|2:0,2:1:0:0:
31,19,161370,2,0,B|55:42|55:42|49:210,1,180,0|0,1:0|2:0,2:0:0:0:
31,19,161643,2,0,B|19:35|19:35|55:164|55:164|46:208,1,180,0|0,1:0|2:0,2:0:0:0:
31,19,161916,2,0,B|46:31|46:31|40:165|40:165|58:206,1,180,0|0,1:0|2:0,2:0:0:0:
31,19,162189,2,0,B|13:104|13:104|56:198,1,180,2|0,1:0|2:0,2:0:0:0:
31,19,162461,2,0,B|69:97|69:97|50:198,1,180,0|2,1:0|2:1,2:0:0:0:
31,19,162734,2,0,B|20:33|20:33|43:184|43:184|83:205,1,180,0|0,1:0|2:0,2:0:0:0:
31,19,163007,2,0,B|45:29|45:29|59:182|59:182|25:212,1,180,0|0,1:0|2:0,2:0:0:0:
203,358,163279,2,2,B|230:339|230:339|254:172,1,180,6|0,1:0|2:0,2:1:0:0:
203,358,163552,2,0,B|189:327|189:327|260:174,1,180,0|0,1:0|2:0,2:0:0:0:
203,358,163825,2,0,B|220:347|220:347|237:215|237:215|263:178,1,180,0|0,1:0|2:0,2:0:0:0:
203,358,164098,2,0,B|193:339|193:339|253:219|253:219|250:174,1,180,0|2,1:0|2:3,2:0:0:0:
315,135,164302,5,2,2:3:0:0:
315,135,164370,2,0,L|303:52,1,63,2|0,3:0|2:0,2:0:0:0:
170,109,164507,2,0,L|245:123,1,63,2|0,2:3|2:0,2:0:0:0:
354,243,164643,2,0,L|391:161,1,63,2|0,3:0|2:0,2:0:0:0:
389,6,164779,2,0,L|378:98,1,63,2|0,2:3|2:0,2:0:0:0:
457,194,164916,2,0,L|512:165,1,63,2|0,3:0|2:0,2:0:0:0:
512,85,165052,1,2,3:0:0:0:
512,85,165120,1,0,3:0:0:0:
512,85,165189,1,0,3:0:0:0:
250,193,165325,1,0,3:0:0:0:
52,66,165461,6,0,B|34:91|34:91|59:248,1,144,4|0,1:2|2:0,2:0:0:0:
3,308,165643,2,0,B|67:214|67:214|119:190,1,144,4|0,1:2|2:0,2:0:0:0:
124,105,165825,2,0,B|140:126|140:126|128:227,1,96,4|0,1:2|2:0,2:0:0:0:
215,315,166007,2,0,B|202:282|202:282|215:145,1,162,4|0,1:2|2:0,2:0:0:0:
301,82,166189,2,0,B|271:173|271:173|211:246,1,162,4|0,1:2|2:0,2:0:0:0:
320,264,166370,2,0,L|303:119,1,108,4|0,1:2|2:0,2:0:0:0:
428,50,166552,2,0,B|402:82|402:82|375:222,1,180,4|0,1:2|2:0,2:0:0:0:
474,283,166734,2,0,B|444:233|444:233|422:87,1,180,4|0,1:2|2:0,2:0:0:0:
512,72,166916,2,0,L|490:202,1,120,4|0,1:2|2:0,2:0:0:0:
387,345,167098,5,0,3:0:0:0:
335,365,167189,5,4,3:0:0:0:
284,344,167279,5,4,3:0:0:0:
229,338,167370,5,0,3:0:0:0:
173,332,167461,5,4,3:0:0:0:
117,326,167552,5,4,3:0:0:0:
61,321,167643,6,2,B|52:298|52:298|60:231,7,72,2|2|2|2|2|2|2|2,2:0|2:0|2:0|2:0|2:0|2:0|2:0|2:0,2:0:0:0:
120,196,168189,2,2,B|124:172|124:172|104:107,7,72,2|2|2|2|2|2|2|2,2:0|2:0|2:0|2:0|2:0|2:0|2:0|2:0,2:0:0:0:
43,92,168734,1,6,3:0:0:0:
43,92,169825,6,0,B|148:143|148:143|235:121|235:121|312:127,1,270,4|0,1:0|2:0,2:0:0:0:
473,93,170098,2,0,B|454:88|454:88|356:101,1,90,0|0,1:0|2:0,2:0:0:0:
257,226,170234,2,0,L|365:211,1,90,0|0,3:0|2:0,2:0:0:0:
465,85,170370,2,0,B|446:80|446:80|348:93,1,90,0|0,1:0|2:0,2:0:0:0:
265,234,170507,2,0,L|373:219,1,90,0|0,3:0|2:0,2:0:0:0:
457,77,170643,2,0,B|438:72|438:72|340:85,1,90,0|0,1:0|2:0,2:0:0:0:
273,242,170779,2,0,L|381:227,1,90,0|0,3:0|2:0,2:0:0:0:
449,69,170916,2,0,B|430:64|430:64|332:77,1,90,0|0,1:0|2:0,2:0:0:0:
281,250,171052,2,0,L|389:235,1,90,0|0,1:0|2:0,2:0:0:0:
443,66,171189,2,0,B|424:61|424:61|334:211|334:211|301:215,1,225,0|0,1:0|2:0,2:0:0:0:
22,302,171461,5,2,1:2:0:0:
73,295,171529,1,2,2:0:0:0:
125,289,171598,1,2,2:0:0:0:
162,324,171666,1,2,2:0:0:0:
198,360,171734,1,2,1:2:0:0:
196,308,171802,1,2,2:0:0:0:
194,256,171870,1,2,2:0:0:0:
192,203,171939,1,2,2:0:0:0:
190,151,172007,6,0,B|136:48|136:48|62:21|62:21|147:123,1,270,4|0,1:0|2:0,2:0:0:0:
28,188,172279,2,0,B|57:195|57:195|167:169,1,90,0|0,1:0|2:0,2:0:0:0:
212,27,172416,2,0,B|200:42|200:42|188:142,1,90,0|0,3:0|2:0,2:0:0:0:
28,196,172552,2,0,B|57:203|57:203|167:177,1,90,0|0,1:0|2:0,2:0:0:0:
220,27,172689,2,0,B|208:42|208:42|196:142,1,90,0|0,3:0|2:0,2:0:0:0:
28,204,172825,2,0,B|57:211|57:211|167:185,1,90,0|0,1:0|2:0,2:0:0:0:
228,27,172961,2,0,B|216:42|216:42|204:142,1,90,0|0,3:0|2:0,2:0:0:0:
287,310,173098,5,2,1:2:0:0:
280,258,173166,1,2,2:0:0:0:
273,206,173234,1,2,3:2:0:0:
317,180,173302,1,2,2:0:0:0:
361,154,173370,1,2,1:2:0:0:
406,128,173439,1,2,2:0:0:0:
443,163,173507,1,2,2:0:0:0:
480,198,173575,1,2,2:0:0:0:
476,249,173643,1,2,1:2:0:0:
473,300,173711,1,2,2:0:0:0:
469,351,173779,1,2,2:0:0:0:
416,345,173848,1,2,2:0:0:0:
364,340,173916,1,2,1:2:0:0:
312,335,173984,1,2,2:0:0:0:
260,330,174052,1,6,3:2:0:0:
208,325,174120,1,2,2:0:0:0:
155,319,174189,6,0,B|133:286|133:286|100:147|100:147|167:40,1,270,4|0,1:0|2:0,2:0:0:0:
230,40,174461,2,0,B|267:39|267:39|329:74,1,90,0|0,1:0|2:0,2:0:0:0:
425,144,174598,2,0,B|414:158|414:158|325:169,1,90,0|0,3:0|2:0,2:0:0:0:
222,32,174734,2,0,B|259:31|259:31|321:66,1,90,0|0,1:0|2:0,2:0:0:0:
417,152,174870,2,0,B|406:166|406:166|317:177,1,90,0|0,3:0|2:0,2:0:0:0:
214,24,175007,2,0,B|251:23|251:23|313:58,1,90,0|0,1:0|2:0,2:0:0:0:
409,160,175143,2,0,B|398:174|398:174|309:185,1,90,0|0,3:0|2:0,2:0:0:0:
206,16,175279,2,0,B|243:15|243:15|305:50,1,90,0|0,1:0|2:0,2:0:0:0:
401,168,175416,2,0,B|390:182|390:182|301:193,1,90,0|0,1:0|2:0,2:0:0:0:
198,8,175552,2,0,B|235:7|235:7|365:80|365:80|372:154,1,225,0|0,1:0|2:0,2:0:0:0:
485,283,175825,5,2,1:2:0:0:
437,309,175893,1,2,2:0:0:0:
390,335,175961,1,2,2:0:0:0:
336,325,176029,1,2,2:0:0:0:
282,315,176098,1,2,1:2:0:0:
228,305,176166,1,2,2:0:0:0:
174,295,176234,1,2,2:0:0:0:
120,286,176302,1,2,2:0:0:0:
72,277,176370,6,0,B|56:236|56:236|80:67,1,180,2|0,1:0|2:0,2:0:0:0:
330,223,176643,2,0,B|334:179|334:179|264:23,1,180,2|0,1:0|2:0,2:0:0:0:
174,295,176916,2,0,B|184:276|184:276|324:234|324:234|341:205,1,180,2|0,1:0|2:0,2:0:0:0:
429,11,177189,2,0,B|440:29|440:29|407:171|407:171|423:201,1,180,2|0,1:0|2:0,2:0:0:0:
468,331,177461,5,4,2:3:0:0:
462,330,177529,1,4,2:3:0:0:
456,329,177598,1,4,2:3:0:0:
451,328,177666,1,4,2:3:0:0:
445,327,177734,1,4,2:3:0:0:
440,326,177802,1,4,2:3:0:0:
434,325,177870,1,4,2:3:0:0:
429,324,177939,1,4,2:3:0:0:
423,323,178007,1,4,2:3:0:0:
418,322,178075,1,4,2:3:0:0:
412,321,178143,1,4,2:3:0:0:
406,320,178211,1,4,2:3:0:0:
401,319,178279,1,4,2:3:0:0:
395,318,178348,1,4,2:3:0:0:
390,317,178416,1,4,2:3:0:0:
384,316,178484,1,4,2:3:0:0:
378,315,178552,2,0,B|283:340|283:340|251:373,1,126,4|0,2:1|2:0,2:0:0:0:
26,300,178825,6,0,B|10:261|10:261|36:25,1,270,2|0,1:2|2:0,2:0:0:0:
34,34,179098,2,0,B|145:79|145:79|142:85|142:85|200:142|200:142|289:131,1,270,2|0,1:2|2:0,2:0:0:0:
262,134,179302,1,2,3:2:0:0:
262,134,179370,1,2,1:2:0:0:
97,210,179507,1,2,3:2:0:0:
381,171,179643,1,2,1:2:0:0:
216,51,179779,1,2,3:2:0:0:
434,80,179916,1,2,1:2:0:0:
145,143,180052,1,2,3:2:0:0:
501,201,180189,5,2,1:2:0:0:
501,193,180257,1,2,2:0:0:0:
501,186,180325,1,2,3:2:0:0:
501,178,180393,1,2,2:0:0:0:
501,171,180461,1,2,1:2:0:0:
502,163,180529,1,2,2:0:0:0:
502,156,180598,1,2,3:2:0:0:
503,149,180666,1,2,2:0:0:0:
503,141,180734,6,0,B|419:222|419:222|414:218|414:218|293:199|293:199|253:214,1,270,4|0,1:0|2:0,2:0:0:0:
270,207,181007,2,0,B|233:225|233:225|254:108|254:108|264:113|264:113|398:137,1,270,2|0,1:2|2:0,2:0:0:0:
361,130,181279,2,0,B|343:115|343:115|152:155|152:155|74:200,1,270,2|0,1:2|2:0,2:0:0:0:
107,180,181484,1,2,3:2:0:0:
107,180,181552,1,2,1:2:0:0:
307,47,181689,1,2,3:2:0:0:
25,79,181825,5,2,1:2:0:0:
25,87,181893,1,2,2:0:0:0:
26,95,181961,1,2,3:2:0:0:
26,104,182029,1,2,3:2:0:0:
28,112,182098,1,2,1:2:0:0:
29,121,182166,1,2,2:0:0:0:
30,129,182234,1,2,3:2:0:0:
32,138,182302,1,2,2:0:0:0:
64,169,182370,1,2,1:2:0:0:
63,173,182439,1,2,2:0:0:0:
62,178,182507,1,2,3:2:0:0:
62,183,182575,1,2,2:0:0:0:
61,187,182643,1,2,1:2:0:0:
60,192,182711,1,2,2:0:0:0:
60,197,182779,1,2,3:2:0:0:
59,201,182848,1,2,2:0:0:0:
38,239,182916,6,0,B|140:235|140:235|140:240|140:240|219:300|219:300|219:305|219:305|307:274,1,270,4|0,1:0|2:0,2:0:0:0:
274,285,183189,2,0,B|309:138|309:138|304:137|304:137|331:18|331:18,1,270,2|0,1:2|2:0,2:0:0:0:
329,26,183461,2,0,B|442:13|442:13|440:19|440:19|480:75|480:75|450:181,1,270,2|0,1:2|2:0,2:0:0:0:
457,153,183666,1,0,3:0:0:0:
457,153,183734,1,2,1:2:0:0:
142,110,183870,1,2,3:2:0:0:
274,285,184007,2,0,B|309:138|309:138|304:137|304:137|331:18|331:18,1,270,2|0,1:2|2:0,2:0:0:0:
329,26,184211,1,2,3:2:0:0:
329,26,184279,1,2,1:2:0:0:
433,233,184416,1,2,3:2:0:0:
197,203,184552,5,2,1:2:0:0:
188,203,184620,1,2,2:0:0:0:
180,204,184689,1,2,3:2:0:0:
171,205,184757,1,2,2:0:0:0:
163,206,184825,1,2,1:2:0:0:
155,207,184893,1,2,2:0:0:0:
146,208,184961,1,2,3:2:0:0:
138,209,185029,1,2,2:0:0:0:
129,210,185098,6,0,B|118:224|118:224|132:306|132:306|116:341,2,126,4|2|2,3:0|2:0|2:0,2:0:0:0:
294,131,185507,1,2,2:0:0:0:
21,158,185643,2,0,B|28:168|28:168|18:224|18:224|29:249,2,90,2|2|2,2:0|2:0|2:0,2:0:0:0:
67,82,186052,1,2,2:0:0:0:
148,125,186189,6,0,L|179:120,1,22.5,2|0,3:0|2:0,2:0:0:0:
385,192,186461,2,0,L|354:187,1,22.5,2|0,3:0|2:0,2:0:0:0:
193,259,186734,2,0,L|229:253,1,22.5,2|0,3:0|2:0,2:0:0:0:
481,235,186870,2,0,L|455:231,1,22.5,2|0,3:0|2:0,2:0:0:0:
282,122,187007,2,0,L|312:125,1,22.5,2|0,3:0|2:0,2:0:0:0:
490,98,187143,2,0,L|449:90,1,22.5,2|0,3:0|2:0,2:0:0:0:
285,347,187279,6,2,B|276:324|276:324|297:234|297:234|290:213,1,126,6|0,1:0|2:0,2:1:0:0:
0,195,187552,2,2,B|30:206|30:206|135:186,1,126,2|0,1:0|2:0,2:1:0:0:
369,35,187825,2,2,B|277:59|277:59|276:56|276:56|155:15|155:15|115:24,1,252,2|0,1:0|1:0,2:1:0:0:
176,322,188234,2,2,B|188:299|188:299|188:273|188:273|209:181,1,126,2|0,3:1|1:0,2:1:0:0:
47,0,188507,2,2,B|37:19|37:19|60:143,1,126,2|0,3:1|1:0,2:1:0:0:
294,225,188779,1,2,3:1:0:0:
137,105,188916,1,0,1:0:0:0:
270,311,189052,1,2,3:1:0:0:
270,311,189120,1,0,3:0:0:0:
270,311,189189,1,2,1:0:0:0:
512,208,189325,1,2,3:1:0:0:
278,82,189461,1,0,1:0:0:0:
337,22,189598,2,2,B|350:18|350:18|448:32|448:32|459:44,1,126,2|0,3:1|1:0,2:1:0:0:
371,212,189870,1,0,3:0:0:0:
222,164,190007,1,2,1:0:0:0:
369,111,190143,1,2,3:1:0:0:
389,313,190279,1,2,1:0:0:0:
198,258,190416,1,2,3:1:0:0:
508,207,190552,6,0,B|492:253|492:253|506:322|506:322|489:388,1,162,4|0,1:3|3:0,2:0:0:0:
495,363,190757,1,0,3:0:0:0:
495,363,190825,1,4,1:3:0:0:
198,258,190961,2,0,B|245:248|245:248|298:202|298:202|339:190,1,162,4|0,1:3|3:0,2:0:0:0:
339,189,191166,1,0,3:0:0:0:
339,189,191234,1,4,1:3:0:0:
60,0,191370,6,2,B|77:80|77:80|72:80|72:80|42:153|42:153|37:153|37:153|41:246,1,243,4|0,1:0|2:0,3:0:0:0:
40,225,191643,6,2,B|51:326|51:326|75:346,1,126,6|0,1:0|2:0,2:1:0:0:
260,139,191916,2,2,B|251:141|251:141|161:120|161:120|138:129,1,126,2|0,1:0|2:0,2:1:0:0:
158,340,192189,2,2,B|207:355|207:355|208:352|208:352|324:315|324:315|328:318|328:318|424:328,1,252,2|0,1:0|1:0,2:1:0:0:
503,116,192598,2,2,B|489:152|489:152|503:214|503:214|497:242,1,126,2|0,3:1|1:0,2:1:0:0:
289,225,192870,2,2,B|218:244|218:244|212:246|212:246|161:239,1,126,2|0,3:1|1:0,2:1:0:0:
293,20,193143,1,2,3:1:0:0:
372,213,193279,1,0,1:0:0:0:
75,126,193416,1,2,3:1:0:0:
75,126,193484,1,0,3:0:0:0:
75,126,193552,1,2,1:0:0:0:
378,100,193689,1,2,3:1:0:0:
185,165,193825,5,2,1:2:0:0:
178,82,193961,1,2,3:2:0:0:
178,82,194029,1,2,3:2:0:0:
178,82,194098,1,2,1:2:0:0:
260,113,194234,1,2,3:2:0:0:
264,117,194370,1,2,1:2:0:0:
267,120,194507,1,2,3:2:0:0:
271,124,194643,1,2,1:2:0:0:
274,127,194779,1,2,3:2:0:0:
94,278,194916,5,4,1:0:0:0:
384,205,195052,1,4,1:3:0:0:
384,205,195120,1,4,2:3:0:0:
384,205,195189,1,4,2:3:0:0:
438,269,195325,1,4,1:3:0:0:
178,82,195461,1,4,2:3:0:0:
178,82,195529,1,4,2:3:0:0:
178,82,195598,1,4,2:3:0:0:
29,337,195734,2,4,B|115:314|115:314|116:317|116:317|237:358|237:358|277:349,1,243,4|4,2:3|2:3,2:3:0:0:
260,353,196007,6,2,B|283:328|283:328|270:245|270:245|253:229,1,126,6|0,1:0|2:0,2:1:0:0:
512,76,196279,2,2,B|502:108|502:108|423:139|423:139|416:136,1,126,2|0,1:0|2:0,2:1:0:0:
97,28,196552,2,2,B|182:87|182:87|187:83|187:83|304:62|304:62|337:78,1,252,2|0,1:0|1:0,2:1:0:0:
387,240,196961,2,2,B|368:250|368:250|239:236,1,126,2|0,3:1|1:0,2:1:0:0:
10,100,197234,2,2,B|8:109|8:109|29:199|29:199|20:222,1,126,2|0,3:1|1:0,2:1:0:0:
112,373,197507,2,2,B|121:370|121:370|188:307|188:307|213:303,1,126,2|0,3:1|1:0,2:1:0:0:
213,170,197779,1,2,3:1:0:0:
213,170,197848,1,0,3:0:0:0:
213,170,197916,1,2,1:0:0:0:
90,129,198052,1,2,3:1:0:0:
264,238,198189,1,0,1:0:0:0:
309,63,198325,1,2,3:1:0:0:
157,237,198461,1,0,1:0:0:0:
253,370,198598,1,2,3:1:0:0:
480,265,198734,1,2,1:0:0:0:
480,261,198870,1,2,3:1:0:0:
480,258,199007,1,2,1:0:0:0:
481,254,199143,1,2,3:1:0:0:
270,150,199279,6,0,B|316:166|316:166|385:152|385:152|451:169,1,162,4|0,1:3|3:0,2:0:0:0:
426,163,199484,1,0,3:0:0:0:
426,163,199552,1,4,1:3:0:0:
117,21,199689,2,0,B|129:62|129:62|175:115|175:115|184:163,1,162,4|0,1:3|3:0,2:0:0:0:
184,162,199893,1,0,3:0:0:0:
184,162,199961,1,4,1:3:0:0:
245,347,200098,6,2,L|256:244,1,81.0000000000001,4|0,1:0|2:0,3:0:0:0:
396,45,200370,5,0,1:0:0:0:
347,39,200439,1,0,3:0:0:0:
298,33,200507,1,0,3:0:0:0:
249,27,200575,1,0,3:0:0:0:
200,21,200643,1,0,1:0:0:0:
151,16,200711,1,0,3:0:0:0:
125,57,200779,1,0,3:0:0:0:
99,99,200848,1,0,3:0:0:0:
74,140,200916,1,0,1:0:0:0:
49,181,200984,1,0,3:0:0:0:
91,205,201052,1,0,3:0:0:0:
133,229,201120,1,0,3:0:0:0:
175,253,201189,1,0,1:0:0:0:
220,237,201257,1,0,3:0:0:0:
265,221,201325,1,0,3:0:0:0:
311,205,201393,1,0,3:0:0:0:
357,190,201461,1,4,3:0:0:0:
355,186,201529,1,4,3:0:0:0:
353,182,201598,1,4,3:0:0:0:
351,178,201666,1,4,3:0:0:0:
349,174,201734,1,4,3:0:0:0:
347,170,201802,1,4,3:0:0:0:
345,166,201870,1,4,3:0:0:0:
343,162,201939,1,4,3:0:0:0:
341,158,202007,1,0,1:0:0:0:
299,132,202075,1,0,3:0:0:0:
253,148,202143,1,0,3:0:0:0:
207,164,202211,1,0,3:0:0:0:
161,181,202279,1,0,1:0:0:0:
115,198,202348,1,0,3:0:0:0:
140,238,202416,1,0,3:0:0:0:
166,278,202484,1,0,3:0:0:0:
205,262,202552,5,0,3:0:0:0:
23,76,202689,6,0,B|32:80|32:80|51:81|51:81|88:73|88:73|135:101,28,78.7499999999999,0|0|0|0|0|0|0|0|0|0|0|0|0|0|0|0|0|0|0|0|0|0|0|0|0|0|0|0|0,1:0|1:0|1:0|1:0|1:0|1:0|1:0|1:0|1:0|1:0|1:0|1:0|1:0|1:0|1:0|1:0|1:0|1:0|1:0|1:0|1:0|1:0|1:0|1:0|1:0|1:0|1:0|1:0|1:0,2:0:0:0:
23,76,204734,5,4,1:0:0:0:
31,122,204802,1,0,3:0:0:0:
39,168,204870,1,0,3:0:0:0:
47,213,204939,1,0,3:0:0:0:
56,259,205007,1,0,1:0:0:0:
64,304,205075,1,0,3:0:0:0:
110,296,205143,1,0,3:0:0:0:
156,287,205211,1,0,3:0:0:0:
201,279,205279,1,0,1:0:0:0:
246,291,205348,1,0,3:0:0:0:
276,256,205416,1,0,3:0:0:0:
306,221,205484,1,0,3:0:0:0:
337,185,205552,1,0,1:0:0:0:
367,150,205620,1,0,3:0:0:0:
398,113,205689,1,0,3:0:0:0:
428,78,205757,1,0,3:0:0:0:
459,44,205825,1,0,1:0:0:0:
468,90,205893,1,0,3:0:0:0:
476,135,205961,1,0,3:0:0:0:
484,181,206029,1,0,3:0:0:0:
493,227,206098,1,0,1:0:0:0:
511,268,206166,1,0,3:0:0:0:
465,261,206234,1,0,3:0:0:0:
418,254,206302,1,0,3:0:0:0:
371,247,206370,2,0,B|358:235|358:235|375:166|375:166|361:145,7,90,4|4|4|4|4|4|4|4,3:0|3:0|3:0|3:0|3:0|3:0|3:0|3:0,2:0:0:0:
316,80,206916,1,0,1:0:0:0:
270,70,206984,1,0,3:0:0:0:
224,59,207052,1,0,3:0:0:0:
179,49,207120,1,0,3:0:0:0:
137,24,207189,1,0,1:0:0:0:
143,70,207257,1,0,3:0:0:0:
149,116,207325,1,0,3:0:0:0:
156,161,207393,1,0,3:0:0:0:
162,207,207461,1,0,1:0:0:0:
168,253,207529,1,0,3:0:0:0:
175,299,207598,1,0,3:0:0:0:
137,326,207666,1,0,3:0:0:0:
98,353,207734,1,0,1:0:0:0:
61,380,207802,1,0,3:0:0:0:
63,333,207870,1,0,3:0:0:0:
65,285,207939,1,0,3:0:0:0:
67,238,208007,2,0,B|71:224|71:224|18:199|18:199|-5:210|-5:210|11:220,7,90,4|4|4|4|4|4|4|4,3:0|3:0|3:0|3:0|3:0|3:0|3:0|3:0,2:0:0:0:
168,176,208552,2,0,B|165:177|165:177|143:162|143:162|138:104|138:104|153:100,7,90,4|4|4|4|4|4|4|4,3:0|3:0|3:0|3:0|3:0|3:0|3:0|3:0,2:0:0:0:
21,93,209098,1,0,1:0:0:0:
42,51,209166,1,0,3:0:0:0:
64,9,209234,1,0,3:0:0:0:
109,19,209302,1,0,3:0:0:0:
154,28,209370,1,0,1:0:0:0:
199,38,209439,1,0,3:0:0:0:
244,47,209507,1,0,3:0:0:0:
263,90,209575,1,0,3:0:0:0:
309,82,209643,1,0,1:0:0:0:
354,75,209711,1,0,3:0:0:0:
400,68,209779,1,0,3:0:0:0:
447,62,209848,1,0,3:0:0:0:
493,55,209916,1,0,1:0:0:0:
484,99,209984,1,0,3:0:0:0:
475,143,210052,1,0,3:0:0:0:
466,187,210120,1,0,3:0:0:0:
454,231,210189,2,0,B|442:238|442:238|388:221|388:221|362:225|362:225,7,90,4|4|4|4|4|4|4|4,3:0|3:0|3:0|3:0|3:0|3:0|3:0|3:0,2:0:0:0:
293,182,210734,1,2,3:2:0:0:
295,176,210802,1,2,3:2:0:0:
297,171,210870,1,2,3:2:0:0:
299,166,210939,1,2,3:2:0:0:
301,160,211007,1,2,3:2:0:0:
303,155,211075,1,2,3:2:0:0:
305,150,211143,1,2,3:2:0:0:
307,144,211211,1,2,3:2:0:0:
309,139,211279,1,0,1:0:0:0:
261,123,211348,1,0,3:0:0:0:
214,107,211416,1,0,3:0:0:0:
166,92,211484,1,0,3:0:0:0:
127,61,211552,1,0,1:0:0:0:
105,105,211620,1,0,3:0:0:0:
83,150,211689,1,0,3:0:0:0:
62,194,211757,1,0,3:0:0:0:
84,238,211825,1,0,1:0:0:0:
77,286,211893,1,0,3:0:0:0:
70,334,211961,1,0,3:0:0:0:
99,373,212029,1,0,3:0:0:0:
147,359,212098,1,0,1:0:0:0:
194,346,212166,1,0,3:0:0:0:
241,333,212234,1,0,3:0:0:0:
289,322,212302,1,0,3:0:0:0:
314,344,212370,6,0,B|343:337|343:337|464:347,11,84,2|0|0|0|0|0|0|0|0|0|0|0,3:0|3:0|3:0|3:0|3:0|3:0|3:0|3:0|3:0|3:0|3:0|3:0,2:0:0:0:
475,356,213461,5,4,1:2:0:0:
336,134,213666,1,0,3:0:0:0:
133,232,213870,2,2,L|212:220,1,63,8|0,1:0|2:0,2:1:0:0:
483,348,214007,1,4,1:2:0:0:
328,126,214211,1,0,3:0:0:0:
125,240,214416,2,2,L|204:228,1,63,8|0,1:0|2:0,2:1:0:0:
491,340,214552,1,4,1:2:0:0:
320,118,214757,1,0,3:0:0:0:
117,248,214961,2,2,L|196:236,1,63,8|0,1:0|2:0,2:1:0:0:
499,332,215098,5,4,1:2:0:0:
495,296,215166,1,0,3:0:0:0:
492,261,215234,1,0,3:0:0:0:
488,226,215302,1,0,3:0:0:0:
485,190,215370,1,4,1:2:0:0:
482,155,215439,1,0,3:0:0:0:
478,120,215507,1,0,3:0:0:0:
475,85,215575,1,0,3:0:0:0:
471,49,215643,5,4,1:2:0:0:
161,146,215848,1,0,3:0:0:0:
339,258,216052,2,2,L|325:165,1,63,8|0,1:0|2:0,2:1:0:0:
479,41,216189,1,4,1:2:0:0:
153,154,216393,1,0,3:0:0:0:
331,266,216598,2,2,L|317:173,1,63,8|0,1:0|2:0,2:1:0:0:
487,33,216734,5,4,1:2:0:0:
451,32,216802,1,0,3:0:0:0:
415,31,216870,1,0,3:0:0:0:
379,30,216939,1,0,3:0:0:0:
343,29,217007,1,4,1:2:0:0:
307,28,217075,1,0,3:0:0:0:
271,27,217143,1,0,3:0:0:0:
235,26,217211,1,0,3:0:0:0:
199,25,217279,2,0,B|192:47|192:47|214:141,1,90,0|0,1:0|2:0,2:0:0:0:
249,254,217416,2,0,B|265:238|265:238|292:145,1,90,0|0,1:0|2:0,2:0:0:0:
199,25,217552,2,0,B|192:47|192:47|214:141,1,90,0|0,1:0|2:0,2:0:0:0:
249,254,217689,2,0,B|265:238|265:238|292:145,1,90,0|0,1:0|2:0,2:0:0:0:
54,159,217825,5,4,1:2:0:0:
254,327,218029,1,0,3:0:0:0:
417,175,218234,2,2,L|333:187,1,63,8|0,1:0|2:0,2:1:0:0:
46,167,218370,1,4,1:2:0:0:
246,335,218575,1,0,3:0:0:0:
425,167,218779,2,2,L|341:179,1,63,8|0,1:0|2:0,2:1:0:0:
38,175,218916,1,4,1:2:0:0:
238,343,219120,1,0,3:0:0:0:
433,159,219325,2,2,L|349:171,1,63,8|0,1:0|2:0,2:1:0:0:
30,183,219461,1,4,1:2:0:0:
230,351,219666,1,0,3:0:0:0:
441,151,219870,2,2,L|357:163,1,63,8|0,1:0|2:0,2:1:0:0:
22,192,220007,5,2,2:1:0:0:
380,283,220211,1,2,2:1:0:0:
209,36,220416,1,2,2:1:0:0:
110,228,220552,1,2,2:1:0:0:
301,119,220757,1,2,2:1:0:0:
133,148,220961,1,2,2:1:0:0:
114,299,221098,5,0,3:0:0:0:
133,297,221166,1,0,3:0:0:0:
153,296,221234,1,0,3:0:0:0:
172,295,221302,1,0,3:0:0:0:
192,293,221370,1,0,3:0:0:0:
212,292,221439,1,0,3:0:0:0:
231,291,221507,1,0,3:0:0:0:
251,290,221575,1,0,3:0:0:0:
271,288,221643,1,0,3:0:0:0:
290,287,221711,1,0,3:0:0:0:
310,286,221779,1,0,3:0:0:0:
330,285,221848,1,0,3:0:0:0:
349,283,221916,1,0,3:0:0:0:
369,282,221984,1,0,3:0:0:0:
389,281,222052,1,0,3:0:0:0:
408,280,222120,1,0,3:0:0:0:
106,274,223552,5,4,1:3:0:0:
283,251,223689,2,0,B|258:240|258:240|169:258,1,108,4|0,2:3|2:0,2:0:0:0:
18,219,223961,1,4,2:3:0:0:
184,360,224098,2,0,B|195:335|195:335|177:246,1,108,0|0,2:0|2:0,2:0:0:0:
99,93,224370,2,0,B|82:169|82:169|98:229,1,108,4|0,2:3|2:0,2:0:0:0:
0,293,224643,2,0,L|114:273,1,108,4|0,2:3|2:0,2:0:0:0:
267,129,224916,1,4,2:3:0:0:
178,0,225052,2,0,B|169:20|169:20|189:115,1,108,4|0,2:3|2:0,2:0:0:0:
347,163,225325,1,4,2:3:0:0:
178,0,225461,2,0,B|169:20|169:20|189:115,1,108,4|0,2:3|2:0,2:0:0:0:
294,346,225734,2,0,L|327:234,1,108,4|0,2:3|2:0,2:0:0:0:
347,163,226007,1,4,2:3:0:0:
402,312,226279,1,4,2:3:0:0:
141,264,226416,2,0,B|166:241|166:241|239:230,1,108,4|0,2:3|2:0,2:0:0:0:
436,221,226689,1,4,2:3:0:0:
141,264,226825,2,0,B|166:241|166:241|239:230,1,108,4|0,2:3|2:0,2:0:0:0:
429,122,227098,2,0,L|444:0,2,108,4|0|4,2:3|2:0|2:3,2:0:0:0:
8,52,227643,1,4,2:0:0:0:
145,181,227779,2,0,B|163:101|163:101|152:77,1,108,0|0,2:0|2:0,2:0:0:0:
23,127,228052,1,4,2:0:0:0:
252,58,228189,2,0,B|191:2|191:2|165:0,1,108,0|0,2:0|2:0,2:0:0:0:
0,269,228461,2,0,B|133:249,2,108,4|0|12,2:3|2:0|1:3,2:0:0:0:
280,100,229007,6,0,B|283:130|283:130|264:166,1,63,6|0,1:0|2:0,2:0:0:0:
277,312,229143,2,0,B|248:222|248:222|269:165,1,126,2|0,2:1|1:0,2:0:0:0:
392,197,229416,2,0,B|377:205|377:205|303:192,1,63,2|0,2:1|2:0,2:0:0:0:
147,150,229552,2,0,B|193:136|193:136|273:160,1,126,2|0,1:0|2:0,2:0:0:0:
277,312,229825,2,0,L|255:230,1,63,2|0,1:0|2:0,2:0:0:0:
359,76,229961,2,0,B|373:99|373:99|393:205,1,126,2|0,2:1|1:0,2:0:0:0:
150,233,230234,2,0,B|173:237|173:237|229:221,1,63,2|0,2:1|2:0,2:0:0:0:
469,335,230370,2,0,L|499:124,1,189,0|0,1:0|2:0,2:0:0:0:
485,98,230643,6,0,B|467:70|467:70|485:123,1,90,2|0,1:0|2:0,2:0:0:0:
359,262,230779,2,0,B|295:250|295:250|349:251,1,90,2|0,2:1|2:0,2:0:0:0:
199,132,230916,2,0,B|170:104|170:104|189:189,1,90,2|0,1:0|2:0,2:0:0:0:
255,362,231052,1,2,2:1:0:0:
255,362,231461,5,2,2:0:0:0:
263,360,231529,1,2,2:0:0:0:
271,358,231597,1,2,2:0:0:0:
279,356,231666,1,2,2:0:0:0:
287,354,231734,1,2,2:0:0:0:
260,348,231802,1,2,2:0:0:0:
233,342,231870,1,2,2:0:0:0:
206,336,231938,1,2,2:0:0:0:
179,330,232007,1,2,2:0:0:0:
222,318,232075,1,2,2:0:0:0:
265,306,232143,1,2,2:0:0:0:
308,294,232211,1,2,2:0:0:0:
351,282,232279,1,4,3:0:0:0:
297,274,232347,1,4,3:0:0:0:
242,266,232416,1,4,3:0:0:0:
188,258,232484,1,4,3:0:0:0:
134,251,232552,1,4,3:0:0:0:
115,200,232620,1,4,3:0:0:0:
95,149,232688,1,4,3:0:0:0:
76,97,232757,1,4,3:0:0:0:
56,46,232825,1,0,3:0:0:0:
117,60,232893,1,0,3:0:0:0:
170,56,232961,1,0,3:0:0:0:
223,52,233029,1,0,3:0:0:0:
276,49,233097,1,0,3:0:0:0:
264,102,233166,1,0,3:0:0:0:
252,154,233234,1,0,3:0:0:0:
241,206,233302,1,0,3:0:0:0:
230,258,233370,1,4,1:0:0:0:
4,114,233734,6,0,B|-8:73|-8:73|2:35|2:35|-3:4,2,96,0|0|0,3:0|3:0|3:0,2:0:0:0:
119,343,234097,1,4,3:2:0:0:
122,346,234279,1,4,3:2:0:0:
344,86,234461,5,4,3:2:0:0:
51,236,234643,5,4,3:2:0:0:
423,198,234825,5,4,3:2:0:0:
104,118,235007,5,4,3:2:0:0:
250,382,235279,6,0,L|240:197,1,156,6|0,3:1|2:0,2:0:0:0:
240,45,235552,5,2,1:2:0:0:
162,37,235643,5,0,3:0:0:0:
84,29,235734,5,0,3:0:0:0:
6,21,235825,5,2,1:2:0:0:
15,98,235916,5,0,3:0:0:0:
24,175,236007,5,0,3:0:0:0:
33,251,236097,5,2,1:2:0:0:
110,239,236188,5,0,3:0:0:0:
187,227,236279,5,0,3:0:0:0:
245,279,236370,5,2,1:2:0:0:
322,289,236461,5,0,3:0:0:0:
399,300,236552,5,0,3:0:0:0:
455,245,236643,6,0,L|444:162,2,78,2|0|0,1:2|3:0|3:0,2:0:0:0:
399,300,236916,5,2,1:2:0:0:
381,223,237007,5,0,3:0:0:0:
363,147,237097,5,0,3:0:0:0:
287,126,237188,6,0,L|276:43,2,78,2|0|0,1:2|3:0|3:0,2:0:0:0:
227,177,237461,5,2,1:2:0:0:
151,156,237552,5,0,3:0:0:0:
75,136,237643,5,0,3:0:0:0:
5,170,237734,5,2,3:1:0:0:
10,216,237802,1,0,3:0:0:0:
15,262,237870,1,8,1:0:0:0:
21,308,237938,1,0,1:0:0:0:
27,354,238007,1,2,3:2:0:0:
73,357,238075,1,0,3:0:0:0:
119,361,238143,1,10,1:2:0:0:
165,365,238211,1,0,1:0:0:0:
211,369,238279,1,2,3:1:0:0:
239,332,238347,1,0,3:0:0:0:
268,294,238416,1,8,1:0:0:0:
296,257,238484,1,0,1:0:0:0:
266,221,238552,1,2,3:2:0:0:
236,185,238620,1,0,3:0:0:0:
206,149,238688,1,10,1:2:0:0:
175,112,238757,1,0,1:0:0:0:
152,152,238825,1,2,3:1:0:0:
129,193,238893,1,0,3:0:0:0:
107,234,238961,1,8,1:0:0:0:
152,226,239029,1,0,1:0:0:0:
198,218,239097,1,2,3:2:0:0:
244,210,239166,1,0,3:0:0:0:
290,202,239234,1,10,1:2:0:0:
336,194,239302,1,0,1:0:0:0:
377,215,239370,1,2,3:1:0:0:
383,168,239438,1,0,3:0:0:0:
389,121,239507,1,8,1:0:0:0:
396,74,239575,1,0,1:0:0:0:
353,55,239643,1,2,3:2:0:0:
309,36,239711,1,0,3:0:0:0:
263,24,239779,1,10,1:2:0:0:
217,15,239847,1,0,1:0:0:0:
194,56,239916,1,2,3:1:0:0:
171,97,239984,1,0,3:0:0:0:
149,138,240052,1,8,1:0:0:0:
164,182,240120,1,0,1:0:0:0:
179,226,240188,1,2,3:2:0:0:
194,270,240257,1,0,3:0:0:0:
209,313,240325,1,10,1:2:0:0:
164,326,240393,1,0,1:0:0:0:
119,339,240461,1,2,3:1:0:0:
74,352,240529,1,0,3:0:0:0:
29,365,240597,1,8,1:0:0:0:
35,318,240666,1,0,1:0:0:0:
41,271,240734,1,2,3:2:0:0:
47,224,240802,1,0,3:0:0:0:
53,177,240870,1,10,1:2:0:0:
59,130,240938,1,0,1:0:0:0:
65,83,241007,1,2,3:1:0:0:
111,90,241075,1,0,3:0:0:0:
156,97,241143,1,8,1:0:0:0:
201,105,241211,1,0,1:0:0:0:
246,113,241279,1,2,3:2:0:0:
291,121,241347,1,0,3:0:0:0:
337,129,241416,1,10,1:2:0:0:
382,136,241484,1,0,1:0:0:0:
427,144,241552,1,2,3:1:0:0:
213,205,241757,1,8,3:1:0:0:
427,39,241961,1,10,1:2:0:0:
312,230,242097,5,4,1:2:0:0:
321,136,242234,1,4,1:2:0:0:
331,43,242370,1,4,1:2:0:0:
492,323,242507,1,0,3:0:0:0:
492,323,242575,1,0,3:0:0:0:
492,323,242643,1,4,1:2:0:0:
478,230,242779,1,4,1:2:0:0:
176,241,242916,1,4,1:2:0:0:
192,149,243052,1,4,1:2:0:0:
282,351,243188,1,0,3:0:0:0:
282,351,243257,1,0,3:0:0:0:
282,351,243325,1,4,1:2:0:0:
115,187,243461,1,4,1:2:0:0:
233,33,243597,1,4,1:2:0:0:
205,323,243734,1,4,1:2:0:0:
85,118,243870,1,4,1:2:0:0:
0,295,244007,1,4,1:2:0:0:
76,262,244143,1,4,1:2:0:0:
324,139,244279,1,4,1:2:0:0:
344,240,244416,1,0,3:0:0:0:
344,240,244484,1,0,3:0:0:0:
344,240,244552,1,4,1:2:0:0:
187,106,244688,1,0,3:0:0:0:
429,39,244825,1,4,1:2:0:0:
208,198,244961,1,0,3:0:0:0:
212,202,245097,1,0,3:0:0:0:
494,284,245234,1,4,1:2:0:0:
461,160,245370,1,4,1:2:0:0:
465,164,245507,1,0,3:0:0:0:
195,278,245643,1,4,1:2:0:0:
228,22,245779,1,4,1:2:0:0:
346,42,245916,1,4,1:2:0:0:
353,222,246052,1,4,1:2:0:0:
64,137,246188,1,0,3:0:0:0:
64,137,246257,1,0,3:0:0:0:
64,137,246325,1,4,1:2:0:0:
119,294,246461,1,4,1:2:0:0:
128,80,246597,1,0,3:0:0:0:
4,48,246734,1,4,1:2:0:0:
11,230,246870,1,4,1:2:0:0:
272,189,247007,1,4,1:2:0:0:
148,181,247143,1,4,1:2:0:0:
373,279,247279,1,0,3:0:0:0:
373,279,247347,1,0,3:0:0:0:
373,279,247416,1,4,1:2:0:0:
431,107,247552,1,4,1:2:0:0:
285,0,247688,1,4,1:2:0:0:
200,41,247825,1,0,3:0:0:0:
200,41,247893,1,0,3:0:0:0:
200,41,247961,1,4,1:2:0:0:
316,198,248097,1,4,1:2:0:0:
512,151,248234,1,4,1:2:0:0:
353,108,248370,1,4,1:2:0:0:
252,291,248507,1,4,1:2:0:0:
78,193,248643,1,4,1:2:0:0:
200,41,248779,1,4,1:2:0:0:
432,196,248916,1,4,1:2:0:0:
252,291,249052,1,4,1:2:0:0:
200,41,249188,1,4,1:2:0:0:
226,43,250007,6,0,B|259:69|259:69|268:175|268:175|113:223|113:223|157:181|157:181|370:199|370:199|444:227|444:227|384:132|384:132|262:313|262:313,1,983.25,2|0,2:0|2:0,2:0:0:0:
256,192,251779,1,4,1:0:0:0:
256,192,251916,12,0,254234,2:0:0:0:
