osu file format v14

[General]
AudioFilename: audio.mp3
AudioLeadIn: 0
PreviewTime: 57881
Countdown: 0
SampleSet: Soft
StackLeniency: 0.4
Mode: 0
LetterboxInBreaks: 0
EpilepsyWarning: 1
WidescreenStoryboard: 1

[Editor]
Bookmarks: 3463,12190,20917,38372,47099,58018,66745,75472,107099,117053,118008,126189,130552,134916,152370,169825,179098,187279,204734,213461,223552,229007,233370,237734,242097
DistanceSpacing: 1
BeatDivisor: 3
GridSize: 8
TimelineZoom: 4.899997

[Metadata]
Title:ENDYMION (long edit)
TitleUnicode:ENDYMION (long edit)
Artist:fallen shepherd feat. RabbiTon Strings
ArtistUnicode:fallen shepherd feat. RabbiTon Strings
Creator:hehe
Version:INSANE feat. Akeruyri
Source:DanceDanceRevolution A
Tags:ARM アニマル・ストライク!Animal Strike! DDRA IOSYS COOL&CREATE zyukucho SDVX SOUND VOLTEX VIVID WAVE 木村洋平 Youhei Kimura instrumental japanese video game jezag akeruyri luscent english electronic heilia 三輪紫乃 松岡あずさ
BeatmapID:3316581
BeatmapSetID:1243733

[Difficulty]
HPDrainRate:3
CircleSize:4
OverallDifficulty:7.8
ApproachRate:8.8
SliderMultiplier:1.4
SliderTickRate:1

[Events]
//Background and Video events
0,0,"endymion.jpg",0,0
//Break Periods
2,58008,65545
//Storyboard Layer 0 (Background)
//Storyboard Layer 1 (Fail)
//Storyboard Layer 2 (Pass)
//Storyboard Layer 3 (Foreground)
//Storyboard Layer 4 (Overlay)
//Storyboard Sound Samples

[TimingPoints]
191,272.727272727273,4,2,1,40,1,0
1281,-100,4,2,1,40,0,0
2645,-100,4,2,1,50,0,0
3463,-76.9230769230769,4,2,1,70,0,0
5644,-71.4285714285714,4,2,1,50,0,0
7826,-76.9230769230769,4,2,1,70,0,0
10008,-76.9230769230769,4,2,1,50,0,0
12190,-125,4,2,1,50,0,0
16553,-100,4,2,1,60,0,0
20917,-83.3333333333333,4,2,1,60,0,0
24053,-100,4,2,2,60,0,0
25417,-100,4,2,1,40,0,0
27190,-100,4,2,1,60,0,0
27463,-100,4,2,2,60,0,0
29781,-100,4,2,1,40,0,0
32781,-100,4,2,2,60,0,0
34008,-100,4,2,2,55,0,0
35508,-100,4,2,2,50,0,0
37281,-100,4,2,1,50,0,0
38372,-66.6666666666667,4,2,1,70,0,0
41644,-100,4,2,1,60,0,0
42736,-66.6666666666667,4,2,1,70,0,0
46008,-100,4,2,1,60,0,0
47099,-83.3333333333333,4,2,1,70,0,0
49280,-83.3333333333333,4,2,1,75,0,0
51462,-71.4285714285714,4,2,1,80,0,0
53780,-100,4,2,1,80,0,0
55280,-166.666666666667,4,2,1,50,0,0
66745,272.727272727273,4,2,1,40,1,0
66745,-125,4,2,1,40,0,0
67835,-100,4,2,1,50,0,0
68381,-71.4285714285714,4,2,1,60,0,0
68926,-125,4,2,1,40,0,0
70017,-100,4,2,1,50,0,0
70563,-71.4285714285714,4,2,1,60,0,0
71108,-125,4,2,1,40,0,0
75472,-125,4,2,1,50,0,0
76563,-125,4,2,1,60,0,0
77654,-250,4,2,3,30,0,0
79835,-62.5,4,2,3,45,0,0
80107,-62.5,4,2,1,45,0,0
82017,-62.5,4,2,1,55,0,0
82290,-62.5,4,2,3,55,0,0
84916,306.122448979592,4,2,1,40,1,0
84916,-200,4,2,1,40,0,0
85528,335.195530726257,4,2,1,40,1,0
85528,-200,4,2,1,40,0,0
86868,444.444444444444,4,2,3,40,1,0
87312,454.545454545455,4,2,1,40,1,0
87539,342.857142857143,4,2,1,40,1,0
87710,281.69014084507,4,2,1,40,1,0
87850,275.229357798165,4,2,1,40,1,0
87987,260.869565217391,4,2,1,40,1,0
88117,230.769230769231,4,2,1,40,1,0
88232,292.682926829268,4,2,1,40,1,0
88232,-83.3333333333334,4,2,1,40,0,0
88305,279.06976744186,4,2,1,40,1,0
88444,272.727272727273,4,2,1,40,1,0
88716,300,4,2,1,40,1,0
89016,300,4,2,1,40,1,0
89316,315.789473684211,4,2,1,40,1,0
89421,292.682926829268,4,2,1,40,1,0
89518,400,4,2,1,40,1,0
89651,285.714285714286,4,2,1,40,1,0
89746,315.789473684211,4,2,1,40,1,0
89903,337.078651685393,4,2,3,40,1,0
90577,500,4,2,3,40,1,0
91077,461.538461538462,4,2,1,40,1,0
91307,300,4,2,1,40,1,0
91457,240,4,2,1,40,1,0
91577,272.727272727273,4,2,1,40,1,0
91713,218.181818181818,4,2,1,40,1,0
91822,300,4,2,1,40,1,0
91972,272.727272727273,4,2,3,40,1,0
91972,-125,4,2,3,40,0,0
92244,254.237288135593,4,2,3,40,1,0
92625,285.714285714286,4,2,1,40,1,0
93196,319.148936170213,4,2,3,40,1,0
93834,352.941176470588,4,2,1,40,1,0
94010,307.692307692308,4,2,1,40,1,0
94010,-200,4,2,1,40,0,0
95240,258.620689655172,4,2,1,40,1,0
95240,-166.666666666667,4,2,1,40,0,0
96015,292.682926829268,4,2,1,40,1,0
96015,-200,4,2,1,40,0,0
96307,357.142857142857,4,2,1,40,1,0
96664,461.538461538462,4,2,1,40,1,0
96894,250,4,2,1,40,1,0
97144,255.31914893617,4,2,1,40,1,0
97272,397.350993377483,4,2,1,40,1,0
97471,375,4,2,1,40,1,0
97564,458.015267175573,4,2,1,40,1,0
97679,250,4,2,1,40,1,0
97804,335.195530726257,4,2,1,40,1,0
97972,357.142857142857,4,2,1,40,1,0
98061,444.444444444444,4,2,1,40,1,0
98172,342.857142857143,4,2,1,40,1,0
98343,389.61038961039,4,2,1,40,1,0
98537,259.74025974026,4,2,1,40,1,0
99056,300,4,2,3,40,1,0
99806,285.714285714286,4,2,1,40,1,0
99996,265.486725663717,4,2,1,40,1,0
99996,-500,4,2,3,40,0,0
100792,291.686922702965,4,2,3,40,1,0
100792,-500,4,2,3,40,0,0
101959,297.029702970297,4,2,3,40,1,0
101959,-500,4,2,3,40,0,0
102256,232.558139534884,4,2,3,40,1,0
102488,218.181818181818,4,2,3,40,1,0
102488,-500,4,2,3,40,0,0
102706,319.148936170213,4,2,3,40,1,0
102865,361.44578313253,4,2,3,40,1,0
102865,-500,4,2,3,40,0,0
103045,392.156862745098,4,2,3,40,1,0
103242,276.497695852535,4,2,3,40,1,0
103242,-500,4,2,3,40,0,0
103518,285.714285714286,4,2,3,40,1,0
104375,-333.333333333334,4,2,3,40,0,0
105599,272.727272727273,6,2,1,50,1,0
107099,272.727272727273,5,2,1,45,1,0
107917,-71.4285714285714,5,2,1,45,0,0
112553,-100,5,2,1,55,0,0
113371,-66.6666666666667,5,2,1,55,0,0
116644,-58.8235294117647,5,2,1,65,0,0
118008,-62.5,5,2,1,85,0,1
126189,272.727272727273,4,2,1,85,1,0
126189,-55.5555555555556,4,2,1,85,0,0
133825,-66.6666666666667,4,2,1,50,0,0
134643,-66.6666666666667,4,2,1,50,0,0
134916,-55.5555555555556,4,2,2,70,0,0
135461,-125,4,2,2,70,0,0
136825,-66.6666666666667,4,2,2,70,0,0
137098,-55.5555555555556,4,2,2,70,0,0
137643,-125,4,2,2,70,0,0
138461,-100,4,2,2,70,0,0
139007,-71.4285714285714,4,2,2,70,0,0
139279,-55.5555555555556,4,2,2,70,0,0
139825,-125,4,2,2,70,0,0
141189,-71.4285714285714,4,2,2,70,0,0
141734,-55.5555555555556,4,2,2,60,0,0
142007,-50,4,2,2,60,0,0
142279,-45.4545454545455,4,2,2,60,0,0
142552,-50,4,2,2,60,0,0
142961,-55.5555555555556,4,2,2,60,0,0
143234,-71.4285714285714,4,2,2,60,0,0
143643,-55.5555555555556,4,2,2,70,0,0
144189,-125,4,2,2,70,0,0
145416,-55.5555555555556,4,2,2,70,0,0
145825,-50,4,2,2,70,0,0
146098,-62.5,4,2,2,70,0,0
146370,-125,4,2,2,70,0,0
147325,-100,4,2,2,70,0,0
147598,-71.4285714285714,4,2,2,70,0,0
148007,-58.8235294117647,4,2,1,75,0,0
150189,-50,4,2,1,50,0,0
153461,-71.4285714285714,4,2,1,70,0,0
154416,-50,4,2,1,40,0,0
154552,-100,4,2,1,40,0,0
155506,-100,4,2,2,50,0,0
155643,-66.6666666666667,4,2,2,50,0,0
156734,-66.6666666666667,4,2,1,70,0,0
158779,-66.6666666666667,4,2,1,40,0,0
158916,-100,4,2,1,40,0,0
159461,-100,4,2,2,40,0,0
160007,-66.6666666666667,4,2,1,50,0,0
161098,-50,4,2,1,70,0,0
162189,-62.5,4,2,1,70,0,0
163279,-66.6666666666667,4,2,1,40,0,0
164234,-66.6666666666667,4,2,2,50,0,0
165461,-66.6666666666667,4,2,2,60,0,0
167643,-100,4,2,2,40,0,0
168189,-66.6666666666667,4,2,2,40,0,0
169825,-62.5,4,2,1,65,0,0
170370,-66.6666666666667,4,2,1,65,0,0
170643,-71.4285714285714,4,2,1,65,0,0
171189,-62.5,4,2,1,65,0,0
171461,-66.6666666666667,4,2,1,65,0,0
172007,-62.5,4,2,1,65,0,0
172552,-66.6666666666667,4,2,1,65,0,0
172825,-71.4285714285714,4,2,1,65,0,0
173370,-62.5,4,2,1,65,0,0
173643,-66.6666666666667,4,2,1,65,0,0
174189,-62.5,4,2,1,65,0,0
174734,-66.6666666666667,4,2,1,65,0,0
175007,-71.4285714285714,4,2,1,65,0,0
175552,-58.8235294117647,4,2,1,65,0,0
175825,-66.6666666666667,4,2,1,65,0,0
176370,-71.4285714285714,4,2,1,75,0,0
177461,-71.4285714285714,4,2,2,50,0,0
178825,-62.5,4,2,2,70,0,0
180189,-55.5555555555556,4,2,1,70,0,0
180734,-62.5,4,2,2,70,0,0
181825,-55.5555555555556,4,2,1,70,0,0
182370,-66.6666666666667,4,2,1,70,0,0
182916,-62.5,4,2,2,70,0,0
184552,-45.4545454545455,4,2,1,70,0,0
185098,-66.6666666666667,4,2,1,50,0,0
186189,-125,4,2,2,55,0,0
187279,-62.5,4,2,1,75,0,0
190552,-62.5,4,2,2,65,0,0
191643,-62.5,4,2,1,75,0,0
194916,-62.5,4,2,2,65,0,0
196007,-62.5,4,2,1,75,0,0
199279,-62.5,4,2,2,65,0,0
200098,-45.4545454545455,4,2,2,65,0,0
200370,-62.5,4,2,2,70,0,0
201461,-62.5,4,2,1,70,0,0
202552,-250,4,2,1,70,0,0
202689,-250,4,2,0,20,0,0
204734,-62.5,4,2,1,80,0,1
206370,-62.5,4,2,1,65,0,1
206916,-62.5,4,2,1,80,0,1
208007,-62.5,4,2,1,65,0,1
209098,-62.5,4,2,1,80,0,1
210189,-62.5,4,2,1,65,0,1
211279,-62.5,4,2,1,80,0,1
212370,-62.5,4,2,1,55,0,0
213461,-62.5,4,2,1,90,0,1
215098,-55.5555555555556,4,2,1,75,0,0
215643,-62.5,4,2,1,90,0,1
216734,-55.5555555555556,4,2,1,75,0,0
217825,-62.5,4,2,1,90,0,1
219461,-58.8235294117647,4,2,1,100,0,0
220007,-100,4,2,1,75,0,0
220552,-142.857142857143,4,2,1,50,0,0
221098,-142.857142857143,4,2,1,40,0,0
222189,272.727272727273,5,2,1,40,1,0
223552,-100,5,2,2,40,0,0
227643,-62.5,5,2,2,60,0,0
229007,272.727272727273,4,2,1,70,1,1
229007,-66.6666666666667,4,2,1,70,0,1
229825,-58.8235294117647,4,2,1,80,0,1
230916,-58.8235294117647,4,2,1,70,0,1
231188,-50,4,2,1,70,0,0
231461,-100,4,2,1,40,0,0
231734,-66.6666666666667,4,2,1,50,0,0
232007,-50,4,2,1,60,0,0
232279,-50,4,2,1,70,0,0
233734,-66.6666666666667,4,2,1,60,0,0
235552,-66.6666666666667,4,2,1,70,0,1
237734,-66.6666666666667,4,2,1,80,0,1
242097,-58.8235294117647,4,2,1,90,0,0
245643,-58.8235294117647,4,2,1,100,0,0
250007,-100,4,2,4,60,0,1
254234,-100,4,2,4,75,0,0

[Colours]
Combo1 : 255,0,0
Combo2 : 233,233,233

[HitObjects]
303,214,1281,6,0,B|348:183|348:183|363:183,1,70,10|2,2:0|2:0,2:0:0:0:
457,187,1554,2,0,B|426:232|426:232|427:247,1,70,2|2,2:0|2:0,2:0:0:0:
470,315,1827,2,0,B|425:346|425:346|409:345,1,70,2|2,2:0|2:0,2:0:0:0:
297,294,2100,2,0,B|328:339|328:339|328:355,1,70,2|2,2:0|2:0,2:0:0:0:
219,332,2372,2,0,B|174:363|174:363|158:362,1,70,10|0,3:0|2:0,2:0:0:0:
97,298,2645,2,0,B|113:299|113:299|180:259,1,70,10|0,3:0|0:0,2:0:0:0:
20,200,2918,2,0,B|72:214|72:214|86:208,1,70,10|0,3:0|0:0,2:0:0:0:
87,118,3191,2,0,B|73:124|73:124|21:110,1,70,10|0,3:0|0:0,2:0:0:0:
52,0,3463,6,0,B|107:68|107:68|81:96|81:96|25:129|25:129|36:353|36:353|44:365|44:365|158:335|158:335|195:289|195:289|230:289,1,636.999970840455,4|8,1:0|1:0,2:0:0:0:
280,354,4554,5,4,3:2:0:0:
341,281,4691,1,0,3:0:0:0:
393,349,4827,2,0,L|483:361,1,90.9999958343508,8|0,1:0|3:0,0:0:0:0:
511,284,5100,6,0,B|511:242|511:242|471:216|471:216|354:233|354:233|317:201|317:201|314:165,1,272.999987503052,0|8,3:0|1:0,0:0:0:0:
367,86,5645,5,4,1:2:0:0:
371,68,5918,1,0,1:0:0:0:
375,50,6191,1,0,1:0:0:0:
379,34,6463,1,0,3:0:0:0:
270,14,6600,1,0,1:0:0:0:
280,19,6668,1,0,1:0:0:0:
287,26,6736,2,0,B|300:106|300:106|275:110,1,97.9999970092774,4|0,1:2|3:0,0:0:0:0:
203,74,7009,2,0,B|186:76|186:76|199:156,1,97.9999970092774,0|0,1:0|3:0,0:0:0:0:
172,237,7281,2,0,B|181:281|181:281|99:369|99:369|116:330,1,195.999994018555,0|0,1:0|1:0,0:0:0:0:
21,291,7691,5,0,1:0:0:0:
24,298,7759,1,0,1:0:0:0:
26,305,7827,2,0,B|206:270|206:270|291:290|291:290|343:372|343:372|495:353|495:353|502:308,1,545.999975006105,4|0,1:0|3:0,0:0:0:0:
512,237,8781,5,8,1:0:0:0:
440,189,8918,2,0,B|458:122|458:122|424:115,1,90.9999958343508,4|0,1:2|3:0,0:0:0:0:
352,148,9191,2,0,B|321:84|321:84|345:79,1,90.9999958343508,8|0,1:0|1:0,0:0:0:0:
301,4,9463,6,0,B|267:86|267:86|206:111|206:111|186:51|186:51|207:0,1,272.999987503052,0|8,1:0|1:0,0:0:0:0:
111,63,10009,5,0,1:0:0:0:
88,55,10281,1,0,1:0:0:0:
70,46,10554,1,0,1:0:0:0:
51,38,10827,2,0,B|19:79|19:79|38:137,1,90.9999958343508,0|0,1:0|1:0,0:0:0:0:
34,131,11031,1,0,1:0:0:0:
28,144,11100,2,0,B|98:156|98:156|139:123,1,90.9999958343508,0|0,1:0|3:0,0:0:0:0:
183,204,11372,2,0,B|201:178|201:178|286:147,1,90.9999958343508,0|0,1:0|3:0,0:0:0:0:
324,108,11645,2,0,L|322:47,3,45.4999979171754,0|0|0|0,1:0|3:0|3:0|3:0,0:0:0:0:
300,52,11918,1,0,1:0:0:0:
297,43,11986,1,0,3:0:0:0:
294,34,12054,1,0,3:0:0:0:
291,26,12122,1,0,3:0:0:0:
289,17,12191,6,0,B|337:24|337:24|357:39|357:39|412:45,1,112
330,220,12736,2,0,B|312:174|312:174|315:150|315:150|298:109,1,112
171,198,13281,2,0,B|167:142|167:142|209:103,1,112
108,73,13827,2,0,B|56:91|56:91|71:146,1,112
8,268,14372,6,0,L|73:284,1,56
137,310,14645,2,0,L|81:319,1,56
97,183,14918,2,0,L|31:169,1,56
176,203,15191,2,0,L|118:213,1,56
301,259,15463,6,0,L|354:286,1,56
214,281,15736,2,0,L|285:269,1,56
204,185,16009,2,0,L|265:174,1,56
279,97,16281,2,0,L|347:82,1,56
471,27,16554,5,8,1:0:0:0:
473,46,16691,1,0,0:0:0:0:
475,66,16827,2,0,B|481:91|481:91|455:146,1,70
309,219,17100,1,8,1:0:0:0:
316,196,17236,1,0,0:0:0:0:
322,176,17372,2,0,B|295:200|295:200|300:235,1,70
229,81,17645,1,8,1:0:0:0:
254,91,17781,1,0,0:0:0:0:
280,98,17918,2,0,B|246:77|246:77|197:93,1,70
101,130,18191,1,8,1:0:0:0:
118,163,18327,1,0,0:0:0:0:
139,134,18463,2,0,B|123:137|123:137|89:179,1,70
202,370,18736,6,0,L|194:274,1,70,8|0,1:0|3:0,0:0:0:0:
148,229,19009,1,8,1:0:0:0:
90,284,19145,1,0,1:0:0:0:
93,293,19213,1,0,1:0:0:0:
93,302,19281,2,0,B|115:331|115:331|118:367,1,70,8|0,1:0|3:0,0:0:0:0:
287,355,19554,2,0,B|283:316|283:316|294:287,1,70,8|0,1:0|1:0,0:0:0:0:
297,278,19759,1,0,1:0:0:0:
297,267,19827,2,0,B|282:200|282:200|281:122|281:122|255:104,1,175,12|0,1:0|0:0,0:0:0:0:
466,13,20372,6,2,B|419:119|419:119|360:178|360:178|405:260,1,280,2|0,2:1|3:0,2:1:0:0:
286,384,21191,5,0,3:0:0:0:
190,258,21463,1,2,3:1:0:0:
190,258,21600,1,0,2:0:0:0:
115,342,21736,2,0,B|92:205|92:205|110:175,1,167.999994873047,2|0,3:1|0:0,0:0:0:0:
110,97,22145,1,2,2:1:0:0:
34,146,22281,2,0,L|19:64,1,83.9999974365235,0|0,3:0|0:0,0:0:0:0:
109,210,22554,1,2,3:1:0:0:
109,210,22691,1,0,2:0:0:0:
20,234,22827,2,0,B|67:248|67:248|200:230,1,167.999994873047,2|0,3:1|0:0,0:0:0:0:
252,190,23236,1,2,2:1:0:0:
221,301,23372,2,0,B|331:286,1,83.9999974365235,0|0,3:0|0:0,0:0:0:0:
358,221,23645,2,0,B|357:202|357:202|288:160,2,83.9999974365235,2|0|2,3:1|2:0|3:1,0:0:0:0:
444,282,24054,5,2,2:3:0:0:
438,284,24122,1,2,2:3:0:0:
431,286,24191,1,2,3:0:0:0:
354,305,24327,1,2,2:3:0:0:
283,274,24463,1,2,3:0:0:0:
214,321,24600,1,2,2:3:0:0:
214,321,24668,1,0,2:0:0:0:
214,321,24736,2,0,B|233:302|233:302|218:238,1,70,2|2,3:0|2:3,2:0:0:0:
100,141,25009,2,0,B|82:176|82:176|93:211,2,70,0|0|0,1:0|1:0|1:0,2:0:0:0:
204,142,25418,5,2,2:1:0:0:
200,135,25554,2,0,B|184:65,1,70,0|0,3:0|0:0,0:0:0:0:
107,26,25827,1,2,3:1:0:0:
102,23,25963,1,0,2:0:0:0:
10,103,26100,2,0,L|167:85,1,140,2|0,3:1|0:0,0:0:0:0:
219,45,26509,1,2,2:1:0:0:
205,150,26645,2,0,L|274:141,1,70,0|0,3:0|0:0,0:0:0:0:
371,87,26918,2,0,B|356:73|356:73|299:66,1,70,2|0,3:1|2:0,0:0:0:0:
438,39,27191,6,0,L|468:55,3,35,0|0|0|0,3:0|2:0|2:0|2:0,2:0:0:0:
465,130,27463,2,0,L|481:47,1,70,4|4,3:0|2:3,2:0:0:0:
398,172,27736,2,0,L|379:264,1,70,4|0,3:0|0:0,0:0:0:0:
369,331,28009,1,2,3:0:0:0:
292,312,28145,1,2,2:3:0:0:
217,289,28281,2,0,L|177:278,3,35,0|0|0|0,3:0|2:0|2:0|2:0,2:0:0:0:
150,286,28554,2,0,L|128:352,1,70,4|4,3:0|2:3,2:0:0:0:
107,216,28827,2,0,L|95:146,1,70,4|0,3:0|0:0,0:0:0:0:
195,202,29100,5,2,3:0:0:0:
288,182,29236,1,0,3:0:0:0:
385,160,29372,2,0,B|379:127|379:127|329:106,2,70,0|0|0,1:0|1:0|1:0,2:0:0:0:
241,88,29781,5,2,2:1:0:0:
245,92,29918,2,0,B|256:81|256:81|264:23,1,70,0|0,3:0|0:0,0:0:0:0:
351,33,30191,1,2,3:1:0:0:
351,33,30327,1,0,2:0:0:0:
402,152,30463,2,0,L|357:18,1,140,2|0,3:1|0:0,0:0:0:0:
276,3,30872,1,2,2:1:0:0:
210,55,31009,2,0,L|230:121,1,70,0|0,3:0|0:0,0:0:0:0:
299,182,31281,1,2,3:1:0:0:
299,182,31418,1,0,2:0:0:0:
375,141,31554,2,0,B|492:155|492:155|509:169,1,140,2|0,3:1|0:0,0:0:0:0:
427,247,31963,1,2,2:1:0:0:
422,160,32100,2,0,B|493:168,1,70,0|0,3:0|0:0,0:0:0:0:
511,249,32372,2,0,L|419:273,1,70,2|0,3:1|2:0,0:0:0:0:
365,272,32645,1,2,3:1:0:0:
441,359,32781,5,2,2:3:0:0:
441,359,32850,1,2,2:3:0:0:
441,359,32918,2,0,L|362:376,1,70,2|2,3:0|2:3,2:0:0:0:
303,334,33191,1,2,3:0:0:0:
223,345,33327,1,2,2:3:0:0:
171,284,33463,1,2,3:0:0:0:
207,210,33600,1,2,2:3:0:0:
208,202,33668,1,0,2:0:0:0:
208,194,33736,2,0,B|169:193|169:193|134:213,1,70,0|0,3:0|3:0,2:0:0:0:
120,73,34009,6,0,B|161:53|161:53|220:61,2,93.3333333333333,4|4|4,3:2|3:2|3:2,0:0:0:0:
0,135,34554,2,0,B|40:155|40:155|92:147,2,93.3333333333333,4|4|4,3:2|3:2|3:2,0:0:0:0:
90,238,35100,2,0,L|81:343,1,105,4|4,3:2|3:2,0:0:0:0:
182,378,35509,6,0,B|183:353|183:353|208:296,1,70,0|0,1:0|3:0,0:0:0:0:
293,257,35781,2,0,B|290:240|290:240|239:197,1,70,0|0,1:0|3:0,0:0:0:0:
268,87,36054,5,0,1:0:0:0:
268,87,36122,1,0,1:0:0:0:
267,87,36191,2,0,B|301:72|301:72|335:78,1,70,0|0,3:0|3:0,0:0:0:0:
393,145,36463,2,0,B|427:157|427:157|462:150,1,70,8|0,3:1|1:0,0:0:0:0:
473,36,36736,1,0,3:0:0:0:
473,36,36804,1,0,3:0:0:0:
473,36,36872,2,0,B|457:75|457:75|492:174,1,140,8|0,3:1|3:0,0:0:0:0:
482,248,37281,5,8,3:0:0:0:
430,366,37554,1,8,3:0:0:0:
381,220,37827,1,8,3:0:0:0:
370,175,37963,1,8,3:0:0:0:
403,141,38100,1,8,3:0:0:0:
388,95,38236,1,8,3:0:0:0:
422,28,38372,6,0,B|412:38|412:38|345:49|345:49|309:28|309:28|241:39|241:39|230:52,1,210.000008010865,6|0,1:0|3:0,0:0:0:0:
26,117,38781,2,0,B|37:127|37:127|104:138|104:138|140:117|140:117|208:128|208:128|219:141,1,210.000008010865,4|0,1:2|3:0,0:0:0:0:
259,210,39191,1,0,0:0:0:0:
449,244,39463,2,0,B|489:223|489:223|444:113|444:113|375:139,1,210.000008010865,4|0,1:2|3:0,0:0:0:0:
323,225,39872,2,0,B|297:261|297:261|359:276,1,105.000004005432,4|4,1:2|2:3,0:0:0:0:
359,266,40077,1,4,2:3:0:0:
360,257,40145,1,4,2:3:0:0:
361,250,40213,1,4,2:3:0:0:
363,241,40281,1,0,0:0:0:0:
222,33,40554,2,0,B|244:75|244:75|226:190,1,157.500006008148,0|0,1:0|3:0,0:0:0:0:
0,244,41100,2,0,B|132:212|132:212|175:227,1,157.500006008148,2|0,1:0|3:0,0:0:0:0:
277,127,41645,2,0,L|292:95,7,35,4|4|4|4|4|4|4|4,2:3|2:3|2:3|2:3|2:3|2:3|2:3|2:3,0:0:0:0:
230,40,42191,2,0,B|214:4,1,35,4|4,2:3|2:3,2:0:0:0:
256,0,42395,1,4,2:3:0:0:
312,383,42736,6,0,B|326:343|326:343|284:220|284:220|223:187,1,210.000008010865,6|0,1:0|3:0,0:0:0:0:
190,55,43145,2,0,B|156:72|156:72|114:195|114:195|128:235,1,210.000008010865,4|0,1:2|3:0,0:0:0:0:
202,268,43554,1,0,0:0:0:0:
377,215,43827,2,0,B|432:249|432:249|392:316|392:316|330:280,1,210.000008010865,4|0,1:2|3:0,0:0:0:0:
288,204,44236,2,0,B|271:175|271:175|287:127|287:127|323:117,1,105.000004005432,4|4,1:2|2:3,0:0:0:0:
316,125,44441,1,4,2:3:0:0:
326,129,44509,1,4,2:3:0:0:
335,133,44577,1,4,2:3:0:0:
345,137,44645,1,0,0:0:0:0:
458,328,44918,1,0,1:0:0:0:
452,332,44986,1,0,3:0:0:0:
446,335,45054,2,0,B|334:289|334:289|289:287,1,157.500006008148,2|0,3:1|0:0,0:0:0:0:
162,231,45463,2,0,B|187:177|187:177|168:80,1,157.500006008148,2|0,1:0|3:0,0:0:0:0:
255,288,46009,2,0,L|267:336,7,35,4|4|4|4|4|4|4|4,2:3|2:3|2:3|2:3|2:3|2:3|2:3|2:3,0:0:0:0:
344,333,46554,2,0,B|336:367,1,35,4|4,2:3|2:3,2:0:0:0:
320,384,46759,1,4,2:3:0:0:
48,299,47100,6,0,B|45:272|45:272|60:216,1,83.9999974365235,14|0,1:0|3:0,2:0:0:0:
103,60,47372,2,0,B|97:87|97:87|115:150,1,83.9999974365235,8|2,1:0|3:1,2:0:0:0:
201,230,47645,2,0,B|217:202|217:202|193:128,1,83.9999974365235,8|0,1:0|3:0,2:0:0:0:
257,92,47918,1,10,1:0:0:0:
313,169,48054,1,0,3:0:0:0:
317,178,48122,1,0,3:0:0:0:
323,187,48191,2,0,B|349:189|349:189|413:229,1,83.9999974365235,10|0,1:0|3:0,2:0:0:0:
470,310,48463,2,0,B|450:294|450:294|455:357,1,83.9999974365235,8|2,1:0|3:1,2:0:0:0:
377,376,48736,2,0,B|367:367|367:367|360:265,1,83.9999974365235,8|0,1:0|3:0,2:0:0:0:
296,252,49009,1,10,1:0:0:0:
219,278,49145,1,0,3:0:0:0:
177,354,49281,1,8,1:0:0:0:
112,305,49418,1,2,3:1:0:0:
112,305,49486,1,0,3:0:0:0:
112,305,49554,2,0,B|120:271|120:271|91:195,1,83.9999974365235,8|0,1:0|3:0,2:0:0:0:
45,93,49827,2,0,B|27:108|27:108|46:194,1,83.9999974365235,10|0,1:0|3:0,2:0:0:0:
169,158,50100,2,0,B|209:142|209:142|222:74,1,83.9999974365235,10|0,1:0|3:0,2:0:0:0:
300,38,50372,2,0,B|334:8|334:8|469:34,1,167.999994873047,10|8,1:0|1:0,2:0:0:0:
482,113,50781,1,0,3:0:0:0:
419,174,50918,2,0,B|358:132|358:132|373:122,1,83.9999974365235,10|0,1:0|3:0,2:0:0:0:
358,150,51191,1,10,1:0:0:0:
331,308,51463,6,0,L|337:251,5,48.9999985046387,10|0|8|0|8|0,1:0|3:0|1:0|3:0|1:0|3:0,2:0:0:0:
327,243,51872,2,0,B|288:279|288:279|482:253,1,244.999992523194,10|0,1:0|3:0,2:0:0:0:
479,167,52281,2,0,B|479:150|479:150|449:108,3,48.9999985046387,10|0|10|0,1:0|3:0|1:0|3:0,2:0:0:0:
351,154,52554,2,0,L|371:96,5,48.9999985046387,10|0|8|0|8|0,1:0|3:0|1:0|3:0|1:0|3:0,2:0:0:0:
382,110,52963,2,0,B|366:55|366:55|194:97|194:97|212:72,1,244.999992523194,10|0,1:0|3:0,2:0:0:0:
124,53,53372,2,0,L|-20:-1,1,146.999995513916,10|0,1:0|3:0,2:0:0:0:
291,0,53781,6,0,B|310:42|310:42|247:131,1,140,2|0,2:0|0:0,0:0:0:0:
270,217,54191,2,0,B|262:256|262:256|291:309,1,70,2|0,2:0|0:0,2:0:0:0:
323,352,54463,2,0,B|366:342|366:342|414:345,1,70,2|0,2:0|0:0,0:0:0:0:
412,264,54736,1,2,2:0:0:0:
402,255,55281,6,0,B|247:286|247:286|269:295,1,167.999994873047,2|0,2:0|2:0,2:0:0:0:
31,120,66745,6,0,B|56:90|56:90|75:46,2,74.6666666666667,2|0|0,2:0|0:0|2:0,2:0:0:0:
99,189,67290,2,0,B|114:267,1,74.6666666666667,2|2,2:0|2:0,2:0:0:0:
47,318,67631,1,2,2:0:0:0:
206,265,67835,2,0,L|190:371,1,93.3333333333333,2|2,2:0|2:0,2:0:0:0:
132,199,68176,1,2,2:0:0:0:
298,283,68381,2,0,B|319:135,1,130.666662679037,2|2,2:0|2:0,2:0:0:0:
218,35,68722,1,2,2:0:0:0:
352,30,68926,6,0,B|358:68|358:68|383:117,1,74.6666666666667,2|0,2:0|0:0,2:0:0:0:
446,198,69267,1,0,0:0:0:0:
345,266,69472,2,0,B|362:302|362:302|370:351,1,74.6666666666667,2|2,2:0|2:0,2:0:0:0:
272,223,69813,1,2,2:0:0:0:
115,335,70017,2,0,B|156:315|156:315|203:311,1,93.3333333333333,2|2,2:0|2:0,2:0:0:0:
283,353,70358,1,2,2:0:0:0:
219,111,70563,2,0,B|181:164|181:164|190:229,1,130.666662679037,2|2,2:0|2:0,2:0:0:0:
265,254,70904,1,0,0:0:0:0:
423,358,71108,6,0,B|438:349|438:349|419:292,1,74.6666666666667,2|2,2:0|2:0,2:0:0:0:
344,203,71472,2,0,B|329:251|329:251|347:272,1,74.6666666666667,2|2,2:0|2:0,0:0:0:0:
249,221,71835,2,0,B|215:242|215:242|191:241|191:241|167:248,1,74.6666666666667,2|2,2:0|2:0,0:0:0:0:
106,346,72199,2,0,B|96:306|96:306|98:262,1,74.6666666666667,2|2,2:0|2:0,2:0:0:0:
66,170,72563,2,0,B|55:202|55:202|40:191|40:191|64:168,1,74.6666666666667,2|2,2:0|2:0,0:0:0:0:
53,23,72926,1,2,2:0:0:0:
116,92,73108,1,2,2:0:0:0:
227,23,73290,6,0,B|246:41|246:41|240:105,1,74.6666666666667,2|2,2:0|2:0,2:0:0:0:
338,179,73654,2,0,B|322:121|322:121|324:105,1,74.6666666666667,2|2,2:0|2:0,0:0:0:0:
428,54,74017,2,0,B|406:85|406:85|411:121,1,74.6666666666667,2|2,2:0|2:0,0:0:0:0:
468,223,74381,2,0,B|483:258|483:258|473:293,1,74.6666666666667,2|2,2:0|2:0,2:0:0:0:
374,352,74745,2,0,B|407:366|407:366|395:321,1,74.6666666666667,2|2,2:0|2:0,0:0:0:0:
365,250,75108,1,2,2:0:0:0:
281,219,75290,1,2,2:0:0:0:
138,340,75472,6,0,B|146:368|146:368|168:384,2,56,2|0|0,2:0|2:0|2:0,0:0:0:0:
155,235,75881,1,0,2:0:0:0:
252,239,76017,2,0,B|278:231|278:231|296:209,2,56,2|0|0,2:0|2:0|2:0,0:0:0:0:
144,224,76426,1,0,2:0:0:0:
157,127,76563,2,0,B|148:101|148:101|127:83,2,56,2|0|0,2:0|2:0|2:0,0:0:0:0:
141,252,76972,1,0,2:0:0:0:
43,247,77108,2,0,B|18:256|18:256|0:277,2,56,2|0|0,2:0|2:0|2:0,0:0:0:0:
149,264,77517,1,0,2:0:0:0:
253,363,77654,6,0,L|244:337,3,28,2|0|0|0,2:0|2:0|2:0|2:0,0:0:0:0:
302,259,78199,2,0,L|316:292,3,28,2|0|0|0,2:0|2:0|2:0|2:0,0:0:0:0:
399,336,78745,2,0,L|408:309,3,28,2|0|0|0,2:0|2:0|2:0|2:0,0:0:0:0:
486,295,79290,2,0,L|517:285,3,28,2|0|0|0,2:0|2:0|2:0|2:0,0:0:0:0:
407,183,79835,6,0,B|398:135|398:135|385:127,4,56,0|0|0|0|2,2:0|2:0|2:0|2:0|2:0,2:0:0:0:
318,14,80381,2,0,B|309:55|309:55|313:68,4,56,0|0|0|0|2,2:0|2:0|2:0|2:0|2:0,2:0:0:0:
440,65,80926,2,0,B|430:50|430:50|440:9,4,56,0|0|0|0|2,2:0|2:0|2:0|2:0|2:0,2:0:0:0:
510,127,81472,2,0,B|511:140|511:140|494:180,4,56,0|0|0|0|2,2:0|2:0|2:0|2:0|2:0,2:0:0:0:
188,33,82017,6,0,B|214:49|214:49|185:63,4,56,0|0|0|0|2,2:0|2:0|2:0|2:0|2:0,0:0:0:0:
95,97,82563,2,0,B|69:113|69:113|98:127,4,56,0|0|0|0|2,2:0|2:0|2:0|2:0|2:0,0:0:0:0:
219,204,83108,2,0,B|244:202|244:202|229:229,4,56,0|0|0|0|2,2:0|2:0|2:0|2:0|2:0,0:0:0:0:
163,308,83654,2,0,B|149:329|149:329|180:330,4,56,0|0|0|0|2,2:0|2:0|2:0|2:0|2:0,0:0:0:0:
74,334,84916,6,0,L|145:352,1,70,2|0,2:0|0:0,2:0:0:0:
142,352,85528,2,2,B|133:330|133:330|394:363,1,280,0|2,2:0|2:0,2:1:0:0:
256,192,87312,12,0,89903,0:0:0:0:
256,192,90577,12,0,91972,0:0:0:0:
179,182,92625,6,0,B|203:57,1,105,2|0,2:0|0:0,2:0:0:0:
335,33,93196,2,0,B|326:50|326:50|345:121,1,93.3333333333333,2|0,2:0|0:0,0:0:0:0:
466,178,93834,2,0,B|490:172|490:172|504:172,2,35
256,192,95240,12,0,99806,0:0:0:0:
256,192,100792,12,0,103518,0:0:0:0:
222,225,104375,6,0,B|198:184|198:184|222:65,1,167.999994873047
256,192,105599,12,0,106962,2:0:0:0:
450,40,107099,6,0,L|437:116,1,70,4|2,1:0|2:0,0:0:0:0:
460,185,107371,1,0,2:0:0:0:
361,121,107508,2,0,L|376:191,1,70,2|2,2:0|2:0,0:0:0:0:
459,202,107780,1,0,2:0:0:0:
410,283,107917,2,0,L|298:261,1,97.9999970092774,2|0,2:1|2:0,2:0:0:0:
254,331,108189,2,0,L|158:313,1,97.9999970092774,2|0,2:1|2:0,2:0:0:0:
90,255,108462,2,0,L|80:192,1,48.9999985046387,2|0,3:0|2:0,2:0:0:0:
91,171,108599,1,2,2:0:0:0:
289,199,108871,2,0,L|299:136,1,48.9999985046387,2|0,3:0|2:0,2:0:0:0:
283,112,109008,1,2,2:0:0:0:
103,58,109280,2,0,L|211:34,1,97.9999970092774,2|0,2:1|2:0,2:0:0:0:
258,93,109553,2,0,L|353:71,1,97.9999970092774,2|0,2:1|2:0,2:0:0:0:
438,60,109826,6,0,L|244:29,1,195.999994018555,4|0,1:0|2:0,0:0:0:0:
111,133,110235,1,2,2:0:0:0:
31,170,110371,2,0,B|24:119|24:119|56:65,1,97.9999970092774,2|0,2:0|2:0,0:0:0:0:
126,26,110644,2,0,L|158:130,1,97.9999970092774,2|0,2:1|2:0,2:0:0:0:
232,161,110917,2,0,L|165:233,1,97.9999970092774,2|0,2:1|2:0,2:0:0:0:
170,322,111189,2,0,L|239:356,1,48.9999985046387,2|0,3:0|2:0,2:0:0:0:
247,332,111326,1,2,2:0:0:0:
334,216,111599,2,0,L|403:181,1,48.9999985046387,2|0,3:0|2:0,2:0:0:0:
414,207,111735,1,2,2:0:0:0:
335,48,112008,1,2,1:0:0:0:
337,42,112076,1,0,3:0:0:0:
339,35,112144,1,0,3:0:0:0:
341,29,112212,1,0,3:0:0:0:
343,23,112280,2,0,B|298:5|298:5|315:122,1,146.999995513916,10|0,1:0|0:0,0:0:0:0:
271,171,112553,6,0,L|334:236,1,70,4|2,1:0|2:0,0:0:0:0:
337,300,112826,1,0,2:0:0:0:
395,169,112962,2,0,L|396:250,1,70,2|2,2:0|2:0,0:0:0:0:
328,309,113235,1,0,2:0:0:0:
474,365,113371,2,0,B|472:343|472:343|360:362,1,105.000004005432,2|0,2:1|2:0,2:0:0:0:
333,296,113644,2,0,L|229:314,1,105.000004005432,2|0,2:1|2:0,2:0:0:0:
152,179,113917,2,0,L|160:231,1,52.5000020027161,2|0,3:0|2:0,2:0:0:0:
149,264,114053,1,2,2:0:0:0:
303,85,114326,2,0,L|294:137,1,52.5000020027161,2|0,3:0|2:0,2:0:0:0:
308,167,114462,1,2,2:0:0:0:
478,165,114735,1,2,1:0:0:0:
469,162,114803,1,0,3:0:0:0:
461,160,114871,1,0,3:0:0:0:
453,158,114939,1,0,3:0:0:0:
445,156,115008,2,0,L|269:194,1,157.500006008148,10|0,1:0|0:0,0:0:0:0:
242,114,115280,6,0,B|296:88|296:88|256:280,1,210.000008010865,4|0,1:0|2:0,0:0:0:0:
169,292,115689,1,2,2:0:0:0:
209,362,115826,2,0,L|182:250,1,105.000004005432,2|0,2:0|2:0,0:0:0:0:
93,211,116099,2,0,B|67:226|67:226|60:309,1,105.000004005432,2|0,2:1|2:0,2:0:0:0:
103,384,116371,2,0,B|114:358|114:358|77:218,1,157.500006008148,2|0,2:1|0:0,2:0:0:0:
43,150,116644,2,0,B|64:102|64:102|16:80|16:80|-6:129|-6:129|12:136,3,178.500003404617,6|0|6|0,1:2|1:0|1:2|1:0,2:0:0:0:
183,107,117462,5,0,1:0:0:0:
195,100,117530,1,0,3:0:0:0:
206,94,117599,1,2,3:1:0:0:
218,87,117667,1,0,3:0:0:0:
231,80,117735,2,0,L|313:94,3,59.5000011348725,2|0|2|0,1:0|3:0|3:1|3:0,0:0:0:0:
354,61,118008,6,0,B|349:30|349:30|157:50,1,224,6|0,1:0|1:0,2:0:0:0:
149,44,118349,1,0,3:0:0:0:
142,39,118417,1,0,3:0:0:0:
136,33,118485,1,0,3:0:0:0:
130,27,118553,1,2,1:0:0:0:
34,47,118689,1,0,3:0:0:0:
52,137,118826,2,0,L|81:270,1,112,2|0,1:0|3:0,0:0:0:0:
136,335,119099,2,0,B|167:251|167:251|149:224,1,112,2|0,1:0|3:0,0:0:0:0:
56,236,119371,2,0,L|278:207,1,224,6|0,1:0|1:0,2:0:0:0:
282,215,119712,1,0,3:0:0:0:
288,224,119780,1,0,3:0:0:0:
293,233,119849,1,0,3:0:0:0:
299,243,119917,1,2,1:0:0:0:
344,325,120053,1,0,3:0:0:0:
278,376,120189,2,0,L|304:257,1,112,2|0,1:0|3:0,0:0:0:0:
408,231,120462,2,0,B|423:152|423:152|391:102,1,112,2|0,1:0|3:0,0:0:0:0:
413,38,120735,6,0,B|426:80|426:80|223:141,1,224,6|0,1:0|1:0,2:0:0:0:
243,126,121076,1,0,3:0:0:0:
234,119,121144,1,0,3:0:0:0:
226,112,121212,1,0,3:0:0:0:
217,105,121280,1,2,1:0:0:0:
126,92,121417,1,0,3:0:0:0:
85,164,121553,2,0,L|47:19,1,112,2|0,1:0|3:0,0:0:0:0:
186,55,121826,2,0,B|161:142|161:142|152:109,1,112,2|0,1:0|3:0,0:0:0:0:
231,191,122099,2,0,B|303:48|303:48|410:93,1,224,6|0,1:0|1:0,2:0:0:0:
366,83,122439,1,0,3:0:0:0:
371,94,122508,1,0,3:0:0:0:
377,104,122576,1,0,3:0:0:0:
383,115,122644,1,2,1:0:0:0:
402,219,122780,1,0,3:0:0:0:
328,179,122917,2,0,L|398:286,1,112,2|0,1:0|3:0,0:0:0:0:
379,370,123189,2,0,B|359:348|359:348|477:370,1,112,2|0,1:0|3:0,0:0:0:0:
507,286,123462,6,0,B|330:326|330:326|254:308,1,224,6|0,1:0|1:0,2:0:0:0:
285,304,123803,1,0,3:0:0:0:
280,294,123871,1,0,3:0:0:0:
277,282,123939,1,0,3:0:0:0:
274,271,124008,1,2,1:0:0:0:
189,243,124144,1,0,3:0:0:0:
135,345,124280,2,0,B|158:277|158:277|137:194,1,112,2|0,1:0|3:0,0:0:0:0:
43,225,124553,2,0,B|65:227|65:227|76:114,1,112,2|0,1:0|3:0,0:0:0:0:
134,8,124826,2,0,B|101:43|101:43|238:218,1,224,6|0,1:0|1:0,2:0:0:0:
220,178,125167,1,0,3:0:0:0:
230,174,125235,1,0,3:0:0:0:
241,171,125303,1,0,3:0:0:0:
251,168,125371,1,2,1:0:0:0:
345,109,125508,1,0,3:0:0:0:
436,151,125644,2,0,B|401:165|401:165|295:133,1,112,2|0,1:0|3:0,0:0:0:0:
240,66,125917,2,0,B|253:35|253:35|366:43,1,112,2|0,1:0|3:0,0:0:0:0:
446,16,126189,6,0,B|487:28|487:28|457:139,1,125.999996154785,6|0,1:0|3:0,2:0:0:0:
450,120,126461,2,0,B|422:213|422:213|377:199,1,125.999996154785,2|0,1:0|3:0,2:0:0:0:
318,163,126734,2,0,B|277:175|277:175|307:286,1,125.999996154785,2|0,1:0|3:0,2:0:0:0:
314,267,127007,2,0,B|342:360|342:360|387:346,1,125.999996154785,2|0,1:0|3:0,2:0:0:0:
460,333,127279,2,0,L|329:314,1,125.999996154785,2|0,1:0|3:0,2:0:0:0:
327,291,127552,2,0,L|191:272,1,125.999996154785,2|0,1:0|3:0,2:0:0:0:
106,205,127825,2,0,L|237:186,1,125.999996154785,2|0,1:0|3:0,2:0:0:0:
239,163,128098,2,0,L|375:144,1,125.999996154785,2|0,1:0|3:0,2:0:0:0:
436,245,128370,2,0,B|471:196|471:196|462:130,1,125.999996154785,2|0,1:0|3:0,2:0:0:0:
439,123,128643,2,0,B|430:59|430:59|465:9,1,125.999996154785,2|0,1:0|3:0,2:0:0:0:
364,10,128916,2,0,B|316:48|316:48|308:114,1,125.999996154785,2|0,1:0|3:0,2:0:0:0:
329,127,129189,2,0,B|320:190|320:190|273:230,1,125.999996154785,2|0,1:0|3:0,2:0:0:0:
191,160,129461,2,0,B|204:185|204:185|108:164,1,125.999996154785,2|0,1:0|3:0,2:0:0:0:
83,179,129734,2,0,B|-13:158|-13:158|0:183,1,125.999996154785,2|0,1:0|3:0,2:0:0:0:
85,270,130007,2,0,B|110:283|110:283|88:186,1,125.999996154785,2|0,1:0|3:0,2:0:0:0:
103,161,130279,2,0,B|82:65|82:65|107:78,1,125.999996154785,2|0,1:0|3:0,2:0:0:0:
165,21,130552,6,0,B|179:18|179:18|189:67,3,62.9999980773926,6|0|2|0,1:0|3:0|1:0|3:0,0:0:0:0:
265,102,130825,2,0,B|265:120|265:120|226:155,3,62.9999980773926,2|0|2|0,1:0|3:0|1:0|3:0,0:0:0:0:
226,239,131098,2,0,B|240:233|240:233|283:253,3,62.9999980773926,2|0|2|0,1:0|3:0|1:0|3:0,0:0:0:0:
336,316,131370,2,0,B|360:312|360:312|398:371,3,62.9999980773926,2|0|2|0,1:0|3:0|1:0|3:0,0:0:0:0:
449,295,131643,2,0,B|460:278|460:278|527:239,3,62.9999980773926,2|0|2|0,1:0|3:0|1:0|3:0,0:0:0:0:
465,180,131916,2,0,B|476:163|476:163|457:79,3,62.9999980773926,2|0|2|0,1:0|3:0|1:0|3:0,0:0:0:0:
422,47,132189,2,0,B|405:62|405:62|353:14,3,62.9999980773926,2|0|2|0,1:0|3:0|1:0|3:0,0:0:0:0:
297,16,132461,2,0,L|248:54,3,62.9999980773926,2|0|2|0,1:0|3:0|1:0|3:0,0:0:0:0:
125,9,133825,6,2,L|22:27,1,105.000004005432,10|2,1:0|2:0,2:0:0:0:
198,145,134234,2,2,L|301:160,1,105.000004005432,10|2,1:0|2:0,2:0:0:0:
193,296,134507,1,0,3:0:0:0:
131,245,134643,2,0,L|79:254,3,52.5000020027161,8|0|0|0,1:0|0:0|2:0|0:0,2:0:0:0:
1,245,134916,6,0,B|136:219,1,125.999996154785,4|0,1:0|3:0,2:0:0:0:
138,218,135120,1,0,3:0:0:0:
152,215,135189,1,8,1:0:0:0:
212,148,135325,1,0,3:0:0:0:
267,222,135461,6,0,B|258:283,1,56,2|0,1:0|3:0,2:0:0:0:
370,328,135734,1,10,1:0:0:0:
353,328,135870,2,0,B|344:389,1,56,2|0,3:1|1:0,2:0:0:0:
443,194,136143,2,0,B|428:257,1,56,2|8,3:1|1:0,2:0:0:0:
327,185,136416,1,2,3:1:0:0:
320,157,136552,2,0,B|304:219,1,56,2|0,1:0|3:0,2:0:0:0:
265,84,136825,6,2,B|191:72|191:72|201:83|201:83|124:71,1,157.500006008148,8|0,1:3|2:0,2:3:0:0:
71,0,137098,6,0,L|115:146,1,125.999996154785,4|0,1:0|3:0,2:0:0:0:
112,133,137302,1,0,3:0:0:0:
117,145,137370,1,8,1:0:0:0:
210,163,137507,1,0,3:0:0:0:
186,250,137643,6,0,L|121:237,1,56,2|0,1:0|3:0,2:0:0:0:
31,309,137916,1,10,1:0:0:0:
35,318,138052,2,0,B|69:318|69:318|95:295,1,56,2|0,3:1|1:0,2:0:0:0:
245,367,138325,2,0,B|224:374|224:374|189:367,1,56,2|8,3:1|1:0,2:0:0:0:
256,258,138598,2,0,B|291:245|291:245|259:241,1,70,0|0,3:0|1:0,0:0:0:0:
163,150,138870,1,0,3:0:0:0:
163,150,138939,1,0,3:0:0:0:
163,150,139007,2,2,B|150:83|150:83|144:78|144:78|131:8,1,146.999995513916,8|0,1:0|2:0,2:1:0:0:
241,114,139279,6,0,L|54:83,1,188.999994232178,4|0,1:0|3:0,2:0:0:0:
355,32,139825,6,0,L|415:16,1,56,2|0,1:0|3:0,2:0:0:0:
484,74,140098,1,10,1:0:0:0:
471,75,140234,2,0,B|461:130,1,56,2|0,3:1|1:0,2:0:0:0:
383,173,140507,2,0,B|373:237,1,56,2|8,3:1|1:0,2:0:0:0:
318,315,140779,1,2,3:1:0:0:
325,326,140916,2,0,B|313:392,1,56,2|0,1:0|3:0,2:0:0:0:
276,258,141189,1,8,1:0:0:0:
83,278,141461,6,0,B|49:320|49:320|97:342,1,97.9999970092774,0|0,1:0|0:0,0:0:0:0:
67,355,141734,2,0,L|192:342,1,125.999996154785,2|2,3:2|1:2,2:0:0:0:
199,323,142007,2,0,L|337:348,1,140,2|2,1:2|3:2,2:0:0:0:
340,367,142279,2,0,L|484:313,1,154.000004699707,2|0,2:0|1:0,2:0:0:0:
484,214,142552,6,0,B|471:197|471:197|461:133,3,70,2|0|2|0,2:3|0:0|2:3|0:0,2:0:0:0:
386,119,142825,2,0,L|403:41,1,70,2|0,2:3|0:0,2:0:0:0:
483,52,142961,2,0,B|448:20|448:20|313:30,1,125.999996154785,2|2,2:3|2:3,2:0:0:0:
238,38,143234,5,4,3:0:0:0:
242,48,143370,2,0,B|231:71|231:71|244:115|244:115|235:140,1,97.9999970092775,12|4,1:3|2:3,0:0:0:0:
147,187,143643,6,0,L|366:200,1,188.999994232178,4|0,1:0|3:0,2:0:0:0:
359,187,143916,2,0,B|406:224|406:224|372:359,1,188.999994232178,8|0,1:0|0:0,2:0:0:0:
392,359,144189,6,0,B|337:367,1,56,2|0,2:1|0:0,2:0:0:0:
252,300,144461,2,0,B|259:323|259:323|252:355,1,56,10|2,1:0|2:1,2:0:0:0:
40,303,144870,6,0,L|64:353,1,56,2|0,2:1|0:0,2:0:0:0:
80,227,145143,2,0,L|55:170,1,56,2|2,2:1|2:1,2:0:0:0:
187,121,145416,5,4,2:3:0:0:
187,121,145552,2,0,B|174:70|174:70|173:46|173:46|160:-3,1,125.999996154785,12|4,1:3|2:3,0:0:0:0:
253,40,145825,6,0,B|215:206|215:206|160:194,1,210,4|0,1:0|3:0,2:0:0:0:
168,214,146098,2,0,B|34:249|34:249|77:268,1,168,8|0,1:0|0:0,2:0:0:0:
41,268,146370,6,0,L|59:206,1,56,2|0,2:1|0:0,2:0:0:0:
107,136,146643,1,10,1:0:0:0:
116,131,146779,2,0,B|132:67,1,56,2|0,2:1|1:0,2:0:0:0:
0,67,147052,2,0,L|18:12,1,56,2|8,2:1|0:1,2:0:0:0:
138,58,147325,2,0,B|169:63|169:63|194:89|194:89|190:139,1,105,8|0,1:0|3:0,2:0:0:0:
188,153,147598,1,4,2:3:0:0:
201,160,147734,2,0,B|212:211|212:211|225:117,1,146.999995513916,12|0,1:3|0:0,0:0:0:0:
294,76,148007,6,0,L|269:-1,5,59.5000011348725,4|0|0|0|0|0,1:0|3:0|1:0|3:0|1:0|3:0,0:0:0:0:
307,72,148416,2,0,L|328:141,1,59.5000011348725,0|0,1:0|3:0,0:0:0:0:
389,185,148552,2,0,L|449:222,5,59.5000011348725,0|0|0|0|0|0,1:0|3:0|1:0|3:0|1:0|3:0,0:0:0:0:
382,198,148961,2,0,L|321:158,1,59.5000011348725,0|0,1:0|3:0,0:0:0:0:
233,174,149098,2,0,L|162:183,5,59.5000011348725,0|0|0|0|0|0,1:0|3:0|1:0|3:0|1:0|3:0,0:0:0:0:
242,160,149507,2,0,L|313:151,1,59.5000011348725,0|0,1:0|3:0,0:0:0:0:
362,96,149643,2,0,L|449:85,7,59.5000011348725,0|0|0|0|0|0|0|0,1:0|3:0|1:0|3:0|1:0|3:0|1:0|3:0,0:0:0:0:
477,30,150189,6,0,L|450:197,1,140,2|0,3:1|2:0,0:0:0:0:
413,350,150461,2,0,L|386:212,1,140,2|0,3:1|2:0,0:0:0:0:
353,50,150734,2,0,L|286:194,1,140,2|0,3:1|2:0,0:0:0:0:
288,318,151007,2,0,L|212:201,1,140,2|0,3:1|2:0,0:0:0:0:
135,170,151279,1,0,0:0:0:0:
203,70,152370,6,0,L|224:221,1,140,4|0,1:0|1:0,0:0:0:0:
186,91,152643,2,0,L|215:229,1,140,0|0,1:0|1:0,0:0:0:0:
172,111,152916,2,0,L|216:263,1,140,0|0,1:0|1:0,0:0:0:0:
162,139,153189,1,0,1:0:0:0:
116,219,153325,1,0,1:0:0:0:
116,219,153393,1,0,1:0:0:0:
116,219,153461,2,0,L|237:235,1,97.9999970092774,0|0,1:0|1:0,0:0:0:0:
304,299,153734,2,0,B|330:286|330:286|344:313|344:313|318:324|318:324|308:304,4,97.9999970092774,0|0|0|0|0,1:0|1:0|1:0|1:0|1:0,0:0:0:0:
339,207,154416,5,0,1:0:0:0:
339,207,154484,1,0,1:0:0:0:
339,207,154552,2,0,L|361:291,1,70,2|2,1:0|2:0,2:0:0:0:
439,348,154825,2,0,L|446:261,1,70,2|2,1:0|2:0,2:0:0:0:
509,228,155098,2,0,B|483:202|483:202|450:195,1,70,2|2,1:0|2:0,2:0:0:0:
387,138,155370,6,0,L|409:54,1,70,2|2,1:0|3:0,2:0:0:0:
412,64,155575,1,2,3:0:0:0:
422,56,155643,2,0,B|407:32|407:32|301:81,1,105.000004005432,2|2,3:0|2:3,2:0:0:0:
263,14,155916,2,0,L|222:116,1,105.000004005432,2|2,3:0|2:3,2:0:0:0:
153,162,156189,2,0,L|224:293,1,105.000004005432,2|2,3:0|2:3,2:0:0:0:
196,340,156461,2,0,B|285:348|285:348|253:325,1,105.000004005432,0|0,3:0|3:0,2:0:0:0:
254,256,156734,6,0,L|281:124,1,105.000004005432,4|0,1:0|1:0,0:0:0:0:
289,229,157007,2,0,L|284:91,1,105.000004005432,0|0,1:0|1:0,0:0:0:0:
312,190,157279,2,0,L|278:53,1,105.000004005432,0|0,1:0|1:0,0:0:0:0:
201,38,157552,1,0,1:0:0:0:
299,4,157689,1,0,1:0:0:0:
299,4,157757,1,0,1:0:0:0:
299,4,157825,2,0,L|252:119,1,105.000004005432,0|0,1:0|1:0,0:0:0:0:
390,58,158098,2,0,B|416:83|416:83|380:95|380:95|387:59,4,105.000004005432,0|0|0|0|0,1:0|1:0|1:0|1:0|1:0,0:0:0:0:
502,93,158779,5,0,1:0:0:0:
502,93,158848,1,0,1:0:0:0:
502,93,158916,2,0,L|420:100,1,70,2|2,1:0|2:0,2:0:0:0:
380,175,159189,2,0,B|362:154|362:154|326:134,1,70,0|2,1:0|2:0,2:0:0:0:
249,92,159461,1,2,3:0:0:0:
172,118,159598,1,2,2:3:0:0:
117,48,159734,1,2,3:0:0:0:
54,123,159870,1,0,3:0:0:0:
54,123,159939,1,0,3:0:0:0:
54,123,160007,2,2,B|26:49|26:49|27:86,1,105.000004005432,2|0,3:1|0:0,2:1:0:0:
20,207,160279,2,0,L|133:256,1,105.000004005432,2|2,3:1|2:1,2:0:0:0:
180,324,160552,6,0,B|195:336|195:336|99:351,1,105.000004005432,8|0,1:3|3:0,2:0:0:0:
107,339,160757,1,0,3:0:0:0:
105,330,160825,2,0,L|149:197,1,105.000004005432,8|0,1:3|3:0,2:0:0:0:
3,186,161098,6,2,L|65:51,1,140,4|0,1:0|0:0,2:1:0:0:
49,43,161370,2,0,L|207:57,1,140,0|0,1:0|0:0,0:0:0:0:
196,41,161643,2,0,L|290:159,1,140,0|0,1:0|0:0,0:0:0:0:
297,145,161916,1,0,1:0:0:0:
317,55,162052,1,0,0:0:0:0:
317,55,162120,1,0,0:0:0:0:
317,55,162189,2,0,L|437:28,1,112,0|0,1:0|0:0,0:0:0:0:
474,96,162461,1,0,1:0:0:0:
401,150,162598,2,0,B|451:146|451:146|421:104|421:104|399:151,4,112,0|0|0|0|0,0:0|1:0|0:0|1:0|0:0,0:0:0:0:
289,235,163279,6,2,B|373:329,1,105.000004005432,6|0,1:0|0:0,2:1:0:0:
370,328,163552,2,0,B|482:292,1,105.000004005432,0|0,1:0|0:0,0:0:0:0:
486,307,163825,2,0,B|513:202,1,105.000004005432,0|0,1:0|0:0,0:0:0:0:
432,143,164098,2,0,B|366:161|366:161|361:109,1,105.000004005432,0|2,1:0|2:3,0:0:0:0:
368,118,164302,1,2,2:3:0:0:
374,110,164370,1,2,3:0:0:0:
306,69,164507,1,2,2:3:0:0:
241,117,164643,1,2,3:0:0:0:
278,187,164779,1,2,2:3:0:0:
224,244,164916,1,2,3:0:0:0:
291,323,165052,1,2,3:0:0:0:
291,323,165120,1,0,3:0:0:0:
291,323,165189,2,0,B|249:359|249:359|185:351,1,105.000004005432,0|0,3:0|3:0,2:0:0:0:
132,295,165461,5,4,1:2:0:0:
124,206,165643,1,4,1:2:0:0:
35,200,165825,1,4,1:2:0:0:
139,286,166007,5,4,1:2:0:0:
148,179,166189,1,4,1:2:0:0:
44,195,166370,1,4,1:2:0:0:
146,278,166552,5,4,1:2:0:0:
170,149,166734,1,4,1:2:0:0:
52,187,166916,1,4,1:2:0:0:
258,175,167098,5,0,3:0:0:0:
267,161,167189,1,4,3:0:0:0:
252,153,167279,1,4,3:0:0:0:
264,134,167370,1,0,3:0:0:0:
235,131,167461,1,4,3:0:0:0:
247,103,167552,1,4,3:0:0:0:
216,113,167643,6,2,B|203:73,7,35,0|0|0|0|0|0|0|0,2:0|0:0|0:0|2:0|0:0|0:0|2:0|0:0,2:0:0:0:
232,60,168189,2,2,B|224:-2,7,52.5000020027161,0|0|0|0|0|0|0|0,2:0|0:0|0:0|2:0|0:0|0:0|2:0|0:0,2:0:0:0:
271,6,168734,1,0,0:0:0:0:
362,350,169825,6,0,B|397:359|397:359|440:212,1,168,4|0,1:0|2:0,2:0:0:0:
491,150,170098,2,0,B|454:100|454:100|377:77,1,112,0|0,1:0|3:0,2:0:0:0:
343,28,170370,2,0,B|290:32|290:32|248:69,1,105.000004005432,0|0,1:0|3:0,2:0:0:0:
167,89,170643,2,0,B|154:137|154:137|174:208,1,97.9999970092774,0|0,1:0|3:0,2:0:0:0:
250,223,170916,1,0,1:0:0:0:
338,211,171052,1,0,1:0:0:0:
429,198,171189,2,0,B|436:249|436:249|421:307,1,112,0|0,1:0|0:0,0:0:0:0:
321,306,171461,2,0,B|313:328|313:328|314:357,3,52.5000020027161,2|2|2|2,1:2|2:0|2:0|2:0,0:0:0:0:
228,318,171734,2,0,B|217:343|217:343|240:357,3,52.5000020027161,2|2|2|2,1:2|2:0|2:0|2:0,0:0:0:0:
152,384,172007,6,0,B|201:378|201:378|195:233,1,168,4|0,1:0|2:0,2:0:0:0:
112,229,172279,2,0,B|147:238|147:238|177:165,1,112,0|0,1:0|3:0,2:0:0:0:
145,89,172552,2,0,B|161:118|161:118|225:86,1,105.000004005432,0|0,1:0|3:0,2:0:0:0:
244,8,172825,2,0,B|237:36|237:36|303:55,1,97.9999970092774,0|0,1:0|3:0,2:0:0:0:
386,0,173098,2,0,B|369:7|369:7|383:34,3,48.9999985046387,2|2|2|2,1:2|2:0|3:2|2:0,0:0:0:0:
485,48,173370,2,0,B|456:54|456:54|446:90,3,56,2|2|2|2,1:2|2:0|2:0|2:0,0:0:0:0:
392,143,173643,2,0,B|400:110|400:110|422:115,3,52.5000020027161,2|2|2|2,1:2|2:0|2:0|2:0,0:0:0:0:
437,214,173916,2,0,B|458:182|458:182|469:189,3,52.5000020027161,2|2|6|2,1:2|2:0|3:2|2:0,0:0:0:0:
344,207,174189,6,0,B|387:135|387:135|315:85,1,168,4|0,1:0|2:0,2:0:0:0:
233,78,174461,2,0,B|202:125|202:125|246:157,1,112,0|0,1:0|3:0,2:0:0:0:
126,122,174734,2,0,B|115:175|115:175|164:190,1,105.000004005432,0|0,1:0|3:0,2:0:0:0:
49,201,175007,2,0,B|66:248|66:248|114:234,1,97.9999970092774,0|0,1:0|3:0,2:0:0:0:
167,309,175279,1,0,1:0:0:0:
78,335,175416,1,0,1:0:0:0:
0,301,175552,2,0,L|175:267,1,178.500003404617,0|0,1:0|0:0,0:0:0:0:
217,339,175825,2,0,B|244:352|244:352|293:325,3,52.5000020027161,2|2|2|2,1:2|2:0|2:0|2:0,0:0:0:0:
348,339,176098,2,0,B|374:327|374:327|395:338,3,52.5000020027161,2|2|2|2,1:2|2:0|2:0|2:0,0:0:0:0:
422,370,176370,6,0,L|383:176,1,195.999994018555,2|2,1:0|1:0,2:0:0:0:
128,177,176916,2,0,L|90:370,1,195.999994018555,2|2,1:0|1:0,2:0:0:0:
256,192,177461,12,4,178552,2:1:0:0:
155,34,178825,6,0,B|110:18|110:18|59:160,1,168,2|0,1:2|0:0,2:0:0:0:
12,183,179098,2,0,L|38:309,1,112,2|0,1:2|2:0,2:0:0:0:
43,295,179302,1,2,3:2:0:0:
53,299,179370,2,0,L|122:206,1,112,2|2,1:2|3:2,0:0:0:0:
198,155,179643,2,0,L|268:273,1,112,2|2,1:2|3:2,0:0:0:0:
340,306,179916,2,0,L|380:176,1,112,2|2,1:2|3:2,0:0:0:0:
452,143,180189,2,0,L|481:201,7,62.9999980773926,2|2|2|2|2|2|2|2,1:2|2:0|3:2|2:0|1:2|2:0|3:2|2:0,0:0:0:0:
484,283,180734,6,0,L|459:89,1,168,4|0,1:0|0:0,2:0:0:0:
418,48,181007,2,0,B|375:87|375:87|361:171,1,112,2|0,1:2|2:0,2:0:0:0:
271,182,181279,2,0,B|214:174|214:174|174:134,1,112,2|0,1:2|2:0,2:0:0:0:
174,121,181484,1,2,3:2:0:0:
174,108,181552,2,0,B|118:99|118:99|75:135,1,112,2|2,1:2|3:2,0:0:0:0:
0,170,181825,2,0,B|2:202|2:202|14:229,3,62.9999980773926,2|2|2|2,1:2|2:0|3:2|3:2,0:0:0:0:
21,321,182098,2,0,B|51:337|51:337|82:337,3,62.9999980773926,2|2|2|2,1:2|2:0|3:2|2:0,0:0:0:0:
132,260,182370,2,0,B|121:212|121:212|112:206,3,52.5000020027161,2|2|2|2,1:2|2:0|3:2|2:0,0:0:0:0:
121,130,182643,2,0,L|129:75,3,52.5000020027161,2|2|2|2,1:2|2:0|3:2|2:0,0:0:0:0:
46,17,182916,6,0,L|200:83,1,168,4|0,1:0|0:0,2:0:0:0:
244,15,183189,2,0,L|261:132,1,112,2|0,1:2|2:0,2:0:0:0:
351,126,183461,2,0,L|446:39,1,112,2|0,1:2|2:0,2:0:0:0:
446,56,183666,1,0,3:0:0:0:
460,61,183734,2,0,L|447:204,1,112,2|2,1:2|3:2,0:0:0:0:
485,258,184007,2,0,L|398:339,1,112,2|0,1:2|2:0,2:0:0:0:
387,329,184211,1,2,3:2:0:0:
373,323,184279,2,0,L|344:174,1,112,2|2,1:2|3:2,0:0:0:0:
274,261,184552,2,0,B|249:290|249:290|238:337,3,77.0000023498536,2|2|2|2,1:2|2:0|3:2|2:0,0:0:0:0:
163,294,184825,2,0,B|157:266|157:266|117:227,3,77.0000023498536,2|2|2|2,1:2|2:0|3:2|2:0,0:0:0:0:
48,263,185098,6,0,B|53:317|53:317|84:360,1,105.000004005432,4|0,3:0|2:0,2:0:0:0:
187,241,185370,2,0,B|182:320|182:320|195:343,1,105.000004005432,0|0,2:0|2:0,0:0:0:0:
337,380,185643,2,0,B|302:340|302:340|293:287,1,105.000004005432,0|0,2:0|2:0,2:0:0:0:
450,308,185916,2,0,B|420:300|420:300|381:231,1,105.000004005432,0|0,2:0|2:0,0:0:0:0:
464,120,186189,6,0,L|448:173,1,56,2|0,3:0|0:0,2:0:0:0:
432,169,186461,2,0,L|448:115,1,56,2|0,3:0|0:0,2:0:0:0:
339,134,186734,1,2,3:0:0:0:
289,119,186870,1,2,3:0:0:0:
245,151,187007,1,2,3:0:0:0:
191,147,187143,1,2,3:0:0:0:
146,181,187279,6,0,L|122:17,1,112,6|0,1:0|0:0,2:0:0:0:
146,181,187552,2,0,L|163:294,1,112,2|0,1:0|0:0,0:0:0:0:
102,367,187825,2,0,B|262:326|262:326|328:335,1,224,2|0,1:0|1:0,0:0:0:0:
383,260,188234,2,0,L|251:242,1,112,2|0,3:1|1:0,2:0:0:0:
214,183,188507,2,0,L|218:60,1,112,2|0,3:1|1:0,2:0:0:0:
150,15,188779,2,0,L|-2:45,1,112,2|0,3:1|1:0,2:0:0:0:
39,114,189052,1,2,3:1:0:0:
33,127,189120,1,0,3:0:0:0:
27,141,189189,2,0,B|40:157|40:157|129:138,2,112,2|2|0,1:0|3:1|1:0,0:0:0:0:
0,239,189598,6,0,B|21:311|21:311|36:273,2,112,2|0|0,3:1|3:0|3:0,2:0:0:0:
115,120,190007,2,0,L|226:128,1,112,2|2,1:0|3:1,2:0:0:0:
230,116,190279,2,0,L|341:124,1,112,2|2,1:0|3:1,2:0:0:0:
405,75,190552,1,4,1:3:0:0:
447,158,190689,1,0,3:0:0:0:
454,160,190757,1,0,3:0:0:0:
461,162,190825,1,4,1:3:0:0:
499,92,190961,2,0,L|484:216,1,112,4|0,1:3|3:0,2:0:0:0:
418,278,191234,1,4,1:3:0:0:
418,278,191370,2,2,L|380:81,1,168,4|0,1:0|2:0,3:0:0:0:
282,89,191643,6,0,B|210:140|210:140|204:178,1,112,6|0,1:0|0:0,2:0:0:0:
282,89,191916,2,0,B|353:37|353:37|359:0,1,112,2|0,1:0|0:0,0:0:0:0:
235,13,192189,2,0,B|65:29|65:29|71:102,1,224,2|0,1:0|1:0,0:0:0:0:
19,148,192598,2,0,B|27:236|27:236|53:277,1,112,2|0,3:1|1:0,2:0:0:0:
66,348,192870,2,0,L|194:333,1,112,2|0,3:1|1:0,2:0:0:0:
216,252,193143,2,0,L|344:237,1,112,2|0,3:1|1:0,2:0:0:0:
435,266,193416,1,2,3:1:0:0:
431,274,193484,1,0,3:0:0:0:
424,282,193552,2,0,L|403:152,1,112,2|2,1:0|3:1,0:0:0:0:
407,172,193825,5,2,1:2:0:0:
335,156,193961,1,2,3:2:0:0:
335,156,194029,1,2,3:2:0:0:
334,156,194098,2,0,B|290:188|290:188|229:179,1,112,2|2,1:2|3:2,0:0:0:0:
172,244,194370,2,0,B|144:194|144:194|152:140,1,112,2|2,1:2|3:2,2:0:0:0:
70,114,194643,2,0,B|100:66|100:66|155:55,1,112,2|2,1:2|3:2,2:0:0:0:
232,117,194916,2,0,B|267:159|267:159|268:218,1,112,4|4,1:0|1:3,0:0:0:0:
259,220,195120,1,4,2:3:0:0:
251,224,195189,1,4,2:3:0:0:
153,214,195325,2,0,B|120:256|120:256|117:315,1,112,4|4,1:3|2:3,0:0:0:0:
124,320,195529,1,4,2:3:0:0:
132,324,195598,1,4,2:3:0:0:
188,384,195734,2,4,B|312:353|312:353|257:338,1,168,4|4,2:3|2:3,2:3:0:0:
266,246,196007,6,0,B|278:194|278:194|251:141,1,112,6|0,1:0|0:0,2:0:0:0:
265,246,196279,2,0,B|254:297|254:297|281:350,1,112,2|0,1:0|0:0,0:0:0:0:
363,382,196552,2,0,L|374:136,1,224,2|0,1:0|1:0,0:0:0:0:
478,93,196961,2,0,B|403:128|403:128|375:118,1,112,2|0,3:1|1:0,2:0:0:0:
254,12,197234,2,0,L|241:162,1,112,2|0,3:1|1:0,2:0:0:0:
170,162,197507,2,0,L|191:298,1,112,2|0,3:1|1:0,2:0:0:0:
271,266,197779,1,2,3:1:0:0:
285,270,197848,1,0,3:0:0:0:
297,272,197916,2,0,B|320:241|320:241|334:148,2,112,2|2|0,1:0|3:1|1:0,0:0:0:0:
310,349,198325,6,0,B|280:353|280:353|271:268,2,112,2|0|2,3:1|1:0|3:1,2:0:0:0:
430,378,198734,2,0,B|441:346|441:346|405:276,1,112,2|2,1:0|3:1,2:0:0:0:
424,267,199007,2,0,B|401:192|401:192|412:160,1,112,2|2,1:0|3:1,2:0:0:0:
499,50,199279,2,0,L|349:65,1,112,4|0,1:3|3:0,2:0:0:0:
385,69,199484,1,0,3:0:0:0:
381,78,199552,1,4,1:3:0:0:
454,153,199689,2,0,L|343:164,1,112,4|0,1:3|3:0,2:0:0:0:
237,190,199961,1,4,1:3:0:0:
237,190,200098,2,2,B|305:204|305:204|292:212|292:212|353:224|353:224|340:210|340:210|422:227,1,231.000007049561,4|0,1:0|2:0,3:0:0:0:
482,228,200370,6,0,B|506:258|506:258|507:276,3,56,0|0|0|0,1:0|3:0|3:0|3:0,0:0:0:0:
495,295,200643,2,0,B|497:340|497:340|513:362,3,56,0|0|0|0,1:0|3:0|3:0|3:0,0:0:0:0:
408,376,200916,2,0,B|391:354|391:354|393:325,3,56,0|0|0|0,1:0|3:0|3:0|3:0,0:0:0:0:
331,274,201189,2,0,B|337:245|337:245|357:227,3,56,0|0|0|0,1:0|3:0|3:0|3:0,0:0:0:0:
367,219,201461,5,4,3:0:0:0:
363,213,201529,1,4,3:0:0:0:
359,207,201598,1,4,3:0:0:0:
355,201,201666,1,4,3:0:0:0:
351,195,201734,1,4,3:0:0:0:
347,189,201802,1,4,3:0:0:0:
343,183,201870,1,4,3:0:0:0:
339,177,201939,1,4,3:0:0:0:
335,170,202007,2,0,B|305:169|305:169|280:179,3,56,0|0|0|0,1:0|3:0|3:0|3:0,0:0:0:0:
238,247,202279,2,0,B|213:260|213:260|185:257,3,56,0|0|0|0,1:0|3:0|3:0|3:0,0:0:0:0:
177,268,202552,6,0,B|171:264|171:264|178:255|178:255|170:250|170:250|178:240|178:240|168:233|168:233|176:225|176:225|167:216|167:216|175:208|175:208|166:200|166:200|171:190|171:190|164:183|164:183|170:175|170:175|162:164|162:164|168:156|168:156|159:147|159:147|167:138|167:138|157:129|157:129|165:121|165:121|157:114|157:114|167:102,1,224,0|0,1:0|1:0,0:0:0:0:
240,369,204734,6,0,L|260:305,3,56,4|0|0|0,1:0|3:0|3:0|3:0,0:0:0:0:
273,269,205007,2,0,L|294:204,3,56,0|0|0|0,1:0|3:0|3:0|3:0,0:0:0:0:
307,170,205279,2,0,L|327:106,3,56,0|0|0|0,1:0|3:0|3:0|3:0,0:0:0:0:
338,70,205552,2,0,L|358:6,3,56,0|0|0|0,1:0|3:0|3:0|3:0,0:0:0:0:
271,0,205825,2,0,L|219:21,3,56,0|0|0|0,1:0|3:0|3:0|3:0,0:0:0:0:
172,38,206098,2,0,L|120:59,3,56,0|0|0|0,1:0|3:0|3:0|3:0,0:0:0:0:
118,68,206370,1,4,3:0:0:0:
117,75,206439,1,4,3:0:0:0:
116,82,206507,1,4,3:0:0:0:
115,89,206575,1,4,3:0:0:0:
114,96,206643,1,4,3:0:0:0:
114,103,206711,1,4,3:0:0:0:
113,111,206779,1,4,3:0:0:0:
112,118,206848,1,4,3:0:0:0:
111,126,206916,2,0,L|153:170,3,56,0|0|0|0,1:0|3:0|3:0|3:0,0:0:0:0:
182,199,207189,2,0,L|224:243,3,56,0|0|0|0,1:0|3:0|3:0|3:0,0:0:0:0:
252,270,207461,2,0,L|294:314,3,56,0|0|0|0,1:0|3:0|3:0|3:0,0:0:0:0:
323,344,207734,2,0,L|365:388,3,56,0|0|0|0,1:0|3:0|3:0|3:0,0:0:0:0:
370,384,208007,1,4,3:0:0:0:
374,378,208075,1,4,3:0:0:0:
378,372,208143,1,4,3:0:0:0:
383,367,208211,1,4,3:0:0:0:
387,361,208279,1,4,3:0:0:0:
390,355,208348,1,4,3:0:0:0:
395,349,208416,1,4,3:0:0:0:
400,343,208484,1,4,3:0:0:0:
405,337,208552,2,0,L|414:276,3,56,4|4|4|4,3:0|3:0|3:0|3:0,2:0:0:0:
422,238,208825,2,0,L|431:177,3,56,4|4|4|4,3:0|3:0|3:0|3:0,2:0:0:0:
438,98,209098,2,0,L|364:109,3,56,0|0|0|0,1:0|3:0|3:0|3:0,0:0:0:0:
337,113,209370,2,0,L|263:124,3,56,0|0|0|0,1:0|3:0|3:0|3:0,0:0:0:0:
236,129,209643,2,0,L|162:140,3,56,0|0|0|0,1:0|3:0|3:0|3:0,0:0:0:0:
134,145,209916,2,0,L|60:156,3,56,0|0|0|0,1:0|3:0|3:0|3:0,0:0:0:0:
78,160,210189,1,4,3:0:0:0:
76,167,210257,1,4,3:0:0:0:
74,174,210325,1,4,3:0:0:0:
74,181,210393,1,4,3:0:0:0:
73,189,210461,1,4,3:0:0:0:
72,196,210529,1,4,3:0:0:0:
71,203,210598,1,4,3:0:0:0:
71,211,210666,1,4,3:0:0:0:
69,220,210734,2,0,L|99:284,3,56,2|2|2|2,3:2|3:2|3:2|3:2,0:0:0:0:
110,308,211007,2,0,L|140:372,3,56,2|2|2|2,3:2|3:2|3:2|3:2,0:0:0:0:
40,378,211279,2,0,L|84:326,3,56,0|0|0|0,1:0|3:0|3:0|3:0,0:0:0:0:
105,299,211552,2,0,L|149:247,3,56,0|0|0|0,1:0|3:0|3:0|3:0,0:0:0:0:
175,218,211825,2,0,L|219:166,3,56,0|0|0|0,1:0|3:0|3:0|3:0,0:0:0:0:
245,141,212098,2,0,L|289:89,3,56,0|0|0|0,1:0|3:0|3:0|3:0,0:0:0:0:
306,65,212370,6,2,B|301:42|301:42|324:36|324:36|329:59|329:59|306:65,11,74.6666666666667,2|2|2|2|2|2|2|2|2|2|2|2,3:0|3:0|3:0|3:0|3:0|3:0|3:0|3:0|3:0|3:0|3:0|3:0,3:0:0:0:
410,14,213461,6,2,L|398:125,1,112,4|0,1:2|2:0,2:1:0:0:
414,168,213666,2,2,L|403:279,1,112,0|0,3:0|2:0,2:1:0:0:
410,321,213870,2,2,L|342:336,1,56,8|0,1:0|2:0,2:1:0:0:
234,357,214007,2,2,B|224:324|224:324|254:252,1,112,4|0,1:2|2:0,2:1:0:0:
250,217,214211,2,2,B|290:124|290:124|278:86,1,112,0|0,3:0|2:0,2:1:0:0:
278,75,214416,2,2,L|187:32,1,56,8|0,1:0|2:0,2:1:0:0:
126,12,214552,2,2,L|147:121,1,112,4|0,1:2|2:0,2:1:0:0:
123,140,214757,2,2,L|48:267,1,112,0|0,3:0|2:0,2:1:0:0:
74,270,214961,2,2,L|146:256,1,56,8|0,1:0|2:0,2:1:0:0:
229,243,215098,2,0,B|219:280|219:280|195:305,3,62.9999980773926,0|0|0|0,1:0|3:0|3:0|3:0,0:0:0:0:
224,374,215370,2,0,B|198:387|198:387|148:383,3,62.9999980773926,0|0|0|0,1:0|3:0|3:0|3:0,0:0:0:0:
84,359,215643,6,2,L|238:326,1,112,4|0,1:2|2:0,2:1:0:0:
226,310,215848,2,2,L|336:284,1,112,0|0,3:0|2:0,2:1:0:0:
372,299,216052,2,2,L|404:200,1,56,8|0,1:0|2:0,2:1:0:0:
456,194,216189,2,2,B|465:155|465:155|346:121,1,112,4|0,1:2|2:0,2:1:0:0:
380,101,216393,2,2,B|300:77|300:77|309:40,1,112,0|0,3:0|2:0,2:1:0:0:
276,37,216598,2,2,L|183:10,1,56,8|0,1:0|2:0,2:1:0:0:
148,64,216734,2,0,L|56:118,3,62.9999980773926,0|0|0|0,1:0|3:0|3:0|3:0,0:0:0:0:
66,105,217007,2,0,L|12:137,3,62.9999980773926,0|0|0|0,1:0|3:0|3:0|3:0,0:0:0:0:
58,211,217279,2,0,L|166:146,3,125.999996154785,0|0|0|0,1:0|1:0|1:0|1:0,2:0:0:0:
269,131,217825,6,2,B|296:162|296:162|298:225|298:225|272:263,1,112,4|0,1:2|2:0,2:1:0:0:
276,259,218029,2,2,B|252:292|252:292|193:315|193:315|156:311,1,112,0|0,3:0|2:0,2:1:0:0:
153,330,218234,2,2,B|116:319|116:319|85:327,1,56,8|0,1:0|2:0,2:1:0:0:
4,260,218370,2,2,B|17:221|17:221|70:187|70:187|77:187,1,112,4|0,1:2|2:0,2:1:0:0:
106,172,218575,2,2,B|146:176|146:176|195:215|195:215|198:223,1,112,0|0,3:0|2:0,2:1:0:0:
230,243,218779,2,2,B|238:280|238:280|261:302,1,56,8|0,1:0|2:0,2:1:0:0:
330,341,218916,2,2,B|376:288|376:288|377:215,1,112,4|0,1:2|2:0,2:1:0:0:
402,211,219120,2,2,B|447:262|447:262|460:334,1,112,0|0,3:0|2:0,2:1:0:0:
479,335,219325,2,2,L|508:272,1,56,8|0,1:0|2:0,2:1:0:0:
483,136,219461,2,2,B|454:169|454:169|385:172|385:172|380:168,1,119.000002269745,4|0,1:2|2:0,2:1:0:0:
357,127,219666,2,2,B|340:90|340:90|272:66|272:66|266:68,1,119.000002269745,0|0,3:0|2:0,2:1:0:0:
235,86,219870,2,2,B|202:111|202:111|183:110,1,59.5000011348725,8|0,1:0|2:0,2:1:0:0:
105,112,220007,6,0,L|91:9,2,105,2|2|2,2:1|2:1|2:1,2:1:0:0:
15,197,220552,2,0,L|28:125,2,73.4999977569581,2|2|2,2:1|2:1|2:1,2:1:0:0:
7,284,221098,2,0,L|24:321,16,24.4999992523194,0|0|0|0|0|0|0|0|0|0|0|0|0|0|0|0|0,3:0|3:0|3:0|3:0|3:0|3:0|3:0|3:0|3:0|3:0|3:0|3:0|3:0|3:0|3:0|3:0|0:0,0:0:0:0:
13,307,223552,6,0,B|30:324|30:324|29:292|29:292|19:271,1,70,4|4,1:3|2:3,0:0:0:0:
118,335,223961,2,0,B|130:302|130:302|125:266,1,70,4|0,2:3|2:0,0:0:0:0:
211,383,224370,2,0,B|236:350|236:350|248:250,1,140,4|4,2:3|2:3,0:0:0:0:
260,23,224916,6,0,B|261:59|261:59|274:89,1,70,4|4,2:3|2:3,0:0:0:0:
395,21,225325,2,0,B|378:44|378:44|367:85,1,70,4|4,2:3|2:3,0:0:0:0:
486,200,225734,2,0,B|471:142|471:142|482:122|482:122|469:61,1,140,4|4,2:3|2:3,0:0:0:0:
495,289,226279,6,0,B|475:282|475:282|427:292,1,70,4|4,2:3|2:3,0:0:0:0:
292,363,226689,2,0,B|243:379|243:379|225:372,1,70,4|4,2:3|2:3,0:0:0:0:
136,261,227098,2,0,B|131:228|131:228|120:224|120:224|115:195,2,70,4|0|4,2:3|0:0|2:3,0:0:0:0:
31,67,227643,6,0,L|91:50,1,56,4|0,2:0|0:0,2:0:0:0:
122,61,227779,1,0,2:0:0:0:
110,168,228052,2,0,L|163:183,1,56,4|0,2:0|0:0,2:0:0:0:
197,170,228189,1,0,2:0:0:0:
303,35,228461,2,0,B|358:50|358:50|391:19|391:19|455:32,1,168,4|0,2:3|0:0,0:0:0:0:
476,26,228734,2,0,B|493:119|493:119|476:144,1,112,12|0,1:3|2:0,0:0:0:0:
373,165,229007,6,0,L|431:252,1,105.000004005432,6|2,1:0|2:1,2:0:0:0:
499,295,229279,1,0,1:0:0:0:
450,356,229416,2,0,L|431:252,1,105.000004005432,2|2,2:1|1:0,2:0:0:0:
194,341,229825,6,0,L|242:232,1,119.000002269745,2|2,1:0|2:1,2:0:0:0:
249,153,230097,1,0,1:0:0:0:
328,150,230234,2,0,L|233:241,1,119.000002269745,2|0,2:1|1:0,2:0:0:0:
180,350,230643,6,0,L|157:235,1,119.000002269745,2|2,1:0|2:1,2:0:0:0:
132,117,230916,2,0,L|155:232,1,119.000002269745,2|2,1:0|2:1,2:0:0:0:
124,313,231188,1,0,0:0:0:0:
239,136,231461,6,2,B|251:125|251:125|260:110,3,35,2|2|2|2,2:0|2:0|2:0|2:0,2:0:0:0:
273,105,231734,2,2,B|274:79|274:79|267:54,3,52.5000020027161,0|0|0|0,2:0|2:0|2:0|2:0,2:0:0:0:
274,42,232007,2,2,B|250:18|250:18|218:6,3,70,0|0|0|0,2:0|2:0|2:0|2:0,2:0:0:0:
150,58,232279,2,0,L|130:144,3,70,4|4|4|4,3:0|3:0|3:0|3:0,0:0:0:0:
140,138,232552,2,0,L|124:206,3,70,4|4|4|4,3:0|3:0|3:0|3:0,0:0:0:0:
48,241,232825,2,0,L|68:327,3,70,0|0|0|0,3:0|3:0|3:0|3:0,0:0:0:0:
78,310,233097,2,0,L|93:378,3,70,0|0|0|0,3:0|3:0|3:0|3:0,0:0:0:0:
4,368,233370,6,0,B|227:275|227:275|267:280,1,280,4|0,1:0|0:0,0:0:0:0:
418,305,233734,1,0,3:0:0:0:
434,334,233825,1,0,3:0:0:0:
447,362,233916,2,0,B|470:322|470:322|437:227,2,140.000005340576,0|4|4,3:0|3:2|3:2,0:0:0:0:
263,186,234461,5,4,3:2:0:0:
339,175,234643,1,4,3:2:0:0:
417,163,234825,1,4,3:2:0:0:
287,108,235007,6,0,B|171:86|171:86|190:109,1,140.000005340576,4|0,3:2|0:0,0:0:0:0:
340,185,235279,2,0,B|398:178|398:178|427:88,1,140.000005340576,6|0,3:1|2:0,2:0:0:0:
380,13,235552,6,0,B|352:35|352:35|316:33,2,70.0000026702882,2|0|0,1:2|3:0|3:0,0:0:0:0:
221,108,235825,2,0,B|218:73|218:73|234:43,2,70.0000026702882,2|0|0,1:2|3:0|3:0,0:0:0:0:
142,87,236097,2,0,B|177:102|177:102|191:133,2,70.0000026702882,2|0|0,1:2|3:0|3:0,0:0:0:0:
173,151,236370,2,0,B|146:176|146:176|138:209,2,70.0000026702882,2|0|0,1:2|3:0|3:0,0:0:0:0:
7,257,236643,2,0,L|80:270,2,70.0000026702882,2|0|0,1:2|3:0|3:0,0:0:0:0:
114,347,236916,2,0,L|187:321,2,70.0000026702882,2|0|0,1:2|3:0|3:0,0:0:0:0:
240,257,237188,2,0,B|224:289|224:289|227:323,2,70.0000026702882,2|0|0,1:2|3:0|3:0,0:0:0:0:
310,306,237461,2,0,B|300:272|300:272|274:249,2,70.0000026702882,2|0|0,1:2|3:0|3:0,0:0:0:0:
366,383,237734,6,0,L|423:368,5,52.5000020027161,2|0|8|0|2|0,3:1|3:0|1:0|1:0|3:2|3:0,0:0:0:0:
446,336,238143,2,0,L|467:286,1,52.5000020027161,10|0,1:2|1:0,0:0:0:0:
432,259,238279,2,0,L|414:210,5,52.5000020027161,2|0|8|0|2|0,3:1|3:0|1:0|1:0|3:2|3:0,0:0:0:0:
430,169,238688,2,0,L|456:118,1,52.5000020027161,10|0,1:2|1:0,0:0:0:0:
496,98,238825,2,0,L|472:44,5,52.5000020027161,2|0|8|0|2|0,3:1|3:0|1:0|1:0|3:2|3:0,0:0:0:0:
436,31,239234,2,0,L|382:24,1,52.5000020027161,10|0,1:2|1:0,0:0:0:0:
351,58,239370,2,0,L|294:66,5,52.5000020027161,2|0|8|0|2|0,3:1|3:0|1:0|1:0|3:2|3:0,0:0:0:0:
262,62,239779,2,0,L|204:50,1,52.5000020027161,10|0,1:2|1:0,0:0:0:0:
173,34,239916,2,0,B|155:55|155:55|152:82,5,52.5000020027161,2|0|8|0|2|0,3:1|3:0|1:0|1:0|3:2|3:0,0:0:0:0:
121,111,240325,2,0,B|129:139|129:139|148:155,1,52.5000020027161,10|0,1:2|1:0,0:0:0:0:
195,162,240461,2,0,B|222:171|222:171|234:195,5,52.5000020027161,2|0|8|0|2|0,3:1|3:0|1:0|1:0|3:2|3:0,0:0:0:0:
241,237,240870,2,0,B|268:246|268:246|293:237,1,52.5000020027161,10|0,1:2|1:0,0:0:0:0:
331,259,241007,2,0,B|352:243|352:243|379:241,4,52.5000020027161,2|0|8|0|2,3:1|3:0|1:0|1:0|3:2,0:0:0:0:
444,276,241347,6,0,B|474:235|474:235|469:160,1,105.000004005432,8|0,3:1|1:0,0:0:0:0:
480,158,241552,2,0,B|444:121|444:121|370:113,1,105.000004005432,10|8,3:1|1:0,0:0:0:0:
374,104,241757,2,0,B|324:116|324:116|280:176,1,105.000004005432,8|0,3:1|3:0,0:0:0:0:
278,168,241961,2,0,L|283:220,1,52.5000020027161,10|0,1:2|1:0,0:0:0:0:
338,288,242097,6,0,L|478:264,1,119.000002269745,4|4,1:2|1:2,0:0:0:0:
456,268,242370,1,4,1:2:0:0:
286,356,242643,2,0,L|155:325,1,119.000002269745,4|4,1:2|1:2,0:0:0:0:
171,329,242916,1,4,1:2:0:0:
73,308,243052,1,4,1:2:0:0:
123,143,243325,2,0,L|248:87,1,119.000002269745,4|4,1:2|1:2,0:0:0:0:
123,143,243597,2,0,L|139:23,1,119.000002269745,4|4,1:2|1:2,0:0:0:0:
123,143,243870,2,0,L|145:266,1,119.000002269745,4|4,1:2|1:2,0:0:0:0:
123,143,244143,2,0,L|-6:171,1,119.000002269745,4|4,1:2|1:2,0:0:0:0:
339,215,244552,2,0,B|500:159|500:159|465:89,1,238.00000453949,4|4,1:2|1:2,0:0:0:0:
243,14,245234,1,4,1:2:0:0:
243,14,245370,1,4,1:2:0:0:
378,132,245643,2,0,L|402:-5,1,119.000002269745,4|4,1:2|1:2,0:0:0:0:
378,132,245916,2,0,L|257:71,1,119.000002269745,4|4,1:2|1:2,0:0:0:0:
181,184,246325,1,4,1:2:0:0:
181,184,246461,1,4,1:2:0:0:
117,21,246734,2,0,L|7:94,1,119.000002269745,4|4,1:2|1:2,0:0:0:0:
117,21,247007,2,0,L|112:143,1,119.000002269745,4|4,1:2|1:2,0:0:0:0:
75,341,247416,2,0,L|33:190,1,119.000002269745,4|4,1:2|1:2,0:0:0:0:
44,227,247688,1,4,1:2:0:0:
389,280,247961,2,0,L|509:229,1,119.000002269745,4|4,1:2|1:2,0:0:0:0:
389,280,248234,2,0,L|302:172,1,119.000002269745,4|4,1:2|1:2,0:0:0:0:
389,280,248507,2,0,L|298:379,1,119.000002269745,4|4,1:2|1:2,0:0:0:0:
389,280,248779,2,0,L|497:390,1,119.000002269745,4|4,1:2|1:2,0:0:0:0:
389,280,249052,2,0,L|450:174,1,119.000002269745,4|4,1:2|1:2,0:0:0:0:
25,304,250007,6,0,B|33:296|33:296|45:239|45:239|131:276|131:276|184:134|184:134|133:43|133:43|68:73|68:73|112:146|112:146|198:75,1,665,2|0,2:0|2:0,2:0:0:0:
256,14,251779,5,4,1:0:0:0:
256,192,251847,12,0,254234,2:0:0:0:
