osu file format v14

[General]
AudioFilename: audio.mp3
AudioLeadIn: 0
PreviewTime: 57881
Countdown: 0
SampleSet: Soft
StackLeniency: 0.4
Mode: 0
LetterboxInBreaks: 0
EpilepsyWarning: 1
WidescreenStoryboard: 1

[Editor]
Bookmarks: 3463,12190,20917,38372,47099,58018,66745,75472,107099,117053,118008,126189,130552,134916,152370,169825,179098,187279,204734,213461,223552,229007,233370,237734,242097
DistanceSpacing: 1
BeatDivisor: 8
GridSize: 8
TimelineZoom: 2.6

[Metadata]
Title:ENDYMION (long edit)
TitleUnicode:ENDYMION (long edit)
Artist:fallen shepherd feat. RabbiTon Strings
ArtistUnicode:fallen shepherd feat. RabbiTon Strings
Creator:hehe
Version:HARD
Source:DanceDanceRevolution A
Tags:ARM アニマル・ストライク!Animal Strike! DDRA IOSYS COOL&CREATE zyukucho SDVX SOUND VOLTEX VIVID WAVE 木村洋平 Youhei Kimura instrumental japanese video game jezag akeruyri luscent english electronic heilia 三輪紫乃 松岡あずさ
BeatmapID:3321425
BeatmapSetID:1243733

[Difficulty]
HPDrainRate:3
CircleSize:4
OverallDifficulty:6.5
ApproachRate:8.2
SliderMultiplier:1.4
SliderTickRate:1

[Events]
//Background and Video events
0,0,"endymion.jpg",0,0
//Break Periods
2,58008,66025
2,84916,104879
//Storyboard Layer 0 (Background)
//Storyboard Layer 1 (Fail)
//Storyboard Layer 2 (Pass)
//Storyboard Layer 3 (Foreground)
//Storyboard Layer 4 (Overlay)
//Storyboard Sound Samples

[TimingPoints]
191,272.727272727273,4,2,1,40,1,0
1281,-100,4,2,1,40,0,0
2645,-100,4,2,1,50,0,0
3463,-83.3333333333333,4,2,1,70,0,0
5099,-100,4,2,1,70,0,0
5644,-100,4,2,1,50,0,0
7826,-83.3333333333333,4,2,1,70,0,0
9463,-100,4,2,1,70,0,0
10008,-100,4,2,1,50,0,0
16553,-100,4,2,1,60,0,0
21053,-100,4,2,1,50,0,0
24053,-100,4,2,2,60,0,0
25417,-100,4,2,1,40,0,0
27190,-100,4,2,1,60,0,0
27463,-100,4,2,2,60,0,0
29781,-100,4,2,1,40,0,0
32781,-100,4,2,2,60,0,0
34008,-100,4,2,2,55,0,0
35508,-100,4,2,2,50,0,0
37281,-100,4,2,1,50,0,0
38372,-83.3333333333333,4,2,1,70,0,0
41644,-83.3333333333333,4,2,1,60,0,0
42736,-83.3333333333333,4,2,1,70,0,0
46008,-83.3333333333333,4,2,1,60,0,0
47100,-100,4,2,1,60,0,0
49280,-100,4,2,1,75,0,0
51462,-83.3333333333333,4,2,1,80,0,0
53791,-125,4,2,1,50,0,0
66745,272.727272727273,4,2,1,40,1,0
66745,-125,4,2,1,40,0,0
67835,-125,4,2,1,50,0,0
68381,-125,4,2,1,60,0,0
68926,-125,4,2,1,40,0,0
70017,-125,4,2,1,50,0,0
70563,-125,4,2,1,60,0,0
71108,-125,4,2,1,40,0,0
75472,-125,4,2,1,50,0,0
76563,-125,4,2,1,60,0,0
77654,-125,4,2,3,30,0,0
79835,-125,4,2,3,45,0,0
80107,-125,4,2,1,45,0,0
82017,-125,4,2,1,55,0,0
82290,-125,4,2,3,55,0,0
84916,306.122448979592,4,2,1,40,1,0
85528,335.195530726257,4,2,1,40,1,0
86868,444.444444444444,4,2,3,40,1,0
87312,454.545454545455,4,2,1,40,1,0
87539,342.857142857143,4,2,1,40,1,0
87710,281.69014084507,4,2,1,40,1,0
87850,275.229357798165,4,2,1,40,1,0
87987,260.869565217391,4,2,1,40,1,0
88117,230.769230769231,4,2,1,40,1,0
88232,292.682926829268,4,2,1,40,1,0
88305,279.06976744186,4,2,1,40,1,0
88444,272.727272727273,4,2,1,40,1,0
88716,300,4,2,1,40,1,0
89016,300,4,2,1,40,1,0
89316,315.789473684211,4,2,1,40,1,0
89421,292.682926829268,4,2,1,40,1,0
89518,400,4,2,1,40,1,0
89651,285.714285714286,4,2,1,40,1,0
89746,315.789473684211,4,2,1,40,1,0
89903,337.078651685393,4,2,3,40,1,0
90577,500,4,2,3,40,1,0
91077,461.538461538462,4,2,1,40,1,0
91307,300,4,2,1,40,1,0
91457,240,4,2,1,40,1,0
91577,272.727272727273,4,2,1,40,1,0
91713,218.181818181818,4,2,1,40,1,0
91822,300,4,2,1,40,1,0
91972,272.727272727273,4,2,3,40,1,0
92244,254.237288135593,4,2,3,40,1,0
92625,285.714285714286,4,2,1,40,1,0
93196,319.148936170213,4,2,3,40,1,0
93834,352.941176470588,4,2,1,40,1,0
94010,307.692307692308,4,2,1,40,1,0
95240,258.620689655172,4,2,1,40,1,0
96015,292.682926829268,4,2,1,40,1,0
96307,357.142857142857,4,2,1,40,1,0
96664,461.538461538462,4,2,1,40,1,0
96894,250,4,2,1,40,1,0
97144,255.31914893617,4,2,1,40,1,0
97272,397.350993377483,4,2,1,40,1,0
97471,375,4,2,1,40,1,0
97564,458.015267175573,4,2,1,40,1,0
97679,250,4,2,1,40,1,0
97804,335.195530726257,4,2,1,40,1,0
97972,357.142857142857,4,2,1,40,1,0
98061,444.444444444444,4,2,1,40,1,0
98172,342.857142857143,4,2,1,40,1,0
98343,389.61038961039,4,2,1,40,1,0
98537,259.74025974026,4,2,1,40,1,0
99056,300,4,2,3,40,1,0
99806,285.714285714286,4,2,1,40,1,0
99996,265.486725663717,4,2,1,40,1,0
99996,-100,4,2,1,40,0,0
100792,291.686922702965,4,2,3,40,1,0
101959,297.029702970297,4,2,3,40,1,0
102256,232.558139534884,4,2,3,40,1,0
102488,218.181818181818,4,2,3,40,1,0
102706,319.148936170213,4,2,3,40,1,0
102865,361.44578313253,4,2,3,40,1,0
103045,392.156862745098,4,2,3,40,1,0
103242,276.497695852535,4,2,3,40,1,0
103518,285.714285714286,4,2,3,40,1,0
105599,272.727272727273,6,2,1,50,1,0
107099,272.727272727273,5,2,1,45,1,0
112553,-100,5,2,1,55,0,0
116644,-100,5,2,1,65,0,0
118008,-71.4285714285714,5,2,1,85,0,1
126189,272.727272727273,4,2,1,85,1,0
126325,-83.3333333333333,4,2,1,85,0,0
133825,-100,4,2,1,50,0,0
134916,-83.3333333333333,4,2,2,70,0,0
139279,-100,4,2,2,70,0,0
141189,-83.3333333333333,4,2,2,70,0,0
141734,-83.3333333333333,4,2,2,60,0,0
143132,-83.3333333333333,4,2,2,10,0,0
143234,-83.3333333333333,4,2,2,60,0,0
143643,-83.3333333333333,4,2,2,70,0,0
148007,-83.3333333333333,4,2,1,75,0,0
150189,-83.3333333333333,4,2,1,50,0,0
152370,-100,4,2,1,70,0,0
154416,-100,4,2,1,40,0,0
155506,-100,4,2,2,50,0,0
156734,-100,4,2,1,70,0,0
158779,-100,4,2,1,40,0,0
159461,-100,4,2,2,40,0,0
160007,-100,4,2,1,50,0,0
161098,-100,4,2,1,70,0,0
163279,-100,4,2,1,40,0,0
164234,-100,4,2,2,50,0,0
165461,-100,4,2,2,60,0,0
167643,-100,4,2,2,40,0,0
169825,-83.3333333333333,4,2,1,70,0,0
176370,-83.3333333333333,4,2,1,75,0,0
177461,-83.3333333333333,4,2,2,50,0,0
178825,-83.3333333333333,4,2,2,70,0,0
180189,-83.3333333333333,4,2,1,70,0,0
180734,-83.3333333333333,4,2,2,70,0,0
181825,-83.3333333333333,4,2,1,70,0,0
182916,-83.3333333333333,4,2,2,70,0,0
184552,-83.3333333333333,4,2,1,70,0,0
185098,-83.3333333333333,4,2,1,50,0,0
186189,-100,4,2,2,55,0,0
187279,-100,4,2,1,75,0,0
190552,-100,4,2,2,65,0,0
191643,-100,4,2,1,75,0,0
194916,-100,4,2,2,65,0,0
196007,-100,4,2,1,75,0,0
199279,-100,4,2,2,65,0,0
200370,-100,4,2,2,70,0,0
201461,-100,4,2,1,70,0,0
202552,-125,4,2,1,70,0,0
202689,-125,4,2,0,20,0,0
204734,-83.3333333333333,4,2,1,80,0,1
206370,-83.3333333333333,4,2,1,65,0,1
206916,-83.3333333333333,4,2,1,80,0,1
208007,-83.3333333333333,4,2,1,65,0,1
209098,-83.3333333333333,4,2,1,80,0,1
210189,-83.3333333333333,4,2,1,65,0,1
210734,-83.3333333333333,4,2,1,65,0,1
211279,-83.3333333333333,4,2,1,80,0,1
212370,-83.3333333333333,4,2,1,55,0,0
213461,-83.3333333333333,4,2,1,90,0,1
215098,-83.3333333333333,4,2,1,75,0,0
215643,-83.3333333333333,4,2,1,90,0,1
216734,-83.3333333333333,4,2,1,75,0,0
217825,-83.3333333333333,4,2,1,90,0,1
219461,-83.3333333333333,4,2,1,100,0,1
220007,-100,4,2,1,75,0,0
220552,-100,4,2,1,50,0,0
221098,-100,4,2,1,40,0,0
222189,272.727272727273,5,2,1,40,1,0
223552,-125,5,2,2,40,0,0
227643,-125,5,2,2,60,0,0
229007,272.727272727273,4,2,1,70,1,1
229007,-100,4,2,1,70,0,1
229825,-100,4,2,1,80,0,1
230916,-100,4,2,1,70,0,1
231461,-100,4,2,1,40,0,0
231734,-100,4,2,1,50,0,0
232007,-100,4,2,1,60,0,0
232279,-100,4,2,1,70,0,0
233734,-100,4,2,1,60,0,0
235552,-83.3333333333333,4,2,1,70,0,0
237734,-83.3333333333333,4,2,1,80,0,1
242097,-71.4285714285714,4,2,1,90,0,0
245643,-71.4285714285714,4,2,1,100,0,0
250007,-125,4,2,4,60,0,1
254234,-125,4,2,4,75,0,0

[Colours]
Combo1 : 255,0,0
Combo2 : 233,233,233

[HitObjects]
77,27,1281,6,0,B|61:37|61:37|35:109,1,70,10|2,2:0|2:0,2:0:0:0:
96,160,1554,2,0,B|112:150|112:150|138:78,1,70,2|2,2:0|2:0,2:0:0:0:
240,78,1827,2,0,B|224:88|224:88|198:160,1,70,2|2,2:0|2:0,2:0:0:0:
259,211,2100,2,0,B|275:201|275:201|301:129,1,70,2|2,2:0|2:0,2:0:0:0:
378,136,2372,2,0,B|350:37|350:37|368:-5,2,140,10|10|10,3:0|3:0|3:0,2:0:0:0:
439,207,3054,2,0,B|461:159|461:159|489:136,2,70,10|10|10,3:0|3:0|3:0,2:0:0:0:
482,283,3463,6,0,B|458:307|458:307|339:280,1,125.999996154785,4|0,1:0|2:0,2:0:0:0:
330,247,3735,2,0,L|222:273,1,83.9999974365235,8|0,1:0|2:0,2:0:0:0:
155,330,4008,2,0,L|213:342,4,41.9999987182618,0|0|0|0|0,1:0|2:0|3:0|3:0|3:0,2:0:0:0:
91,259,4417,1,8,1:0:0:0:
91,259,4485,1,0,3:0:0:0:
91,259,4554,2,0,B|72:184|72:184|30:132,1,125.999996154785,4|0,3:2|3:0,0:0:0:0:
20,95,4826,2,0,L|-8:198,1,83.9999974365235,8|0,1:0|3:0,0:0:0:0:
112,62,5099,6,0,B|136:32|136:32|215:20|215:20|304:98,1,210,0|8,3:0|1:0,0:0:0:0:
435,59,5644,1,4,1:2:0:0:
473,274,5917,1,0,1:0:0:0:
257,307,6190,1,0,1:0:0:0:
219,92,6463,1,0,3:0:0:0:
315,108,6599,1,0,1:0:0:0:
315,108,6667,1,0,1:0:0:0:
315,108,6735,6,0,L|297:201,1,70,4|0,1:2|3:0,0:0:0:0:
230,241,7008,2,0,L|195:158,1,70,0|0,1:0|3:0,0:0:0:0:
74,208,7281,2,0,L|141:251,1,70,0|0,1:0|1:0,0:0:0:0:
80,316,7554,2,0,L|7:341,1,70,0|0,1:0|1:0,0:0:0:0:
155,376,7826,6,0,B|255:357|255:357|299:371,1,125.999996154785,4|0,1:0|1:0,0:0:0:0:
329,343,8099,2,0,L|298:244,1,83.9999974365235,8|0,1:0|3:0,0:0:0:0:
378,189,8372,2,0,L|429:217,4,41.9999987182618,0|0|0|0|0,1:0|3:0|3:0|3:0|3:0,0:0:0:0:
315,98,8781,1,8,1:0:0:0:
315,98,8849,1,0,3:0:0:0:
315,98,8917,2,0,B|263:179|263:179|218:199,1,125.999996154785,4|0,1:2|3:0,0:0:0:0:
191,157,9190,2,0,L|168:254,1,83.9999974365235,8|0,1:0|1:0,0:0:0:0:
107,328,9463,6,0,B|77:279|77:279|30:253|30:253|10:137,1,210,0|8,1:0|1:0,0:0:0:0:
57,76,10008,1,0,1:0:0:0:
237,53,10281,1,0,1:0:0:0:
389,151,10553,1,0,1:0:0:0:
208,174,10826,1,0,1:0:0:0:
139,114,10963,1,0,1:0:0:0:
139,114,11031,1,0,1:0:0:0:
139,114,11099,6,0,L|96:187,1,70,0|0,1:0|3:0,0:0:0:0:
165,249,11372,2,0,L|193:318,1,70,0|0,1:0|3:0,0:0:0:0:
100,363,11645,2,0,L|159:380,8,35,0|0|0|0|0|0|0|0|0,1:0|3:0|3:0|3:0|1:0|3:0|3:0|3:0|0:0,0:0:0:0:
112,80,16553,5,8,1:0:0:0:
112,80,17099,1,8,1:0:0:0:
112,80,17644,1,8,1:0:0:0:
112,80,18190,1,8,1:0:0:0:
112,80,18736,2,0,B|95:99|95:99|79:173,2,70,8|0|8,1:0|3:0|1:0,0:0:0:0:
199,108,19144,1,0,1:0:0:0:
199,108,19213,1,0,1:0:0:0:
199,108,19281,2,0,L|271:96,2,70,8|0|8,1:0|3:0|1:0,0:0:0:0:
157,190,19690,2,0,L|167:244,2,35,0|0|12,1:0|1:0|1:0,0:0:0:0:
340,351,20372,6,2,B|446:331|446:331|414:278,2,140,2|0|0,2:1|2:0|3:0,2:1:0:0:
264,300,21053,5,2,2:1:0:0:
264,300,21190,2,0,B|223:317|223:317|195:352,1,70,0|0,3:0|0:0,0:0:0:0:
121,370,21463,2,0,L|133:284,1,70,2|0,3:1|2:0,0:0:0:0:
40,289,21736,2,0,B|20:242|20:242|54:127,1,140,2|0,3:1|0:0,0:0:0:0:
5,74,22145,1,2,2:1:0:0:
5,74,22281,2,0,L|91:57,1,70,0|0,3:0|0:0,0:0:0:0:
149,11,22554,2,0,B|167:48|167:48|197:68,1,70,2|0,3:1|2:0,0:0:0:0:
275,29,22827,2,0,B|281:78|281:78|244:171,1,140,2|0,3:1|0:0,0:0:0:0:
183,227,23236,1,2,2:1:0:0:
183,227,23372,2,0,L|223:293,1,70,0|0,3:0|0:0,0:0:0:0:
290,342,23645,2,0,B|303:303|303:303|341:277,1,70,2|0,3:1|2:0,0:0:0:0:
407,329,23918,2,0,B|415:237,1,70,2|2,3:1|2:3,0:0:0:0:
458,254,24122,1,2,2:3:0:0:
458,254,24191,6,0,B|485:206|485:206|513:196,2,70,2|2|2,3:0|2:3|3:0,2:0:0:0:
402,181,24600,1,2,2:3:0:0:
402,181,24668,1,0,2:0:0:0:
402,181,24736,2,0,B|422:102|422:102|409:61,1,105,2|0,3:0|2:0,2:0:0:0:
395,37,25009,1,0,1:0:0:0:
307,14,25145,2,0,L|289:84,1,70,0|0,1:0|1:0,0:0:0:0:
206,43,25418,5,2,2:1:0:0:
206,43,25554,2,0,B|148:58|148:58|127:54,1,70,0|0,3:0|0:0,0:0:0:0:
60,6,25827,2,0,L|-16:48,1,70,2|0,3:1|2:0,0:0:0:0:
48,116,26100,2,0,B|100:131|100:131|175:212,1,140,2|0,3:1|0:0,0:0:0:0:
80,241,26509,1,2,2:1:0:0:
80,241,26645,2,0,L|0:258,1,70,0|0,3:0|0:0,0:0:0:0:
50,338,26918,2,0,B|94:360|94:360|121:383,1,70,2|0,3:1|2:0,0:0:0:0:
192,333,27191,6,0,L|207:373,3,35,0|0|0|0,3:0|2:0|2:0|2:0,2:0:0:0:
213,292,27463,2,0,L|225:214,2,70,4|4|4,3:0|2:3|3:0,2:0:0:0:
425,355,28009,2,0,L|450:278,1,70,2|2,3:0|2:3,2:0:0:0:
410,208,28281,2,0,L|374:224,3,35,0|0|0|0,3:0|2:0|2:0|2:0,2:0:0:0:
437,166,28554,2,0,B|480:182|480:182|501:222,2,70,4|4|4,3:0|2:3|3:0,2:0:0:0:
352,18,29099,2,0,L|267:48,1,70,2|0,3:0|3:0,2:0:0:0:
242,28,29303,1,0,3:0:0:0:
242,28,29372,1,0,1:0:0:0:
170,84,29508,2,0,B|191:129|191:129|191:162,1,70,0|0,1:0|1:0,0:0:0:0:
256,212,29781,5,2,2:1:0:0:
256,212,29917,2,0,L|276:137,1,70,0|0,3:0|0:0,0:0:0:0:
364,159,30190,2,0,B|357:105|357:105|336:71,1,70,2|0,3:1|2:0,0:0:0:0:
367,2,30463,2,0,B|446:15|446:15|495:56,1,140,2|0,3:1|0:0,0:0:0:0:
454,136,30872,1,2,2:1:0:0:
454,136,31008,2,0,L|490:210,1,70,0|0,3:0|0:0,0:0:0:0:
440,278,31281,2,0,L|514:314,1,70,2|0,3:1|2:0,0:0:0:0:
436,376,31554,2,0,B|338:361|338:361|291:385,1,140,2|0,3:1|0:0,0:0:0:0:
221,333,31963,1,2,2:1:0:0:
221,333,32100,2,0,L|244:261,1,70,0|0,3:0|0:0,0:0:0:0:
181,198,32372,2,0,B|129:209|129:209|111:234,1,70,2|0,3:1|2:0,0:0:0:0:
113,313,32644,2,0,L|42:335,1,70,2|2,3:1|2:3,0:0:0:0:
8,307,32850,1,2,2:3:0:0:
8,307,32918,6,0,L|16:389,2,70,2|2|2,3:0|2:3|3:0,2:0:0:0:
60,231,33327,1,2,3:0:0:0:
60,231,33395,1,0,2:0:0:0:
60,231,33463,2,0,B|45:184|45:184|22:159,1,70,2|2,3:0|3:3,2:0:0:0:
44,60,33736,2,0,L|95:115,1,70,0|0,3:0|3:0,2:0:0:0:
166,59,34009,6,0,B|189:74|189:74|273:85,2,93.3333333333333,4|4|4,3:2|3:2|3:2,0:0:0:0:
177,157,34554,2,0,B|120:187|120:187|83:189,2,93.3333333333333,4|4|4,3:2|3:2|3:2,0:0:0:0:
248,215,35100,2,0,B|279:179|279:179|322:176|322:176|341:186,2,105,4|4|0,3:2|3:2|1:0,0:0:0:0:
179,274,35644,2,0,L|166:362,1,70,0|0,3:0|1:0,0:0:0:0:
278,384,35918,2,0,L|258:306,1,70,0|0,3:0|1:0,0:0:0:0:
356,318,36191,6,0,L|413:329,4,35,0|0|0|0|8,3:0|3:0|3:0|3:0|3:1,0:0:0:0:
319,229,36600,1,0,1:0:0:0:
319,229,36736,2,0,L|268:242,4,35,0|0|8|0|0,3:0|3:0|3:1|0:0|1:0,0:0:0:0:
391,153,37145,1,0,3:0:0:0:
391,153,37281,2,0,B|406:195|406:195|494:270,2,140,8|8|8,3:0|3:0|3:0,0:0:0:0:
473,118,37963,2,0,B|482:75|482:75|476:29,2,70,8|8|8,3:0|3:0|3:0,0:0:0:0:
387,27,38372,6,0,L|402:86,4,41.9999987182618,6|0|0|0|0,1:0|3:0|3:0|3:0|3:0,0:0:0:0:
276,23,38781,2,0,L|304:67,4,41.9999987182618,4|0|0|0|0,1:2|3:0|3:0|3:0|3:0,0:0:0:0:
205,85,39191,2,0,B|171:62|171:62|122:55,1,83.9999974365235
43,22,39463,2,0,L|-4:55,4,41.9999987182618,4|0|0|0|0,1:2|3:0|3:0|3:0|3:0,0:0:0:0:
34,129,39872,2,0,L|19:187,4,41.9999987182618,4|4|4|4|4,1:2|2:3|2:3|2:3|2:3,0:0:0:0:
85,231,40281,2,0,B|101:274|101:274|154:308,1,83.9999974365235
223,369,40554,6,0,L|212:309,4,41.9999987182618,0|0|2|0|0,1:0|3:0|3:1|3:0|0:0,0:0:0:0:
480,228,41100,2,0,L|487:176,4,41.9999987182618,2|0|0|0|0,1:0|3:0|3:0|3:0|0:0,0:0:0:0:
297,76,41645,2,0,L|285:23,6,41.9999987182618,4|4|4|4|4|4|4,2:3|2:3|2:3|2:3|2:3|2:3|2:3,0:0:0:0:
342,87,42122,2,0,B|332:177,1,83.9999974365235,4|4,2:3|2:3,2:0:0:0:
430,165,42395,2,0,B|425:197|425:197|449:294,1,125.999996154785,4|4,2:3|2:3,2:0:0:0:
374,358,42736,6,0,L|368:293,4,41.9999987182618,6|0|0|0|0,1:0|3:0|3:0|3:0|3:0,0:0:0:0:
283,316,43145,2,0,L|267:268,4,41.9999987182618,4|0|0|0|0,1:2|3:0|3:0|3:0|3:0,0:0:0:0:
187,318,43554,2,0,B|159:302|159:302|75:317,1,83.9999974365235
21,273,43827,2,0,L|48:241,4,41.9999987182618,4|0|0|0|0,1:2|3:0|3:0|3:0|3:0,0:0:0:0:
134,224,44236,2,0,L|136:166,4,41.9999987182618,4|4|4|4|4,1:2|2:3|2:3|2:3|2:3,0:0:0:0:
208,130,44645,2,0,B|198:64|198:64|171:33,1,83.9999974365235
91,24,44918,6,0,L|38:40,4,41.9999987182618,0|0|2|0|0,1:0|3:0|3:1|3:0|0:0,0:0:0:0:
333,100,45463,2,0,L|386:116,4,41.9999987182618,2|0|0|0|0,1:0|3:0|3:0|3:0|0:0,0:0:0:0:
108,294,46009,2,0,L|55:310,6,41.9999987182618,4|4|4|4|4|4|4,2:3|2:3|2:3|2:3|2:3|2:3|2:3,0:0:0:0:
157,304,46486,2,0,B|245:323,1,83.9999974365235,4|4,2:3|2:3,2:0:0:0:
301,221,46759,2,0,B|280:202|280:202|171:210,1,125.999996154785
126,137,47100,6,0,B|151:113|151:113|187:-1,1,140,14|8,1:0|1:0,2:0:0:0:
304,46,47645,2,0,B|328:71|328:71|442:107,1,140,8|10,1:0|1:0,2:0:0:0:
395,224,48191,2,0,B|370:248|370:248|334:362,1,140,10|8,1:0|1:0,2:0:0:0:
217,315,48736,2,0,B|193:290|193:290|79:254,1,140,8|10,1:0|1:0,2:0:0:0:
50,100,49281,2,0,B|70:85|70:85|191:105,1,140,8|8,1:0|1:0,2:0:0:0:
322,20,49827,2,0,B|337:40|337:40|317:161,1,140,10|10,1:0|1:0,2:0:0:0:
402,292,50372,2,0,B|382:307|382:307|261:287,1,140,10|8,1:0|1:0,2:0:0:0:
130,372,50918,2,0,B|115:352|115:352|135:231,1,140,10|10,1:0|1:0,2:0:0:0:
70,172,51326,5,0,3:0:0:0:
70,172,51394,1,0,3:0:0:0:
70,172,51463,2,0,B|51:115|51:115|33:96,1,83.9999974365235,10|8,1:0|1:0,2:0:0:0:
106,22,51736,2,0,B|125:79|125:79|143:98,1,83.9999974365235,8|10,1:0|1:0,2:0:0:0:
258,157,52009,2,0,B|239:100|239:100|221:81,1,83.9999974365235,8|8,1:0|1:0,2:0:0:0:
294,7,52281,2,0,B|313:64|313:64|331:83,1,83.9999974365235,10|10,1:0|1:0,2:0:0:0:
426,107,52554,2,0,B|405:132|405:132|388:199,1,83.9999974365235,10|8,1:0|1:0,2:0:0:0:
280,237,52827,2,0,B|301:212|301:212|318:145,1,83.9999974365235,8|10,1:0|1:0,2:0:0:0:
259,79,53100,2,0,B|238:104|238:104|221:171,1,83.9999974365235,8|8,1:0|1:0,2:0:0:0:
113,209,53372,2,0,B|134:184|134:184|151:117,1,83.9999974365235,10|10,1:0|1:0,2:0:0:0:
215,352,53780,5,2,2:0:0:0:
412,384,54191,2,0,B|418:361|418:361|399:256,2,112,2|2|2,2:0|2:0|2:0,2:0:0:0:
209,254,55281,2,0,L|237:17,1,224,2|0,2:0|2:0,2:0:0:0:
142,76,66745,6,0,B|93:49|93:49|54:49,5,74.6666666666667,2|2|2|2|2|2,2:0|2:0|2:0|2:0|2:0|2:0,2:0:0:0:
189,218,67835,2,0,L|178:130,5,74.6666666666667,2|2|2|2|2|2,2:0|2:0|2:0|2:0|2:0|2:0,2:0:0:0:
249,282,68926,2,0,B|237:315|237:315|186:352,5,74.6666666666667,2|2|2|2|2|2,2:0|2:0|2:0|2:0|2:0|2:0,2:0:0:0:
401,279,70017,2,0,L|317:301,5,74.6666666666667,2|2|2|2|2|2,2:0|2:0|2:0|2:0|2:0|2:0,2:0:0:0:
445,209,71108,5,2,2:0:0:0:
445,209,71290,2,0,B|439:180|439:180|447:118,1,74.6666666666667,2|2,2:0|2:0,0:0:0:0:
340,79,71654,1,2,2:0:0:0:
340,79,71835,2,0,L|361:178,1,74.6666666666667,2|2,2:0|2:0,0:0:0:0:
280,209,72199,1,2,2:0:0:0:
280,209,72381,2,0,B|246:222|246:222|210:261,1,74.6666666666667,2|2,2:0|2:0,0:0:0:0:
98,167,72745,1,2,2:0:0:0:
98,167,72926,2,0,B|159:178|159:178|185:169,1,74.6666666666667,2|2,2:0|2:0,0:0:0:0:
199,32,73290,5,2,2:0:0:0:
254,111,73472,2,0,L|336:143,1,74.6666666666667,2|2,2:0|2:0,0:0:0:0:
446,84,73835,1,2,2:0:0:0:
432,180,74017,2,0,B|438:215|438:215|468:262,1,74.6666666666667,2|2,2:0|2:0,0:0:0:0:
414,354,74381,1,2,2:0:0:0:
332,300,74563,2,0,B|319:321|319:321|261:343,1,74.6666666666667,2|2,2:0|2:0,0:0:0:0:
111,366,74926,1,2,2:0:0:0:
170,289,75108,2,0,L|168:200,1,74.6666666666667,2|2,2:0|2:0,0:0:0:0:
109,133,75472,6,0,B|67:155|67:155|39:150,3,56,2|0|0|0,2:0|2:0|2:0|2:0,0:0:0:0:
103,49,76017,2,0,B|95:48|95:48|53:70,3,56,2|0|0|0,2:0|2:0|2:0|2:0,0:0:0:0:
236,83,76563,2,0,B|194:105|194:105|166:100,3,56,2|0|0|0,2:0|2:0|2:0|2:0,0:0:0:0:
230,0,77108,2,0,B|222:-2|222:-2|180:20,3,56,2|0|0|0,2:0|2:0|2:0|2:0,0:0:0:0:
327,49,77654,2,0,B|329:21|329:21|307:40,15,56,2|0|0|0|2|0|0|0|2|0|0|0|2|0|0|0,2:0|2:0|2:0|2:0|2:0|2:0|2:0|2:0|2:0|2:0|2:0|2:0|2:0|2:0|2:0|2:0,0:0:0:0:
266,144,79835,6,0,B|282:114|282:114|351:68,1,112,0|2,2:0|2:0,2:0:0:0:
411,241,80381,2,0,B|427:211|427:211|496:165,1,112,0|2,2:0|2:0,2:0:0:0:
346,70,80926,2,0,B|330:100|330:100|261:146,1,112,0|2,2:0|2:0,2:0:0:0:
491,167,81472,2,0,B|475:197|475:197|406:243,1,112,0|2,2:0|2:0,2:0:0:0:
237,242,82017,6,0,L|226:199,4,28,0|0|0|0|2,2:0|2:0|2:0|2:0|2:0,0:0:0:0:
80,345,82563,2,0,L|88:305,4,28,0|0|0|0|2,2:0|2:0|2:0|2:0|2:0,0:0:0:0:
230,214,83108,2,0,L|236:241,4,28,0|0|0|0|2,2:0|2:0|2:0|2:0|2:0,0:0:0:0:
85,317,83654,2,0,L|80:345,4,28,0|0|0|0|2,2:0|2:0|2:0|2:0|2:0,0:0:0:0:
256,192,105599,12,0,106689,0:0:0:0:
389,247,107099,5,4,1:0:0:0:
389,247,107235,2,0,B|396:194|396:194|383:155,1,70,2|0,2:0|2:0,0:0:0:0:
311,137,107508,1,2,2:0:0:0:
311,137,107644,2,0,B|304:190|304:190|317:229,1,70,2|0,2:0|2:0,0:0:0:0:
260,274,107917,2,0,L|274:353,1,70,2|0,2:1|2:0,2:0:0:0:
179,316,108189,2,0,L|161:391,1,70,2|0,2:1|2:0,2:0:0:0:
84,325,108462,2,0,B|52:308|52:308|8:306,2,70,2|2|0,3:0|2:0|2:0,2:0:0:0:
29,206,108871,2,0,B|61:223|61:223|105:225,2,70,2|2|0,3:0|2:0|2:0,2:0:0:0:
176,183,109280,2,0,L|141:109,1,70,2|0,2:1|2:0,2:0:0:0:
241,108,109553,2,0,L|236:30,1,70,2|0,2:1|2:0,2:0:0:0:
333,17,109826,1,4,1:0:0:0:
333,17,109962,2,0,B|381:41|381:41|393:63,1,70,2|0,2:0|2:0,0:0:0:0:
389,158,110235,1,2,2:0:0:0:
389,158,110371,2,0,B|341:134|341:134|329:112,1,70,2|0,2:0|2:0,0:0:0:0:
485,111,110644,2,0,L|468:195,1,70,2|0,2:1|2:0,2:0:0:0:
405,244,110917,2,0,L|410:319,1,70,2|0,2:1|2:0,2:0:0:0:
275,379,111189,2,0,B|321:353|321:353|347:353,2,70,2|2|0,3:0|2:0|2:0,2:0:0:0:
217,306,111599,2,0,B|171:332|171:332|145:332,2,70,2|2|0,3:0|2:0|2:0,2:0:0:0:
235,194,112008,2,0,L|250:237,4,35,2|0|0|0|10,1:0|3:0|3:0|3:0|1:0,0:0:0:0:
47,77,112553,5,4,1:0:0:0:
47,77,112689,2,0,B|18:117|18:117|16:155,1,70,2|0,2:0|2:0,0:0:0:0:
102,158,112962,1,2,2:0:0:0:
102,158,113098,2,0,B|73:198|73:198|71:236,1,70,2|0,2:0|2:0,0:0:0:0:
196,166,113371,2,0,L|276:154,1,70,2|0,2:1|2:0,2:0:0:0:
214,254,113644,2,0,L|288:277,1,70,2|0,2:1|2:0,2:0:0:0:
372,324,113917,2,0,B|366:265|366:265|350:240,2,70,2|2|0,3:0|2:0|2:0,2:0:0:0:
453,283,114326,2,0,B|459:224|459:224|475:199,2,70,2|2|0,3:0|2:0|2:0,2:0:0:0:
373,143,114735,2,0,L|392:181,4,35,2|0|0|0|10,1:0|3:0|3:0|3:0|1:0,0:0:0:0:
486,33,115280,5,4,1:0:0:0:
486,33,115417,2,0,B|434:17|434:17|397:21,1,70,2|0,2:0|2:0,0:0:0:0:
444,119,115689,1,2,2:0:0:0:
444,119,115826,2,0,B|392:103|392:103|355:107,1,70,2|0,2:0|2:0,0:0:0:0:
289,69,116099,2,0,L|276:-2,1,70,2|0,2:1|2:0,2:0:0:0:
224,150,116371,2,0,L|186:79,1,70,2|0,2:1|2:0,2:0:0:0:
105,30,116644,6,0,B|73:28|73:28|-4:74,3,105,6|0|6|0,1:2|1:0|1:2|1:0,2:0:0:0:
29,211,117462,2,0,L|40:164,7,35,0|0|2|0|2|0|2|0,1:0|3:0|3:1|3:0|1:0|3:0|3:1|3:0,0:0:0:0:
0,241,118008,6,0,B|127:311|127:311|157:378,1,195.999994018555,6|0,1:0|1:0,2:0:0:0:
240,334,118417,1,0,3:0:0:0:
240,334,118485,1,0,3:0:0:0:
240,334,118553,2,0,B|235:264|235:264|218:222,1,97.9999970092774,2|0,1:0|3:0,2:0:0:0:
228,136,118826,2,0,B|291:166|291:166|335:172,1,97.9999970092774,2|0,1:0|3:0,0:0:0:0:
405,224,119099,2,0,B|346:263|346:263|319:299,1,97.9999970092774,2|0,1:0|3:0,0:0:0:0:
383,361,119371,2,0,B|242:382|242:382|182:355,1,195.999994018555,6|0,1:0|1:0,2:0:0:0:
182,261,119780,1,0,3:0:0:0:
182,261,119849,1,0,3:0:0:0:
182,261,119917,2,0,B|171:228|171:228|116:177,1,97.9999970092774,2|0,1:0|3:0,2:0:0:0:
125,92,120189,2,0,B|159:98|159:98|230:76,1,97.9999970092774,2|0,1:0|3:0,0:0:0:0:
299,127,120462,2,0,B|275:153|275:153|259:226,1,97.9999970092774,2|0,1:0|3:0,0:0:0:0:
351,288,120735,2,0,B|350:252|350:252|460:123,1,195.999994018555,6|0,1:0|1:0,2:0:0:0:
411,37,121144,1,0,3:0:0:0:
411,37,121212,1,0,3:0:0:0:
411,37,121280,2,0,B|343:20|343:20|298:40,1,97.9999970092774,2|0,1:0|3:0,2:0:0:0:
217,21,121553,2,0,B|236:88|236:88|276:117,1,97.9999970092774,2|0,1:0|3:0,0:0:0:0:
301,198,121826,2,0,B|349:147|349:147|354:98,1,97.9999970092774,2|0,1:0|3:0,0:0:0:0:
357,302,122099,2,0,B|281:282|281:282|201:304|201:304|161:346,1,195.999994018555,6|0,1:0|1:0,2:0:0:0:
108,261,122508,1,0,3:0:0:0:
108,261,122576,1,0,3:0:0:0:
108,261,122644,2,0,B|54:295|54:295|29:334,1,97.9999970092774,2|0,1:0|3:0,2:0:0:0:
26,196,122917,2,0,B|23:132|23:132|2:91,1,97.9999970092774,2|0,1:0|3:0,0:0:0:0:
123,157,123189,2,0,B|179:186|179:186|225:188,1,97.9999970092774,2|0,1:0|3:0,0:0:0:0:
223,83,123462,2,0,B|248:46|248:46|414:19,1,195.999994018555,6|0,1:0|1:0,2:0:0:0:
467,101,123871,1,0,3:0:0:0:
467,101,123939,1,0,3:0:0:0:
467,101,124008,2,0,B|414:143|414:143|400:183,1,97.9999970092774,2|0,1:0|3:0,2:0:0:0:
324,235,124280,2,0,B|386:259|386:259|428:252,1,97.9999970092774,2|0,1:0|3:0,0:0:0:0:
512,292,124553,2,0,B|502:225|502:225|474:192,1,97.9999970092774,2|0,1:0|3:0,0:0:0:0:
448,349,124826,2,0,B|406:366|406:366|249:379,1,195.999994018555,6|0,1:0|1:0,2:0:0:0:
302,284,125235,1,0,3:0:0:0:
302,284,125303,1,0,3:0:0:0:
302,284,125371,2,0,B|322:253|322:253|416:223,1,97.9999970092774,2|0,1:0|3:0,2:0:0:0:
202,189,125644,2,0,B|218:221|218:221|197:318,1,97.9999970092774,2|0,1:0|3:0,0:0:0:0:
334,149,125917,2,0,B|297:147|297:147|224:80,1,97.9999970092774,2|0,1:0|3:0,0:0:0:0:
151,57,126189,5,6,1:0:0:0:
151,57,126325,2,0,B|205:42|205:42|243:7,2,83.9999974365235,0|2|0,3:0|1:0|3:0,2:0:0:0:
77,113,126734,1,2,1:0:0:0:
77,113,126870,2,0,B|28:84|28:84|1:40,2,83.9999974365235,0|2|0,3:0|1:0|3:0,2:0:0:0:
137,189,127279,1,2,1:0:0:0:
137,189,127416,2,0,L|160:286,2,83.9999974365235,0|2|0,3:0|1:0|3:0,2:0:0:0:
240,216,127825,1,2,1:0:0:0:
240,216,127961,2,0,L|258:115,2,83.9999974365235,0|2|0,3:0|1:0|3:0,2:0:0:0:
342,192,128370,1,2,1:0:0:0:
342,192,128507,2,0,B|363:241|363:241|394:262,2,83.9999974365235,0|2|0,3:0|1:0|3:0,2:0:0:0:
364,95,128916,1,2,1:0:0:0:
364,95,129053,2,0,B|343:46|343:46|312:25,2,83.9999974365235,0|2|0,3:0|1:0|3:0,2:0:0:0:
430,169,129461,1,2,1:0:0:0:
430,169,129598,2,0,L|527:185,2,83.9999974365235,0|2|0,3:0|1:0|3:0,2:0:0:0:
380,253,130007,1,2,1:0:0:0:
380,253,130144,2,0,L|469:293,2,83.9999974365235,0|2|0,3:0|1:0|3:0,2:0:0:0:
256,192,130552,12,0,132734,0:0:0:0:
88,87,133825,6,2,B|81:111|81:111|114:224,1,140,10|2,1:0|2:0,2:0:0:0:
203,247,134234,2,2,B|210:223|210:223|176:110,1,140,10|0,1:0|3:0,2:0:0:0:
209,82,134575,1,0,3:0:0:0:
209,82,134643,2,0,L|284:88,1,70,8|0,1:0|2:0,2:0:0:0:
339,20,134916,6,0,B|436:59|436:59|451:86|451:86|442:140,1,167.999994873047,4|8,1:0|1:0,2:0:0:0:
489,202,135325,1,0,3:0:0:0:
489,202,135393,1,0,3:0:0:0:
489,202,135461,2,0,B|421:213|421:213|393:239,1,83.9999974365235,2|0,1:0|3:0,2:0:0:0:
461,310,135734,1,10,1:0:0:0:
364,336,135870,2,0,B|339:338|339:338|270:317,1,83.9999974365235,2|0,3:1|1:0,2:0:0:0:
311,227,136143,2,0,L|298:130,1,83.9999974365235,2|8,3:1|1:0,2:0:0:0:
248,56,136416,1,2,3:1:0:0:
160,105,136552,2,0,L|148:206,1,83.9999974365235,2|0,1:0|3:0,2:0:0:0:
128,219,136757,1,0,3:0:0:0:
128,219,136825,1,8,1:3:0:0:
208,357,137098,6,0,B|348:319|348:319|378:329,1,167.999994873047,4|8,1:0|1:0,2:0:0:0:
477,374,137507,1,0,3:0:0:0:
477,374,137575,1,0,3:0:0:0:
477,374,137643,2,0,B|501:307|501:307|497:275,1,83.9999974365235,2|0,1:0|3:0,2:0:0:0:
420,230,137916,1,10,1:0:0:0:
480,150,138052,2,0,L|463:55,1,83.9999974365235,2|0,3:1|1:0,2:0:0:0:
357,30,138325,2,0,B|333:63|333:63|319:134,1,83.9999974365235,2|8,3:1|1:0,2:0:0:0:
331,206,138598,1,0,3:0:0:0:
232,224,138734,2,0,L|139:248,1,83.9999974365235,0|0,1:0|3:0,2:0:0:0:
115,281,138939,1,0,3:0:0:0:
115,281,139007,1,8,1:0:0:0:
35,24,139279,6,0,B|59:39|59:39|76:123,8,105,4|4|4|4|12|4|4|4|4,1:0|3:0|3:0|2:3|1:3|2:3|3:0|3:3|1:3,2:0:0:0:
171,70,141052,1,0,3:0:0:0:
171,70,141120,1,0,3:0:0:0:
171,70,141189,2,2,L|264:82,2,83.9999974365235,8|0|0,1:0|3:0|1:0,2:1:0:0:
440,20,141734,6,0,B|478:51|478:51|496:99,1,83.9999974365235,2|2,3:2|1:2,2:0:0:0:
401,115,142007,2,0,L|395:210,1,83.9999974365235,2|2,1:2|3:2,2:0:0:0:
313,108,142279,2,0,B|287:98|287:98|212:93,1,83.9999974365235,2|0,2:0|1:0,2:0:0:0:
149,138,142552,1,2,2:3:0:0:
149,138,142689,2,0,B|141:76|141:76|119:38,1,83.9999974365235,2|2,2:3|2:3,2:0:0:0:
37,38,142961,2,0,B|45:100|45:100|67:138,1,83.9999974365235,2|2,2:3|2:3,2:0:0:0:
84,215,143234,2,0,L|0:241,2,83.9999974365235,4|12|4,3:0|1:3|2:3,2:0:0:0:
131,305,143643,6,0,B|178:316|178:316|290:372,1,167.999994873047,4|8,1:0|1:0,2:0:0:0:
460,330,144189,2,0,L|407:253,1,83.9999974365235,2|0,2:1|0:0,2:0:0:0:
487,203,144461,1,10,1:0:0:0:
487,203,144598,2,0,B|484:150|484:150|463:112,1,83.9999974365235,2|0,2:1|0:0,2:0:0:0:
469,27,144870,2,0,B|427:39|427:39|372:43,1,83.9999974365235,2|0,2:1|0:0,2:0:0:0:
315,106,145143,1,2,2:1:0:0:
315,106,145279,2,0,L|221:82,2,83.9999974365235,2|4|12,2:1|2:3|1:3,2:0:0:0:
104,34,145825,6,0,B|67:31|67:31|50:47|50:47|24:177,1,167.999994873047,4|8,1:0|1:0,2:0:0:0:
173,253,146370,2,0,L|74:278,1,83.9999974365235,2|0,2:1|0:0,2:0:0:0:
44,368,146643,1,10,1:0:0:0:
44,368,146779,2,0,B|78:358|78:358|152:377,1,83.9999974365235,2|0,2:1|1:0,2:0:0:0:
210,332,147052,2,0,L|283:385,1,83.9999974365235,2|8,2:1|0:1,2:0:0:0:
352,318,147325,1,0,1:0:0:0:
352,318,147461,2,0,B|397:319|397:319|416:277,2,83.9999974365235,0|4|12,0:0|2:3|1:3,0:0:0:0:
488,147,148007,6,0,B|389:90|389:90|354:24,1,167.999994873047,4|0,1:0|1:0,0:0:0:0:
266,14,148416,1,0,1:0:0:0:
266,14,148552,2,0,B|209:113|209:113|143:148,1,167.999994873047,0|0,1:0|1:0,0:0:0:0:
133,236,148962,1,0,1:0:0:0:
133,236,149098,2,0,B|232:293|232:293|267:359,1,167.999994873047,0|0,1:0|1:0,0:0:0:0:
355,369,149507,1,0,1:0:0:0:
355,369,149643,2,0,B|412:270|412:270|478:235,1,167.999994873047,0|0,1:0|1:0,0:0:0:0:
403,160,150052,1,0,1:0:0:0:
403,160,150189,2,0,B|336:170|336:170|313:193,1,83.9999974365235,2|0,3:1|2:0,0:0:0:0:
348,78,150461,2,0,B|281:88|281:88|269:99,1,83.9999974365235,2|0,3:1|2:0,0:0:0:0:
238,185,150734,2,0,B|171:195|171:195|148:218,1,83.9999974365235,2|0,3:1|2:0,0:0:0:0:
183,103,151006,2,0,B|116:113|116:113|104:124,1,83.9999974365235,2|0,3:1|2:0,0:0:0:0:
32,360,152370,6,0,B|49:372|49:372|117:379,1,70,4|0,1:0|1:0,0:0:0:0:
150,305,152643,2,0,B|133:293|133:293|65:286,1,70,0|0,1:0|1:0,0:0:0:0:
26,191,152916,2,0,B|43:203|43:203|111:210,1,70,0|0,1:0|1:0,0:0:0:0:
144,136,153189,2,0,B|127:124|127:124|59:117,1,70,0|0,1:0|1:0,0:0:0:0:
42,96,153393,1,0,1:0:0:0:
42,96,153461,2,0,L|24:13,1,70,0|0,1:0|1:0,0:0:0:0:
119,15,153734,2,0,L|186:66,1,70,0|0,1:0|1:0,0:0:0:0:
266,98,154007,2,0,L|271:6,1,70,0|0,1:0|1:0,0:0:0:0:
364,47,154279,2,0,L|403:118,1,70,0|0,1:0|1:0,0:0:0:0:
440,106,154484,1,0,1:0:0:0:
440,106,154552,5,2,1:0:0:0:
501,172,154689,2,0,B|487:190|487:190|466:254,1,70,2|2,2:0|1:0,0:0:0:0:
479,343,154961,1,2,2:0:0:0:
399,299,155098,1,2,1:0:0:0:
341,368,155234,2,0,B|314:367|314:367|261:345,1,70,2|2,2:0|1:0,0:0:0:0:
161,362,155507,1,2,3:0:0:0:
161,362,155575,1,2,3:0:0:0:
161,362,155643,2,0,L|174:284,2,70,2|2|2,3:0|2:3|3:0,2:0:0:0:
52,308,156052,2,0,B|54:350|54:350|75:381,2,70,2|2|2,2:3|3:0|2:3,2:0:0:0:
107,232,156461,2,0,B|49:208|49:208|25:209,1,70,0|0,3:0|3:0,2:0:0:0:
18,74,156734,6,0,B|38:110|38:110|70:136,1,70,4|0,1:0|1:0,0:0:0:0:
118,66,157007,2,0,B|141:85|141:85|161:121,1,70,0|0,1:0|1:0,0:0:0:0:
204,18,157279,2,0,B|224:54|224:54|256:80,1,70,0|0,1:0|1:0,0:0:0:0:
304,10,157552,2,0,B|327:29|327:29|347:65,1,70,0|0,1:0|1:0,0:0:0:0:
391,80,157757,1,0,1:0:0:0:
391,80,157825,2,0,L|448:16,1,70,0|0,1:0|1:0,0:0:0:0:
512,115,158098,2,0,L|435:152,1,70,0|0,1:0|1:0,0:0:0:0:
448,240,158370,2,0,L|416:304,1,70,0|0,1:0|1:0,0:0:0:0:
324,356,158643,2,0,L|333:276,1,70,0|0,1:0|1:0,0:0:0:0:
304,255,158848,1,0,1:0:0:0:
304,255,158916,5,2,1:0:0:0:
223,299,159052,2,0,L|143:309,1,70,2|0,2:0|1:0,0:0:0:0:
40,255,159325,1,2,2:0:0:0:
23,168,159461,2,0,B|33:115|33:115|24:98,2,70,2|2|2,3:0|2:3|3:0,2:0:0:0:
124,165,159870,1,0,3:0:0:0:
124,165,159939,1,0,3:0:0:0:
124,165,160007,2,2,B|149:193|149:193|134:316,2,140,2|2|8,3:1|3:1|1:3,2:1:0:0:
238,208,160689,1,0,3:0:0:0:
238,208,160757,1,0,3:0:0:0:
238,208,160825,2,0,B|253:179|253:179|301:151,1,70,8|0,1:3|3:0,2:0:0:0:
361,109,161098,6,2,B|344:85|344:85|223:54,7,140,4|0|0|0|0|0|0|0,1:0|1:0|1:0|1:0|1:0|1:0|1:0|1:0,2:1:0:0:
457,223,163279,2,2,B|449:153|449:153|516:79,3,140,6|0|0|0,1:0|1:0|1:0|1:0,2:1:0:0:
481,13,164234,1,2,2:3:0:0:
481,13,164302,1,2,2:3:0:0:
481,13,164370,2,0,L|384:30,2,70,2|2|2,3:0|2:3|3:0,2:0:0:0:
438,109,164779,2,0,B|489:133|489:133|506:167,2,70,2|2|2,2:3|3:0|3:0,2:0:0:0:
351,153,165189,2,0,B|347:202|347:202|356:238,1,70,0|0,3:0|3:0,2:0:0:0:
288,289,165461,6,0,B|356:341|356:341|398:342,2,93.3333333333333,4|4|4,1:2|1:2|1:2,0:0:0:0:
183,341,166007,2,0,L|71:368,2,93.3333333333333,4|4|4,1:2|1:2|1:2,0:0:0:0:
114,250,166552,2,0,B|74:239|74:239|16:195,2,93.3333333333333,4|4|4,1:2|1:2|1:2,0:0:0:0:
174,151,167098,2,0,L|195:213,5,46.6666666666667,0|4|4|0|4|4,3:0|3:0|3:0|3:0|3:0|3:0,0:0:0:0:
131,128,167643,6,2,B|189:41|189:41|248:25|248:25|287:51,1,210,0|0,2:0|2:0,2:0:0:0:
380,21,168189,2,2,B|355:174|355:174|408:107,1,210,0|0,2:0|2:0,2:0:0:0:
492,356,169825,1,4,1:0:0:0:
431,213,170098,6,0,L|440:127,1,83.9999974365235,0|0,1:0|3:0,2:0:0:0:
346,161,170370,2,0,L|355:75,1,83.9999974365235,0|0,1:0|3:0,2:0:0:0:
253,195,170643,2,0,L|262:109,1,83.9999974365235,0|0,1:0|3:0,2:0:0:0:
168,143,170916,2,0,L|177:57,2,83.9999974365235,0|0|0,1:0|1:0|1:0,2:0:0:0:
95,349,171461,2,0,B|181:345|181:345|206:368|206:368|266:390,1,167.999994873047,2|2,1:2|1:2,0:0:0:0:
316,330,171870,1,2,2:0:0:0:
316,330,172007,1,4,1:0:0:0:
142,247,172279,6,0,L|48:231,1,83.9999974365235,0|0,1:0|3:0,2:0:0:0:
118,153,172552,2,0,L|24:137,1,83.9999974365235,0|0,1:0|3:0,2:0:0:0:
174,71,172825,2,0,L|80:55,1,83.9999974365235,0|0,1:0|3:0,2:0:0:0:
252,11,173098,2,0,B|274:53|274:53|345:109|345:109|330:176,1,167.999994873047,2|2,1:2|1:2,0:0:0:0:
276,195,173507,1,2,2:0:0:0:
325,262,173643,2,0,B|399:219|399:219|457:299,1,167.999994873047,2|2,1:2|1:2,0:0:0:0:
385,342,174052,1,6,3:2:0:0:
385,342,174189,1,4,1:0:0:0:
198,338,174461,6,0,L|104:353,1,83.9999974365235,0|0,1:0|3:0,2:0:0:0:
208,243,174734,2,0,L|114:258,1,83.9999974365235,0|0,1:0|3:0,2:0:0:0:
158,158,175007,2,0,L|64:173,1,83.9999974365235,0|0,1:0|3:0,2:0:0:0:
168,63,175280,2,0,L|74:78,2,83.9999974365235,0|0|0,1:0|1:0|1:0,2:0:0:0:
341,22,175825,2,0,B|305:32|305:32|244:149,1,167.999994873047,2|2,1:2|1:2,0:0:0:0:
289,219,176234,1,2,2:0:0:0:
257,296,176370,2,0,B|298:341|298:341|433:374|433:374|469:275|469:275|503:243,1,335.999989746094,2|2,1:0|1:0,2:0:0:0:
256,192,177461,12,0,178552,2:1:0:0:
356,181,178825,6,0,L|270:172,1,83.9999974365235,2|0,1:2|2:0,2:0:0:0:
221,105,179098,2,0,B|167:125|167:125|146:150,1,83.9999974365235,2|0,1:2|2:0,2:0:0:0:
176,184,179302,1,2,3:2:0:0:
176,184,179370,2,0,L|166:285,1,83.9999974365235,2|2,1:2|3:2,0:0:0:0:
245,311,179643,1,2,1:2:0:0:
245,311,179779,2,0,L|290:223,2,83.9999974365235,2|2|2,3:2|1:2|3:2,0:0:0:0:
184,371,180189,2,0,B|134:344|134:344|71:336|71:336|35:273,1,167.999994873047,2|2,1:2|1:2,0:0:0:0:
89,221,180598,1,2,3:2:0:0:
89,221,180734,1,4,1:0:0:0:
10,78,181007,6,0,L|91:23,1,83.9999974365235,2|0,1:2|2:0,2:0:0:0:
187,33,181279,2,0,B|158:65|158:65|147:116,1,83.9999974365235,2|0,1:2|2:0,2:0:0:0:
173,141,181484,1,2,3:2:0:0:
173,141,181552,2,0,L|267:165,1,83.9999974365235,2|2,1:2|3:2,0:0:0:0:
298,233,181825,2,0,B|261:337|261:337|189:354,1,167.999994873047,2|2,1:2|1:2,0:0:0:0:
167,274,182234,1,2,3:2:0:0:
84,290,182370,2,0,B|66:207|66:207|76:181|76:181|132:130,1,167.999994873047,2|2,1:2|1:2,0:0:0:0:
152,67,182779,1,2,3:2:0:0:
152,67,182916,1,4,1:0:0:0:
311,14,183189,6,0,L|296:117,1,83.9999974365235,2|0,1:2|2:0,2:0:0:0:
382,94,183461,2,0,B|407:107|407:107|431:181,1,83.9999974365235,2|0,1:2|2:0,2:0:0:0:
462,180,183666,1,0,3:0:0:0:
462,180,183734,2,0,B|487:193|487:193|511:267,1,83.9999974365235,2|2,1:2|3:2,0:0:0:0:
451,319,184007,2,0,B|426:306|426:306|402:232,1,83.9999974365235,2|0,1:2|2:0,2:0:0:0:
371,233,184212,1,2,3:2:0:0:
371,233,184280,2,0,B|346:220|346:220|322:146,1,83.9999974365235,2|2,1:2|3:2,0:0:0:0:
259,97,184552,2,0,B|216:92|216:92|74:161,1,167.999994873047,2|2,1:2|1:2,0:0:0:0:
28,109,184961,1,2,3:2:0:0:
28,109,185098,1,4,3:0:0:0:
262,25,186189,6,0,B|275:53|275:53|291:173,1,140,2|2,3:0|3:0,2:0:0:0:
263,330,186734,2,0,L|359:291,1,70,2|2,3:0|3:0,2:0:0:0:
453,384,187007,2,0,L|371:368,1,70,2|2,3:0|3:0,2:0:0:0:
391,234,187279,6,0,B|412:264|412:264|512:329,2,140,6|2|2,1:0|1:0|1:0,2:0:0:0:
443,51,188098,1,0,1:0:0:0:
443,51,188234,2,0,L|358:70,1,70,2|0,3:1|1:0,2:0:0:0:
304,19,188507,2,0,B|282:26|282:26|229:74,1,70,2|0,3:1|1:0,2:0:0:0:
163,57,188779,2,0,B|159:96|159:96|186:147,1,70,2|0,3:1|1:0,2:0:0:0:
242,187,189052,1,2,3:1:0:0:
242,187,189120,1,0,3:0:0:0:
242,187,189189,2,0,L|227:282,2,70,2|2|0,1:0|3:1|1:0,0:0:0:0:
330,230,189598,6,0,L|403:216,1,70,2|0,3:1|3:0,2:0:0:0:
463,163,189870,1,0,3:0:0:0:
463,163,190007,2,0,B|489:202|489:202|493:230,1,70,2|2,1:0|3:1,2:0:0:0:
439,290,190279,2,0,B|423:332|423:332|422:362,1,70,2|2,1:0|3:1,2:0:0:0:
338,371,190552,1,4,1:3:0:0:
338,371,190689,2,0,L|327:323,2,35,0|0|4,3:0|3:0|1:3,0:0:0:0:
236,312,190961,1,4,1:3:0:0:
236,312,191098,2,0,L|231:351,2,35,0|0|4,3:0|3:0|1:3,0:0:0:0:
297,245,191370,2,2,B|271:193|271:193|235:168,1,70,4|0,1:0|0:0,3:0:0:0:
183,217,191643,6,0,B|161:251|161:251|42:297,2,140,6|2|2,1:0|1:0|1:0,2:0:0:0:
58,13,192461,1,0,1:0:0:0:
58,13,192598,2,0,L|20:83,1,70,2|0,3:1|1:0,2:0:0:0:
133,66,192870,2,0,B|148:112|148:112|167:132,1,70,2|0,3:1|1:0,2:0:0:0:
217,32,193143,2,0,B|250:53|250:53|310:58,1,70,2|0,3:1|1:0,2:0:0:0:
371,18,193416,1,2,3:1:0:0:
371,18,193484,1,0,3:0:0:0:
371,18,193552,2,0,L|461:5,2,70,2|2|2,1:0|3:1|1:2,0:0:0:0:
391,109,193961,6,0,L|335:97,2,35,2|2|2,3:2|3:2|1:2,2:0:0:0:
439,191,194234,1,2,3:2:0:0:
439,191,194370,2,0,B|426:230|426:230|422:282,1,70,2|2,1:2|3:2,2:0:0:0:
506,276,194643,2,0,B|503:304|503:304|490:343,1,70,2|2,1:2|3:2,2:0:0:0:
410,375,194916,1,4,1:0:0:0:
410,375,195052,2,0,L|346:329,1,70,4|4,1:3|2:3,0:0:0:0:
267,361,195325,1,4,1:3:0:0:
267,361,195461,2,0,L|281:273,1,70,4|4,2:3|2:3,0:0:0:0:
334,229,195734,2,4,B|314:181|314:181|293:160,1,70,4|4,2:3|2:3,2:3:0:0:
354,102,196007,6,0,B|382:73|382:73|497:32,2,140,6|2|2,1:0|1:0|1:0,2:0:0:0:
209,49,196825,1,0,1:0:0:0:
209,49,196961,2,0,L|129:23,1,70,2|0,3:1|1:0,2:0:0:0:
167,154,197234,2,0,B|128:130|128:130|103:94,1,70,2|0,3:1|1:0,2:0:0:0:
58,213,197507,2,0,B|38:171|38:171|43:120,1,70,2|0,3:1|1:0,2:0:0:0:
42,62,197779,1,2,3:1:0:0:
42,62,197848,1,0,3:0:0:0:
42,62,197916,2,0,L|5:-14,2,70,2|2|0,1:0|3:1|1:0,0:0:0:0:
124,21,198325,6,0,B|174:40|174:40|182:56,1,70,2|0,3:1|1:0,2:0:0:0:
265,61,198598,1,2,3:1:0:0:
265,61,198734,2,0,L|358:31,1,70,2|2,1:0|3:1,2:0:0:0:
377,110,199007,2,0,L|451:50,1,70,2|2,1:0|3:1,2:0:0:0:
503,23,199279,2,0,B|510:47|510:47|506:111,1,70,4|0,1:3|3:0,2:0:0:0:
485,128,199484,1,0,3:0:0:0:
485,128,199552,1,4,1:3:0:0:
421,184,199689,2,0,B|414:208|414:208|418:272,1,70,4|0,1:3|3:0,2:0:0:0:
439,289,199894,1,0,3:0:0:0:
439,289,199962,1,4,1:3:0:0:
492,353,200098,2,2,B|457:369|457:369|405:371,1,70,4|0,1:0|0:0,3:0:0:0:
256,192,200370,12,0,202279,1:0:0:0:
245,274,202552,6,0,B|214:314|214:314|132:305|132:305|129:230|129:230|170:185|170:185|220:192|220:192|290:135|290:135|350:149,1,448,0|0,1:0|1:0,0:0:0:0:
69,35,204734,5,4,1:0:0:0:
32,110,204870,1,0,3:0:0:0:
102,155,205007,2,0,B|127:135|127:135|197:120,1,83.9999974365235,0|0,1:0|3:0,0:0:0:0:
248,168,205279,1,0,1:0:0:0:
318,120,205416,1,0,3:0:0:0:
319,36,205552,2,0,L|409:17,1,83.9999974365235,0|0,1:0|3:0,0:0:0:0:
479,48,205825,1,0,1:0:0:0:
456,128,205961,1,0,3:0:0:0:
496,202,206098,2,0,B|501:261|501:261|481:286,1,83.9999974365235,0|0,1:0|3:0,0:0:0:0:
420,333,206370,2,0,L|390:282,7,41.9999987182618,4|4|4|4|4|4|4|4,3:0|3:0|3:0|3:0|3:0|3:0|3:0|3:0,2:0:0:0:
356,291,206916,1,0,1:0:0:0:
297,351,207052,1,0,3:0:0:0:
213,341,207189,2,0,B|156:356|156:356|136:378,1,83.9999974365235,0|0,1:0|3:0,0:0:0:0:
62,341,207461,1,0,1:0:0:0:
75,257,207598,1,0,3:0:0:0:
34,183,207734,2,0,L|21:88,1,83.9999974365235,0|0,1:0|3:0,0:0:0:0:
94,54,208007,2,0,L|81:3,7,41.9999987182618,4|4|4|4|4|4|4|4,3:0|3:0|3:0|3:0|3:0|3:0|3:0|3:0,2:0:0:0:
140,76,208552,2,0,L|155:25,7,41.9999987182618,4|4|4|4|4|4|4|4,3:0|3:0|3:0|3:0|3:0|3:0|3:0|3:0,2:0:0:0:
161,119,209098,1,0,1:0:0:0:
237,153,209234,1,0,3:0:0:0:
294,92,209370,2,0,B|311:39|311:39|335:20,1,83.9999974365235,0|0,1:0|3:0,0:0:0:0:
410,55,209643,1,0,1:0:0:0:
487,85,209779,1,0,3:0:0:0:
444,157,209916,2,0,L|416:250,1,83.9999974365235,0|0,1:0|3:0,0:0:0:0:
455,313,210189,2,0,L|506:278,7,41.9999987182618,4|4|4|4|4|4|4|4,3:0|3:0|3:0|3:0|3:0|3:0|3:0|3:0,2:0:0:0:
436,359,210734,2,0,B|360:342|360:342|325:349,1,83.9999974365235,2|2,3:2|3:2,0:0:0:0:
278,381,211007,2,0,B|256:339|256:339|248:285,1,83.9999974365235,2|2,3:2|3:2,0:0:0:0:
304,238,211279,1,0,1:0:0:0:
245,176,211416,1,0,3:0:0:0:
288,104,211552,2,0,L|255:13,1,83.9999974365235,0|0,1:0|3:0,0:0:0:0:
183,62,211825,1,0,1:0:0:0:
105,29,211961,1,0,3:0:0:0:
34,75,212098,2,0,B|23:100|23:100|47:187,1,83.9999974365235,0|0,1:0|3:0,0:0:0:0:
85,223,212370,2,0,B|70:250|70:250|64:309,11,55.9999982910157,2|0|0|0|0|0|0|0|0|0|0|0,3:0|3:0|3:0|3:0|3:0|3:0|3:0|3:0|3:0|3:0|3:0|3:0,2:0:0:0:
163,220,213461,6,2,B|148:130|148:130|118:83,2,125.999996154785,4|0|8,1:2|3:0|1:0,2:1:0:0:
251,181,214007,2,2,B|236:91|236:91|206:44,2,125.999996154785,4|0|8,1:2|3:0|1:0,2:1:0:0:
339,142,214552,2,2,B|324:52|324:52|294:5,2,125.999996154785,4|0|8,1:2|3:0|1:0,2:1:0:0:
420,162,215098,2,0,L|470:143,7,41.9999987182618,0|0|0|0|0|0|0|0,1:0|3:0|3:0|3:0|1:0|3:0|3:0|3:0,0:0:0:0:
414,218,215643,2,2,B|446:272|446:272|445:344,2,125.999996154785,4|0|8,1:2|3:0|1:0,2:1:0:0:
322,247,216189,2,2,B|354:301|354:301|353:373,2,125.999996154785,4|0|8,1:2|3:0|1:0,2:1:0:0:
262,324,216734,2,0,L|208:333,7,41.9999987182618,0|0|0|0|0|0|0|0,1:0|3:0|3:0|3:0|1:0|3:0|3:0|3:0,0:0:0:0:
187,298,217279,2,0,B|168:233|168:233|170:207,1,83.9999974365235,0|0,1:0|1:0,2:0:0:0:
88,182,217552,2,0,B|101:141|101:141|136:120,1,83.9999974365235,0|0,1:0|1:0,2:0:0:0:
183,50,217825,2,2,L|334:26,2,125.999996154785,4|0|8,1:2|3:0|1:0,2:1:0:0:
227,129,218370,2,2,L|378:105,2,125.999996154785,4|0|8,1:2|3:0|1:0,2:1:0:0:
218,218,218916,2,2,L|369:194,2,125.999996154785,4|0|8,1:2|3:0|1:0,2:1:0:0:
262,297,219461,2,2,L|413:273,2,125.999996154785,4|0|8,1:2|3:0|1:0,2:1:0:0:
209,369,220007,2,0,B|137:319|137:319|61:294|61:294|48:261|48:261|83:150|83:150|130:134|130:134|208:177|208:177|253:171,1,490,2|0,2:1|0:0,2:1:0:0:
315,129,221098,2,0,L|329:175,15,35,0|0|0|0|0|0|0|0|0|0|0|0|0|0|0|0,3:0|3:0|3:0|3:0|3:0|3:0|3:0|3:0|3:0|3:0|3:0|3:0|3:0|3:0|3:0|3:0,0:0:0:0:
396,88,223552,5,4,1:3:0:0:
396,88,223689,2,0,L|385:156,1,56,4|0,2:3|0:0,0:0:0:0:
302,115,223961,1,4,2:3:0:0:
302,115,224098,2,0,L|271:185,1,56,0|0,2:0|0:0,0:0:0:0:
207,127,224370,2,0,B|175:127|175:127|97:67,1,112,4|4,2:3|2:3,0:0:0:0:
28,212,224916,1,4,2:3:0:0:
28,212,225052,2,0,B|71:219|71:219|89:232,1,56,4|0,2:3|0:0,0:0:0:0:
113,308,225325,1,4,2:3:0:0:
113,308,225461,2,0,B|156:315|156:315|174:328,1,56,4|0,2:3|0:0,0:0:0:0:
242,383,225734,2,0,L|265:263,1,112,4|4,2:3|2:3,0:0:0:0:
475,239,226279,1,4,2:3:0:0:
475,239,226416,2,0,B|446:255|446:255|422:291,1,56,4|0,2:3|0:0,0:0:0:0:
416,174,226689,1,4,2:3:0:0:
416,174,226826,2,0,B|387:190|387:190|363:226,1,56,4|0,2:3|0:0,0:0:0:0:
311,274,227098,2,0,B|274:266|274:266|202:214,1,112,4|4,2:3|2:3,0:0:0:0:
60,57,227643,1,4,2:0:0:0:
134,32,227779,2,0,B|161:46|161:46|184:88,1,56,0|0,2:0|0:0,0:0:0:0:
247,96,228053,1,4,2:0:0:0:
321,71,228189,2,0,B|348:85|348:85|371:127,1,56,0|0,2:0|0:0,0:0:0:0:
437,117,228461,2,0,B|439:148|439:148|388:231,1,112,4|12,2:3|1:3,0:0:0:0:
251,331,229007,5,6,1:0:0:0:
185,279,229143,2,0,L|178:200,1,70,2|0,2:1|1:0,2:0:0:0:
116,152,229416,1,2,2:1:0:0:
168,86,229552,2,0,L|247:79,1,70,2|0,1:0|2:0,2:0:0:0:
295,17,229825,1,2,1:0:0:0:
361,69,229961,2,0,L|368:148,1,70,2|0,2:1|1:0,2:0:0:0:
430,196,230234,1,2,2:1:0:0:
378,262,230370,2,0,L|299:269,1,70,0|0,1:0|2:0,2:0:0:0:
251,331,230643,2,0,B|207:347|207:347|177:372,1,70,2|2,1:0|2:1,2:0:0:0:
104,361,230916,2,0,B|95:311|95:311|97:287,1,70,2|2,1:0|2:1,2:0:0:0:
256,192,231461,12,4,233370,1:0:0:0:
166,85,233734,6,0,B|153:104|153:104|140:161,2,46.6666666666667,0|0|0,3:0|3:0|3:0,2:0:0:0:
238,14,234097,2,0,B|303:53|303:53|357:65,1,93.3333333333333,4|4,3:2|3:2,0:0:0:0:
400,116,234461,2,0,B|418:68|418:68|413:7,2,93.3333333333333,4|4|4,3:2|3:2|3:2,0:0:0:0:
454,196,235007,2,0,L|432:346,1,140,4|6,3:2|3:1,0:0:0:0:
234,299,235552,2,0,B|224:327|224:327|222:384,23,55.9999982910157,2|0|0|2|0|0|2|0|0|2|0|0|2|0|0|2|0|0|2|0|0|2|0|0,1:2|3:0|3:0|1:2|3:0|3:0|1:2|3:0|3:0|1:2|3:0|3:0|1:2|3:0|3:0|1:2|3:0|3:0|1:2|3:0|3:0|1:2|3:0|3:0,0:0:0:0:
281,287,237734,6,0,B|280:246|280:246|235:165,1,125.999996154785,2|0,3:1|1:0,0:0:0:0:
211,128,238007,1,2,3:2:0:0:
122,175,238143,1,10,1:2:0:0:
122,175,238279,2,0,B|70:135|70:135|85:66,1,125.999996154785,2|0,3:1|1:0,0:0:0:0:
53,34,238552,1,2,3:2:0:0:
152,17,238688,1,10,1:2:0:0:
152,17,238825,2,0,L|297:50,1,125.999996154785,2|0,3:1|1:0,0:0:0:0:
323,32,239097,1,2,3:2:0:0:
421,6,239234,1,10,1:2:0:0:
421,6,239370,2,0,B|403:52|403:52|394:146,1,125.999996154785,2|0,3:1|1:0,0:0:0:0:
389,178,239643,1,2,3:2:0:0:
481,216,239779,1,10,1:2:0:0:
481,216,239916,2,0,B|503:308|503:308|491:348,1,125.999996154785,2|0,3:1|1:0,0:0:0:0:
443,340,240188,1,2,3:2:0:0:
347,372,240325,1,10,1:2:0:0:
347,372,240461,2,0,B|316:314|316:314|234:283,1,125.999996154785,2|0,3:1|1:0,0:0:0:0:
210,279,240734,1,2,3:2:0:0:
163,368,240870,2,0,B|105:371|105:371|77:390,1,83.9999974365235,10|2,1:2|3:1,0:0:0:0:
27,296,241143,2,0,B|14:194|14:194|-8:169,4,125.999996154785,8|8|10|8|10,1:0|3:1|3:1|3:1|1:2,0:0:0:0:
112,237,242097,6,0,B|127:259|127:259|213:300,2,97.9999970092774,4|4|4,1:2|1:2|1:2,0:0:0:0:
30,51,242643,2,0,L|135:17,1,97.9999970092774,4|4,1:2|1:2,0:0:0:0:
165,97,242916,2,0,L|249:22,1,97.9999970092774,4|4,1:2|1:2,0:0:0:0:
466,25,243325,2,0,B|451:32|451:32|399:102,1,97.9999970092774,4|4,1:2|1:2,0:0:0:0:
459,170,243597,1,4,1:2:0:0:
459,170,243734,1,4,1:2:0:0:
421,252,243870,2,0,B|445:315|445:315|444:368,1,97.9999970092774,4|4,1:2|1:2,0:0:0:0:
365,374,244143,1,4,1:2:0:0:
365,374,244279,1,4,1:2:0:0:
100,368,244552,2,0,B|111:322|111:322|149:281,1,97.9999970092774,4|0,1:2|3:0,0:0:0:0:
65,241,244825,2,0,B|100:203|100:203|164:190,1,97.9999970092774,4|0,1:2|3:0,0:0:0:0:
363,235,245234,1,4,1:2:0:0:
363,235,245370,2,0,B|351:168|351:168|331:137,1,97.9999970092774,4|0,1:2|3:0,0:0:0:0:
256,69,245643,2,0,L|240:202,1,97.9999970092774,4|4,1:2|1:2,0:0:0:0:
162,105,245916,2,0,L|141:3,1,97.9999970092774,4|4,1:2|1:2,0:0:0:0:
23,248,246325,1,4,1:2:0:0:
23,248,246461,2,0,B|45:226|45:226|135:219,1,97.9999970092774,4|0,1:2|3:0,0:0:0:0:
178,287,246734,2,0,L|88:345,1,97.9999970092774,4|4,1:2|1:2,0:0:0:0:
240,373,247007,2,0,L|288:267,1,97.9999970092774,4|4,1:2|1:2,0:0:0:0:
459,366,247416,2,0,B|442:324|442:324|445:264,2,97.9999970092774,4|4|4,1:2|1:2|1:2,0:0:0:0:
478,51,247961,1,4,1:2:0:0:
401,111,248097,1,4,1:2:0:0:
337,36,248234,2,0,B|267:28|267:28|224:55,1,97.9999970092774,4|4,1:2|1:2,0:0:0:0:
145,40,248507,1,4,1:2:0:0:
173,133,248643,1,4,1:2:0:0:
75,130,248779,2,0,L|51:236,1,97.9999970092774,4|4,1:2|1:2,0:0:0:0:
125,292,249052,1,4,1:2:0:0:
58,363,249188,1,4,1:2:0:0:
344,147,250007,6,0,B|272:108|272:108|111:184|111:184|83:266|83:266|173:319|173:319|176:287|176:287|125:254,1,532,2|0,2:0|2:0,2:0:0:0:
135,260,251779,5,4,1:0:0:0:
256,192,251847,12,0,254234,2:0:0:0:
