osu file format v14

[General]
AudioFilename: audio.mp3
AudioLeadIn: 0
PreviewTime: 57881
Countdown: 0
SampleSet: Soft
StackLeniency: 0.4
Mode: 0
LetterboxInBreaks: 0
EpilepsyWarning: 1
WidescreenStoryboard: 1

[Editor]
Bookmarks: 3463,12190,20917,38372,47099,58018,66745,75472,107099,118008,134916,152370,169825,178552,179098,187279,204734,213461,223552,229007,233370,237734,242097
DistanceSpacing: 1
BeatDivisor: 4
GridSize: 8
TimelineZoom: 4.499998

[Metadata]
Title:ENDYMION (long edit)
TitleUnicode:ENDYMION (long edit)
Artist:fallen shepherd feat. RabbiTon Strings
ArtistUnicode:fallen shepherd feat. RabbiTon Strings
Creator:hehe
Version:EXTREME feat. JeZag
Source:DanceDanceRevolution A
Tags:ARM アニマル・ストライク!Animal Strike! DDRA IOSYS COOL&CREATE zyukucho SDVX SOUND VOLTEX VIVID WAVE 木村洋平 Youhei Kimura instrumental japanese video game jezag akeruyri luscent english electronic heilia 三輪紫乃 松岡あずさ
BeatmapID:3028087
BeatmapSetID:1243733

[Difficulty]
HPDrainRate:4
CircleSize:3.5
OverallDifficulty:9
ApproachRate:9.6
SliderMultiplier:1.5
SliderTickRate:1

[Events]
//Background and Video events
0,0,"endymion.jpg",0,0
//Break Periods
2,12322,15463
2,58009,66236
2,223752,227134
//Storyboard Layer 0 (Background)
//Storyboard Layer 1 (Fail)
//Storyboard Layer 2 (Pass)
//Storyboard Layer 3 (Foreground)
//Storyboard Layer 4 (Overlay)
//Storyboard Sound Samples

[TimingPoints]
191,272.727272727273,4,2,1,40,1,0
1281,-66.6666666666667,4,2,1,40,0,0
2645,-100,4,2,1,50,0,0
3463,-50,4,2,1,70,0,0
5644,-100,4,2,1,50,0,0
6735,-62.5,4,2,1,50,0,0
7826,-50,4,2,1,70,0,0
10008,-100,4,2,1,50,0,0
11099,-62.5,4,2,1,50,0,0
16553,-100,4,2,1,60,0,0
19826,-100,4,2,1,60,0,0
20372,-90.9090909090909,4,2,1,60,0,0
21053,-100,4,2,1,50,0,0
24053,-100,4,2,2,60,0,0
25417,-100,4,2,1,50,0,0
27190,-100,4,2,1,60,0,0
27463,-100,4,2,2,60,0,0
29099,-62.5,4,2,2,60,0,0
29781,-100,4,2,1,50,0,0
32781,-100,4,2,2,60,0,0
34008,-100,4,2,2,55,0,0
35508,-100,4,2,2,50,0,0
36190,-55.5555555555556,4,2,2,50,0,0
37281,-100,4,2,1,50,0,0
38372,-76.9230769230769,4,2,1,70,0,0
41644,-100,4,2,1,60,0,0
42191,-142.857142857143,4,2,1,60,0,0
42736,-76.9230769230769,4,2,1,60,0,0
46008,-100,4,2,1,60,0,0
46553,-142.857142857143,4,2,1,60,0,0
47094,-50,4,2,1,60,0,0
47099,-50,4,2,1,70,0,0
49280,-50,4,2,1,75,0,0
51462,-41.6666666666667,4,2,1,80,0,0
53780,-166.666666666667,4,2,1,60,0,0
55826,-166.666666666667,4,2,1,20,0,0
66745,272.727272727273,4,2,1,40,1,0
66745,-100,4,2,1,40,0,0
67835,-100,4,2,1,50,0,0
68381,-100,4,2,1,60,0,0
68926,-100,4,2,1,40,0,0
70017,-100,4,2,1,50,0,0
70563,-100,4,2,1,60,0,0
71108,-100,4,2,1,40,0,0
75472,-100,4,2,1,50,0,0
76563,-100,4,2,1,60,0,0
77654,-200,4,2,3,30,0,0
79835,-50,4,2,3,45,0,0
80107,-50,4,2,1,45,0,0
82017,-100,4,2,1,55,0,0
82290,-100,4,2,3,55,0,0
84916,306.122448979592,4,2,1,40,1,0
84916,-100,4,2,1,40,0,0
85145,-100,4,2,1,10,0,0
85528,335.195530726257,4,2,1,40,1,0
85528,-222.222222222222,4,2,1,40,0,0
86868,444.444444444444,4,2,3,40,1,0
87312,454.545454545455,4,2,1,40,1,0
87539,342.857142857143,4,2,1,40,1,0
87710,281.69014084507,4,2,1,40,1,0
87850,275.229357798165,4,2,1,40,1,0
87987,260.869565217391,4,2,1,40,1,0
88117,230.769230769231,4,2,1,40,1,0
88232,292.682926829268,4,2,1,40,1,0
88232,-100,4,2,1,40,0,0
88305,279.06976744186,4,2,1,40,1,0
88444,272.727272727273,4,2,1,40,1,0
88716,300,4,2,1,40,1,0
89016,300,4,2,1,40,1,0
89316,315.789473684211,4,2,1,40,1,0
89421,292.682926829268,4,2,1,40,1,0
89518,400,4,2,1,40,1,0
89651,285.714285714286,4,2,1,40,1,0
89746,315.789473684211,4,2,1,40,1,0
89903,337.078651685393,4,2,3,40,1,0
89903,-125,4,2,1,40,0,0
90352,-125,4,2,3,20,0,0
90577,500,4,2,3,40,1,0
91077,461.538461538462,4,2,1,40,1,0
91307,300,4,2,1,40,1,0
91457,240,4,2,1,40,1,0
91577,272.727272727273,4,2,1,40,1,0
91713,218.181818181818,4,2,1,40,1,0
91822,300,4,2,1,40,1,0
91972,272.727272727273,4,2,3,40,1,0
91972,-100,4,2,3,40,0,0
92244,254.237288135593,4,2,3,40,1,0
92244,-100,4,2,3,20,0,0
92625,285.714285714286,4,2,1,40,1,0
92625,-83.3333333333333,4,2,3,40,0,0
92857,-83.3333333333333,4,2,1,20,0,0
93196,319.148936170213,4,2,3,40,1,0
93196,-83.3333333333333,4,2,3,40,0,0
93455,-83.3333333333333,4,2,3,20,0,0
93834,352.941176470588,4,2,1,40,1,0
94010,307.692307692308,4,2,1,40,1,0
94010,-142.857142857143,4,2,3,40,0,0
95240,258.620689655172,4,2,1,40,1,0
95240,-100,4,2,1,40,0,0
96015,292.682926829268,4,2,1,40,1,0
96015,-166.666666666667,4,2,1,40,0,0
96307,357.142857142857,4,2,1,40,1,0
96664,461.538461538462,4,2,1,40,1,0
96894,250,4,2,1,40,1,0
97144,255.31914893617,4,2,1,40,1,0
97272,397.350993377483,4,2,1,40,1,0
97471,375,4,2,1,40,1,0
97564,458.015267175573,4,2,1,40,1,0
97679,250,4,2,1,40,1,0
97804,335.195530726257,4,2,1,40,1,0
97972,357.142857142857,4,2,1,40,1,0
98061,444.444444444444,4,2,1,40,1,0
98172,342.857142857143,4,2,1,40,1,0
98343,389.61038961039,4,2,1,40,1,0
98537,259.74025974026,4,2,1,40,1,0
99056,300,4,2,3,40,1,0
99056,-111.111111111111,4,2,1,40,0,0
99506,-111.111111111111,4,2,3,20,0,0
99806,285.714285714286,4,2,1,40,1,0
99996,265.486725663717,4,2,1,40,1,0
99996,-125,4,2,3,40,0,0
100770,-125,4,2,1,40,0,0
100792,291.686922702965,4,2,3,40,1,0
101959,297.029702970297,4,2,3,40,1,0
102256,232.558139534884,4,2,3,40,1,0
102488,218.181818181818,4,2,3,40,1,0
102706,319.148936170213,4,2,3,40,1,0
102865,361.44578313253,4,2,3,40,1,0
103045,392.156862745098,4,2,3,40,1,0
103242,276.497695852535,4,2,3,40,1,0
103518,285.714285714286,4,2,3,40,1,0
104377,-100,4,2,3,40,0,0
105599,272.727272727273,6,2,1,50,1,0
107099,272.727272727273,5,2,1,45,1,0
107099,-62.5,5,2,1,45,0,0
107917,-62.5,5,2,1,45,0,0
112553,-62.5,5,2,1,55,0,0
113371,-62.5,5,2,1,55,0,0
116644,-45.4545454545455,5,2,1,65,0,0
117735,-37.037037037037,5,2,1,65,0,0
118008,-37.037037037037,5,2,1,85,0,1
126189,272.727272727273,4,2,1,85,1,0
126189,-50,4,2,1,85,0,0
133825,-100,4,2,1,50,0,0
134234,-71.4285714285714,4,2,1,50,0,0
134643,-50,4,2,1,50,0,0
134916,-33.3333333333333,4,2,2,70,0,0
135189,-50,4,2,2,70,0,0
135461,-66.6666666666667,4,2,2,70,0,0
136825,-41.6666666666667,4,2,2,70,0,0
137098,-33.3333333333333,4,2,2,70,0,0
137370,-50,4,2,2,70,0,0
137643,-66.6666666666667,4,2,2,70,0,0
138461,-66.6666666666667,4,2,2,70,0,0
138734,-83.3333333333333,4,2,2,70,0,0
139007,-125,4,2,2,70,0,0
139279,-333.333333333333,4,2,2,70,0,0
141189,-500,4,2,2,70,0,0
141734,-66.6666666666667,4,2,2,60,0,0
142552,-66.6666666666667,4,2,2,60,0,0
143234,-40,4,2,2,60,0,0
143643,-33.3333333333333,4,2,2,70,0,0
143916,-50,4,2,2,70,0,0
144189,-66.6666666666667,4,2,2,70,0,0
145416,-41.6666666666667,4,2,2,70,0,0
145825,-33.3333333333333,4,2,2,70,0,0
146098,-50,4,2,2,70,0,0
146370,-66.6666666666667,4,2,2,70,0,0
147325,-66.6666666666667,4,2,2,70,0,0
147598,-40,4,2,2,70,0,0
148007,-40,4,2,1,75,0,0
150189,-100,4,2,1,50,0,0
152370,-100,4,2,1,70,0,0
154416,-100,4,2,1,40,0,0
154552,-100,4,2,1,40,0,0
155506,-100,4,2,2,50,0,0
155643,-62.5,4,2,2,50,0,0
156734,-100,4,2,1,70,0,0
158779,-100,4,2,1,40,0,0
158916,-100,4,2,1,40,0,0
159461,-100,4,2,2,40,0,0
160007,-43.4782608695652,4,2,1,50,0,0
160279,-52.6315789473684,4,2,1,50,0,0
160552,-45.4545454545455,4,2,1,50,0,0
161098,-41.6666666666667,4,2,1,70,0,0
163279,-50,4,2,1,40,0,0
164234,-62.5,4,2,2,50,0,0
165189,-71.4285714285714,4,2,2,50,0,0
165461,-100,4,2,2,60,0,0
167643,-142.857142857143,4,2,2,40,0,0
168189,-100,4,2,2,40,0,0
169825,-41.6666666666667,4,2,1,70,0,0
170098,-50,4,2,1,70,0,0
171189,-50,4,2,1,70,0,0
171461,-43.4782608695652,4,2,1,70,0,0
172007,-40,4,2,1,70,0,0
172279,-50,4,2,1,70,0,0
173643,-50,4,2,1,70,0,0
173916,-66.6666666666667,4,2,1,70,0,0
174189,-40,4,2,1,70,0,0
174461,-50,4,2,1,70,0,0
175825,-37.037037037037,4,2,1,70,0,0
176370,-100,4,2,1,65,0,0
177461,-100,4,2,2,50,0,0
178825,-41.6666666666667,4,2,2,70,0,0
180189,-100,4,2,1,70,0,0
180734,-100,4,2,2,70,0,0
181007,-52.6315789473684,4,2,2,70,0,0
181825,-66.6666666666667,4,2,1,70,0,0
182370,-100,4,2,1,70,0,0
182916,-100,4,2,2,70,0,0
183189,-45.4545454545455,4,2,2,70,0,0
184552,-100,4,2,1,70,0,0
185098,-100,4,2,1,50,0,0
186189,-100,4,2,2,55,0,0
187279,-52.6315789473684,4,2,1,75,0,0
190552,-45.4545454545455,4,2,2,65,0,0
191643,-52.6315789473684,4,2,1,75,0,0
194916,-45.4545454545455,4,2,2,65,0,0
196007,-52.6315789473684,4,2,1,75,0,0
199279,-45.4545454545455,4,2,2,65,0,0
200370,-52.6315789473684,4,2,2,70,0,0
201461,-41.6666666666667,4,2,1,70,0,0
202689,-100,4,2,0,20,0,0
204734,-38.4615384615385,4,2,1,80,0,1
206370,-100,4,2,1,65,0,1
206916,-38.4615384615385,4,2,1,80,0,1
208007,-100,4,2,1,65,0,1
209098,-38.4615384615385,4,2,1,80,0,1
210189,-41.6666666666667,4,2,1,65,0,1
210734,-55.5555555555556,4,2,1,65,0,1
211279,-38.4615384615385,4,2,1,80,0,1
212370,-52.6315789473684,4,2,1,55,0,0
213461,-37.037037037037,4,2,1,90,0,1
215098,-100,4,2,1,75,0,0
215643,-37.037037037037,4,2,1,90,0,1
216734,-100,4,2,1,75,0,0
217279,-37.037037037037,4,2,1,75,0,0
217825,-33.3333333333333,4,2,1,90,0,1
219461,-33.3333333333333,4,2,1,100,0,0
220007,-100,4,2,1,75,0,0
220552,-100,4,2,1,50,0,0
221098,-100,4,2,1,40,0,0
222189,272.727272727273,5,2,1,40,1,0
223552,-100,5,2,1,40,0,0
227643,-62.5,5,2,2,60,0,0
229007,272.727272727273,4,2,1,70,1,1
229007,-50,4,2,1,70,0,1
229825,-40,4,2,1,80,0,1
230916,-50,4,2,1,70,0,1
231052,-66.6666666666667,4,2,1,70,0,1
231188,-100,4,2,1,70,0,0
231461,-100,4,2,1,40,0,0
231734,-100,4,2,1,50,0,0
232007,-100,4,2,1,60,0,0
232279,-66.6666666666667,4,2,1,70,0,0
233734,-100,4,2,1,60,0,0
235279,-66.6666666666667,4,2,1,60,0,0
235552,-100,4,2,1,70,0,1
237734,-37.037037037037,4,2,1,80,0,1
241143,-37.037037037037,4,2,1,80,0,1
242097,-100,4,2,1,90,0,0
245643,-100,4,2,1,100,0,0
250007,-83.3333333333333,4,2,4,60,0,1
254234,-100,4,2,4,10,0,0

[Colours]
Combo1 : 255,0,0
Combo2 : 233,233,233

[HitObjects]
96,195,1281,6,0,B|121:202|121:202|216:181,1,112.500004291535,10|2,2:0|2:0,2:0:0:0:
304,221,1554,2,0,B|344:206|344:206|424:224,1,112.500004291535,2|2,2:0|2:0,2:0:0:0:
140,94,1827,2,0,B|144:115|144:115|216:194,1,112.500004291535,2|2,2:0|2:0,2:0:0:0:
304,221,2100,2,0,B|319:240|319:240|335:343,1,112.500004291535,2|2,2:0|2:0,2:0:0:0:
290,125,2372,1,10,3:0:0:0:
290,125,2645,1,10,3:0:0:0:
236,323,2918,1,10,3:0:0:0:
169,155,3054,1,10,3:0:0:0:
41,202,3191,1,10,3:0:0:0:
73,295,3327,1,10,3:0:0:0:
144,242,3463,6,0,B|147:211|147:211|103:80,1,150,4|0,1:0|0:0,2:0:0:0:
19,67,3668,1,0,2:0:0:0:
19,67,3736,1,8,1:0:0:0:
222,143,3872,1,0,2:0:0:0:
269,59,4009,2,0,L|270:12,6,37.5,0|0|0|0|0|0|0,1:0|0:0|2:0|0:0|3:0|0:0|3:0,2:0:0:0:
341,123,4281,1,0,3:0:0:0:
375,114,4350,1,0,3:0:0:0:
410,106,4418,1,8,1:0:0:0:
445,97,4486,1,0,3:0:0:0:
464,62,4554,1,4,3:2:0:0:
369,10,4691,1,0,3:0:0:0:
440,252,4827,1,8,1:0:0:0:
492,173,4963,1,0,3:0:0:0:
347,248,5100,2,0,L|304:227,6,37.5,0|0|0|0|0|0|0,3:0|0:0|3:0|0:0|3:0|0:0|3:0,0:0:0:0:
373,338,5372,1,0,3:0:0:0:
401,343,5441,1,0,3:0:0:0:
431,350,5509,1,8,1:0:0:0:
459,355,5577,1,0,3:0:0:0:
487,336,5645,5,4,1:2:0:0:
440,252,5918,1,0,1:0:0:0:
346,279,6191,1,0,1:0:0:0:
440,252,6463,1,0,3:0:0:0:
345,373,6600,1,0,1:0:0:0:
345,373,6668,1,0,1:0:0:0:
345,373,6736,2,0,B|309:370|309:370|277:335,1,60,4|0,1:2|0:0,0:0:0:0:
263,227,6872,2,0,B|229:237|229:237|186:215,1,60,0|0,3:0|0:0,0:0:0:0:
176,356,7009,2,0,B|141:359|141:359|103:331,1,60,0|0,1:0|0:0,0:0:0:0:
107,218,7145,2,0,B|90:236|90:236|55:238,1,60,0|0,3:0|0:0,0:0:0:0:
0,267,7281,2,0,B|31:255|31:255|73:266,1,60,0|0,1:0|0:0,0:0:0:0:
121,344,7418,2,0,B|138:327|138:327|189:326,1,60,0|0,1:0|0:0,0:0:0:0:
207,226,7554,2,0,B|233:214|233:214|276:222,1,60,0|0,1:0|0:0,0:0:0:0:
346,279,7691,5,0,1:0:0:0:
346,279,7759,1,0,1:0:0:0:
346,279,7827,2,0,B|379:165|379:165|399:141,1,150,4|0,1:0|1:0,0:0:0:0:
497,146,8031,1,0,1:0:0:0:
497,146,8100,1,8,1:0:0:0:
335,0,8236,1,0,3:0:0:0:
294,82,8372,2,0,L|311:125,6,37.5,0|0|0|0|0|0|0,1:0|0:0|3:0|0:0|3:0|0:0|3:0,0:0:0:0:
228,154,8645,1,0,3:0:0:0:
195,137,8713,1,0,3:0:0:0:
163,121,8781,1,8,1:0:0:0:
130,106,8850,1,0,3:0:0:0:
93,120,8918,1,4,1:2:0:0:
146,213,9054,1,0,3:0:0:0:
140,0,9191,1,8,1:0:0:0:
216,48,9327,1,0,1:0:0:0:
56,42,9463,2,0,L|19:49,6,37.5,0|0|0|0|0|0|0,1:0|0:0|3:0|0:0|3:0|0:0|3:0,0:0:0:0:
1,142,9736,1,0,3:0:0:0:
16,166,9804,1,0,3:0:0:0:
33,192,9872,1,8,1:0:0:0:
47,216,9941,1,0,3:0:0:0:
39,249,10009,5,4,1:2:0:0:
139,213,10281,1,0,1:0:0:0:
39,249,10554,1,0,1:0:0:0:
86,338,10827,1,0,1:0:0:0:
139,213,10963,1,0,1:0:0:0:
139,213,11031,1,0,1:0:0:0:
139,213,11100,2,0,B|159:224|159:224|167:282,1,60,4|0,3:2|0:0,0:0:0:0:
259,287,11236,2,0,B|295:285|295:285|311:270,1,60,0|0,3:0|0:0,0:0:0:0:
353,160,11372,2,0,B|334:136|334:136|343:109,1,60,0|0,3:0|0:0,0:0:0:0:
255,96,11509,2,0,B|216:98|216:98|200:112,1,60,0|0,3:0|0:0,0:0:0:0:
249,196,11645,1,0,3:0:0:0:
254,199,11713,1,0,3:0:0:0:
260,197,11781,1,0,3:0:0:0:
262,192,11850,1,0,3:0:0:0:
260,187,11918,1,0,3:0:0:0:
255,184,11986,1,0,3:0:0:0:
250,186,12054,1,0,3:0:0:0:
247,191,12122,1,0,3:0:0:0:
180,122,16554,5,8,1:0:0:0:
277,182,16691,1,2,0:0:0:0:
272,200,16827,1,2,0:0:0:0:
253,199,16963,1,2,0:0:0:0:
376,92,17100,5,8,1:0:0:0:
253,199,17236,1,2,0:0:0:0:
244,170,17372,1,2,0:0:0:0:
275,165,17509,1,2,0:0:0:0:
129,292,17645,5,8,1:0:0:0:
275,165,17781,1,2,0:0:0:0:
267,210,17918,1,2,0:0:0:0:
223,203,18054,1,2,0:0:0:0:
414,336,18191,5,8,1:0:0:0:
223,203,18327,1,2,0:0:0:0:
214,124,18463,1,2,0:0:0:0:
294,118,18600,1,2,0:0:0:0:
335,276,18736,5,8,1:0:0:0:
221,250,18872,1,0,3:0:0:0:
308,371,19009,1,8,1:0:0:0:
240,150,19145,1,0,1:0:0:0:
240,150,19213,1,0,1:0:0:0:
240,150,19281,1,8,1:0:0:0:
143,195,19418,1,0,3:0:0:0:
306,21,19554,1,8,1:0:0:0:
358,187,19691,1,0,1:0:0:0:
358,187,19759,1,0,1:0:0:0:
358,187,19827,1,12,1:0:0:0:
206,2,20372,2,2,B|247:298|247:298|217:341,1,330.000010070801,2|0,2:1|3:0,2:1:0:0:
98,339,21054,6,0,B|142:368|142:368|117:397,1,75,2|0,2:1|3:0,0:0:0:0:
4,321,21327,1,0,0:0:0:0:
8,193,21463,2,0,B|-20:237|-20:237|30:217,1,75,2|0,3:1|2:0,0:0:0:0:
8,193,21736,2,0,B|35:237|35:237|-16:216,1,75,2|0,3:1|2:0,0:0:0:0:
4,321,22009,1,0,3:0:0:0:
274,321,22145,2,0,B|256:340|256:340|282:395,1,75,2|0,2:1|3:0,0:0:0:0:
160,324,22418,1,0,0:0:0:0:
186,192,22554,2,0,B|159:235|159:235|137:211,1,75,2|0,3:1|2:0,0:0:0:0:
186,192,22827,2,0,B|196:241|196:241|225:226,1,75,2|0,3:1|2:0,0:0:0:0:
160,324,23100,1,0,3:0:0:0:
462,331,23236,2,0,B|458:377|458:377|404:392,1,75,2|0,2:1|3:0,0:0:0:0:
316,329,23509,1,0,0:0:0:0:
376,209,23645,2,0,B|329:220|329:220|346:249,1,75,2|0,3:1|2:0,0:0:0:0:
376,209,23918,2,0,B|397:251|397:251|363:256,1,75,2|2,3:1|2:3,0:0:0:0:
444,152,24122,5,2,2:3:0:0:
444,152,24191,2,0,L|437:88,1,37.5,2|0,3:0|2:0,2:0:0:0:
357,124,24327,2,0,L|293:115,1,37.5,2|0,2:3|2:0,2:0:0:0:
299,41,24463,2,0,L|253:14,1,37.5,2|0,3:0|2:0,2:0:0:0:
230,136,24600,2,0,L|224:98,1,37.5,2|0,2:3|2:0,2:0:0:0:
125,93,24736,2,0,L|145:125,1,37.5,2|0,3:0|2:0,2:0:0:0:
157,204,24872,2,0,L|112:226,1,37.5,2|0,2:3|2:0,2:0:0:0:
59,156,25009,1,0,1:0:0:0:
59,156,25145,1,0,1:0:0:0:
59,156,25281,1,0,1:0:0:0:
39,241,25418,6,0,B|37:288|37:288|10:312,1,75,2|0,2:1|3:0,0:0:0:0:
104,354,25691,1,0,0:0:0:0:
340,323,25827,2,0,B|393:331|393:331|378:346,1,75,2|0,3:1|2:0,0:0:0:0:
340,323,26100,2,0,B|298:357|298:357|322:363,1,75,2|0,3:1|2:0,0:0:0:0:
104,354,26372,1,0,3:0:0:0:
163,254,26509,2,0,B|202:296|202:296|170:319,1,75,2|0,2:1|3:0,0:0:0:0:
282,254,26781,1,0,0:0:0:0:
464,208,26918,2,0,B|447:257|447:257|407:249,1,75,2|0,3:1|2:0,0:0:0:0:
351,124,27191,6,0,L|359:81,3,37.5,0|0|0|0,3:0|2:0|2:0|2:0,2:0:0:0:
268,67,27463,1,4,3:0:0:0:
375,0,27600,1,4,2:3:0:0:
445,107,27736,1,4,3:0:0:0:
351,124,28009,2,0,L|306:130,1,37.5,2|0,3:0|2:0,2:0:0:0:
235,170,28145,2,0,L|190:176,1,37.5,2|0,2:3|2:0,2:0:0:0:
114,131,28281,2,0,L|106:88,3,37.5,0|0|0|0,3:0|2:0|2:0|2:0,2:0:0:0:
20,116,28554,1,4,3:0:0:0:
90,9,28691,1,4,2:3:0:0:
197,76,28827,1,4,3:0:0:0:
114,131,29100,6,0,B|121:148|121:148|200:177,1,60,2|0,3:0|2:0,2:0:0:0:
158,189,29236,2,0,L|263:190,1,60,2|0,3:0|2:0,0:0:0:0:
315,173,29372,2,0,B|346:184|346:184|369:238,1,60,0|0,1:3|0:0,2:0:0:0:
281,258,29509,2,0,L|276:338,1,60,0|0,1:3|0:0,0:0:0:0:
381,309,29645,1,0,1:0:0:0:
381,309,29781,6,0,B|370:352|370:352|399:361,1,75,2|0,2:1|3:0,0:0:0:0:
216,378,30054,1,0,0:0:0:0:
32,246,30191,2,0,B|6:215|6:215|51:207,1,75,2|0,3:1|2:0,0:0:0:0:
32,246,30463,2,0,B|72:246|72:246|49:206,1,75,2|0,3:1|2:0,0:0:0:0:
0,336,30736,1,0,3:0:0:0:
128,311,30872,2,0,B|115:334|115:334|130:389,1,75,2|0,2:1|3:0,0:0:0:0:
216,378,31145,1,0,0:0:0:0:
461,253,31281,2,0,B|472:192|472:192|449:189,1,75,2|0,3:1|2:0,0:0:0:0:
461,253,31554,2,0,B|429:199|429:199|450:188,1,75,2|0,3:1|2:0,0:0:0:0:
480,342,31827,1,0,3:0:0:0:
296,336,31963,2,0,B|316:330|316:330|297:391,1,75,2|0,2:1|3:0,0:0:0:0:
216,378,32236,1,0,0:0:0:0:
234,247,32372,2,0,B|196:213|196:213|230:204,1,75,2|0,3:1|2:0,0:0:0:0:
234,247,32645,2,0,B|281:228|281:228|252:208,1,75,2|2,3:1|2:3,0:0:0:0:
327,155,32850,5,2,2:3:0:0:
327,155,32918,2,0,B|363:148|363:148|373:136,1,37.5,2|0,3:0|2:0,2:0:0:0:
326,68,33054,2,0,B|333:49|333:49|334:29,1,37.5,2|0,2:3|2:0,2:0:0:0:
246,36,33191,2,0,B|246:18|246:18|230:2,1,37.5,2|0,3:0|2:0,2:0:0:0:
169,64,33327,2,0,B|161:55|161:55|131:60,1,37.5,2|0,2:3|2:0,2:0:0:0:
159,145,33463,2,0,B|147:148|147:148|139:180,1,37.5,2|0,3:0|2:0,2:0:0:0:
245,128,33600,1,2,3:3:0:0:
245,128,33668,1,0,3:0:0:0:
245,128,33736,2,0,B|238:190|238:190|260:208,1,75,0|0,3:0|3:0,2:0:0:0:
362,237,34009,5,4,3:2:0:0:
417,169,34191,5,4,3:2:0:0:
353,112,34372,5,4,3:2:0:0:
180,69,34554,5,4,3:2:0:0:
60,172,34736,5,4,3:2:0:0:
147,294,34918,5,4,3:2:0:0:
353,350,35100,5,4,3:2:0:0:
510,177,35304,5,4,3:2:0:0:
345,15,35509,6,0,L|254:45,1,75,0|0,1:0|3:0,0:0:0:0:
331,184,35781,2,0,L|353:110,1,75,0|0,1:0|3:0,0:0:0:0:
460,66,36054,5,0,1:0:0:0:
460,66,36122,1,0,1:0:0:0:
460,66,36191,2,0,B|445:84|445:84|457:202,1,134.999995880127,0|0,3:0|3:0,0:0:0:0:
512,275,36395,1,0,3:0:0:0:
512,275,36463,1,8,3:1:0:0:
331,184,36600,1,0,1:0:0:0:
297,193,36668,1,0,3:0:0:0:
262,201,36736,1,0,3:0:0:0:
227,210,36804,1,0,3:0:0:0:
208,245,36872,1,8,3:1:0:0:
44,238,37009,1,0,1:0:0:0:
44,238,37077,1,0,3:0:0:0:
44,238,37145,1,0,3:0:0:0:
14,377,37281,5,8,3:0:0:0:
14,377,37554,1,8,3:0:0:0:
100,348,37827,1,8,3:0:0:0:
133,266,37963,1,8,3:0:0:0:
102,178,38100,1,8,3:0:0:0:
138,100,38236,1,8,3:0:0:0:
46,62,38372,5,6,1:0:0:0:
46,62,38441,1,0,3:0:0:0:
46,62,38509,1,0,3:0:0:0:
46,62,38577,1,0,3:0:0:0:
46,62,38645,2,0,L|60:134,1,48.7499977684022,0|0,3:0|3:0,3:0:0:0:
205,170,38781,1,4,1:2:0:0:
239,172,38850,1,0,3:0:0:0:
274,175,38918,1,0,3:0:0:0:
308,178,38986,1,0,3:0:0:0:
335,155,39054,1,0,3:0:0:0:
305,61,39191,1,2,0:0:0:0:
450,217,39463,1,4,1:2:0:0:
450,217,39531,1,0,3:0:0:0:
450,217,39600,1,0,3:0:0:0:
450,217,39668,1,0,3:0:0:0:
450,217,39736,2,0,L|392:209,1,48.7499977684022,0|0,3:0|3:0,3:0:0:0:
237,120,39872,1,4,1:2:0:0:
249,152,39941,1,4,2:3:0:0:
261,183,40009,1,4,2:3:0:0:
273,216,40077,1,4,2:3:0:0:
256,244,40145,1,4,2:3:0:0:
149,170,40281,1,2,0:0:0:0:
324,115,40554,1,0,1:0:0:0:
371,106,40622,1,0,3:0:0:0:
419,99,40691,1,2,3:1:0:0:
467,92,40759,1,0,3:0:0:0:
187,268,41100,1,2,1:0:0:0:
140,277,41168,1,0,3:0:0:0:
92,284,41236,1,0,3:0:0:0:
44,291,41304,1,0,3:0:0:0:
258,182,41645,5,4,2:3:0:0:
259,187,41713,1,4,2:3:0:0:
260,192,41781,1,4,2:3:0:0:
261,197,41850,1,4,2:3:0:0:
262,202,41918,1,4,2:3:0:0:
263,207,41986,1,4,2:3:0:0:
264,212,42054,1,4,2:3:0:0:
265,217,42122,1,4,2:3:0:0:
266,222,42191,1,4,2:3:0:0:
267,227,42259,6,0,B|285:242|285:242|322:247,1,52.4999983978272,4|4,2:3|2:3,2:0:0:0:
386,194,42463,1,2,2:3:0:0:
177,375,42736,5,6,1:0:0:0:
177,375,42804,1,0,3:0:0:0:
177,375,42872,1,0,3:0:0:0:
177,375,42941,1,0,3:0:0:0:
177,375,43009,2,0,L|187:314,1,48.7499977684022
306,213,43145,1,4,1:2:0:0:
272,211,43213,1,0,3:0:0:0:
237,208,43281,1,0,3:0:0:0:
203,205,43350,1,0,3:0:0:0:
176,228,43418,1,0,3:0:0:0:
83,178,43554,1,2,0:0:0:0:
141,15,43827,1,4,1:2:0:0:
141,15,43895,1,0,3:0:0:0:
141,15,43963,1,0,3:0:0:0:
141,15,44031,1,0,3:0:0:0:
141,15,44100,2,0,L|166:97,1,48.7499977684022
262,132,44236,1,4,1:2:0:0:
253,164,44304,1,4,2:3:0:0:
243,198,44372,1,4,2:3:0:0:
233,230,44441,1,4,2:3:0:0:
253,257,44509,1,4,2:3:0:0:
399,191,44645,1,2,0:0:0:0:
180,111,44918,1,0,1:0:0:0:
134,100,44986,1,0,3:0:0:0:
88,90,45054,1,2,3:1:0:0:
42,80,45122,1,0,3:0:0:0:
331,272,45463,1,2,1:0:0:0:
377,283,45531,1,0,3:0:0:0:
423,293,45600,1,0,3:0:0:0:
469,303,45668,1,0,3:0:0:0:
279,185,46009,5,4,2:3:0:0:
274,186,46077,1,4,2:3:0:0:
269,187,46145,1,4,2:3:0:0:
264,188,46213,1,4,2:3:0:0:
259,189,46281,1,4,2:3:0:0:
254,190,46350,1,4,2:3:0:0:
249,191,46418,1,4,2:3:0:0:
244,192,46486,1,4,2:3:0:0:
239,193,46554,1,4,2:3:0:0:
234,194,46622,6,0,B|219:212|219:212|221:247,1,52.4999983978272,4|4,2:3|2:3,2:0:0:0:
255,321,46827,1,2,2:3:0:0:
296,99,47100,6,0,B|359:71|359:71|372:67|372:67|444:84,1,150,14|0,1:0|2:0,2:0:0:0:
398,244,47372,2,0,B|437:259|437:259|468:382,1,150,8|2,1:0|2:1,2:0:0:0:
218,334,47645,2,0,B|155:387|155:387|45:380,1,150,8|0,1:0|2:0,2:0:0:0:
97,164,47918,2,0,B|78:158|78:158|12:84|12:84|26:36,1,150,10|0,1:0|3:0,2:0:0:0:
130,41,48122,1,0,3:0:0:0:
130,41,48191,2,0,B|248:69|248:69|284:58,1,150,10|0,1:0|2:0,2:0:0:0:
461,28,48463,2,0,B|477:58|477:58|479:193,1,150,8|2,1:0|2:1,2:0:0:0:
370,337,48736,2,0,B|318:374|318:374|297:373|297:373|189:340,1,150,8|0,1:0|2:0,2:0:0:0:
57,293,49009,2,0,B|12:179|12:179|53:125,1,150,10|0,1:0|3:0,2:0:0:0:
50,47,49213,1,0,3:0:0:0:
50,47,49281,2,0,B|130:72|130:72|168:131,1,150,8|2,1:0|3:1,2:0:0:0:
268,24,49486,1,0,3:0:0:0:
268,24,49554,2,0,B|313:3|313:3|373:60|373:60|377:83|377:83|399:124,1,150,8|0,1:0|3:0,2:0:0:0:
498,137,49759,1,0,3:0:0:0:
498,137,49827,2,0,B|500:162|500:162|477:220|477:220|409:248,1,150,10|0,1:0|3:0,2:0:0:0:
470,366,50031,1,0,3:0:0:0:
470,366,50100,2,0,B|461:385|461:385|292:355,1,150,10|0,1:0|3:0,2:0:0:0:
189,384,50304,1,0,3:0:0:0:
189,384,50372,2,0,B|162:361|162:361|125:269|125:269|136:239,1,150,10|0,1:0|3:0,2:0:0:0:
35,146,50577,1,0,3:0:0:0:
35,146,50645,2,0,B|71:107|71:107|138:67|138:67|196:72,1,150,8|0,1:0|3:0,2:0:0:0:
310,22,50850,1,0,3:0:0:0:
310,22,50918,2,0,B|356:97|356:97|361:151|361:151|347:171,1,150,10|0,1:0|3:0,2:0:0:0:
394,328,51122,1,0,3:0:0:0:
394,328,51191,2,0,B|272:324|272:324|228:285,1,150,10|0,1:0|3:0,2:0:0:0:
122,281,51395,5,0,3:0:0:0:
122,281,51463,2,0,B|120:253|120:253|146:166,1,89.9999972534181,10|0,1:0|3:0,2:0:0:0:
193,215,51600,2,0,B|174:181|174:181|169:99,1,89.9999972534181,8|0,1:0|3:0,2:0:0:0:
122,99,51736,2,0,B|132:80|132:80|227:38,1,89.9999972534181,8|0,1:0|3:0,2:0:0:0:
216,101,51872,2,0,B|253:72|253:72|318:88,1,89.9999972534181,10|0,1:0|3:0,2:0:0:0:
339,31,52009,2,0,B|374:50|374:50|429:105,1,89.9999972534181,8|0,1:0|3:0,2:0:0:0:
326,126,52145,2,0,B|342:155|342:155|344:238,1,89.9999972534181,8|0,1:0|3:0,2:0:0:0:
452,206,52281,2,0,B|443:234|443:234|350:289,1,89.9999972534181,10|0,1:0|3:0,2:0:0:0:
352,226,52418,2,0,B|335:258|335:258|257:303,1,89.9999972534181,10|0,1:0|3:0,2:0:0:0:
269,364,52554,2,0,B|226:362|226:362|141:300,1,89.9999972534181,10|0,1:0|3:0,2:0:0:0:
232,275,52691,2,0,B|195:278|195:278|127:240,1,89.9999972534181,8|0,1:0|3:0,2:0:0:0:
105,286,52827,2,0,B|84:259|84:259|49:174,1,89.9999972534181,8|0,1:0|3:0,2:0:0:0:
173,199,52963,2,0,B|173:164|173:164|227:94,1,89.9999972534181,10|0,1:0|3:0,2:0:0:0:
86,104,53100,2,0,B|132:82|132:82|218:76,1,89.9999972534181,8|0,1:0|3:0,2:0:0:0:
185,96,53236,2,0,B|245:57|245:57|294:56,1,89.9999972534181,8|0,1:0|3:0,2:0:0:0:
284,0,53372,2,0,B|358:30|358:30|391:84,1,89.9999972534181,10|0,1:0|3:0,2:0:0:0:
303,96,53509,2,0,B|344:141|344:141|357:220,1,89.9999972534181,10|0,1:0|3:0,2:0:0:0:
256,192,53781,5,2,2:0:0:0:
256,192,54191,1,2,2:0:0:0:
256,192,54463,1,2,2:0:0:0:
256,192,54736,1,2,2:0:0:0:
256,192,55281,2,0,B|248:184|248:184|272:83|272:83|275:152,1,179.999994506836,2|0,2:0|2:0,2:0:0:0:
39,262,66745,6,0,B|104:276|104:276|128:298,1,100,2|0,2:0|0:0,2:0:0:0:
197,356,67017,1,2,0:0:0:0:
197,356,67108,1,2,0:0:0:0:
216,253,67290,1,2,2:0:0:0:
298,235,67472,1,2,2:0:0:0:
336,300,67654,1,2,2:0:0:0:
327,313,67835,1,2,2:0:0:0:
359,352,68017,1,2,2:0:0:0:
402,342,68199,1,2,2:0:0:0:
402,322,68381,1,2,2:0:0:0:
466,301,68563,1,2,2:0:0:0:
474,239,68745,1,2,2:0:0:0:
428,159,68926,2,0,B|427:131|427:131|445:88|445:88|439:45,1,100,2|0,2:0|0:0,2:0:0:0:
356,40,69199,1,2,0:0:0:0:
356,40,69290,1,2,0:0:0:0:
332,125,69472,1,2,2:0:0:0:
263,152,69654,1,2,2:0:0:0:
215,94,69835,1,2,2:0:0:0:
217,71,70017,1,2,2:0:0:0:
192,34,70199,1,2,2:0:0:0:
164,34,70381,1,2,2:0:0:0:
133,23,70563,1,2,2:0:0:0:
78,87,70745,1,2,2:0:0:0:
127,168,70926,1,2,2:0:0:0:
62,270,71108,6,0,B|48:278|48:278|4:358,2,100,2|0|0,2:0|0:0|0:0,2:0:0:0:
228,235,71654,2,0,B|269:259|269:259|279:314,2,100,2|0|0,2:0|0:0|0:0,2:0:0:0:
238,100,72199,2,0,B|241:58|241:58|171:29,2,100,2|0|0,2:0|0:0|0:0,2:0:0:0:
325,150,72745,2,0,B|388:160|388:160|372:127,2,100,2|0|0,2:0|0:0|0:0,2:0:0:0:
109,122,73290,2,0,B|76:42|76:42|52:25,2,100,2|0|0,2:0|2:0|2:0,2:0:0:0:
152,295,73835,2,0,B|136:337|136:337|79:364,2,100,2|0|0,2:0|2:0|2:0,2:0:0:0:
272,356,74381,2,0,B|301:383|301:383|368:360,2,100,2|0|0,2:0|2:0|2:0,2:0:0:0:
379,278,74926,2,0,B|452:299|452:299|427:332,2,100,2|0|0,2:0|2:0|2:0,2:0:0:0:
285,264,75472,6,0,B|276:203|276:203|281:181,1,75,2|0,2:0|2:0,0:0:0:0:
304,106,75745,2,0,B|301:44|301:44|297:31,1,75,0|0,2:0|2:0,0:0:0:0:
354,58,76017,2,0,B|353:75|353:75|303:107,1,75,2|0,2:0|2:0,0:0:0:0:
279,190,76290,2,0,B|281:212|281:212|239:251,1,75,0|0,2:0|2:0,0:0:0:0:
116,244,76563,2,0,B|72:195|72:195|59:160,1,75,2|0,2:0|2:0,0:0:0:0:
81,97,76835,2,0,B|50:41|50:41|16:19,1,75,0|0,2:0|2:0,0:0:0:0:
122,43,77108,2,0,B|97:51|97:51|79:97,1,75,2|0,2:0|2:0,0:0:0:0:
69,185,77381,2,0,B|89:238|89:238|74:259,1,75,0|0,2:0|2:0,0:0:0:0:
51,339,77654,5,2,2:0:0:0:
51,339,77790,1,0,2:0:0:0:
51,339,77926,2,0,L|73:378,1,37.5,0|0,2:0|2:0,0:0:0:0:
150,329,78199,1,2,2:0:0:0:
150,329,78335,1,0,2:0:0:0:
150,329,78472,2,0,B|158:349|158:349|179:354,1,37.5,0|0,2:0|2:0,0:0:0:0:
195,246,78745,1,2,2:0:0:0:
195,246,78881,1,0,2:0:0:0:
195,246,79017,2,0,B|225:279,1,37.5,0|0,2:0|0:0,0:0:0:0:
308,258,79290,1,2,2:0:0:0:
308,258,79426,1,0,2:0:0:0:
308,258,79563,2,0,B|317:279|317:279|316:300,1,37.5,0|0,2:0|2:0,0:0:0:0:
403,290,79835,6,0,B|439:334|439:334|482:346,4,75,0|0|0|0|2,2:0|2:0|2:0|2:0|2:0,2:0:0:0:
394,88,80381,2,0,B|411:41|411:41|448:47,4,75,0|0|0|0|2,2:0|2:0|2:0|2:0|2:0,2:0:0:0:
380,267,80926,2,0,B|364:301|364:301|337:342,4,75,0|0|0|0|2,2:0|2:0|2:0|2:0|2:0,2:0:0:0:
373,69,81472,2,0,B|363:42|363:42|354:36|354:36|313:35,4,75,0|0|0|0|2,2:0|2:0|2:0|2:0|2:0,2:0:0:0:
331,188,82017,5,0,2:0:0:0:
331,188,82085,2,0,B|309:195|309:195|290:195,3,37.5,0|0|0|2,2:0|2:0|2:0|2:0,0:0:0:0:
416,147,82563,1,0,2:0:0:0:
416,147,82631,2,0,B|440:160|440:160|449:145,3,37.5,0|0|0|2,2:0|2:0|2:0|2:0,0:0:0:0:
322,149,83108,1,0,2:0:0:0:
322,149,83176,2,0,B|302:132|302:132|295:112,3,37.5,0|0|0|2,2:0|2:0|2:0|2:0,0:0:0:0:
417,181,83654,1,0,2:0:0:0:
417,181,83722,2,0,B|438:197|438:197|447:186,3,37.5,0|0|0|2,2:0|2:0|2:0|2:0,0:0:0:0:
317,204,84916,6,0,B|309:197|309:197|216:184|216:184|199:194,1,112.5,2|0,2:0|0:0,2:0:0:0:
338,192,85528,6,2,B|347:177|347:177|326:151|326:151|236:167|236:167|235:173|235:173|135:190|135:190|125:199|125:199|124:214,1,269.999991760254,0|2,2:0|2:0,2:1:0:0:
36,205,87312,2,0,B|15:225|15:225|0:271,1,75,2|2,2:0|2:0,2:0:0:0:
92,381,87710,2,0,B|80:337|80:337|84:305,1,75,2|2,2:0|2:0,2:0:0:0:
142,231,87987,2,0,B|170:284|170:284|204:307,1,75,2|2,2:0|2:0,2:0:0:0:
200,364,88232,2,0,B|188:340|188:340|193:326,1,37.5,2|2,2:0|2:0,2:0:0:0:
246,254,88444,2,0,B|242:292|242:292|255:318,1,50,2|0,2:0|0:0,2:0:0:0:
276,350,88625,2,0,B|282:326|282:326|271:296,1,50,2|0,0:0|0:0,0:0:0:0:
330,267,88816,2,0,B|321:292|321:292|328:315,1,50,2|0,2:0|0:0,0:0:0:0:
345,348,89016,2,0,B|369:333|369:333|374:304,1,50,2|0,2:0|0:0,0:0:0:0:
406,281,89216,2,0,B|403:307|403:307|418:329,1,50,2|0,2:0|0:0,0:0:0:0:
441,350,89421,2,0,B|456:325|456:325|449:302,1,50,2|0,2:0|0:0,0:0:0:0:
470,298,89651,2,0,B|455:313|455:313|468:340,1,50,2|0,0:0|0:0,0:0:0:0:
485,347,89903,2,0,B|457:341|457:341|353:343|353:343|309:313,1,160,2|0,2:0|0:0,2:0:0:0:
210,342,90577,2,2,B|239:342|239:342|360:278,1,150,2|2,2:0|2:0,2:1:0:0:
437,253,91307,2,0,L|431:168,1,75,2|2,2:0|2:0,2:0:0:0:
336,180,91577,2,0,B|333:162|333:162|301:115,1,75,2|2,2:0|2:0,2:0:0:0:
356,10,91822,1,2,2:0:0:0:
440,63,91972,2,0,B|413:88|413:88|300:96,1,150,2|0,2:0|2:0,2:0:0:0:
110,225,92625,2,0,B|71:134|71:134|96:80,1,149.999995422363,2|0,2:0|0:0,2:0:0:0:
110,225,93196,2,0,B|119:194|119:194|169:148|169:148|193:93,1,149.999995422363,2|0,2:0|0:0,0:0:0:0:
116,8,93834,1,2,2:0:0:0:
116,8,93922,1,2,2:0:0:0:
116,8,94010,2,2,B|112:21|112:21|135:67|135:67|142:85|142:85|157:89|157:89|214:180|214:180|204:196|204:196|198:317|198:317|160:339|160:339|131:323,1,419.999987182618,2|2,2:0|2:0,0:1:0:0:
110,225,96015,6,0,B|101:238|101:238|58:253|58:253|32:237,1,89.9999972534181,2|2,2:0|2:0,0:0:0:0:
65,147,96664,2,0,B|26:117|26:117|25:78|25:78|36:66,1,75,2|2,2:0|2:0,0:0:0:0:
114,75,97144,2,0,B|119:54|119:54|135:31|135:31|161:20,1,75,2|2,0:0|0:0,0:0:0:0:
184,101,97471,2,0,B|209:94|209:94|224:93|224:93|234:100,1,37.5,2|2,2:0|0:0,2:0:0:0:
220,128,97679,2,0,B|241:147|241:147|248:166|248:166|232:188,1,75,2|2,0:0|0:0,0:0:0:0:
215,195,97972,2,0,B|213:215|213:215|204:230|204:230|189:233,1,37.5,2|2,2:0|0:0,2:0:0:0:
179,220,98172,2,0,B|166:224|166:224|151:225|151:225|120:209|120:209|110:175,1,75,2|2,2:0|0:0,2:0:0:0:
128,142,98537,2,0,B|133:115|133:115|158:91|158:91|209:58|209:58|239:66,1,150,2|2,2:0|0:0,0:0:0:0:
239,148,99056,2,0,B|251:147|251:147|271:151|271:151|364:195|364:195|385:210|385:210|406:205|406:205|418:184,1,202.499993820191,2|0,2:0|0:0,2:0:0:0:
492,112,99806,1,2,2:0:0:0:
492,112,99901,1,2,2:0:0:0:
492,112,99996,2,2,B|476:107|476:107|321:154|321:154|371:255|371:255|423:266|423:266|435:235,1,360,2|2,2:0|0:0,2:1:0:0:
455,199,101959,5,2,0:0:0:0:
401,135,102256,1,2,0:0:0:0:
366,176,102488,1,2,0:0:0:0:
335,150,102706,1,2,0:0:0:0:
311,161,102865,1,2,0:0:0:0:
277,146,103044,1,2,0:0:0:0:
256,192,103242,1,2,0:0:0:0:
192,112,103518,1,2,0:0:0:0:
47,183,104375,2,2,B|78:149|78:149|110:160|110:160|133:236|133:236|127:352|127:352|167:184|167:184|172:107|172:107|218:91|218:91|252:127|252:127,1,600,2|0,2:1|2:0,2:1:0:0:
256,192,105599,5,4,3:0:0:0:
256,192,105667,12,0,106962,2:0:0:0:
461,361,107099,5,4,1:0:0:0:
384,181,107235,2,0,B|411:208|411:208|407:310,1,120,2|0,2:0|2:0,0:0:0:0:
461,361,107508,1,2,2:0:0:0:
313,230,107644,2,0,B|330:264|330:264|427:295,1,120,2|0,2:0|2:0,0:0:0:0:
461,361,107917,1,2,2:1:0:0:
302,138,108189,1,2,2:1:0:0:
143,269,108462,2,0,L|77:280,1,60,2|0,3:0|2:0,2:0:0:0:
143,269,108871,2,0,L|106:325,1,60,2|0,3:0|2:0,2:0:0:0:
22,356,109280,1,2,2:1:0:0:
216,208,109553,1,2,2:1:0:0:
159,3,109826,1,4,1:0:0:0:
109,186,109962,2,0,B|136:108|136:108|115:78,1,120,2|0,2:0|2:0,0:0:0:0:
159,3,110235,1,2,2:0:0:0:
25,137,110371,2,0,B|79:73|79:73|115:77,1,120,2|0,2:0|2:0,0:0:0:0:
159,3,110644,1,2,2:1:0:0:
451,198,110917,1,2,2:1:0:0:
380,126,111189,2,0,L|364:52,1,60,2|0,3:0|2:0,2:0:0:0:
380,126,111598,2,0,L|299:107,1,60,2|0,3:0|2:0,2:0:0:0:
268,18,112008,1,2,1:0:0:0:
268,18,112076,1,0,3:0:0:0:
268,18,112144,1,0,3:0:0:0:
268,18,112212,1,0,3:0:0:0:
268,18,112280,1,10,1:0:0:0:
346,209,112553,1,4,1:0:0:0:
467,48,112689,2,0,B|441:55|441:55|364:145,1,120,2|0,2:0|2:0,0:0:0:0:
346,209,112962,1,2,2:0:0:0:
364,11,113099,2,0,B|380:33|380:33|381:152,1,120,2|0,2:0|2:0,0:0:0:0:
346,209,113371,1,2,2:1:0:0:
170,384,113644,1,2,2:1:0:0:
87,259,113917,2,0,L|30:242,1,60,2|0,3:0|2:0,2:0:0:0:
87,259,114326,2,0,L|85:199,1,60,2|0,3:0|2:0,2:0:0:0:
7,150,114735,1,2,1:0:0:0:
7,150,114803,1,0,3:0:0:0:
7,150,114871,1,0,3:0:0:0:
7,150,114939,1,0,3:0:0:0:
7,150,115008,1,10,1:0:0:0:
302,142,115280,1,4,1:0:0:0:
144,23,115417,2,0,B|202:107|202:107|258:129,1,120,2|0,2:0|2:0,0:0:0:0:
302,142,115689,1,2,2:0:0:0:
109,155,115826,2,0,B|202:111|202:111|261:120,1,120,2|0,2:0|2:0,0:0:0:0:
302,142,116099,1,2,2:1:0:0:
82,241,116371,1,10,2:1:0:0:
495,305,116644,6,0,B|389:294|389:294|372:271|372:271|315:241,1,165.000005035401,6|2,1:2|2:1,2:0:0:0:
345,348,116849,2,0,B|349:325|349:325|308:255|308:255|229:193,1,165.000005035401,0|0,1:0|2:0,2:0:0:0:
350,195,117053,2,0,B|314:189|314:189|276:197|276:197|219:161|219:161|192:108,1,165.000005035401,6|2,1:2|0:1,2:0:0:0:
184,248,117258,2,0,B|191:214|191:214|165:149|165:149|155:120|155:120|111:82,1,165.000005035401,0|0,1:0|2:0,2:0:0:0:
62,46,117462,6,0,B|78:71|78:71|187:109,1,82.5000025177003,0|0,1:0|3:0,0:0:0:0:
261,91,117599,2,0,B|256:122|256:122|149:167,1,82.5000025177003,2|0,3:1|3:0,0:0:0:0:
9,175,117735,2,0,B|110:188|110:188|158:244|158:244|191:249,1,202.500000772476,2|2,1:0|3:1,0:0:0:0:
470,342,118008,5,6,1:0:0:0:
470,342,118076,1,0,3:0:0:0:
470,342,118144,1,0,3:1:0:0:
470,342,118212,1,0,3:0:0:0:
470,342,118280,1,0,1:0:0:0:
470,342,118349,1,0,3:0:0:0:
470,342,118417,1,0,3:0:0:0:
470,342,118485,1,0,3:0:0:0:
470,342,118553,2,0,B|487:317|487:317|476:293|476:293|471:231|471:231|435:215|435:215|386:174|386:174,1,202.500000772476,2|0,1:0|3:0,2:0:0:0:
80,138,118826,2,0,B|103:123|103:123|137:93|137:93|149:49,1,101.250000386238,2|0,1:0|3:0,0:0:0:0:
254,49,118962,1,0,3:0:0:0:
59,19,119099,2,0,B|86:27|86:27|129:43|129:43|155:80,1,101.250000386238,2|0,1:0|3:0,0:0:0:0:
254,49,119235,1,0,3:0:0:0:
456,59,119371,1,6,1:0:0:0:
456,59,119439,1,0,3:0:0:0:
456,59,119507,1,0,3:1:0:0:
456,59,119575,1,0,3:0:0:0:
456,59,119643,1,0,1:0:0:0:
456,59,119712,1,0,3:0:0:0:
456,59,119780,1,0,3:0:0:0:
456,59,119848,1,0,3:0:0:0:
456,59,119916,2,0,B|425:57|425:57|410:79|410:79|322:126|322:126|316:164|316:164|277:170,1,202.500000772476,2|0,1:0|3:0,2:0:0:0:
140,351,120189,2,0,B|167:349|167:349|190:313|190:313|250:319,1,101.250000386238,2|0,1:0|3:0,0:0:0:0:
331,360,120325,1,0,3:0:0:0:
197,231,120462,2,0,B|213:253|213:253|199:294|199:294|243:337,1,101.250000386238,2|0,1:0|3:0,0:0:0:0:
331,360,120598,1,0,3:0:0:0:
45,249,120735,1,6,1:0:0:0:
45,249,120803,1,0,3:0:0:0:
45,249,120871,1,0,3:1:0:0:
45,249,120939,1,0,3:0:0:0:
45,249,121007,1,0,1:0:0:0:
45,249,121076,1,0,3:0:0:0:
45,249,121144,1,0,3:0:0:0:
45,249,121212,1,0,3:0:0:0:
45,249,121280,2,0,B|32:219|32:219|53:157|53:157|62:151|62:151|66:100|66:100|125:70,1,202.500000772476,2|0,1:0|3:0,2:0:0:0:
287,63,121553,2,0,B|276:124|276:124|209:121,1,101.250000386238,2|0,1:0|3:0,0:0:0:0:
197,231,121689,1,0,3:0:0:0:
234,44,121826,2,0,B|205:99|205:99|258:139,1,101.250000386238,2|0,1:0|3:0,0:0:0:0:
197,231,121962,1,0,3:0:0:0:
33,369,122099,1,6,1:0:0:0:
33,369,122167,1,0,3:0:0:0:
33,369,122235,1,0,3:1:0:0:
33,369,122303,1,0,3:0:0:0:
33,369,122371,1,0,1:0:0:0:
33,369,122440,1,0,3:0:0:0:
33,369,122508,1,0,3:0:0:0:
33,369,122576,1,0,3:0:0:0:
33,369,122644,2,0,B|59:386|59:386|123:377|123:377|132:368|132:368|195:339|195:339|253:358,1,202.500000772476,2|0,1:0|3:0,2:0:0:0:
379,196,122917,2,0,B|399:264|399:264|370:293,1,101.250000386238,2|0,1:0|3:0,0:0:0:0:
330,384,123053,1,0,3:0:0:0:
444,226,123189,2,0,B|380:255|380:255|377:296,1,101.250000386238,2|0,1:0|3:0,0:0:0:0:
330,384,123326,1,0,3:0:0:0:
493,70,123462,1,6,1:0:0:0:
493,70,123530,1,0,3:0:0:0:
493,70,123598,1,0,3:1:0:0:
493,70,123666,1,0,3:0:0:0:
493,70,123734,1,0,1:0:0:0:
493,70,123803,1,0,3:0:0:0:
493,70,123871,1,0,3:0:0:0:
493,70,123939,1,0,3:0:0:0:
493,70,124007,2,0,B|430:49|430:49|396:53|396:53|394:60|394:60|331:100|331:100|273:81,1,202.500000772476,2|0,1:0|3:0,2:0:0:0:
72,0,124280,2,0,B|115:51|115:51|111:105,1,101.250000386238,2|0,1:0|3:0,0:0:0:0:
192,137,124417,1,0,3:0:0:0:
18,94,124553,2,0,B|84:105|84:105|129:74,1,101.250000386238,2|0,1:0|3:0,0:0:0:0:
192,137,124689,1,0,3:0:0:0:
16,359,124826,1,6,1:0:0:0:
16,359,124894,1,0,3:0:0:0:
16,359,124962,1,0,3:1:0:0:
16,359,125030,1,0,3:0:0:0:
16,359,125098,1,0,1:0:0:0:
16,359,125167,1,0,3:0:0:0:
16,359,125235,1,0,3:0:0:0:
16,359,125303,1,0,3:0:0:0:
16,359,125371,2,0,B|64:306|64:306|75:285|75:285|150:234|150:234|186:242,1,202.500000772476,2|0,1:0|3:0,2:0:0:0:
365,151,125644,2,0,B|327:201|327:201|324:249,1,101.250000386238,2|0,1:0|3:0,0:0:0:0:
326,344,125780,1,0,3:0:0:0:
285,151,125917,2,0,B|324:203|324:203|324:250,1,101.250000386238,2|0,1:0|3:0,0:0:0:0:
326,344,126053,1,0,3:0:0:0:
415,241,126189,6,0,B|440:241|440:241|478:273,1,75,6|0,1:0|2:0,2:0:0:0:
474,288,126325,2,0,B|429:298|429:298|400:285,1,75,0|0,3:0|2:0,2:0:0:0:
324,239,126461,1,2,1:0:0:0:
322,246,126598,1,0,3:0:0:0:
118,349,126734,6,0,B|106:339|106:339|46:328,1,75,2|0,1:0|2:0,2:0:0:0:
43,315,126870,2,0,B|86:271|86:271|91:258,1,75,0|0,3:0|2:0,2:0:0:0:
193,278,127007,1,2,1:0:0:0:
195,283,127144,1,0,3:0:0:0:
415,241,127279,6,0,B|440:241|440:241|478:273,1,75,2|0,1:0|2:0,2:0:0:0:
474,288,127415,2,0,B|429:298|429:298|400:285,1,75,0|0,3:0|2:0,2:0:0:0:
324,239,127552,1,2,1:0:0:0:
322,246,127689,1,0,3:0:0:0:
118,349,127825,6,0,B|106:339|106:339|46:328,1,75,2|0,1:0|2:0,2:0:0:0:
43,315,127961,2,0,B|86:271|86:271|91:258,1,75,0|0,3:0|2:0,2:0:0:0:
193,278,128098,1,2,1:0:0:0:
195,283,128235,1,0,3:0:0:0:
332,51,128370,6,0,B|373:7|373:7|388:4,1,75,2|0,1:0|2:0,2:0:0:0:
399,10,128507,2,0,B|408:22|408:22|405:81,1,75,0|0,3:0|2:0,2:0:0:0:
336,143,128643,1,2,1:0:0:0:
329,141,128780,1,0,3:0:0:0:
80,91,128916,6,0,B|99:45|99:45|97:19,1,75,2|0,1:0|2:0,2:0:0:0:
110,14,129052,2,0,B|130:31|130:31|176:47,1,75,0|0,3:0|2:0,2:0:0:0:
176,160,129189,1,2,1:0:0:0:
171,162,129326,1,0,3:0:0:0:
332,51,129461,6,0,B|373:7|373:7|388:4,1,75,2|0,1:0|2:0,2:0:0:0:
399,10,129598,2,0,B|408:22|408:22|405:81,1,75,0|0,3:0|2:0,2:0:0:0:
336,143,129734,1,2,1:0:0:0:
329,141,129871,1,0,3:0:0:0:
80,91,130007,6,0,B|99:45|99:45|97:19,1,75,2|0,1:0|2:0,2:0:0:0:
110,14,130143,2,0,B|130:31|130:31|176:47,1,75,0|0,3:0|2:0,2:0:0:0:
168,161,130279,1,2,1:0:0:0:
163,163,130416,1,0,3:0:0:0:
35,313,130552,5,6,1:0:0:0:
35,313,130620,1,0,3:0:0:0:
35,313,130689,2,0,B|65:262|65:262|81:258,1,75,2|0,1:0|3:0,0:0:0:0:
141,316,130825,1,2,1:0:0:0:
141,316,130893,1,0,3:0:0:0:
141,316,130961,2,0,B|109:265|109:265|94:259,1,75,2|0,1:0|3:0,0:0:0:0:
101,173,131098,1,2,1:0:0:0:
101,173,131166,1,0,3:0:0:0:
101,173,131235,2,0,B|154:149|154:149|169:155,1,75,2|0,1:0|3:0,0:0:0:0:
215,258,131371,1,2,1:0:0:0:
215,258,131439,1,0,3:0:0:0:
215,258,131507,2,0,B|218:200|218:200|208:187,1,75,2|0,1:0|3:0,0:0:0:0:
261,73,131643,1,2,1:0:0:0:
261,73,131711,1,0,3:0:0:0:
261,73,131780,2,0,B|316:89|316:89|324:103,1,75,2|0,1:0|3:0,0:0:0:0:
307,267,131916,1,2,1:0:0:0:
307,267,131984,1,0,3:0:0:0:
307,267,132052,2,0,B|346:225|346:225|347:209,1,75,2|0,1:0|3:0,0:0:0:0:
444,82,132189,1,2,1:0:0:0:
444,82,132257,1,0,3:0:0:0:
444,82,132326,2,0,B|483:125|483:125|482:141,1,75,2|0,1:0|3:0,0:0:0:0:
388,326,132462,1,2,1:0:0:0:
388,326,132530,1,0,3:0:0:0:
388,326,132598,2,0,B|442:310|442:310|451:297,1,75,2|0,1:0|3:0,0:0:0:0:
497,229,133825,6,2,B|470:213|470:213|450:229,5,37.5,10|2|2|2|2|2,1:0|2:0|2:0|2:0|2:0|2:0,2:0:0:0:
395,164,134234,2,2,B|386:181|386:181|341:195,3,52.4999983978272,10|2|2|2,1:0|2:0|2:0|2:0,2:0:0:0:
276,148,134507,5,0,3:0:0:0:
276,148,134575,1,0,3:0:0:0:
276,148,134643,2,0,B|266:166|266:166|170:219|170:219|123:216,1,150,8|0,1:0|2:0,2:0:0:0:
17,327,134916,6,0,B|31:304|31:304|50:178|50:178|83:179|83:179|122:215|122:215|109:297|109:297|67:311,1,337.500012874604,4|0,1:0|3:0,2:0:0:0:
96,384,135189,2,0,B|220:354|220:354|252:375,1,150,8|0,1:0|3:0,2:0:0:0:
456,351,135461,6,0,B|473:343|473:343|518:374,1,56.2500021457673,2|0,1:0|2:0,2:0:0:0:
363,222,135598,1,0,3:0:0:0:
363,222,135734,2,0,B|380:214|380:214|425:245,1,56.2500021457673,10|0,1:0|2:0,2:0:0:0:
329,371,135870,2,0,B|346:363|346:363|391:394,1,56.2500021457673,2|0,3:1|2:0,2:0:0:0:
266,277,136007,1,0,1:0:0:0:
266,277,136143,2,0,B|283:269|283:269|328:300,1,56.2500021457673,2|0,3:1|3:0,2:0:0:0:
453,251,136279,1,8,1:0:0:0:
453,251,136416,2,0,B|470:243|470:243|515:274,1,56.2500021457673,2|0,3:1|3:0,2:0:0:0:
465,358,136552,2,0,B|482:350|482:350|527:381,1,56.2500021457673,2|0,1:0|2:0,2:0:0:0:
400,314,136689,5,0,3:0:0:0:
400,314,136757,1,0,3:0:0:0:
400,314,136825,2,2,B|391:303|391:303|405:255|405:255|400:244|400:244|401:231|401:231|385:218|385:218|375:153|375:153|383:152|383:152|392:91|392:91|444:63,1,269.999991760254,8|0,1:3|2:0,2:3:0:0:
466,13,137098,6,2,B|494:-10|494:-10|510:6|510:6|536:177|536:177|521:190|521:190|466:173|466:173|468:144,1,337.500012874604,4|0,1:0|3:0,2:0:0:0:
414,80,137370,2,0,B|394:68|394:68|311:74|311:74|269:61,1,150,8|0,1:0|3:0,2:0:0:0:
100,152,137643,6,0,B|93:164|93:164|58:175|58:175|32:156,1,56.2500021457673,2|0,1:0|2:0,2:0:0:0:
138,0,137779,1,0,3:0:0:0:
138,0,137916,2,0,B|131:12|131:12|96:23|96:23|70:4,1,56.2500021457673,10|0,1:0|2:0,2:0:0:0:
240,139,138052,2,0,B|233:151|233:151|198:162|198:162|172:143,1,56.2500021457673,2|0,3:1|2:0,2:0:0:0:
259,33,138188,1,0,1:0:0:0:
259,33,138325,2,0,B|252:45|252:45|217:56|217:56|191:37,1,56.2500021457673,2|0,3:1|3:0,2:0:0:0:
61,77,138461,1,8,1:0:0:0:
61,77,138598,2,0,B|54:89|54:89|19:100|19:100|-7:81,1,56.2500021457673,2|0,3:1|3:0,0:0:0:0:
138,86,138734,6,0,B|143:103|143:103|136:157|136:157|145:188,1,89.9999972534181,0|0,1:0|3:0,2:0:0:0:
188,253,138939,1,0,3:0:0:0:
188,253,139007,2,2,B|235:266|235:266|252:284,1,60,8|0,1:0|0:0,2:1:0:0:
506,276,139211,5,0,2:0:0:0:
505,276,139279,2,2,L|490:250,1,22.4999993133545,4|0,1:0|3:0,2:1:0:0:
447,0,139484,2,2,L|432:26,1,22.4999993133545,0|0,3:0|2:0,0:1:0:0:
241,181,139689,2,2,L|271:180,1,22.4999993133545,0|0,3:0|1:0,0:1:0:0:
414,214,139893,2,2,L|417:192,1,22.4999993133545,0|0,2:0|3:0,0:1:0:0:
461,109,140098,2,2,L|439:117,1,22.4999993133545,8|0,1:0|3:1,2:1:0:0:
345,123,140302,2,2,L|365:135,1,22.4999993133545,0|0,2:0|3:0,0:1:0:0:
262,384,140507,6,2,L|237:377,1,22.4999993133545,0|8,3:1|1:0,2:1:0:0:
0,352,140711,2,2,L|18:333,1,22.4999993133545,0|0,3:0|2:0,0:1:0:0:
163,139,140916,2,2,L|169:164,1,22.4999993133545,0|0,1:0|3:0,2:1:0:0:
150,342,141120,2,2,L|135:325,1,22.4999993133545,0|0,3:0|0:0,0:1:0:0:
93,258,141325,1,0,3:0:0:0:
169,254,141461,1,0,1:0:0:0:
169,254,141734,6,0,B|201:258|201:258|241:248,1,56.2500021457673,2|0,3:2|2:0,2:0:0:0:
383,327,141870,2,0,B|406:305|406:305|422:258,1,56.2500021457673,2|0,1:2|1:0,2:0:0:0:
313,221,142007,2,0,B|335:196|335:196|344:162,1,56.2500021457673,2|0,1:2|2:0,2:0:0:0:
432,173,142143,2,0,B|434:139|434:139|419:103,1,56.2500021457673,2|0,3:2|2:0,2:0:0:0:
368,117,142279,2,0,B|364:83|364:83|342:54,1,56.2500021457673,2|0,2:0|2:0,2:0:0:0:
382,70,142416,2,0,B|362:41|362:41|328:23,1,56.2500021457673,0|0,1:0|1:0,0:0:0:0:
258,19,142552,5,2,2:3:0:0:
258,19,142689,1,2,2:3:0:0:
186,68,142825,2,0,B|173:85|173:85|171:120,1,56.2500021457673,2|0,2:3|0:0,2:0:0:0:
190,95,142961,2,0,B|186:116|186:116|200:148,1,56.2500021457673,2|0,2:3|0:0,2:0:0:0:
140,209,143097,2,0,B|145:230|145:230|170:254,1,56.2500021457673,2|0,2:3|0:0,2:0:0:0:
328,305,143234,6,0,B|356:315|356:315|367:306|367:306|415:315|415:315|464:294|464:294|476:285|476:285|514:317,2,187.5,4|12|4,3:0|1:3|2:3,2:0:0:0:
170,254,143643,6,0,B|165:259|165:259|83:251|83:251|49:291|49:291|49:324|49:324|175:337|175:337|186:353|186:353|204:361,1,337.500012874604,4|0,1:0|3:0,2:0:0:0:
246,292,143916,2,0,B|258:164|258:164|275:151,1,150,8|0,1:0|0:0,2:0:0:0:
27,65,144189,6,0,B|20:80|20:80|48:122,1,56.2500021457673,2|0,2:1|3:0,2:0:0:0:
242,0,144461,2,0,B|235:15|235:15|263:57,1,56.2500021457673,10|0,1:0|2:0,2:0:0:0:
117,132,144598,2,0,B|110:147|110:147|138:189,1,56.2500021457673,2|0,2:1|2:0,2:0:0:0:
53,6,144870,2,0,B|46:21|46:21|74:63,1,56.2500021457673,2|0,2:1|3:0,2:0:0:0:
21,131,145143,2,0,B|14:146|14:146|42:188,1,56.2500021457673,2|0,2:1|2:0,2:0:0:0:
154,16,145279,2,0,B|147:31|147:31|175:73,1,56.2500021457673,2|0,2:1|3:0,2:0:0:0:
285,136,145416,6,0,B|265:143|265:143|225:134|225:134|218:139|218:139|176:154|176:154|134:146|134:146|116:131,2,179.999994506836,4|12|4,2:3|1:3|2:3,2:0:0:0:
433,35,145825,6,0,B|494:48|494:48|502:26|502:26|473:-18|473:-18|324:6|324:6|298:34|298:34|300:55,1,337.500012874604,4|0,1:0|3:0,2:0:0:0:
369,78,146098,2,0,B|379:96|379:96|393:206|393:206|367:218,1,150,8|0,1:0|0:0,2:0:0:0:
325,338,146370,6,0,B|306:351|306:351|299:365|299:365|302:382,1,56.2500021457673,2|0,2:1|3:0,2:0:0:0:
296,226,146643,2,0,B|277:239|277:239|270:253|270:253|273:270,1,56.2500021457673,10|0,1:0|2:0,2:0:0:0:
494,208,146779,2,0,B|475:221|475:221|468:235|468:235|471:252,1,56.2500021457673,2|0,2:1|2:0,2:0:0:0:
408,313,147052,2,0,B|389:326|389:326|382:340|382:340|385:357,1,56.2500021457673,2|0,2:1|3:0,2:0:0:0:
512,340,147325,2,0,B|493:353|493:353|486:367|486:367|489:384,1,56.2500021457673,2|0,1:0|0:0,2:0:0:0:
401,182,147461,2,0,B|382:195|382:195|375:209|375:209|378:226,1,56.2500021457673,2|0,0:1|3:0,0:0:0:0:
349,318,147598,6,0,B|379:316|379:316|384:308|384:308|422:301|422:301|459:257|459:257|516:254,2,187.5,4|12|4,2:3|1:3|2:3,2:0:0:0:
112,291,148007,6,0,B|94:288|94:288|97:336|97:336|153:324,5,93.75,4|0|0|0|0|0,1:0|3:0|1:0|3:0|1:0|3:0,0:0:0:0:
198,285,148416,1,0,1:0:0:0:
187,117,148552,2,0,B|162:132|162:132|121:117|121:117|133:141,5,93.75,0|0|0|0|0|0,1:0|3:0|1:0|3:0|1:0|3:0,0:0:0:0:
157,39,148961,1,0,1:0:0:0:
390,133,149098,2,0,B|406:139|406:139|410:125|410:125|402:58,5,93.75,0|0|0|0|0|0,1:0|3:0|1:0|3:0|1:0|3:0,0:0:0:0:
318,82,149507,1,0,1:0:0:0:
434,302,149643,2,0,B|431:312|431:312|370:323|370:323|352:305,5,93.75,0|0|0|0|0|0,1:0|3:0|1:0|3:0|1:0|3:0,0:0:0:0:
391,230,150052,1,0,1:0:0:0:
220,242,150189,5,2,3:1:0:0:
220,242,150325,1,0,2:0:0:0:
205,156,150461,1,2,3:1:0:0:
205,156,150597,1,0,2:0:0:0:
291,141,150734,1,2,3:1:0:0:
291,141,150870,1,0,2:0:0:0:
306,227,151006,1,2,3:1:0:0:
306,227,151142,1,0,2:0:0:0:
0,39,152370,5,4,1:0:0:0:
24,164,152507,1,0,1:0:0:0:
41,70,152643,1,0,1:0:0:0:
82,87,152779,1,0,1:0:0:0:
65,7,152916,1,0,1:0:0:0:
71,150,153052,1,0,1:0:0:0:
126,52,153189,1,0,1:0:0:0:
172,129,153325,1,0,1:0:0:0:
172,129,153393,1,0,1:0:0:0:
172,129,153461,1,0,1:0:0:0:
146,162,153598,1,0,1:0:0:0:
194,21,153735,1,0,1:0:0:0:
224,124,153870,1,0,1:0:0:0:
210,181,154007,1,0,1:0:0:0:
190,82,154143,1,0,1:0:0:0:
231,4,154279,1,0,1:0:0:0:
251,133,154416,1,0,1:0:0:0:
251,133,154484,1,0,1:0:0:0:
251,133,154552,6,0,L|153:117,1,75,2|2,1:0|2:0,2:0:0:0:
101,162,154825,2,0,L|3:146,1,75,2|2,1:0|2:0,2:0:0:0:
242,32,155098,2,0,L|144:16,1,75,2|2,1:0|2:0,2:0:0:0:
92,61,155371,2,0,L|-6:45,1,75,2|2,1:0|3:0,2:0:0:0:
13,59,155575,5,2,3:0:0:0:
13,59,155643,2,0,B|35:65|35:65|80:43,1,60,2|0,3:0|2:0,2:0:0:0:
151,130,155779,2,0,B|191:146|191:146|213:170,1,60,2|0,2:3|2:0,2:0:0:0:
240,76,155916,2,0,B|275:66|275:66|289:48,1,60,2|0,3:0|2:0,2:0:0:0:
312,156,156052,2,0,B|335:156|335:156|369:193,1,60,2|0,2:3|2:0,2:0:0:0:
467,109,156189,2,0,B|521:124|521:124|511:162|511:162|491:178,3,120,2|0|0|0,3:0|2:3|3:0|3:0,2:0:0:0:
295,0,156734,5,4,1:0:0:0:
454,14,156870,1,0,1:0:0:0:
290,47,157007,1,0,1:0:0:0:
370,20,157143,1,0,1:0:0:0:
497,80,157279,1,0,1:0:0:0:
367,46,157416,1,0,1:0:0:0:
416,78,157552,1,0,1:0:0:0:
279,101,157689,1,0,1:0:0:0:
279,101,157757,1,0,1:0:0:0:
279,101,157825,1,0,1:0:0:0:
348,80,157961,1,0,1:0:0:0:
382,143,158098,1,0,1:0:0:0:
487,134,158234,1,0,1:0:0:0:
406,94,158370,1,0,1:0:0:0:
281,161,158507,1,0,1:0:0:0:
437,158,158643,1,0,1:0:0:0:
369,188,158779,1,0,1:0:0:0:
369,188,158848,1,0,1:0:0:0:
369,188,158916,6,0,L|385:90,1,75,2|2,1:0|2:0,2:0:0:0:
490,50,159189,2,0,L|474:148,1,75,0|2,1:0|2:0,2:0:0:0:
273,26,159461,2,0,L|317:34,1,37.5,2|0,3:0|2:0,2:0:0:0:
403,98,159598,2,0,L|359:90,1,37.5,2|0,2:3|2:0,2:0:0:0:
251,110,159734,2,0,L|295:118,1,37.5,2|0,3:0|2:0,2:0:0:0:
396,12,159870,5,0,3:0:0:0:
396,12,159939,1,0,3:0:0:0:
396,12,160007,2,2,B|369:21|369:21|359:35|359:35|424:246,1,258.750004935265,2|0,3:1|2:0,2:1:0:0:
471,317,160279,2,2,L|314:365,1,142.49999619484,2|0,3:1|2:1,2:1:0:0:
261,211,160552,6,0,B|277:232|277:232|320:245|320:245|348:278,1,82.5000025177003,8|0,1:3|0:0,2:0:0:0:
268,373,160689,2,0,B|304:387|304:387|328:373|328:373|351:326,1,82.5000025177003,0|0,3:0|3:0,0:0:0:0:
512,378,160825,2,0,B|504:352|504:352|467:325|467:325|494:263,1,82.5000025177003,8|0,1:3|0:0,2:0:0:0:
504,198,160961,2,0,B|486:191|486:191|442:199|442:199|422:248,1,82.5000025177003,0|0,3:0|0:0,0:0:0:0:
489,278,161098,6,2,B|488:302|488:302|427:320|427:320|423:342|423:342|386:300|386:300|379:275|379:275|369:270|369:270|343:224|343:224|341:227|341:227|298:238|298:238|290:285|290:285|272:307,7,359.999989013672,4|0|0|0|0|0|0|0,1:0|1:0|1:0|1:0|1:0|1:0|1:0|1:0,2:1:0:0:
173,343,163279,2,2,B|151:324|151:324|153:260|153:260|155:252|155:252|126:248|126:248|125:244|125:244|92:243|92:243|91:248|91:248|57:299|57:299|47:294|47:294|14:302|14:302|3:276,3,300,6|0|0|0,1:0|1:0|1:0|1:0,2:1:0:0:
101,224,164234,5,2,2:3:0:0:
101,224,164302,1,2,2:3:0:0:
101,224,164370,2,0,B|121:233|121:233|169:219,1,60,2|0,3:0|2:0,2:0:0:0:
242,286,164507,2,0,B|278:297|278:297|297:326,1,60,2|0,2:3|2:0,2:0:0:0:
314,217,164643,2,0,B|346:195|346:195|380:200,1,60,2|0,3:0|2:0,2:0:0:0:
460,309,164779,2,0,B|481:305|481:305|513:327,1,60,2|0,2:3|2:0,2:0:0:0:
504,208,164916,1,2,3:0:0:0:
381,297,165052,1,0,3:0:0:0:
381,297,165120,1,0,3:0:0:0:
381,297,165189,2,0,B|376:323|376:323|383:334|383:334|388:362,3,52.4999983978272,0|0|0|0,3:0|0:0|3:0|0:0,2:0:0:0:
311,376,165461,5,4,1:2:0:0:
264,364,165643,5,4,1:2:0:0:
274,317,165825,5,4,1:2:0:0:
145,326,166007,5,4,1:2:0:0:
251,308,166189,5,4,1:2:0:0:
229,204,166370,5,4,1:2:0:0:
461,246,166552,5,4,1:2:0:0:
267,191,166734,5,4,1:2:0:0:
332,1,166916,5,4,1:2:0:0:
262,169,167098,5,0,3:0:0:0:
252,154,167189,5,4,3:0:0:0:
259,131,167279,5,4,3:0:0:0:
236,117,167370,5,0,3:0:0:0:
262,99,167461,5,4,3:0:0:0:
213,93,167552,5,4,3:0:0:0:
247,23,167643,6,2,B|243:11|243:11|225:-13,7,26.2499991989136,0|0|0|0|0|0|0|0,2:0|2:0|2:0|2:0|2:0|2:0|2:0|2:0,2:0:0:0:
288,129,168189,2,2,B|293:103|293:103|319:79,7,37.5,0|0|0|0|0|0|0|0,2:0|2:0|2:0|2:0|2:0|2:0|2:0|2:0,2:0:0:0:
230,200,169825,6,0,B|223:210|223:210|82:219|82:219|53:206|53:206|48:147|48:147|23:122,1,269.999991760254,4|0,1:0|2:0,2:0:0:0:
43,47,170098,6,0,B|71:34|71:34|98:0,1,75,0|0,1:0|2:0,2:0:0:0:
121,105,170234,2,0,B|151:102|151:102|192:118,1,75,0|0,3:0|2:0,2:0:0:0:
335,5,170370,6,0,B|356:19|356:19|445:36,1,75,0|0,1:0|2:0,2:0:0:0:
265,58,170507,2,0,B|285:93|285:93|291:126,1,75,0|0,3:0|2:0,2:0:0:0:
417,235,170643,6,0,B|436:290|436:290|480:316,1,75,0|0,1:0|2:0,2:0:0:0:
329,210,170779,2,0,B|323:238|323:238|267:297,1,75,0|0,3:0|2:0,2:0:0:0:
269,352,170916,6,0,B|245:354|245:354|155:421,1,75,0|0,1:0|0:0,2:0:0:0:
185,285,171052,2,0,B|148:286|148:286|88:245,1,75,0|0,1:0|0:0,0:0:0:0:
77,357,171189,6,0,B|46:353|46:353|33:337|33:337|5:198,1,150,0|0,1:0|0:0,0:0:0:0:
31,32,171461,6,2,B|28:68|28:68|38:96|38:96|245:121,1,258.750004935265,2|0,1:2|2:0,0:0:0:0:
229,119,171734,2,2,B|218:73|218:73|190:66|190:66|45:130|45:130|41:178,1,258.750004935265,2|0,1:2|2:0,0:0:0:0:
105,217,172007,6,0,B|113:208|113:208|254:223|254:223|280:241|280:241|274:321|274:321|310:362,1,281.25,4|0,1:0|2:0,2:0:0:0:
382,348,172279,6,0,B|394:357|394:357|503:347,1,75,0|0,1:0|2:0,2:0:0:0:
430,268,172416,2,0,B|459:253|459:253|480:198,1,75,0|0,3:0|2:0,2:0:0:0:
390,111,172552,6,0,B|415:81|415:81|435:19,1,75,0|0,1:0|2:0,2:0:0:0:
324,60,172689,2,0,B|318:17|318:17|260:-21,1,75,0|0,3:0|2:0,2:0:0:0:
195,92,172825,6,0,B|154:69|154:69|106:68,1,75,0|0,1:0|2:0,2:0:0:0:
143,155,172961,2,0,B|113:156|113:156|71:193,1,75,0|0,3:0|2:0,2:0:0:0:
149,254,173098,6,0,B|139:306|139:306|161:352,1,75,2|0,1:2|2:0,0:0:0:0:
226,295,173234,2,0,B|252:328|252:328|312:337,1,75,2|0,3:2|2:0,0:0:0:0:
297,251,173370,6,2,B|320:247|320:247|338:228|338:228|306:55,1,225,2|0,1:2|2:0,0:0:0:0:
455,39,173643,6,0,B|446:36|446:36|405:57|405:57|402:77,3,75,2|2|2|2,1:2|2:0|2:0|2:0,0:0:0:0:
303,138,173916,2,0,B|347:157|347:157|354:179,3,56.2500021457673,2|2|2|2,1:2|2:0|0:2|2:0,0:0:0:0:
221,168,174189,6,0,B|217:182|217:182|251:320|251:320|243:350|243:350|166:370|166:370|136:344,1,281.25,4|0,1:0|2:0,2:0:0:0:
74,347,174461,6,0,B|50:346|50:346|8:284,1,75,0|0,1:0|2:0,2:0:0:0:
130,282,174598,2,0,B|125:238|125:238|142:195,1,75,0|0,3:0|2:0,2:0:0:0:
7,168,174734,6,0,B|-1:156|-1:156|5:76,1,75,0|0,1:0|2:0,2:0:0:0:
94,136,174871,2,0,B|136:100|136:100|175:102,1,75,0|0,3:0|2:0,2:0:0:0:
194,23,175007,6,0,B|206:2|206:2|281:-2,1,75,0|0,1:0|2:0,2:0:0:0:
244,85,175144,2,0,B|282:92|282:92|313:138,1,75,0|0,3:0|2:0,2:0:0:0:
427,132,175279,6,0,B|458:148|458:148|496:202,1,75,0|0,1:0|0:0,2:0:0:0:
370,214,175416,2,0,B|377:248|377:248|353:320,1,75,0|0,1:0|0:0,0:0:0:0:
512,317,175552,6,2,B|510:338|510:338|485:353|485:353|361:387|361:387|310:364,1,225,0|0,1:0|0:0,0:0:0:0:
273,290,175825,6,2,B|256:276|256:276|227:92|227:92|237:59|237:59|296:46,1,303.750001158714,2|0,1:2|2:0,0:0:0:0:
292,155,176098,2,2,B|273:171|273:171|219:349|219:349|178:365|178:365|118:333,1,303.750001158714,2|0,1:2|2:0,0:0:0:0:
70,234,176370,5,2,1:0:0:0:
52,308,176507,1,0,2:0:0:0:
52,204,176643,1,2,1:0:0:0:
72,286,176779,1,0,2:0:0:0:
74,173,176916,1,2,1:0:0:0:
46,259,177052,1,0,2:0:0:0:
49,141,177189,1,2,1:0:0:0:
80,215,177325,1,0,2:0:0:0:
81,57,177461,6,0,B|93:47|93:47|100:20,7,37.5,4|4|4|4|4|4|4|4,2:3|2:3|2:3|2:3|2:3|2:3|2:3|2:3,0:0:0:0:
109,5,178007,1,4,2:3:0:0:
111,14,178075,1,4,2:3:0:0:
114,22,178143,1,4,2:3:0:0:
118,31,178211,1,4,2:3:0:0:
121,40,178279,1,4,2:3:0:0:
124,48,178348,1,4,2:3:0:0:
127,57,178416,1,4,2:3:0:0:
130,66,178484,1,4,2:3:0:0:
134,74,178552,1,4,2:1:0:0:
134,74,178825,6,0,B|299:21|299:21|311:29|311:29|418:41,1,269.999991760254,2|0,1:2|0:0,2:0:0:0:
134,74,179098,2,0,B|303:110|303:110|309:123|309:123|396:187,1,269.999991760254,2|2,1:2|3:2,2:0:0:0:
467,115,179370,1,2,1:2:0:0:
226,187,179507,1,2,3:2:0:0:
300,9,179643,1,2,1:2:0:0:
317,109,179779,1,2,3:2:0:0:
51,128,179916,1,2,1:2:0:0:
222,56,180052,1,2,3:2:0:0:
141,163,180189,5,2,1:2:0:0:
133,182,180257,1,2,2:0:0:0:
126,201,180325,1,2,3:2:0:0:
108,212,180393,1,2,2:0:0:0:
92,224,180461,1,2,1:2:0:0:
93,244,180529,1,2,2:0:0:0:
93,266,180598,1,2,3:2:0:0:
93,285,180666,1,2,2:0:0:0:
85,300,180734,1,4,1:0:0:0:
85,300,181007,6,0,B|164:332|164:332|181:330|181:330|306:342,1,213.749994292259,2|0,1:2|0:0,2:0:0:0:
85,300,181279,2,0,B|169:288|169:288|183:278|183:278|298:226,1,213.749994292259,2|2,1:2|3:2,2:0:0:0:
367,283,181552,1,2,1:2:0:0:
192,296,181689,1,2,3:2:0:0:
442,343,181825,6,0,B|479:353|479:353|498:379,7,56.2500021457673,2|2|2|2|2|2|2|2,1:2|2:0|3:2|3:2|1:2|2:0|3:2|2:0,0:0:0:0:
472,265,182370,1,2,1:2:0:0:
454,255,182439,1,2,2:0:0:0:
447,235,182507,1,2,3:2:0:0:
440,214,182575,1,2,2:0:0:0:
434,194,182643,1,2,1:2:0:0:
442,176,182711,1,2,2:0:0:0:
450,157,182779,1,2,3:2:0:0:
459,138,182848,1,2,2:0:0:0:
455,117,182916,1,4,1:0:0:0:
455,117,183189,6,0,B|443:136|443:136|338:179|338:179|327:174|327:174|220:172,1,247.500007553101,2|0,1:2|0:0,2:0:0:0:
455,117,183461,2,0,B|435:128|435:128|322:113|322:113|315:102|315:102|224:47,1,247.500007553101,2|0,1:2|3:0,2:0:0:0:
165,112,183734,1,2,1:2:0:0:
366,145,183870,1,2,3:2:0:0:
90,78,184007,2,0,B|109:89|109:89|222:74|222:74|229:63|229:63|320:8,1,247.500007553101,2|2,1:2|3:2,2:0:0:0:
403,38,184279,1,2,1:2:0:0:
141,0,184416,1,2,3:2:0:0:
257,81,184552,5,2,1:2:0:0:
262,91,184620,1,2,2:0:0:0:
267,101,184689,1,2,3:2:0:0:
261,110,184757,1,2,2:0:0:0:
255,119,184825,1,2,1:2:0:0:
249,128,184893,1,2,2:0:0:0:
243,137,184961,1,2,3:2:0:0:
246,147,185029,1,2,2:0:0:0:
249,157,185098,6,0,B|269:220|269:220|290:234,1,75,4|0,3:0|2:0,2:0:0:0:
326,171,185370,2,0,B|285:223|285:223|261:229,1,75,2|0,2:0|2:0,0:0:0:0:
182,243,185643,2,0,B|154:280|154:280|105:307,1,75,2|0,2:0|2:0,2:0:0:0:
200,314,185916,2,0,B|157:294|157:294|101:294,1,75,2|0,2:0|2:0,0:0:0:0:
48,245,186189,6,0,L|19:227,1,18.75,2|0,3:0|0:0,2:0:0:0:
48,245,186461,2,0,L|16:256,1,18.75,2|0,3:0|0:0,2:0:0:0:
113,182,186734,2,0,L|135:172,1,18.75,2|0,3:0|0:0,2:0:0:0:
205,229,186870,2,0,L|229:233,1,18.75,2|0,3:0|0:0,2:0:0:0:
292,175,187007,2,0,L|314:165,1,18.75,2|0,3:0|0:0,2:0:0:0:
378,224,187143,2,0,L|402:229,1,18.75,2|0,3:0|0:0,2:0:0:0:
466,163,187279,6,0,B|487:168|487:168|496:179|496:179|492:191|492:191|512:345|512:345|493:378|493:378|426:389,2,284.999992389679,6|2|2,1:0|1:0|1:0,2:0:0:0:
144,353,188098,1,0,1:0:0:0:
144,353,188234,2,0,B|144:315|144:315|125:300|125:300|15:274,1,142.49999619484,2|0,3:1|1:0,2:0:0:0:
227,266,188507,2,0,B|233:304|233:304|217:322|217:322|113:367,1,142.49999619484,2|0,3:1|1:0,2:0:0:0:
324,337,188779,2,0,B|324:299|324:299|305:284|305:284|195:258,1,142.49999619484,2|0,3:1|1:0,2:0:0:0:
426,308,189052,1,2,3:1:0:0:
426,308,189120,1,0,3:0:0:0:
426,308,189189,1,2,1:0:0:0:
372,185,189325,2,0,B|322:171|322:171|300:179|300:179|317:291,1,142.49999619484,2|0,3:1|1:0,0:0:0:0:
448,220,189598,2,0,B|431:215|431:215|294:249,1,142.49999619484,2|0,3:1|1:0,2:0:0:0:
48,359,189870,1,2,3:1:0:0:
127,312,190007,1,2,1:0:0:0:
48,359,190143,1,2,3:1:0:0:
20,273,190279,1,2,1:0:0:0:
48,359,190416,1,2,3:1:0:0:
127,312,190552,6,0,B|135:232|135:232|121:179|121:179|126:137,1,165.000005035401,4|0,1:3|3:0,2:0:0:0:
163,60,190757,1,0,3:0:0:0:
163,60,190825,1,4,1:3:0:0:
20,273,190961,2,0,B|63:207|63:207|108:176|108:176|131:140,1,165.000005035401,4|0,1:3|3:0,2:0:0:0:
163,60,191166,1,0,3:0:0:0:
163,60,191234,1,4,1:3:0:0:
125,149,191370,6,2,B|138:158|138:158|298:134|298:134|318:108|318:108|317:78|317:78|367:45,1,247.500007553101,4|0,1:0|2:0,3:0:0:0:
411,47,191643,6,0,B|453:54|453:54|475:82|475:82|472:87|472:87|452:241|452:241|468:267|468:267|494:261,2,284.999992389679,6|2|2,1:0|1:0|1:0,2:0:0:0:
125,150,192461,1,0,1:0:0:0:
125,150,192598,2,0,B|70:156|70:156|60:137|60:137|34:118|34:118|-6:128,1,142.49999619484,2|0,3:1|1:0,2:0:0:0:
166,31,192870,2,0,B|133:76|133:76|145:94|145:94|148:126|148:126|120:156,1,142.49999619484,2|0,3:1|1:0,2:0:0:0:
290,55,193143,2,0,B|235:61|235:61|225:42|225:42|199:23|199:23|159:33,1,142.49999619484,2|0,3:1|1:0,2:0:0:0:
284,150,193416,1,2,3:1:0:0:
284,150,193484,1,0,3:0:0:0:
284,150,193552,1,2,1:0:0:0:
359,109,193689,1,2,3:1:0:0:
359,195,193825,1,2,1:2:0:0:
465,98,193961,1,2,3:2:0:0:
465,98,194029,1,2,3:2:0:0:
465,98,194098,1,2,1:2:0:0:
512,201,194234,1,2,3:2:0:0:
512,201,194370,1,2,1:2:0:0:
512,201,194507,1,2,3:2:0:0:
512,201,194643,1,2,1:2:0:0:
512,201,194779,1,2,3:2:0:0:
512,201,194916,6,0,B|499:211|499:211|422:221,1,82.5000025177003,4|0,3:1|0:0,0:0:0:0:
343,297,195052,1,4,1:3:0:0:
343,297,195120,1,4,2:3:0:0:
343,297,195189,1,4,2:3:0:0:
346,172,195325,2,0,B|337:185|337:185|268:221,1,82.5000025177003,4|0,1:3|0:0,0:0:0:0:
252,339,195461,1,4,2:3:0:0:
252,339,195529,1,4,2:3:0:0:
252,339,195598,1,4,2:3:0:0:
343,297,195734,6,2,B|325:273|325:273|232:229|232:229|219:211|219:211|165:200|165:200|129:227,1,247.500007553101,4|4,3:3|2:3,1:2:0:0:
68,163,196007,6,0,B|47:168|47:168|38:179|38:179|42:191|42:191|22:345|22:345|41:378|41:378|108:389,2,284.999992389679,6|2|2,1:0|1:0|1:0,2:0:0:0:
407,379,196825,1,0,1:0:0:0:
407,379,196961,2,0,B|479:385|479:385|474:376|474:376|525:298,1,142.49999619484,2|0,3:1|1:0,2:0:0:0:
331,294,197234,2,0,B|400:312|400:312|392:319|392:319|414:410,1,142.49999619484,2|0,3:1|1:0,2:0:0:0:
231,347,197507,2,0,B|303:353|303:353|298:344|298:344|349:266,1,142.49999619484,2|0,3:1|1:0,2:0:0:0:
120,309,197779,1,2,3:1:0:0:
120,309,197848,1,0,3:0:0:0:
120,309,197916,1,2,1:0:0:0:
279,213,198052,2,0,B|249:193|249:193|203:194|203:194|195:270,1,142.49999619484,2|0,3:1|1:0,0:0:0:0:
418,308,198325,1,2,3:1:0:0:
443,166,198461,1,0,1:0:0:0:
418,308,198598,1,2,3:1:0:0:
370,208,198734,1,2,1:0:0:0:
418,308,198870,1,2,3:1:0:0:
498,230,199007,1,2,1:0:0:0:
418,308,199143,1,2,3:1:0:0:
370,208,199279,6,0,B|406:203|406:203|421:190|421:190|469:51,1,165.000005035401,4|0,1:3|3:0,2:0:0:0:
475,0,199484,1,0,3:0:0:0:
475,0,199552,1,4,1:3:0:0:
498,230,199689,2,0,B|465:213|465:213|456:195|456:195|457:49,1,165.000005035401,4|0,1:3|3:0,2:0:0:0:
475,0,199893,1,0,3:0:0:0:
475,0,199961,1,4,1:3:0:0:
457,87,200098,6,2,B|440:117|440:117|386:118|386:118|382:110|382:110|274:49|274:49|216:61,1,247.500007553101,4|0,1:0|2:0,3:0:0:0:
160,17,200370,5,0,1:0:0:0:
160,17,200439,1,0,3:0:0:0:
160,17,200507,2,0,B|123:43|123:43|126:98,1,71.2499980974198,0|0,3:0|3:0,0:0:0:0:
30,71,200643,1,0,1:0:0:0:
30,71,200711,1,0,3:0:0:0:
30,71,200779,2,0,B|45:125|45:125|81:145,1,71.2499980974198,0|0,3:0|3:0,0:0:0:0:
159,186,200916,1,0,1:0:0:0:
159,186,200984,1,0,3:0:0:0:
159,186,201052,1,0,3:0:0:0:
159,186,201120,1,0,3:0:0:0:
159,186,201189,2,0,B|205:174|205:174|262:217,3,71.2499980974198,0|0|0|0,1:0|3:0|3:0|3:0,0:0:0:0:
367,315,201461,6,0,B|381:327|381:327|381:365|381:365|358:349|359:349|356:344,7,89.9999972534181,4|4|4|4|4|4|4|4,3:0|3:0|3:0|3:0|3:0|3:0|3:0|3:0,2:0:0:0:
284,287,202007,1,0,1:0:0:0:
286,270,202075,1,0,3:0:0:0:
288,254,202143,1,0,3:0:0:0:
303,250,202211,1,0,3:0:0:0:
307,234,202279,1,0,1:0:0:0:
310,219,202348,1,0,3:0:0:0:
312,203,202416,1,0,3:0:0:0:
316,188,202484,1,0,3:0:0:0:
330,179,202552,1,0,1:0:0:0:
482,165,202689,6,0,L|511:158,28,18.75,0|0|0|0|0|0|0|0|0|0|0|0|0|0|0|0|0|0|0|0|0|0|0|0|0|0|0|0|0,1:0|1:0|1:0|1:0|1:0|1:0|1:0|1:0|1:0|1:0|1:0|1:0|1:0|1:0|1:0|1:0|1:0|1:0|1:0|1:0|1:0|1:0|1:0|1:0|1:0|1:0|1:0|1:0|1:0,1:0:0:0:
413,210,204734,5,4,1:0:0:0:
419,224,204802,1,0,3:0:0:0:
413,236,204870,2,0,B|378:244|378:244|297:209,1,97.4999955368044,0|0,3:0|3:0,0:0:0:0:
277,83,205007,1,0,1:0:0:0:
298,97,205075,1,0,3:0:0:0:
295,120,205143,2,0,B|251:156|251:156|185:161,1,97.4999955368044,0|0,3:0|3:0,0:0:0:0:
215,261,205279,1,0,1:0:0:0:
189,270,205348,1,0,3:0:0:0:
162,269,205416,2,0,B|137:262|137:262|102:234|102:234|99:169,1,97.4999955368044,0|0,3:0|3:0,0:0:0:0:
82,114,205552,1,0,1:0:0:0:
39,132,205620,1,0,3:0:0:0:
0,105,205689,2,0,B|7:56|7:56|16:45|16:45|61:32,1,97.4999955368044,0|0,3:0|3:0,0:0:0:0:
171,0,205825,1,0,1:0:0:0:
171,0,205893,1,0,3:0:0:0:
171,0,205961,1,0,3:0:0:0:
171,0,206029,1,0,3:0:0:0:
171,0,206098,2,0,B|200:13|200:13|218:42|218:42|204:101,3,97.4999955368044,0|0|0|0,1:0|3:0|3:0|3:0,0:0:0:0:
213,157,206370,1,4,3:0:0:0:
210,158,206438,1,4,3:0:0:0:
207,159,206507,1,4,3:0:0:0:
204,160,206575,1,4,3:0:0:0:
201,161,206643,1,4,3:0:0:0:
198,161,206711,1,4,3:0:0:0:
195,162,206779,1,4,3:0:0:0:
192,163,206847,1,4,3:0:0:0:
189,164,206916,2,0,B|141:178|141:178|114:244,3,97.4999955368044,0|0|0|0,1:0|3:0|3:0|3:0,0:0:0:0:
42,129,207189,1,0,1:0:0:0:
7,142,207257,1,0,3:0:0:0:
0,174,207325,2,0,B|-6:191|-6:191|1:244|1:244|40:275,1,97.4999955368044,0|0,3:0|3:0,0:0:0:0:
0,356,207461,1,0,1:0:0:0:
21,384,207529,1,0,3:0:0:0:
61,384,207598,2,0,B|80:376|80:376|142:369|142:369|173:401,1,97.4999955368044,0|0,3:0|3:0,0:0:0:0:
280,331,207734,1,0,1:0:0:0:
233,344,207802,1,0,3:0:0:0:
201,309,207870,2,0,B|202:288|202:288|220:253|220:253|257:244,1,97.4999955368044,0|0,3:0|3:0,0:0:0:0:
340,275,208007,1,4,3:0:0:0:
339,278,208076,1,4,3:0:0:0:
338,281,208144,1,4,3:0:0:0:
337,284,208212,1,4,3:0:0:0:
337,287,208280,1,4,3:0:0:0:
336,290,208348,1,4,3:0:0:0:
335,293,208416,1,4,3:0:0:0:
334,296,208485,1,4,3:0:0:0:
323,305,208552,1,4,3:0:0:0:
322,308,208621,1,4,3:0:0:0:
321,311,208689,1,4,3:0:0:0:
320,314,208757,1,4,3:0:0:0:
320,317,208825,1,4,3:0:0:0:
319,320,208893,1,4,3:0:0:0:
318,323,208961,1,4,3:0:0:0:
317,326,209030,1,4,3:0:0:0:
316,329,209098,2,0,B|325:356|325:356|407:387,3,97.4999955368044,0|0|0|0,1:0|3:0|3:0|3:0,0:0:0:0:
446,302,209370,1,0,1:0:0:0:
470,331,209439,1,0,3:0:0:0:
507,327,209507,2,0,B|528:318|528:318|525:301|525:301|508:226,1,97.4999955368044,0|0,3:0|3:0,0:0:0:0:
283,186,209643,1,0,1:0:0:0:
287,213,209711,1,0,3:0:0:0:
310,225,209779,2,0,B|356:224|356:224|387:208|387:208|397:176,1,97.4999955368044,0|0,3:0|3:0,0:0:0:0:
499,129,209916,1,0,1:0:0:0:
512,80,209984,1,0,3:0:0:0:
497,31,210052,2,0,B|485:2|485:2|470:-11|470:-11|396:-1,1,97.4999955368044,0|0,3:0|3:0,0:0:0:0:
376,64,210189,1,4,3:0:0:0:
375,67,210258,1,4,3:0:0:0:
374,70,210326,1,4,3:0:0:0:
373,73,210394,1,4,3:0:0:0:
373,76,210462,1,4,3:0:0:0:
372,79,210530,1,4,3:0:0:0:
371,82,210598,1,4,3:0:0:0:
370,85,210667,1,4,3:0:0:0:
377,97,210734,2,0,B|385:105|385:105|422:101|422:101|427:83,7,67.4999979400635,2|2|2|2|2|2|2|2,3:2|3:2|3:2|3:2|3:2|3:2|3:2|3:2,0:0:0:0:
341,14,211279,1,0,1:0:0:0:
321,8,211348,1,0,3:0:0:0:
302,17,211416,2,0,B|279:9|279:9|250:18|250:18|239:71,1,97.4999955368044,0|0,3:0|3:0,0:0:0:0:
253,183,211552,1,0,1:0:0:0:
278,152,211620,1,0,3:0:0:0:
316,160,211689,2,0,B|308:179|308:179|322:215|322:215|353:237,1,97.4999955368044,0|0,3:0|3:0,0:0:0:0:
300,315,211825,1,0,1:0:0:0:
280,340,211893,1,0,3:0:0:0:
248,342,211961,2,0,B|221:344|221:344|157:290,1,97.4999955368044,0|0,3:0|3:0,0:0:0:0:
116,217,212098,1,0,1:0:0:0:
126,206,212166,1,0,3:0:0:0:
141,202,212234,2,0,B|137:176|137:176|148:139|148:139|206:117,1,97.4999955368044,0|0,3:0|3:0,0:0:0:0:
148,49,212370,6,0,B|143:27|143:27|120:10|120:10|96:15|96:15|74:32,11,94.9999974632264,2|0|0|0|0|0|0|0|0|0|0|0,3:0|3:0|3:0|3:0|3:0|3:0|3:0|3:0|3:0|3:0|3:0|3:0,2:0:0:0:
13,81,213461,6,2,B|30:98|30:98|57:112|57:112|55:268,1,202.500000772476,4|0,1:2|2:0,2:1:0:0:
137,371,213666,2,2,B|93:362|93:362|69:266|69:266|88:182,1,202.500000772476,0|0,3:0|2:0,2:1:0:0:
91,126,213870,2,2,B|130:129|130:129|160:162|160:162|158:243,1,101.250000386238,8|0,1:0|2:0,2:1:0:0:
166,292,214007,2,2,B|213:118|213:118|240:97|240:97|302:106,1,202.500000772476,4|0,1:2|2:0,2:1:0:0:
181,9,214211,2,2,B|213:-2|213:-2|238:13|238:13|275:120|275:120|250:212,1,202.500000772476,0|0,3:0|2:0,2:1:0:0:
291,260,214416,2,2,B|242:267|242:267|228:248|228:248|244:204,1,101.250000386238,8|0,1:0|2:0,2:1:0:0:
368,23,214552,2,2,B|353:49|353:49|359:62|360:62|355:204|355:204|372:237,1,202.500000772476,4|0,1:2|2:0,2:1:0:0:
400,339,214757,2,2,B|384:346|384:346|357:327|357:327|401:153,1,202.500000772476,0|0,3:0|2:0,2:1:0:0:
441,70,214961,2,2,B|479:53|479:53|495:53|495:53|512:149,1,101.250000386238,8|0,1:0|2:0,2:1:0:0:
481,183,215098,5,0,1:0:0:0:
495,198,215166,1,0,3:0:0:0:
493,220,215234,1,0,3:0:0:0:
490,241,215302,1,0,3:0:0:0:
488,263,215370,1,0,1:0:0:0:
500,282,215439,1,0,3:0:0:0:
512,300,215507,1,0,3:0:0:0:
509,323,215575,1,0,3:0:0:0:
508,346,215643,6,2,B|492:353|492:353|465:334|465:334|441:151,1,202.500000772476,4|0,1:2|2:0,2:1:0:0:
441,70,215848,2,2,B|454:99|454:99|454:116|454:116|401:216|401:216|396:275,1,202.500000772476,0|0,3:0|2:0,2:1:0:0:
423,337,216052,2,2,B|372:343|372:343|350:338|350:338|341:312,1,101.250000386238,8|0,1:0|2:0,2:1:0:0:
316,75,216189,2,2,B|316:93|316:93|347:108|347:108|393:223|393:223|316:264,1,202.500000772476,4|0,1:2|2:0,2:1:0:0:
257,359,216393,2,2,B|240:338|240:338|269:271|269:271|268:256|268:256|285:159,1,202.500000772476,0|0,3:0|2:0,2:1:0:0:
284,79,216598,2,2,B|260:63|260:63|218:81|218:81|225:106,1,101.250000386238,8|0,1:0|2:0,2:1:0:0:
142,139,216734,5,0,1:0:0:0:
131,160,216803,1,0,3:0:0:0:
135,180,216871,1,0,3:0:0:0:
139,201,216939,1,0,3:0:0:0:
127,220,217007,1,0,1:0:0:0:
115,241,217075,1,0,3:0:0:0:
102,262,217143,1,0,3:0:0:0:
90,282,217212,1,0,3:0:0:0:
72,293,217279,6,0,B|52:301|52:301|28:329|28:329|25:346|25:346|26:372,1,101.250000386238,0|0,1:0|2:0,2:0:0:0:
241,285,217416,2,0,B|232:265|232:265|214:242|214:242|158:225,1,101.250000386238,0|0,1:0|2:0,2:0:0:0:
92,145,217552,2,0,B|84:151|84:151|51:147|51:147|0:173,1,101.250000386238,0|0,1:0|2:0,2:0:0:0:
236,102,217689,2,0,B|222:104|222:104|187:71|187:71|145:55,1,101.250000386238,0|0,1:0|2:0,2:0:0:0:
67,0,217825,6,2,B|62:17|62:17|82:39|82:39|235:20|235:20|262:-2,1,225.000008583069,4|0,1:2|2:0,2:1:0:0:
354,74,218029,2,2,B|365:43|365:43|340:12|340:12|207:30|207:30|202:77,1,225.000008583069,0|0,3:0|2:0,2:1:0:0:
125,60,218234,2,2,B|136:102|136:102|219:147,1,112.500004291535,8|0,1:0|2:0,2:1:0:0:
446,135,218370,2,2,B|435:90|435:90|422:81|422:81|317:84|317:84|308:79|308:79|257:113|257:113|253:181,1,225.000008583069,4|0,1:2|2:0,2:1:0:0:
123,140,218575,2,2,B|111:176|111:176|123:186|123:186|356:131,1,225.000008583069,0|0,3:0|2:0,2:1:0:0:
411,167,218779,2,2,B|424:158|424:158|425:120|425:120|408:110|408:110|286:119,1,112.500004291535,8|0,1:0|2:0,2:1:0:0:
158,214,218916,2,2,B|315:255|315:255|319:263|319:263|356:248|356:248|382:187,1,225.000008583069,4|0,1:2|2:0,2:1:0:0:
461,237,219120,2,2,B|439:208|439:208|286:230|286:230|242:288,1,225.000008583069,0|0,3:0|2:0,2:1:0:0:
93,260,219325,2,2,B|86:273|86:273|131:305|131:305|192:305,1,112.500004291535,8|0,1:0|2:0,2:1:0:0:
484,320,219461,2,2,B|472:328|472:328|404:308|404:308|396:298|396:298|363:293|363:293|328:333|328:333|275:338,1,225.000008583069,4|0,1:2|2:0,2:1:0:0:
50,341,219666,2,2,B|37:366|37:366|49:386|49:386|194:385|194:385|239:354,1,225.000008583069,0|0,3:0|2:0,2:1:0:0:
389,384,219870,2,2,B|413:356|413:356|419:305|419:305|382:286,1,112.500004291535,8|0,1:0|2:0,2:1:0:0:
305,292,220007,5,2,2:1:0:0:
64,215,220211,1,2,2:1:0:0:
200,0,220416,1,2,2:1:0:0:
312,68,220552,5,2,2:1:0:0:
347,184,220757,1,2,2:1:0:0:
229,210,220961,1,2,2:1:0:0:
189,115,221098,5,0,3:0:0:0:
192,111,221166,1,0,3:0:0:0:
196,113,221234,1,0,3:0:0:0:
201,116,221302,1,0,3:0:0:0:
202,111,221370,1,0,3:0:0:0:
204,107,221439,1,0,3:0:0:0:
208,109,221507,1,0,3:0:0:0:
212,112,221575,1,0,3:0:0:0:
214,107,221643,1,0,3:0:0:0:
217,102,221711,1,0,3:0:0:0:
220,105,221779,1,0,3:0:0:0:
224,108,221848,1,0,3:0:0:0:
226,103,221916,1,0,3:0:0:0:
229,98,221984,1,0,3:0:0:0:
232,101,222052,1,0,3:0:0:0:
236,104,222120,1,0,3:0:0:0:
256,192,223552,5,4,1:1:0:0:
339,62,227643,6,0,B|306:70|306:70|241:174|241:174|243:221|243:221|273:258,1,240,4|0,2:0|0:0,2:0:0:0:
129,103,228052,2,0,B|162:98|162:98|261:170|261:170|277:215|277:215|263:260,1,240,4|0,2:0|0:0,2:0:0:0:
288,353,228461,1,4,2:3:0:0:
288,353,228734,1,12,1:3:0:0:
266,250,228870,1,0,2:0:0:0:
102,305,229007,6,0,B|66:303|66:303|58:363,1,75,6|0,1:0|2:0,2:0:0:0:
62,343,229143,2,0,B|178:311|178:311|219:318|219:318|259:333,1,150,2|0,2:1|1:0,2:0:0:0:
431,249,229416,2,0,B|472:251|472:251|501:293,1,75,2|0,2:1|2:0,2:0:0:0:
495,287,229552,2,0,B|479:291|479:291|296:228,1,150,2|0,1:0|2:0,2:0:0:0:
151,108,229825,2,0,B|129:94|129:94|68:159,1,93.75,2|0,1:0|2:0,2:0:0:0:
0,174,229961,2,0,B|23:190|23:190|136:132|136:132|242:126,1,187.5,2|0,2:1|1:0,2:0:0:0:
344,2,230233,2,0,B|357:25|357:25|423:72,1,93.75,2|0,2:1|2:0,2:0:0:0:
512,110,230370,2,0,B|365:85|365:85|307:115,1,187.5,2|0,1:0|2:0,2:0:0:0:
356,368,230643,6,0,B|293:347|293:347|280:322,1,93.75,2|0,1:0|2:0,2:0:0:0:
139,324,230779,2,0,B|174:314|174:314|205:227,1,93.75,2|0,2:1|2:0,2:0:0:0:
282,234,230916,2,0,B|264:185|264:185|299:148,1,75,2|0,1:0|2:0,2:0:0:0:
241,159,231052,2,0,B|256:130|256:130|242:102,1,56.2500021457673,2|0,2:1|2:0,2:0:0:0:
281,34,231461,6,2,B|279:19|279:19|292:-5,3,37.5,2|2|2|2,2:0|2:0|2:0|2:0,2:0:0:0:
221,105,231734,2,2,B|217:90|217:90|197:72,3,37.5,0|0|0|0,2:0|2:0|2:0|2:0,2:0:0:0:
308,174,232007,2,2,B|311:159|311:159|331:141,3,37.5,0|0|0|0,2:0|2:0|2:0|2:0,2:0:0:0:
178,238,232279,2,0,B|156:218|156:218|130:214,3,56.2500021457673,4|4|4|4,3:0|3:0|3:0|3:0,0:0:0:0:
351,285,232552,2,0,B|375:269|375:269|402:264,3,56.2500021457673,4|4|4|4,3:0|3:0|3:0|3:0,0:0:0:0:
253,313,232825,1,0,3:0:0:0:
254,317,232893,1,0,3:0:0:0:
256,322,232961,1,0,3:0:0:0:
258,327,233029,1,0,3:0:0:0:
253,337,233097,1,0,3:0:0:0:
255,342,233165,1,0,3:0:0:0:
256,346,233233,1,0,3:0:0:0:
258,351,233301,1,0,3:0:0:0:
256,369,233370,1,4,1:0:0:0:
305,206,233734,5,0,3:0:0:0:
305,206,233825,1,0,3:0:0:0:
305,206,233916,1,0,3:0:0:0:
239,259,234097,1,4,3:2:0:0:
319,286,234279,1,4,3:2:0:0:
373,60,234461,1,4,3:2:0:0:
45,116,234643,1,4,3:2:0:0:
257,369,234825,1,4,3:2:0:0:
373,60,235007,1,4,3:2:0:0:
257,369,235279,2,0,B|277:256|277:256|263:216,1,150.000005722046,6|0,3:1|2:0,2:0:0:0:
178,207,235552,5,2,1:2:0:0:
142,159,235643,5,0,3:0:0:0:
109,107,235734,5,0,3:0:0:0:
76,52,235825,5,2,1:2:0:0:
136,46,235916,5,0,3:0:0:0:
197,42,236007,5,0,3:0:0:0:
255,35,236097,5,2,1:2:0:0:
316,29,236188,5,0,3:0:0:0:
375,24,236279,5,0,3:0:0:0:
436,17,236370,5,2,1:2:0:0:
413,74,236461,5,0,3:0:0:0:
388,128,236552,5,0,3:0:0:0:
366,184,236643,5,2,1:2:0:0:
342,241,236734,5,0,3:0:0:0:
320,297,236825,5,0,3:0:0:0:
299,354,236916,5,2,1:2:0:0:
278,295,237007,5,0,3:0:0:0:
257,239,237097,5,0,3:0:0:0:
234,183,237188,5,2,1:2:0:0:
213,126,237279,5,0,3:0:0:0:
194,68,237370,5,0,3:0:0:0:
173,12,237461,5,2,1:2:0:0:
224,29,237552,5,0,3:0:0:0:
276,45,237643,5,0,3:0:0:0:
328,62,237734,6,0,B|316:77|316:77|175:80,1,101.250000386238,2|0,3:1|3:0,0:0:0:0:
89,17,237870,5,8,1:0:0:0:
89,17,237938,1,0,1:0:0:0:
89,17,238007,2,0,B|62:30|62:30|-4:136,1,101.250000386238,2|0,3:2|3:0,0:0:0:0:
103,182,238143,5,10,1:2:0:0:
103,182,238211,1,0,1:0:0:0:
103,182,238279,2,0,B|112:244|112:244|163:291,1,101.250000386238,2|0,3:1|3:0,0:0:0:0:
137,382,238416,5,8,1:0:0:0:
137,382,238484,1,0,1:0:0:0:
137,382,238552,2,0,B|166:375|166:375|256:387,1,101.250000386238,2|0,3:2|3:0,0:0:0:0:
387,384,238688,5,10,1:2:0:0:
387,384,238757,1,0,1:0:0:0:
387,384,238825,2,0,B|444:354|444:354|477:308,1,101.250000386238,2|0,3:1|3:0,0:0:0:0:
349,252,238961,5,8,1:0:0:0:
349,252,239029,1,0,1:0:0:0:
349,252,239097,2,0,B|371:201|371:201|384:104,1,101.250000386238,2|0,3:2|3:0,0:0:0:0:
482,72,239234,5,10,1:2:0:0:
482,72,239302,1,0,1:0:0:0:
482,72,239370,2,0,B|447:6|447:6|397:-7,1,101.250000386238,2|0,3:1|3:0,0:0:0:0:
286,42,239507,5,8,1:0:0:0:
286,42,239575,1,0,1:0:0:0:
286,42,239643,2,0,B|240:32|240:32|170:45,1,101.250000386238,2|0,3:2|3:0,0:0:0:0:
57,0,239779,5,10,1:2:0:0:
57,0,239847,1,0,1:0:0:0:
57,0,239916,2,0,B|33:59|33:59|-13:117,1,101.250000386238,2|0,3:1|3:0,0:0:0:0:
110,161,240052,5,8,1:0:0:0:
110,161,240120,1,0,1:0:0:0:
110,161,240188,2,0,B|121:235|121:235|146:270,1,101.250000386238,2|0,3:2|3:0,0:0:0:0:
166,365,240325,5,10,1:2:0:0:
166,365,240393,1,0,1:0:0:0:
166,365,240461,2,0,B|213:388|213:388|292:361,1,101.250000386238,2|0,3:1|3:0,0:0:0:0:
317,282,240597,5,8,1:0:0:0:
317,282,240666,1,0,1:0:0:0:
317,282,240734,2,0,B|357:270|357:270|391:198,1,101.250000386238,2|0,3:2|3:0,0:0:0:0:
512,219,240870,5,10,1:2:0:0:
512,219,240938,1,0,1:0:0:0:
512,219,241007,2,0,B|501:146|501:146|467:124,1,101.250000386238,2|0,3:1|3:0,0:0:0:0:
435,39,241143,6,0,B|397:40|397:40|392:36|392:36|270:84|270:84|247:145,1,202.500000772476,8|0,1:0|3:2,0:0:0:0:
57,167,241347,6,0,B|67:202|67:202|72:203|72:203|166:285|166:285|169:282|169:282|222:276,1,202.500000772476,8|0,3:1|3:0,0:0:0:0:
389,325,241552,6,0,B|396:305|396:305|393:255|393:255|405:232|405:232|392:143|392:143|362:112,1,202.500000772476,10|0,3:1|3:0,0:0:0:0:
193,15,241757,6,0,B|199:28|199:28|196:37|196:37|180:80|180:80|180:86|180:86|158:163|158:163|199:202,1,202.500000772476,8|0,1:0|3:0,0:0:0:0:
133,384,241961,6,0,B|145:382|145:382|160:387|160:387|207:363|207:363|235:366|235:366,1,101.250000386238,10|0,1:2|0:2,0:0:0:0:
298,301,242097,5,4,1:2:0:0:
34,384,242234,1,4,1:2:0:0:
201,278,242370,1,4,1:2:0:0:
227,366,242643,5,4,1:2:0:0:
6,297,242779,1,4,1:2:0:0:
34,384,242916,1,4,1:2:0:0:
52,193,243052,1,4,1:2:0:0:
100,270,243325,5,4,1:2:0:0:
67,59,243461,1,4,1:2:0:0:
0,115,243597,1,4,1:2:0:0:
140,0,243734,1,4,1:2:0:0:
198,76,243870,1,4,1:2:0:0:
0,0,244007,1,4,1:2:0:0:
253,2,244143,1,4,1:2:0:0:
67,59,244279,1,4,1:2:0:0:
355,0,244552,5,4,1:2:0:0:
512,232,244825,5,4,1:2:0:0:
512,0,245234,5,4,1:2:0:0:
426,259,245370,1,4,1:2:0:0:
432,48,245643,5,4,1:2:0:0:
512,282,245779,1,4,1:2:0:0:
401,370,245916,1,4,1:2:0:0:
504,128,246052,1,4,1:2:0:0:
499,373,246325,5,4,1:2:0:0:
157,286,246461,1,4,1:2:0:0:
319,384,246734,5,4,1:2:0:0:
91,373,246870,1,4,1:2:0:0:
30,132,247007,1,4,1:2:0:0:
0,361,247143,1,4,1:2:0:0:
64,284,247416,5,4,1:2:0:0:
0,32,247552,1,4,1:2:0:0:
288,0,247688,1,4,1:2:0:0:
83,0,247961,5,4,1:2:0:0:
249,84,248097,1,4,1:2:0:0:
512,15,248234,1,4,1:2:0:0:
288,0,248370,1,4,1:2:0:0:
512,151,248507,1,4,1:2:0:0:
350,346,248643,1,4,1:2:0:0:
508,358,248779,1,4,1:2:0:0:
155,384,248916,1,4,1:2:0:0:
456,256,249052,1,4,1:2:0:0:
38,352,249188,1,4,1:2:0:0:
118,145,250007,6,0,B|134:146|134:146|167:225|167:225|178:236|178:236|159:255|159:255|119:241|119:241|106:243|106:243|97:219|97:219|107:220|107:220|183:141|183:141|181:136|181:136|222:90|222:90|217:84|217:84|257:99|257:99|264:95|264:95|320:95|320:95|310:105|310:105|331:149|331:149|340:154|340:154|359:221|359:221|360:211|360:211|321:274|321:274|315:268|315:268|286:302|286:302|255:293|255:293|248:274,1,854.999973907472,2|0,2:0|2:0,2:0:0:0:
256,192,251779,5,4,1:0:0:0:
256,192,251847,12,0,254234,2:0:0:0:
