osu file format v14

[General]
AudioFilename: audio.mp3
AudioLeadIn: 0
PreviewTime: 57881
Countdown: 0
SampleSet: Soft
StackLeniency: 0.4
Mode: 0
LetterboxInBreaks: 0
EpilepsyWarning: 1
WidescreenStoryboard: 1

[Editor]
Bookmarks: 3463,12190,20917,38372,47099,58018,66745,75472,107099,118008,126189,134916,152370,169825,178552,179098,187279,204734,213461,223552,229007,233370,237734,242097
DistanceSpacing: 1
BeatDivisor: 8
GridSize: 8
TimelineZoom: 8

[Metadata]
Title:ENDYMION (long edit)
TitleUnicode:ENDYMION (long edit)
Artist:fallen shepherd feat. RabbiTon Strings
ArtistUnicode:fallen shepherd feat. RabbiTon Strings
Creator:hehe
Version:AIONIOS IPNOS
Source:DanceDanceRevolution A
Tags:ARM アニマル・ストライク!Animal Strike! DDRA IOSYS COOL&CREATE zyukucho SDVX SOUND VOLTEX VIVID WAVE 木村洋平 Youhei Kimura instrumental japanese video game jezag akeruyri luscent english electronic heilia 三輪紫乃 松岡あずさ
BeatmapID:2585550
BeatmapSetID:1243733

[Difficulty]
HPDrainRate:4
CircleSize:4.6
OverallDifficulty:10
ApproachRate:10
SliderMultiplier:1.8
SliderTickRate:1

[Events]
//Background and Video events
0,0,"endymion.jpg",0,0
//Break Periods
2,12390,15463
2,58008,66240
//Storyboard Layer 0 (Background)
//Storyboard Layer 1 (Fail)
//Storyboard Layer 2 (Pass)
//Storyboard Layer 3 (Foreground)
//Storyboard Layer 4 (Overlay)
//Storyboard Sound Samples

[TimingPoints]
191,272.727272727273,4,2,1,40,1,0
1281,-71.4285714285714,4,2,1,40,0,0
2645,-71.4285714285714,4,2,1,50,0,0
3463,-62.5,4,2,1,70,0,0
5644,-62.5,4,2,1,50,0,0
7826,-62.5,4,2,1,70,0,0
10008,-62.5,4,2,1,50,0,0
12122,-100,4,2,1,50,0,0
16553,-62.5,4,2,1,60,0,0
20372,-100,4,2,1,60,0,0
21053,-100,4,2,1,50,0,0
24053,-100,4,2,2,60,0,0
25417,-100,4,2,1,40,0,0
27190,-100,4,2,1,60,0,0
27463,-100,4,2,2,60,0,0
29781,-100,4,2,1,40,0,0
32781,-100,4,2,2,60,0,0
34008,-100,4,2,2,55,0,0
35508,-100,4,2,2,50,0,0
37281,-100,4,2,1,50,0,0
38372,-100,4,2,1,70,0,0
41644,-100,4,2,1,60,0,0
42463,-166.666666666667,4,2,1,60,0,0
42736,-100,4,2,1,60,0,0
46009,-100,4,2,1,60,0,0
46827,-166.666666666667,4,2,1,60,0,0
47100,-50,4,2,1,70,0,0
49280,-50,4,2,1,75,0,0
51462,-41.6666666666667,4,2,1,80,0,0
53780,-100,4,2,1,80,0,0
55280,-166.666666666667,4,2,1,50,0,0
66745,272.727272727273,4,2,1,40,1,0
66745,-125,4,2,1,40,0,0
67835,-100,4,2,1,50,0,0
68381,-71.4285714285714,4,2,1,60,0,0
68926,-125,4,2,1,40,0,0
70017,-100,4,2,1,50,0,0
70563,-71.4285714285714,4,2,1,60,0,0
71108,-125,4,2,1,40,0,0
75472,-125,4,2,1,50,0,0
76563,-125,4,2,1,60,0,0
77654,-125,4,2,3,30,0,0
79835,-62.5,4,2,3,45,0,0
80107,-62.5,4,2,1,45,0,0
82017,-62.5,4,2,1,55,0,0
82290,-62.5,4,2,3,55,0,0
84916,306.122448979592,4,2,1,40,1,0
84916,-200,4,2,1,40,0,0
85528,335.195530726257,4,2,1,40,1,0
85528,-200,4,2,1,40,0,0
86868,444.444444444444,4,2,3,40,1,0
87312,454.545454545455,4,2,1,40,1,0
87539,342.857142857143,4,2,1,40,1,0
87710,281.69014084507,4,2,1,40,1,0
87850,275.229357798165,4,2,1,40,1,0
87987,260.869565217391,4,2,1,40,1,0
88117,230.769230769231,4,2,1,40,1,0
88232,292.682926829268,4,2,1,40,1,0
88305,279.06976744186,4,2,1,40,1,0
88444,272.727272727273,4,2,1,40,1,0
88716,300,4,2,1,40,1,0
89016,300,4,2,1,40,1,0
89316,315.789473684211,4,2,1,40,1,0
89421,292.682926829268,4,2,1,40,1,0
89518,400,4,2,1,40,1,0
89651,285.714285714286,4,2,1,40,1,0
89746,315.789473684211,4,2,1,40,1,0
89903,337.078651685393,4,2,3,40,1,0
90577,500,4,2,3,40,1,0
91077,461.538461538462,4,2,1,40,1,0
91307,300,4,2,1,40,1,0
91457,240,4,2,1,40,1,0
91577,272.727272727273,4,2,1,40,1,0
91713,218.181818181818,4,2,1,40,1,0
91822,300,4,2,1,40,1,0
91972,272.727272727273,4,2,3,40,1,0
91972,-125,4,2,3,40,0,0
92244,254.237288135593,4,2,3,40,1,0
92625,285.714285714286,4,2,1,40,1,0
93196,319.148936170213,4,2,3,40,1,0
93834,352.941176470588,4,2,1,40,1,0
94010,307.692307692308,4,2,1,40,1,0
95240,258.620689655172,4,2,1,40,1,0
95240,-166.666666666667,4,2,1,40,0,0
96015,292.682926829268,4,2,1,40,1,0
96307,357.142857142857,4,2,1,40,1,0
96664,461.538461538462,4,2,1,40,1,0
96894,250,4,2,1,40,1,0
97144,255.31914893617,4,2,1,40,1,0
97272,397.350993377483,4,2,1,40,1,0
97471,375,4,2,1,40,1,0
97564,458.015267175573,4,2,1,40,1,0
97679,250,4,2,1,40,1,0
97804,335.195530726257,4,2,1,40,1,0
97972,357.142857142857,4,2,1,40,1,0
98061,444.444444444444,4,2,1,40,1,0
98172,342.857142857143,4,2,1,40,1,0
98343,389.61038961039,4,2,1,40,1,0
98537,259.74025974026,4,2,1,40,1,0
99056,300,4,2,3,40,1,0
99806,285.714285714286,4,2,1,40,1,0
99996,265.486725663717,4,2,1,40,1,0
100792,291.686922702965,4,2,3,40,1,0
100792,-125,4,2,3,40,0,0
101959,297.029702970297,4,2,3,40,1,0
102256,232.558139534884,4,2,3,40,1,0
102488,218.181818181818,4,2,3,40,1,0
102706,319.148936170213,4,2,3,40,1,0
102865,361.44578313253,4,2,3,40,1,0
103045,392.156862745098,4,2,3,40,1,0
103242,276.497695852535,4,2,3,40,1,0
103518,285.714285714286,4,2,3,40,1,0
104375,-100,4,2,3,40,0,0
105599,272.727272727273,6,2,1,50,1,0
107099,272.727272727273,5,2,1,45,1,0
107917,-71.4285714285714,5,2,1,45,0,0
112553,-71.4285714285714,5,2,1,55,0,0
113371,-55.5555555555556,5,2,1,55,0,0
116644,-41.6666666666667,5,2,1,65,0,0
118008,-33.3333333333333,5,2,1,85,0,1
126189,272.727272727273,4,2,1,85,1,0
126189,-33.3333333333333,4,2,1,85,0,0
133825,-66.6666666666667,4,2,1,50,0,0
134643,-50,4,2,1,50,0,0
134916,-38.4615384615385,4,2,2,70,0,0
135461,-125,4,2,2,70,0,0
136825,-33.3333333333333,4,2,2,70,0,0
137098,-38.4615384615385,4,2,2,70,0,0
137643,-125,4,2,2,70,0,0
138461,-100,4,2,2,70,0,0
139279,-62.5,4,2,2,70,0,0
139893,-83.3333333333333,4,2,2,70,0,0
140507,-125,4,2,2,70,0,0
141189,-38.4615384615385,4,2,2,70,0,0
141734,-38.4615384615385,4,2,2,60,0,0
142552,-19.23,4,2,2,60,0,0
142586,-19.23,4,2,2,10,0,0
142689,-19.23,4,2,2,60,0,0
142723,-19.23,4,2,2,10,0,0
142825,-19.23,4,2,2,60,0,0
142859,-19.23,4,2,2,10,0,0
142961,-19.23,4,2,2,60,0,0
142995,-19.23,4,2,2,10,0,0
143098,-19.23,4,2,2,60,0,0
143132,-19.23,4,2,2,10,0,0
143234,-50,4,2,2,60,0,0
143643,-38.4615384615385,4,2,2,70,0,0
144189,-125,4,2,2,70,0,0
145416,-50,4,2,2,70,0,0
145825,-38.4615384615385,4,2,2,70,0,0
146370,-125,4,2,2,70,0,0
147325,-100,4,2,2,70,0,0
147598,-50,4,2,2,70,0,0
148007,-50,4,2,1,75,0,0
150189,-50,4,2,1,50,0,0
152370,-50,4,2,1,70,0,0
154416,-50,4,2,1,40,0,0
154552,-100,4,2,1,40,0,0
155506,-100,4,2,2,50,0,0
155643,-66.6666666666667,4,2,2,50,0,0
156734,-66.6666666666667,4,2,1,70,0,0
158779,-66.6666666666667,4,2,1,40,0,0
158916,-100,4,2,1,40,0,0
159461,-100,4,2,2,40,0,0
160007,-41.6666666666667,4,2,1,50,0,0
161098,-33.3333333333333,4,2,1,70,0,0
163279,-66.6666666666667,4,2,1,40,0,0
164234,-66.6666666666667,4,2,2,50,0,0
165461,-66.6666666666667,4,2,2,60,0,0
167643,-100,4,2,2,40,0,0
168189,-66.6666666666667,4,2,2,40,0,0
169825,-50,4,2,1,70,0,0
176370,-71.4285714285714,4,2,1,75,0,0
177461,-71.4285714285714,4,2,2,50,0,0
178825,-38.4615384615385,4,2,2,70,0,0
180189,-38.4615384615385,4,2,1,70,0,0
180734,-38.4615384615385,4,2,2,70,0,0
181825,-38.4615384615385,4,2,1,70,0,0
182916,-38.4615384615385,4,2,2,70,0,0
184552,-38.4615384615385,4,2,1,70,0,0
185098,-66.6666666666667,4,2,1,50,0,0
186189,-500,4,2,2,55,0,0
187279,-62.5,4,2,1,75,0,0
190552,-62.5,4,2,2,65,0,0
191643,-62.5,4,2,1,75,0,0
194916,-62.5,4,2,2,65,0,0
196007,-62.5,4,2,1,75,0,0
199279,-62.5,4,2,2,65,0,0
200370,-62.5,4,2,2,70,0,0
201461,-62.5,4,2,1,70,0,0
201495,-62.5,4,2,1,5,0,0
201529,-62.5,4,2,1,70,0,0
201564,-62.5,4,2,1,5,0,0
201598,-62.5,4,2,1,70,0,0
201632,-62.5,4,2,1,5,0,0
201666,-62.5,4,2,1,70,0,0
201700,-62.5,4,2,1,5,0,0
201734,-62.5,4,2,1,70,0,0
201768,-62.5,4,2,1,5,0,0
201802,-62.5,4,2,1,70,0,0
201836,-62.5,4,2,1,5,0,0
201870,-62.5,4,2,1,70,0,0
201904,-62.5,4,2,1,5,0,0
201938,-62.5,4,2,1,70,0,0
201973,-62.5,4,2,1,5,0,0
202007,-62.5,4,2,1,70,0,0
202689,-125,4,2,0,20,0,0
204734,-62.5,4,2,1,80,0,1
206370,-62.5,4,2,1,65,0,1
206404,-62.5,4,2,1,5,0,1
206439,-62.5,4,2,1,65,0,1
206473,-62.5,4,2,1,5,0,1
206507,-62.5,4,2,1,65,0,1
206541,-62.5,4,2,1,5,0,1
206575,-62.5,4,2,1,65,0,1
206609,-62.5,4,2,1,5,0,1
206643,-62.5,4,2,1,65,0,1
206677,-62.5,4,2,1,5,0,1
206711,-62.5,4,2,1,65,0,1
206745,-62.5,4,2,1,5,0,1
206779,-62.5,4,2,1,65,0,1
206813,-62.5,4,2,1,5,0,1
206848,-62.5,4,2,1,65,0,1
206882,-62.5,4,2,1,5,0,1
206916,-62.5,4,2,1,80,0,1
208007,-62.5,4,2,1,65,0,1
208041,-62.5,4,2,1,5,0,1
208075,-62.5,4,2,1,65,0,1
208109,-62.5,4,2,1,5,0,1
208143,-62.5,4,2,1,65,0,1
208177,-62.5,4,2,1,5,0,1
208211,-62.5,4,2,1,65,0,1
208245,-62.5,4,2,1,5,0,1
208279,-62.5,4,2,1,65,0,1
208313,-62.5,4,2,1,5,0,1
208348,-62.5,4,2,1,65,0,1
208382,-62.5,4,2,1,5,0,1
208416,-62.5,4,2,1,65,0,1
208450,-62.5,4,2,1,5,0,1
208484,-62.5,4,2,1,65,0,1
208518,-62.5,4,2,1,5,0,1
208552,-62.5,4,2,1,65,0,1
208586,-62.5,4,2,1,5,0,1
208620,-62.5,4,2,1,65,0,1
208654,-62.5,4,2,1,5,0,1
208689,-62.5,4,2,1,65,0,1
208723,-62.5,4,2,1,5,0,1
208757,-62.5,4,2,1,65,0,1
208791,-62.5,4,2,1,5,0,1
208825,-62.5,4,2,1,65,0,1
208859,-62.5,4,2,1,5,0,1
208893,-62.5,4,2,1,65,0,1
208927,-62.5,4,2,1,5,0,1
208961,-62.5,4,2,1,65,0,1
208995,-62.5,4,2,1,5,0,1
209029,-62.5,4,2,1,65,0,1
209063,-62.5,4,2,1,5,0,1
209098,-62.5,4,2,1,80,0,1
210189,-62.5,4,2,1,65,0,1
210223,-62.5,4,2,1,5,0,1
210257,-62.5,4,2,1,65,0,1
210291,-62.5,4,2,1,5,0,1
210325,-62.5,4,2,1,65,0,1
210359,-62.5,4,2,1,5,0,1
210393,-62.5,4,2,1,65,0,1
210427,-62.5,4,2,1,5,0,1
210461,-62.5,4,2,1,65,0,1
210495,-62.5,4,2,1,5,0,1
210529,-62.5,4,2,1,65,0,1
210563,-62.5,4,2,1,5,0,1
210598,-62.5,4,2,1,65,0,1
210632,-62.5,4,2,1,5,0,1
210666,-62.5,4,2,1,65,0,1
210700,-62.5,4,2,1,5,0,1
210734,-62.5,4,2,1,65,0,1
211279,-62.5,4,2,1,80,0,1
212370,-62.5,4,2,1,55,0,0
213461,-33.3333333333333,4,2,1,90,0,1
215098,-33.3333333333333,4,2,1,75,0,0
215643,-33.3333333333333,4,2,1,90,0,1
216734,-33.3333333333333,4,2,1,75,0,0
217825,-33.3333333333333,4,2,1,90,0,1
219461,-27.7777777777778,4,2,1,100,0,0
220007,-100,4,2,1,75,0,0
220552,-142.857142857143,4,2,1,50,0,0
221098,-142.857142857143,4,2,1,40,0,0
222189,272.727272727273,5,2,1,40,1,0
223552,-100,5,2,2,40,0,0
227643,-62.5,5,2,2,60,0,0
229007,272.727272727273,4,2,1,70,1,1
229007,-50,4,2,1,70,0,1
229825,-33.3333333333333,4,2,1,80,0,1
230916,-50,4,2,1,70,0,1
231188,-50,4,2,1,70,0,0
231461,-100,4,2,1,40,0,0
231734,-66.6666666666667,4,2,1,50,0,0
232007,-50,4,2,1,60,0,0
232279,-50,4,2,1,70,0,0
233734,-66.6666666666667,4,2,1,60,0,0
235552,-66.6666666666667,4,2,1,70,0,1
237734,-66.6666666666667,4,2,1,80,0,1
242097,-66.6666666666667,4,2,1,90,0,0
245643,-66.6666666666667,4,2,1,100,0,0
250007,-100,4,2,4,60,0,1
254234,-100,4,2,4,75,0,0

[Colours]
Combo1 : 255,0,0
Combo2 : 233,233,233

[HitObjects]
57,125,1281,6,0,B|54:98|54:98|110:7,1,126.335996154785,10|2,2:0|2:0,2:0:0:0:
133,110,1554,2,0,L|106:261,1,126.335996154785,2|2,2:0|2:0,2:0:0:0:
204,303,1827,2,0,B|219:244|219:244|177:153,1,126.335996154785,2|2,2:0|2:0,2:0:0:0:
5,326,2100,2,0,L|142:302,1,126.335996154785,2|2,2:0|2:0,2:0:0:0:
267,357,2372,2,0,B|228:382|228:382|115:372,1,126.335996154785,10|0,3:0|2:0,2:0:0:0:
148,374,2645,2,0,L|227:363,1,63.1679980773927,10|0,3:0|2:0,2:0:0:0:
267,322,2781,2,0,B|305:338|305:338|316:377,1,63.1679980773927,2|0,2:0|2:0,2:0:0:0:
370,311,2918,2,0,B|413:290|413:290|438:288,1,63.1679980773927,10|0,3:0|2:0,2:0:0:0:
317,235,3054,2,0,B|310:263|310:263|346:235,1,63.1679980773927,10|0,3:0|2:0,2:0:0:0:
350,113,3191,2,0,B|359:133|359:133|356:181,1,63.1679980773927,10|0,3:0|2:0,2:0:0:0:
298,63,3327,2,0,L|309:-5,1,63.1679980773927,10|0,3:0|2:0,2:0:0:0:
455,208,3463,6,0,B|407:191|407:191|302:226|302:226|240:222,1,216.576,4|0,1:0|2:0,2:0:0:0:
112,166,3735,2,0,B|215:130|215:130|193:200,1,144.384,8|0,1:0|2:0,2:0:0:0:
166,228,3940,1,0,2:0:0:0:
166,228,4008,2,0,L|216:305,1,72.1920000000001,0|0,1:0|2:0,2:0:0:0:
163,343,4144,1,0,3:0:0:0:
107,325,4213,1,0,3:0:0:0:
52,307,4281,1,0,3:0:0:0:
36,251,4349,1,0,3:0:0:0:
20,195,4417,1,8,1:0:0:0:
3,139,4485,1,0,3:0:0:0:
54,113,4553,1,4,3:2:0:0:
50,20,4690,1,0,3:0:0:0:
50,20,4758,1,0,3:0:0:0:
50,20,4826,1,8,1:0:0:0:
268,46,4963,1,0,3:0:0:0:
111,64,5099,1,0,3:0:0:0:
164,85,5167,1,0,3:0:0:0:
217,106,5235,1,0,3:0:0:0:
269,128,5303,1,0,3:0:0:0:
321,102,5372,1,0,3:0:0:0:
377,110,5440,1,0,3:0:0:0:
433,117,5508,1,8,1:0:0:0:
489,126,5576,1,0,3:0:0:0:
504,181,5644,5,4,1:2:0:0:
433,203,5917,1,0,1:0:0:0:
487,254,6190,1,0,1:0:0:0:
504,181,6463,1,0,3:0:0:0:
208,351,6599,1,0,1:0:0:0:
208,351,6667,1,0,1:0:0:0:
208,351,6735,1,4,1:2:0:0:
197,279,6872,1,0,3:0:0:0:
127,260,7008,1,0,1:0:0:0:
82,203,7144,1,0,3:0:0:0:
16,195,7281,1,0,1:0:0:0:
95,91,7417,1,0,1:0:0:0:
95,91,7485,1,0,1:0:0:0:
95,91,7553,1,0,1:0:0:0:
394,36,7690,1,0,1:0:0:0:
394,36,7758,1,0,1:0:0:0:
394,36,7826,1,4,1:0:0:0:
301,376,7963,5,0,1:0:0:0:
301,376,8031,1,0,1:0:0:0:
301,376,8099,1,8,1:0:0:0:
127,260,8235,1,0,3:0:0:0:
109,359,8372,1,0,1:0:0:0:
157,326,8440,1,0,3:0:0:0:
205,294,8508,1,0,3:0:0:0:
263,295,8576,1,0,3:0:0:0:
321,297,8644,1,0,3:0:0:0:
365,336,8713,1,0,3:0:0:0:
414,304,8781,1,8,1:0:0:0:
463,272,8849,1,0,3:0:0:0:
512,241,8917,1,4,1:2:0:0:
318,186,9053,1,0,3:0:0:0:
318,186,9122,1,0,3:0:0:0:
318,186,9190,1,8,1:0:0:0:
323,32,9326,1,0,1:0:0:0:
374,242,9463,1,0,1:0:0:0:
402,191,9531,1,0,3:0:0:0:
431,141,9599,1,0,3:0:0:0:
376,126,9667,1,0,3:0:0:0:
321,111,9735,1,0,3:0:0:0:
266,96,9803,1,0,3:0:0:0:
209,84,9872,1,8,1:0:0:0:
171,126,9940,1,0,3:0:0:0:
115,137,10008,5,0,1:0:0:0:
42,122,10281,1,0,1:0:0:0:
161,238,10553,1,0,1:0:0:0:
115,137,10826,1,0,1:0:0:0:
370,19,10963,1,0,1:0:0:0:
370,19,11031,1,0,1:0:0:0:
370,19,11099,1,0,1:0:0:0:
436,46,11235,1,0,3:0:0:0:
429,118,11372,1,0,1:0:0:0:
464,180,11508,1,0,3:0:0:0:
449,264,11644,1,0,1:0:0:0:
449,264,11713,1,0,3:0:0:0:
449,264,11781,1,0,3:0:0:0:
449,264,11849,1,0,3:0:0:0:
449,264,11917,1,0,1:0:0:0:
449,264,11985,1,0,3:0:0:0:
449,264,12053,1,0,3:0:0:0:
449,264,12122,2,0,L|443:316,1,45,0|0,3:0|0:0,0:0:0:0:
375,195,16553,5,8,1:0:0:0:
7,22,17099,1,8,1:0:0:0:
446,172,17644,1,8,1:0:0:0:
7,22,18190,1,8,1:0:0:0:
375,195,18735,1,8,1:0:0:0:
446,172,18872,1,0,3:0:0:0:
453,69,19008,1,8,1:0:0:0:
273,34,19144,1,0,1:0:0:0:
273,34,19213,1,0,1:0:0:0:
273,34,19281,1,8,1:0:0:0:
261,101,19417,1,0,3:0:0:0:
328,117,19553,1,8,1:0:0:0:
353,276,19690,1,0,1:0:0:0:
353,276,19758,1,0,1:0:0:0:
353,276,19826,1,12,1:0:0:0:
353,276,20372,6,2,B|384:293|384:293|221:336,2,180.15,2|0|0,2:1|2:0|3:0,2:1:0:0:
79,312,21053,5,2,2:1:0:0:
45,227,21190,1,0,3:0:0:0:
118,25,21463,1,2,3:1:0:0:
129,113,21599,1,0,2:0:0:0:
118,25,21735,1,2,3:1:0:0:
129,113,21872,1,0,2:0:0:0:
433,92,22144,1,2,2:1:0:0:
346,66,22281,1,0,3:0:0:0:
197,167,22553,1,2,3:1:0:0:
246,242,22690,1,0,2:0:0:0:
197,167,22826,1,2,3:1:0:0:
246,242,22963,1,0,2:0:0:0:
416,357,23235,1,2,2:1:0:0:
392,269,23372,1,0,3:0:0:0:
326,62,23644,1,2,3:1:0:0:
238,38,23781,1,0,2:0:0:0:
326,62,23917,1,2,3:1:0:0:
238,38,24053,5,2,2:3:0:0:
193,43,24122,1,2,2:3:0:0:
148,48,24190,2,0,L|164:107,1,45.12,2|0,3:0|2:0,2:0:0:0:
228,108,24326,2,0,L|280:132,1,45.12,2|0,2:3|2:0,2:0:0:0:
101,129,24463,2,0,L|54:145,1,45.12,2|0,3:0|2:0,2:0:0:0:
198,174,24599,2,0,L|119:183,1,45.12,2|0,2:3|2:0,2:0:0:0:
113,237,24735,2,0,L|146:280,1,45.12,2|0,3:0|2:0,2:0:0:0:
206,249,24872,2,0,L|276:255,1,45.12,2|0,2:3|2:0,2:0:0:0:
179,341,25008,2,0,B|150:348|150:348|59:329,2,90.2400000000001,0|0|0,1:0|1:0|1:0,2:0:0:0:
324,384,25417,5,2,2:1:0:0:
412,369,25553,1,0,3:0:0:0:
374,121,25826,1,2,3:1:0:0:
380,30,25963,1,0,2:0:0:0:
374,121,26099,1,2,3:1:0:0:
380,30,26235,1,0,2:0:0:0:
93,46,26508,1,2,2:1:0:0:
24,104,26644,1,0,3:0:0:0:
198,234,26917,1,2,3:1:0:0:
285,215,27053,1,0,2:0:0:0:
198,234,27190,6,0,L|190:288,3,45.12,0|0|0|0,3:0|2:0|2:0|2:0,2:0:0:0:
223,163,27463,2,0,B|214:84|214:84|230:59,2,90.2400000000001,4|4|4,3:0|2:3|3:0,2:0:0:0:
496,289,28008,2,0,L|442:301,1,45.12,2|0,3:0|2:0,2:0:0:0:
333,198,28144,2,0,L|273:202,1,45.12,2|0,2:3|2:0,2:0:0:0:
42,268,28281,2,0,L|87:291,3,45.12,0|0|0|0,3:0|2:0|2:0|2:0,2:0:0:0:
149,273,28554,2,0,B|151:268|151:268|268:232,2,90.2400000000001,4|4|4,3:0|2:3|3:0,2:0:0:0:
373,34,29099,2,0,L|370:87,1,45.12,2|0,3:0|2:0,2:0:0:0:
440,187,29235,1,0,3:0:0:0:
440,187,29303,1,0,3:0:0:0:
440,187,29372,2,0,B|430:132|430:132|440:89,2,90.2400000000001,0|0|0,1:0|1:0|1:0,2:0:0:0:
305,113,29781,5,2,2:1:0:0:
284,25,29917,1,0,3:0:0:0:
32,151,30190,1,2,3:1:0:0:
120,164,30326,1,0,2:0:0:0:
32,151,30463,1,2,3:1:0:0:
120,164,30599,1,0,2:0:0:0:
190,365,30872,1,2,2:1:0:0:
259,308,31008,1,0,3:0:0:0:
495,284,31281,1,2,3:1:0:0:
512,361,31417,1,0,2:0:0:0:
495,284,31553,1,2,3:1:0:0:
512,361,31690,1,0,2:0:0:0:
317,171,31963,1,2,2:1:0:0:
267,96,32099,1,0,3:0:0:0:
77,239,32372,1,2,3:1:0:0:
164,257,32508,1,0,2:0:0:0:
77,239,32644,1,2,3:1:0:0:
164,257,32781,5,2,2:3:0:0:
156,212,32849,1,2,2:3:0:0:
148,167,32917,2,0,L|91:144,1,45.12,2|0,3:0|2:0,2:0:0:0:
196,111,33053,2,0,L|218:62,1,45.12,2|0,2:3|2:0,2:0:0:0:
225,182,33190,2,0,L|276:131,1,45.12,2|0,3:0|2:0,2:0:0:0:
326,92,33326,2,0,L|252:86,1,45.12,2|0,3:0|2:0,2:0:0:0:
358,158,33463,2,0,L|419:176,1,45.12,2|0,3:0|2:0,2:0:0:0:
408,101,33600,2,0,L|382:42,1,45.12,2|0,3:3|3:0,2:0:0:0:
470,144,33735,2,0,B|486:185|486:185|474:247,1,90.2400000000001,0|0,3:0|3:0,2:0:0:0:
406,272,34008,5,4,3:2:0:0:
54,339,34190,5,4,3:2:0:0:
126,36,34372,5,4,3:2:0:0:
300,275,34553,5,4,3:2:0:0:
46,166,34735,5,4,3:2:0:0:
269,89,34917,5,4,3:2:0:0:
225,286,35099,5,4,3:2:0:0:
94,218,35303,5,4,3:2:0:0:
206,143,35508,5,0,1:0:0:0:
160,197,35644,1,0,3:0:0:0:
229,211,35781,1,0,1:0:0:0:
206,143,35917,1,0,3:0:0:0:
123,355,36053,1,0,1:0:0:0:
123,355,36122,1,0,1:0:0:0:
123,355,36190,1,0,3:0:0:0:
174,339,36258,1,0,3:0:0:0:
225,323,36326,1,0,3:0:0:0:
276,307,36394,1,0,3:0:0:0:
328,291,36463,1,8,3:1:0:0:
376,178,36599,1,0,1:0:0:0:
415,214,36667,1,0,3:0:0:0:
409,267,36735,1,0,3:0:0:0:
403,320,36803,1,0,3:0:0:0:
397,373,36872,1,8,3:1:0:0:
484,178,37008,1,0,1:0:0:0:
474,125,37076,1,0,3:0:0:0:
464,72,37144,1,0,3:0:0:0:
411,86,37213,1,0,3:0:0:0:
359,100,37281,1,8,3:0:0:0:
314,42,37553,1,8,3:0:0:0:
246,47,37826,5,8,3:0:0:0:
183,183,37963,1,8,3:0:0:0:
26,172,38099,1,8,3:0:0:0:
100,41,38235,1,8,3:0:0:0:
121,144,38372,5,6,1:0:0:0:
164,161,38440,1,0,3:0:0:0:
210,152,38508,1,0,3:0:0:0:
255,144,38576,1,0,3:0:0:0:
301,136,38644,1,0,3:0:0:0:
348,128,38713,1,0,3:0:0:0:
361,231,38781,1,4,1:0:0:0:
407,244,38849,1,0,3:0:0:0:
453,257,38917,1,0,3:0:0:0:
477,298,38985,1,0,3:0:0:0:
500,339,39053,1,0,3:0:0:0:
472,378,39122,1,0,3:0:0:0:
229,318,39463,1,4,1:2:0:0:
233,270,39531,1,0,3:0:0:0:
237,223,39599,1,0,3:0:0:0:
241,176,39667,1,0,3:0:0:0:
194,181,39735,1,0,3:0:0:0:
147,186,39803,1,0,3:0:0:0:
88,294,39872,1,4,1:0:0:0:
42,284,39940,2,0,L|-11:303,4,45.12,4|4|4|4|4,2:3|2:3|2:3|2:3|2:3,2:0:0:0:
469,346,40553,1,0,1:0:0:0:
441,288,40622,1,0,3:0:0:0:
460,228,40690,1,2,3:1:0:0:
479,168,40758,1,0,3:0:0:0:
116,59,41099,1,2,1:0:0:0:
126,120,41167,1,0,3:0:0:0:
136,181,41235,1,0,3:0:0:0:
146,242,41303,1,0,3:0:0:0:
371,95,41644,5,4,2:3:0:0:
373,83,41713,1,4,2:3:0:0:
375,72,41781,1,4,2:3:0:0:
377,61,41849,1,4,2:3:0:0:
379,50,41917,1,4,2:3:0:0:
381,39,41985,1,4,2:3:0:0:
383,28,42053,1,4,2:3:0:0:
385,17,42122,2,0,B|361:6|361:6|290:20,2,90,4|4|4,2:3|2:3|2:3,0:0:0:0:
269,96,42463,2,0,B|188:80,1,80.9999975280763,2|0,2:0|2:0,2:0:0:0:
181,99,42736,5,6,1:0:0:0:
145,129,42804,1,0,3:0:0:0:
108,161,42872,1,0,3:0:0:0:
120,206,42941,1,0,3:0:0:0:
132,251,43009,1,0,3:0:0:0:
144,296,43077,1,0,3:0:0:0:
266,347,43145,1,4,1:0:0:0:
304,317,43213,1,0,3:0:0:0:
352,324,43282,1,0,3:0:0:0:
398,331,43350,1,0,3:0:0:0:
446,338,43418,1,0,3:0:0:0:
492,346,43486,1,0,3:0:0:0:
248,264,43827,1,4,1:2:0:0:
239,217,43895,1,0,3:0:0:0:
230,170,43963,1,0,3:0:0:0:
275,154,44031,1,0,3:0:0:0:
319,139,44100,1,0,3:0:0:0:
353,170,44168,1,0,3:0:0:0:
487,146,44236,1,4,1:0:0:0:
496,101,44304,2,0,L|509:44,4,44.955,4|4|4|4|4,2:3|2:3|2:3|2:3|2:3,2:0:0:0:
32,53,44918,1,0,1:0:0:0:
93,39,44986,1,0,3:0:0:0:
154,25,45054,1,2,3:1:0:0:
163,87,45122,1,0,3:0:0:0:
379,366,45463,1,2,1:0:0:0:
316,357,45531,1,0,3:0:0:0:
253,348,45600,1,0,3:0:0:0:
190,341,45668,1,0,3:0:0:0:
6,152,46009,5,4,2:3:0:0:
8,163,46077,1,4,2:3:0:0:
10,174,46145,1,4,2:3:0:0:
13,185,46214,1,4,2:3:0:0:
15,196,46281,1,4,2:3:0:0:
18,207,46350,1,4,2:3:0:0:
20,217,46418,1,4,2:3:0:0:
22,229,46486,2,0,B|45:239|45:239|116:225,2,90,4|4|4,2:3|2:3|2:3,0:0:0:0:
133,157,46827,2,0,L|85:78,1,80.9999975280763,2|0,2:0|0:0,0:0:0:0:
75,85,47100,6,0,B|96:73|96:73|184:72|184:72|321:51,1,180.48,14|0,1:0|3:0,2:0:0:0:
390,8,47372,2,0,B|418:54|418:54|383:195,1,181.8,8|2,1:0|3:1,2:0:0:0:
251,61,47645,2,0,B|280:96|280:96|286:191|286:191|352:228,1,180.48,8|0,1:0|3:0,2:0:0:0:
441,230,47918,2,0,B|506:211|506:211|433:266|433:266|362:253,1,180.48,10|0,1:0|3:0,2:0:0:0:
360,311,48122,1,0,3:0:0:0:
360,311,48190,2,0,B|237:247|237:247|168:267,1,181.8,10|0,1:0|3:0,2:0:0:0:
3,175,48463,2,0,B|64:101|64:101|173:126,1,181.8,8|2,1:0|3:1,2:0:0:0:
195,259,48736,2,0,B|90:274|90:274|106:159,1,180.48,8|0,1:0|3:0,2:0:0:0:
290,199,49009,2,0,B|313:152|313:152|250:136|250:136|258:198,1,180.48,10|0,1:0|3:0,2:0:0:0:
185,186,49213,1,0,3:0:0:0:
185,186,49281,2,0,B|29:143|29:143|-32:147,1,181.8,8|2,1:0|3:1,2:0:0:0:
54,232,49486,1,0,3:0:0:0:
54,232,49554,2,0,B|67:243|67:243|147:384,1,180.48,8|0,1:0|3:0,2:0:0:0:
167,271,49759,1,0,3:0:0:0:
167,271,49827,2,0,B|176:238|176:238|165:173|165:173|176:77,1,180.48,10|0,1:0|3:0,2:0:0:0:
96,78,50031,1,0,3:0:0:0:
96,78,50100,2,0,B|76:50|76:50|172:59|172:59|233:42,1,180.48,10|0,1:0|3:0,2:0:0:0:
291,17,50304,1,0,3:0:0:0:
291,17,50372,2,0,B|297:22|297:22|387:31|387:31|484:76,1,180.48,10|0,1:0|3:0,2:0:0:0:
475,231,50577,1,0,3:0:0:0:
475,231,50645,2,0,B|427:208|427:208|345:81,1,180.48,8|0,1:0|3:0,2:0:0:0:
177,134,50850,1,0,3:0:0:0:
177,134,50918,2,0,B|229:135|229:135|318:178|318:178|349:231,1,180.48,10|0,1:0|3:0,2:0:0:0:
276,373,51122,1,0,3:0:0:0:
276,373,51190,2,0,B|255:361|255:361|255:289|255:289|204:183,1,181.8,10|0,1:0|3:0,2:0:0:0:
180,307,51395,1,0,3:0:0:0:
180,307,51463,2,0,B|66:376,1,109.871996704102,10|0,1:0|3:0,2:0:0:0:
28,324,51600,2,0,B|24:299|24:299|66:201,1,108.287996704102,8|0,1:0|3:0,2:0:0:0:
208,376,51736,2,0,B|196:305|196:305|203:269,1,108.287996704102,8|0,1:0|3:0,2:0:0:0:
114,177,51872,2,0,B|151:221|151:221|121:261,1,108.287996704102,10|0,1:0|3:0,2:0:0:0:
268,306,52009,2,0,B|323:288|323:288|331:238,1,108.287996704102,8|0,1:0|3:0,2:0:0:0:
224,201,52145,2,0,L|326:167,1,108.287996704102,8|0,1:0|3:0,2:0:0:0:
428,283,52281,2,0,B|431:336|431:336|388:290,1,109.871996704102,10|0,1:0|3:0,2:0:0:0:
428,283,52418,2,0,B|425:230|425:230|462:270,1,108.287996704102,10|0,1:0|3:0,2:0:0:0:
512,81,52554,2,0,B|484:110|484:110|467:211,1,108.287996704102,10|0,1:0|3:0,2:0:0:0:
402,198,52690,2,0,L|384:82,1,109.871996704102,8|0,1:0|3:0,2:0:0:0:
355,24,52827,2,0,B|409:11|409:11|450:61,1,108.287996704102,8|0,1:0|3:0,2:0:0:0:
326,167,52963,2,0,B|311:187|311:187|216:216,1,108.287996704102,10|0,1:0|3:0,2:0:0:0:
259,5,53100,2,0,L|318:103,1,108.287996704102,8|0,1:0|3:0,2:0:0:0:
246,131,53236,2,0,B|192:124|192:124|150:73,1,108.287996704102,8|0,1:0|3:0,2:0:0:0:
59,44,53372,2,0,B|125:22|125:22|84:54,1,108.287996704102,10|0,1:0|3:0,2:0:0:0:
59,44,53509,2,0,B|-7:66|-7:66|23:42,1,108.287996704102,10|0,1:0|3:0,2:0:0:0:
119,344,53781,5,2,2:0:0:0:
119,344,54190,2,0,B|136:204|136:204|174:170,2,180.15,2|2|2,2:0|2:0|2:0,2:0:0:0:
349,275,55281,2,0,L|312:45,1,216.179993408203,2|0,2:0|2:0,2:0:0:0:
103,129,66745,6,0,B|97:106|97:106|118:21,2,96.1680000000001,2|2|2,2:0|2:0|2:0,2:0:0:0:
37,159,67290,2,0,L|-19:205,1,49.008,2|0,2:0|2:0,2:0:0:0:
51,242,67472,2,0,L|37:302,1,49.008,2|0,2:0|2:0,2:0:0:0:
163,279,67654,2,0,L|101:291,1,48.48,2|0,2:0|2:0,2:0:0:0:
230,218,67835,2,0,L|138:207,1,61.2600000000001,2|0,2:0|2:0,2:0:0:0:
291,180,68017,2,0,B|320:221|320:221|320:271,1,61.2600000000001,2|0,2:0|2:0,2:0:0:0:
362,286,68199,2,0,B|377:293|377:293|456:277,1,61.2600000000001,2|0,2:0|2:0,2:0:0:0:
496,249,68381,2,0,B|487:313|487:313|459:342,1,85.7639974365236,2|0,2:0|2:0,2:0:0:0:
462,182,68563,2,0,L|474:80,1,84.8399974365236,2|0,2:0|2:0,2:0:0:0:
500,34,68745,2,0,B|477:14|477:14|395:-1,1,84.8399974365236,2|0,2:0|2:0,2:0:0:0:
288,75,68926,2,0,B|322:76|322:76|420:51,2,96.4320000000001,2|2|2,2:0|2:0|2:0,2:0:0:0:
290,144,69472,2,0,L|342:177,1,49.008,2|0,2:0|2:0,2:0:0:0:
397,139,69654,2,0,L|443:109,1,48.48,2|0,2:0|2:0,2:0:0:0:
462,182,69835,2,0,L|447:237,1,49.008,2|0,2:0|2:0,2:0:0:0:
481,288,70017,2,0,B|487:322|487:322|472:380,1,61.2600000000001,2|0,2:0|2:0,2:0:0:0:
355,368,70199,2,0,L|452:351,1,61.2600000000001,2|0,2:0|2:0,2:0:0:0:
300,320,70381,2,0,B|295:312|295:312|232:288,1,61.2600000000001,2|0,2:0|2:0,2:0:0:0:
196,341,70563,2,0,B|131:350|131:350|101:378,1,84.8399974365236,2|0,2:0|2:0,2:0:0:0:
49,375,70745,2,0,B|33:331|33:331|47:261,1,84.8399974365236,2|0,2:0|2:0,2:0:0:0:
73,157,70926,2,0,L|87:263,1,85.7639974365236,2|0,2:0|2:0,2:0:0:0:
24,104,71108,6,0,B|22:77|22:77|51:2,2,96.4320000000001,2|2|2,2:0|2:0|2:0,2:0:0:0:
175,22,71654,2,0,B|129:33|129:33|93:83,2,96.1680000000001,2|2|2,2:0|2:0|2:0,2:0:0:0:
251,141,72199,2,0,B|230:152|230:152|215:69,2,96.4320000000001,2|2|2,2:0|2:0|2:0,2:0:0:0:
323,108,72745,2,0,B|333:61|333:61|312:113,2,96.1680000000001,2|2|2,2:0|2:0|2:0,2:0:0:0:
494,41,73290,2,0,B|479:50|479:50|391:33,2,96.4320000000001,2|2|2,2:0|2:0|2:0,2:0:0:0:
270,108,73835,2,0,B|325:89|325:89|391:96,2,96.4320000000001,2|2|2,2:0|2:0|2:0,2:0:0:0:
206,62,74381,2,0,B|190:9|190:9|132:19,2,96.4320000000001,2|2|2,2:0|2:0|2:0,2:0:0:0:
50,41,74926,2,0,B|24:44|24:44|92:57,2,96.4320000000001,2|2|2,2:0|2:0|2:0,2:0:0:0:
0,113,75472,5,2,2:0:0:0:
20,181,75608,1,0,2:0:0:0:
90,191,75745,1,0,2:0:0:0:
20,181,75881,1,0,2:0:0:0:
144,143,76017,1,2,2:0:0:0:
175,78,76154,1,0,2:0:0:0:
246,91,76290,1,0,2:0:0:0:
175,78,76426,1,0,2:0:0:0:
271,159,76563,1,2,2:0:0:0:
313,259,76699,1,0,2:0:0:0:
420,269,76835,1,0,2:0:0:0:
313,259,76972,1,0,2:0:0:0:
464,214,77108,1,2,2:0:0:0:
422,113,77245,1,0,2:0:0:0:
491,31,77381,1,0,2:0:0:0:
422,113,77517,1,0,2:0:0:0:
490,144,77654,5,2,2:0:0:0:
505,125,77790,1,0,2:0:0:0:
494,104,77926,1,0,2:0:0:0:
505,125,78063,1,0,2:0:0:0:
423,95,78199,1,2,2:0:0:0:
408,114,78335,1,0,2:0:0:0:
419,135,78472,1,0,2:0:0:0:
408,114,78608,1,0,2:0:0:0:
388,195,78745,1,2,2:0:0:0:
303,163,78881,1,0,2:0:0:0:
232,217,79017,1,0,2:0:0:0:
303,163,79154,1,0,2:0:0:0:
396,264,79290,1,2,2:0:0:0:
324,319,79426,1,0,2:0:0:0:
240,287,79563,1,0,2:0:0:0:
324,319,79699,1,0,2:0:0:0:
263,44,79835,6,0,L|247:133,4,72.4560000000001,0|0|0|0|2,2:0|2:0|2:0|2:0|2:0,2:0:0:0:
26,277,80381,2,0,B|34:267|34:267|108:265,4,72.4560000000001,0|0|0|0|2,2:0|2:0|2:0|2:0|2:0,2:0:0:0:
374,350,80926,2,0,B|336:345|336:345|302:326,4,72.4560000000001,0|0|0|0|2,2:0|2:0|2:0|2:0|2:0,2:0:0:0:
483,173,81472,2,0,B|471:215|471:215|394:236,4,72.4560000000001,0|0|0|0|2,2:0|2:0|2:0|2:0|2:0,2:0:0:0:
106,104,82017,1,0,2:0:0:0:
106,104,82085,1,0,2:0:0:0:
106,104,82154,1,0,2:0:0:0:
106,104,82222,1,0,2:0:0:0:
106,104,82290,1,2,2:0:0:0:
64,187,82563,1,0,2:0:0:0:
64,187,82631,1,0,2:0:0:0:
64,187,82699,1,0,2:0:0:0:
64,187,82767,1,0,2:0:0:0:
64,187,82835,1,2,2:0:0:0:
243,162,83108,1,0,2:0:0:0:
243,162,83176,1,0,2:0:0:0:
243,162,83245,1,0,2:0:0:0:
243,162,83313,1,0,2:0:0:0:
243,162,83381,1,2,2:0:0:0:
198,338,83654,1,0,2:0:0:0:
198,338,83722,1,0,2:0:0:0:
198,338,83790,1,0,2:0:0:0:
198,338,83858,1,0,2:0:0:0:
198,338,83926,1,2,2:0:0:0:
194,112,84916,6,0,L|361:78,1,157.71,2|0,2:0|2:0,2:0:0:0:
410,60,85528,6,2,B|351:44|351:44|286:103|286:103|218:124|218:124|201:142|201:142|175:127,1,270.1575,0|0,2:0|2:0,2:1:0:0:
72,40,86868,1,2,2:0:0:0:
39,253,87312,2,0,L|164:232,1,90,2|2,2:0|2:0,2:0:0:0:
197,271,87710,2,0,B|182:309|182:309|123:338,1,90,2|2,2:0|2:0,2:0:0:0:
248,353,87987,2,0,B|265:359|265:359|356:343,1,90,2|2,2:0|2:0,2:0:0:0:
391,296,88232,2,0,L|452:311,1,45,2|2,2:0|2:0,2:0:0:0:
511,217,88444,2,0,L|432:244,2,60,2|2|2,2:0|2:0|2:0,2:0:0:0:
404,182,88716,1,2,2:0:0:0:
426,117,88816,1,2,2:0:0:0:
384,66,88916,1,2,2:0:0:0:
310,110,89016,1,2,2:0:0:0:
232,105,89116,1,2,2:0:0:0:
195,35,89216,1,2,2:0:0:0:
155,125,89316,1,2,2:0:0:0:
45,164,89421,1,2,2:0:0:0:
55,298,89518,1,2,2:0:0:0:
330,324,89651,1,2,0:0:0:0:
330,324,89746,1,2,0:0:0:0:
261,351,89903,2,0,L|511:365,1,240.234,2|0,2:0|2:0,2:0:0:0:
330,324,90577,2,2,B|208:337|208:337|238:306,1,150.24,2|0,2:1|2:1,2:1:0:0:
227,247,91077,1,2,2:0:0:0:
319,205,91307,2,0,L|389:278,1,90,2|2,2:0|2:0,2:0:0:0:
227,247,91577,2,0,B|225:214|225:214|268:142,1,90,2|2,2:0|2:0,2:0:0:0:
273,78,91822,1,2,2:0:0:0:
348,128,91972,2,0,B|318:115|318:115|283:-25,1,144,2|0,2:0|2:0,2:0:0:0:
16,178,92625,2,0,B|100:125|100:125|247:142|247:142|258:153|258:153|317:151|317:151|363:116,1,360,2|2,2:0|2:0,2:0:0:0:
464,205,93834,6,0,L|390:194,2,45,2|2|2,2:0|2:0|2:0,2:0:0:0:
354,187,95240,6,0,B|345:188|345:188|278:88|278:88|398:53|398:53|408:75,1,269.999991760254,2|0,2:0|2:0,2:0:0:0:
334,42,96015,1,0,0:0:0:0:
300,166,96307,2,0,B|268:164|268:164|102:211,1,180,2|2,2:0|2:0,2:0:0:0:
201,220,96894,1,2,2:0:0:0:
164,19,97144,2,0,B|236:2|236:2|268:6,1,90,2|2,2:0|2:0,2:0:0:0:
50,47,97471,2,0,L|108:54,1,45,2|2,2:0|2:0,2:0:0:0:
50,47,97679,2,0,B|73:66|73:66|117:136,1,90.3000000000001,2|2,2:0|2:0,2:0:0:0:
38,163,97972,2,0,L|29:214,1,45,2|2,2:0|2:0,2:0:0:0:
0,286,98172,2,0,B|8:296|8:296|98:275,1,90,2|2,2:0|2:0,2:0:0:0:
174,195,98537,2,0,B|202:214|202:214|257:356,1,180
255,351,99056,2,0,B|242:332|242:332|225:235|225:235|162:143|162:143|262:198|262:198|274:223,1,360,2|0,2:0|2:0,2:0:0:0:
452,208,99806,1,2,2:0:0:0:
452,208,99901,1,2,2:0:0:0:
452,208,99996,2,2,B|291:145|291:145|276:157|276:157|85:182|85:182|78:167|78:167|122:88,1,480,2|0,2:0|0:0,0:1:0:0:
142,0,100792,6,0,B|155:77|155:77|130:130|130:130|33:154|33:154|1:255|1:255|12:279|12:279|185:328,1,540,2|0,2:0|0:0,0:0:0:0:
238,375,101959,1,2,2:0:0:0:
371,293,102256,1,2,2:0:0:0:
405,190,102488,1,2,2:0:0:0:
375,114,102706,1,2,2:0:0:0:
307,74,102865,1,2,2:0:0:0:
238,89,103045,1,2,2:0:0:0:
203,151,103242,1,2,2:0:0:0:
203,151,103518,1,2,2:0:0:0:
203,151,104375,2,2,B|169:135|169:135|189:207|189:207|313:258|313:258|263:18|263:18|361:68|361:68|371:110|371:110|455:149,1,720,2|0,2:0|0:0,0:1:0:0:
441,143,105599,5,4,3:0:0:0:
256,192,105667,12,0,106962,2:0:0:0:
23,44,107099,5,4,1:0:0:0:
170,66,107235,1,2,2:0:0:0:
23,44,107371,1,0,2:0:0:0:
36,121,107508,1,2,2:0:0:0:
170,66,107644,1,2,2:0:0:0:
36,121,107780,1,0,2:0:0:0:
95,54,107917,2,0,B|122:40|122:40|247:45,1,126.335996154785,2|0,2:1|2:0,2:0:0:0:
95,54,108189,2,0,B|104:82|104:82|209:135,1,126.335996154785,2|0,2:1|2:0,2:0:0:0:
266,103,108462,2,0,B|269:136|269:136|297:176,1,63.1679980773927,2|0,3:0|2:0,2:0:0:0:
341,217,108599,1,2,2:0:0:0:
266,103,108735,1,0,2:0:0:0:
353,82,108871,2,0,B|366:112|366:112|362:160,1,63.1679980773927,2|0,3:0|2:0,2:0:0:0:
341,217,109008,1,2,2:0:0:0:
353,82,109144,1,0,2:0:0:0:
362,297,109280,2,0,B|420:225|420:225|422:163,1,126.335996154785,2|0,2:1|2:0,2:0:0:0:
362,297,109553,2,0,B|324:212|324:212|338:152,1,126.335996154785,2|0,2:1|2:0,2:0:0:0:
384,121,109826,1,4,1:0:0:0:
246,172,109962,1,2,2:0:0:0:
384,121,110099,1,0,2:0:0:0:
260,31,110235,1,2,2:0:0:0:
246,172,110371,1,2,2:0:0:0:
260,31,110508,1,0,2:0:0:0:
296,110,110644,2,0,B|286:156|286:156|293:259,1,126.335996154785,2|0,2:1|2:0,2:0:0:0:
296,110,110917,2,0,B|254:131|254:131|152:151,1,126.335996154785,2|0,2:1|2:0,2:0:0:0:
202,236,111189,2,0,B|165:259|165:259|136:262,1,63.1679980773927,2|0,3:0|2:0,2:0:0:0:
76,270,111326,1,2,2:0:0:0:
202,236,111462,1,0,2:0:0:0:
145,384,111599,2,0,B|135:341|135:341|116:318,1,63.1679980773927,2|0,3:0|2:0,2:0:0:0:
76,270,111735,1,2,2:0:0:0:
145,384,111871,1,0,2:0:0:0:
258,324,112008,5,2,1:0:0:0:
302,306,112076,1,0,3:0:0:0:
349,322,112144,1,0,3:0:0:0:
398,339,112212,1,0,3:0:0:0:
445,355,112280,1,10,1:0:0:0:
485,49,112553,5,4,1:0:0:0:
328,88,112689,1,2,2:0:0:0:
490,129,112826,1,0,2:0:0:0:
450,201,112962,1,2,2:0:0:0:
328,88,113099,1,2,2:0:0:0:
490,129,113235,1,0,2:0:0:0:
403,52,113371,2,0,B|279:48|279:48|221:85,1,162.431995056153,2|0,2:1|2:0,2:0:0:0:
374,160,113644,2,0,B|264:101|264:101|232:40,1,162.431995056153,2|0,2:1|2:0,2:0:0:0:
145,23,113917,2,0,L|142:131,1,81.2159975280764,2|0,3:0|2:0,2:0:0:0:
126,174,114053,1,2,2:0:0:0:
69,47,114189,1,0,2:0:0:0:
0,86,114326,2,0,L|78:160,1,81.2159975280764,2|0,3:0|2:0,2:0:0:0:
126,174,114462,1,2,2:0:0:0:
69,47,114599,1,0,2:0:0:0:
194,190,114735,5,2,1:0:0:0:
167,248,114803,1,0,3:0:0:0:
141,307,114871,1,0,3:0:0:0:
77,296,114939,1,0,3:0:0:0:
12,285,115008,1,10,1:0:0:0:
395,383,115280,5,4,1:0:0:0:
426,240,115417,1,2,2:0:0:0:
307,383,115553,1,0,2:0:0:0:
282,305,115689,1,2,2:0:0:0:
426,240,115826,1,2,2:0:0:0:
307,383,115962,1,0,2:0:0:0:
438,325,116099,2,0,B|420:293|420:293|467:176,1,162.431995056153,2|0,2:1|2:0,2:0:0:0:
332,247,116371,2,0,B|366:254|366:254|477:168,1,162.431995056153,2|0,2:1|2:0,2:0:0:0:
387,26,116644,6,0,B|236:45|236:45|344:93,1,216.575993408203,6|2,1:2|2:1,2:0:0:0:
259,231,116849,2,0,B|367:210|367:210|371:104,1,216.575993408203,0|0,1:0|2:0,2:0:0:0:
221,111,117053,2,0,B|84:158|84:158|17:222,1,216.575993408203,6|2,1:2|3:1,2:0:0:0:
45,366,117258,2,0,B|178:222|178:222|182:192,1,216.575993408203,0|0,1:0|2:0,2:0:0:0:
150,92,117462,1,0,1:0:0:0:
165,51,117530,1,0,3:0:0:0:
207,41,117599,1,2,3:1:0:0:
249,31,117667,1,0,3:0:0:0:
291,21,117735,1,2,1:0:0:0:
327,43,117803,1,0,3:0:0:0:
369,48,117871,1,2,3:1:0:0:
411,53,117939,1,0,3:0:0:0:
445,120,118008,6,0,B|411:140|411:140|340:239,1,135.360005149842,6|0,1:0|2:0,2:0:0:0:
445,120,118144,2,0,B|454:158|454:158|435:278,1,135.360005149842,2|0,3:1|2:0,2:0:0:0:
491,316,118280,1,0,1:0:0:0:
424,333,118349,1,0,3:0:0:0:
358,349,118417,1,0,3:0:0:0:
293,366,118485,1,0,3:0:0:0:
239,325,118553,2,0,B|147:332|147:332|81:378,1,135.360005149842,2|0,1:0|2:0,2:0:0:0:
210,175,118689,2,0,B|262:251|262:251|334:285,1,135.360005149842,0|0,3:0|2:0,2:0:0:0:
95,276,118826,1,2,1:0:0:0:
95,276,118894,1,0,3:0:0:0:
95,276,118962,2,0,B|134:192|134:192|128:112,1,135.360005149842,0|0,3:0|2:0,2:0:0:0:
44,134,119099,1,2,1:0:0:0:
82,79,119167,1,0,3:0:0:0:
121,25,119235,1,0,3:0:0:0:
186,36,119303,1,0,3:0:0:0:
252,48,119371,2,0,B|369:29|369:29|415:43,1,135.360005149842,6|0,1:0|2:0,2:0:0:0:
252,48,119508,2,0,B|356:106|356:106|404:108,1,135.360005149842,2|0,3:1|2:0,2:0:0:0:
264,175,119644,1,0,1:0:0:0:
323,203,119712,1,0,3:0:0:0:
385,178,119780,1,0,3:0:0:0:
448,154,119849,1,0,3:0:0:0:
511,129,119917,2,0,B|527:158|527:158|484:265,1,135.360005149842,2|0,1:0|2:0,2:0:0:0:
467,376,120053,2,0,B|451:347|451:347|494:240,1,135.360005149842,0|0,3:0|2:0,2:0:0:0:
407,248,120189,1,2,1:0:0:0:
339,238,120258,1,0,3:0:0:0:
272,228,120326,1,0,3:0:0:0:
205,219,120394,1,0,3:0:0:0:
235,158,120462,1,2,1:0:0:0:
265,98,120530,1,0,3:0:0:0:
200,75,120599,1,0,3:0:0:0:
136,52,120667,1,0,3:0:0:0:
72,30,120735,2,0,B|19:84|19:84|1:192,1,135.360005149842,6|0,1:0|2:0,2:0:0:0:
72,30,120871,2,0,B|97:101|97:101|67:206,1,135.360005149842,2|0,3:1|2:0,2:0:0:0:
33,225,121008,1,0,1:0:0:0:
80,272,121076,1,0,3:0:0:0:
127,319,121144,1,0,3:0:0:0:
174,367,121212,1,0,3:0:0:0:
237,344,121280,2,0,B|341:316|341:316|364:270,1,135.360005149842,2|0,1:0|2:0,2:0:0:0:
287,134,121417,2,0,B|259:238|259:238|287:280,1,135.360005149842,0|0,3:0|2:0,2:0:0:0:
443,282,121553,1,2,1:0:0:0:
443,282,121621,1,0,3:0:0:0:
443,282,121689,2,0,B|366:205|366:205|315:209,1,135.360005149842,0|0,3:0|2:0,2:0:0:0:
501,86,121826,1,2,1:0:0:0:
437,107,121894,1,0,3:0:0:0:
373,128,121962,1,0,3:0:0:0:
335,72,122030,1,0,3:0:0:0:
296,15,122099,2,0,B|231:30|231:30|141:6,1,135.360005149842,6|0,1:0|2:0,2:0:0:0:
296,15,122235,2,0,B|240:52|240:52|196:134,1,135.360005149842,2|0,3:1|2:0,2:0:0:0:
258,185,122371,1,0,1:0:0:0:
220,241,122439,1,0,3:0:0:0:
151,245,122508,1,0,3:0:0:0:
83,250,122576,1,0,3:0:0:0:
15,255,122644,2,0,B|-16:189|-16:189|48:148,1,135.360005149842,2|0,1:0|2:0,2:0:0:0:
57,56,122780,2,0,B|88:122|88:122|24:163,1,135.360005149842,0|0,3:0|2:0,2:0:0:0:
112,223,122917,1,2,1:0:0:0:
171,253,122985,1,0,3:0:0:0:
230,283,123053,1,0,3:0:0:0:
275,233,123121,1,0,3:0:0:0:
320,183,123189,1,2,1:0:0:0:
366,132,123258,1,0,3:0:0:0:
411,82,123326,1,0,3:0:0:0:
422,148,123394,1,0,3:0:0:0:
434,214,123462,2,0,B|483:307|483:307|514:320,1,135.360005149842,6|0,1:0|2:0,2:0:0:0:
434,214,123599,2,0,B|402:315|402:315|375:333,1,135.360005149842,2|0,3:1|2:0,2:0:0:0:
303,366,123735,1,0,1:0:0:0:
276,303,123803,1,0,3:0:0:0:
250,240,123871,1,0,3:0:0:0:
223,177,123939,1,0,3:0:0:0:
253,116,124008,2,0,B|257:82|257:82|436:31,1,135.360005149842,2|0,1:0|2:0,2:0:0:0:
424,201,124144,2,0,B|392:214|392:214|258:85,1,135.360005149842,0|0,3:0|2:0,2:0:0:0:
413,11,124280,1,2,1:0:0:0:
413,11,124349,1,0,3:0:0:0:
413,11,124417,2,0,B|440:31|440:31|395:211,1,135.360005149842,0|0,3:0|2:0,2:0:0:0:
219,33,124553,1,2,1:0:0:0:
152,25,124621,1,0,3:0:0:0:
85,17,124689,1,0,3:0:0:0:
98,82,124758,1,0,3:0:0:0:
111,149,124826,2,0,L|-51:201,1,135.360005149842,6|0,1:0|2:0,2:0:0:0:
111,149,124962,2,0,L|-12:254,1,135.360005149842,2|0,3:1|2:0,2:0:0:0:
23,358,125099,1,0,1:0:0:0:
55,299,125167,1,0,3:0:0:0:
121,286,125235,1,0,3:0:0:0:
187,274,125303,1,0,3:0:0:0:
253,262,125371,2,0,B|280:288|280:288|252:178,1,135.360005149842,2|0,1:0|2:0,2:0:0:0:
259,125,125508,2,0,B|232:99|232:99|260:209,1,135.360005149842,0|0,3:0|2:0,2:0:0:0:
223,343,125644,1,2,1:0:0:0:
289,354,125712,1,0,3:0:0:0:
355,365,125780,1,0,3:0:0:0:
422,376,125849,1,0,3:0:0:0:
465,324,125917,1,2,1:0:0:0:
509,273,125985,1,0,3:0:0:0:
467,219,126053,1,0,3:0:0:0:
425,166,126121,1,0,3:0:0:0:
383,112,126189,6,0,B|443:30|443:30|504:19,1,135.360005149842,6|0,1:0|2:0,2:0:0:0:
383,112,126325,2,0,B|484:115|484:115|530:73,1,135.360005149842,0|0,3:0|2:0,2:0:0:0:
340,39,126461,2,0,L|176:65,1,135.360005149842,2|0,1:0|2:0,2:0:0:0:
340,39,126598,2,0,L|191:18,1,135.360005149842,0|0,3:0|2:0,2:0:0:0:
258,125,126734,2,0,B|235:179|235:179|245:264,1,135.360005149842,2|0,1:0|2:0,2:0:0:0:
258,125,126870,2,0,B|222:171|222:171|144:205,1,135.360005149842,0|0,3:0|2:0,2:0:0:0:
76,28,127007,2,0,B|133:66|133:66|131:161,1,135.360005149842,2|0,1:0|2:0,2:0:0:0:
76,28,127143,2,0,B|34:82|34:82|67:171,1,135.360005149842,0|0,3:0|2:0,2:0:0:0:
0,277,127279,2,0,B|-2:305|-2:305|113:350,1,135.360005149842,2|0,1:0|2:0,2:0:0:0:
0,277,127416,2,0,B|11:251|11:251|134:265,1,135.360005149842,0|0,3:0|2:0,2:0:0:0:
237,382,127552,2,0,L|211:216,1,135.360005149842,2|0,1:0|2:0,2:0:0:0:
237,382,127689,2,0,L|247:229,1,135.360005149842,0|0,3:0|2:0,2:0:0:0:
315,192,127825,2,0,B|418:183|418:183|470:139,1,135.360005149842,2|0,1:0|2:0,2:0:0:0:
315,192,127961,2,0,B|412:227|412:227|451:283,1,135.360005149842,0|0,3:0|2:0,2:0:0:0:
458,332,128098,2,0,B|527:345|527:345|456:367,1,135.360005149842,2|0,1:0|2:0,2:0:0:0:
458,332,128234,2,0,B|387:326|387:326|450:366,1,135.360005149842,0|0,3:0|2:0,2:0:0:0:
508,267,128370,2,0,B|501:243|501:243|515:124,1,135.360005149842,2|0,1:0|2:0,2:0:0:0:
481,56,128507,2,0,B|488:80|488:80|474:199,1,135.360005149842,0|0,3:0|2:0,2:0:0:0:
412,265,128643,2,0,L|404:123,1,135.360005149842,2|0,1:0|2:0,2:0:0:0:
399,27,128779,2,0,L|379:205,1,135.360005149842,0|0,3:0|2:0,2:0:0:0:
324,291,128916,2,0,B|327:226|327:226|295:108,1,135.360005149842,2|0,1:0|2:0,2:0:0:0:
276,24,129052,2,0,B|273:89|273:89|305:207,1,135.360005149842,0|0,3:0|2:0,2:0:0:0:
197,334,129189,2,0,B|218:314|218:314|242:193,1,135.360005149842,2|0,1:0|2:0,2:0:0:0:
166,19,129325,2,0,B|186:122|186:122|207:142,1,135.360005149842,0|0,3:0|2:0,2:0:0:0:
1,146,129461,2,0,B|28:145|28:145|138:176,1,135.360005149842,2|0,1:0|2:0,2:0:0:0:
130,250,129598,2,0,B|26:279|26:279|0:278,1,135.360005149842,0|0,3:0|2:0,2:0:0:0:
108,77,129734,2,0,B|190:130|190:130|256:109,1,135.360005149842,2|0,1:0|2:0,2:0:0:0:
241,302,129870,2,0,B|205:290|205:290|123:343,1,135.360005149842,0|0,3:0|2:0,2:0:0:0:
252,4,130007,2,0,L|321:136,1,135.360005149842,2|0,1:0|2:0,2:0:0:0:
345,261,130143,2,0,L|282:380,1,135.360005149842,0|0,3:0|2:0,2:0:0:0:
357,33,130279,2,0,B|424:22|424:22|404:122,1,135.360005149842,2|0,1:0|2:0,2:0:0:0:
442,295,130416,2,0,B|455:360|455:360|388:349,1,135.360005149842,0|0,3:0|2:0,2:0:0:0:
490,167,130552,5,6,1:0:0:0:
437,178,130620,1,0,3:0:0:0:
383,189,130689,1,2,1:0:0:0:
330,200,130757,1,0,3:0:0:0:
277,212,130825,1,2,1:0:0:0:
254,261,130893,1,0,3:0:0:0:
200,259,130961,1,2,1:0:0:0:
146,257,131029,1,0,3:0:0:0:
91,256,131098,1,2,1:0:0:0:
37,256,131166,1,0,3:0:0:0:
79,222,131234,1,2,1:0:0:0:
121,188,131302,1,0,3:0:0:0:
163,154,131370,1,2,1:0:0:0:
206,120,131439,1,0,3:0:0:0:
248,87,131507,1,2,1:0:0:0:
274,133,131575,1,0,3:0:0:0:
300,179,131643,1,2,1:0:0:0:
326,225,131711,1,0,3:0:0:0:
353,271,131779,1,2,1:0:0:0:
380,318,131848,1,0,3:0:0:0:
329,337,131916,1,2,1:0:0:0:
278,356,131984,1,0,3:0:0:0:
228,377,132052,1,2,1:0:0:0:
261,335,132120,1,0,3:0:0:0:
295,292,132189,1,2,1:0:0:0:
329,250,132257,1,0,3:0:0:0:
363,208,132325,1,2,1:0:0:0:
412,228,132393,1,0,3:0:0:0:
425,175,132461,1,2,1:0:0:0:
439,123,132529,1,0,3:0:0:0:
453,70,132598,1,2,1:0:0:0:
469,18,132666,1,0,3:0:0:0:
359,135,133825,6,2,B|342:81|342:81|350:21,5,67.6800025749209,10|2|2|2|2|2,1:0|2:0|2:0|2:0|2:0|2:0,2:0:0:0:
424,231,134234,2,2,B|427:226|427:226|421:118,3,67.6800025749209,10|2|2|2,1:0|2:0|2:0|2:0,2:0:0:0:
366,271,134507,1,0,3:0:0:0:
366,271,134575,1,0,3:0:0:0:
366,271,134643,2,0,L|158:293,1,180.48,8|0,1:0|2:0,2:0:0:0:
366,271,134916,6,0,B|167:218|167:218|71:261,1,234.623989288331,4|0,1:0|3:0,2:0:0:0:
25,244,135120,1,0,3:0:0:0:
25,244,135189,2,0,L|186:223,1,117.311994644165,8|0,1:0|2:0,2:0:0:0:
263,284,135325,1,0,3:0:0:0:
263,284,135393,1,0,3:0:0:0:
263,284,135461,2,0,L|307:325,1,36.096,2|0,1:0|2:0,2:0:0:0:
443,296,135598,1,0,3:0:0:0:
443,296,135666,1,0,3:0:0:0:
443,296,135734,2,0,L|487:337,1,36.096,10|0,1:0|2:0,2:0:0:0:
377,44,135870,2,0,L|421:85,1,36.096,2|0,3:1|2:0,2:0:0:0:
388,157,136007,1,0,1:0:0:0:
388,157,136075,1,0,3:0:0:0:
388,157,136143,2,0,L|432:198,1,36.096,2|0,3:1|3:0,2:0:0:0:
232,184,136279,1,8,1:0:0:0:
232,184,136348,1,0,3:0:0:0:
232,184,136416,2,0,L|276:225,1,36.096,2|0,3:1|3:0,2:0:0:0:
251,53,136552,2,0,L|295:94,1,36.096,2|0,1:0|2:0,2:0:0:0:
42,59,136689,5,0,3:0:0:0:
42,59,136757,1,0,3:0:0:0:
42,59,136825,2,2,B|26:80|26:80|27:88|27:88|12:89|12:89|2:102|2:102|0:126|0:126|14:151|14:151|33:166|33:166|54:171|54:171|73:158|73:158|81:144|81:144|80:128|80:128|101:129|101:129|127:141|127:141|141:160|141:160|137:168|137:168|167:180|167:180|190:180|190:180|192:184|192:184|216:179|216:179|221:185|221:185|244:182|244:182|295:166,1,405.000015449525,8|0,1:3|2:0,2:3:0:0:
243,285,137098,6,0,B|232:262|232:262|247:145|247:145|183:39,1,234.623989288331,4|0,1:0|3:0,2:0:0:0:
132,65,137302,1,0,3:0:0:0:
132,65,137370,2,0,B|218:45|218:45|185:87,1,117.311994644165,8|0,1:0|2:0,2:0:0:0:
435,66,137507,1,0,3:0:0:0:
435,66,137575,1,0,3:0:0:0:
435,66,137643,2,0,L|476:22,1,36.096,2|0,1:0|2:0,2:0:0:0:
275,121,137779,1,0,3:0:0:0:
275,121,137848,1,0,3:0:0:0:
275,121,137916,2,0,L|316:77,1,36.096,10|0,1:0|2:0,2:0:0:0:
387,254,138052,2,0,L|428:210,1,36.096,2|0,3:1|2:0,2:0:0:0:
288,251,138189,1,0,1:0:0:0:
288,251,138257,1,0,3:0:0:0:
288,251,138325,2,0,L|329:207,1,36.624,2|0,3:1|3:0,2:0:0:0:
102,384,138461,6,0,B|111:340|111:340|142:289,1,90.2400000000001,8|0,1:0|3:0,2:0:0:0:
214,289,138666,1,0,3:0:0:0:
214,289,138734,2,0,L|105:268,1,90.2400000000001,0|0,1:0|3:0,2:0:0:0:
38,329,138939,1,0,3:0:0:0:
38,329,139007,2,2,B|66:230|66:230|48:181,1,135,8|0,1:0|2:0,2:1:0:0:
24,132,139279,6,0,B|27:103|27:103|88:38|88:38|113:32,1,144,4|0,1:0|3:0,2:0:0:0:
255,335,139484,2,0,B|228:347|228:347|142:327|142:327|124:308,1,144,4|0,3:0|2:0,0:0:0:0:
316,34,139689,2,0,B|340:51|340:51|365:136|365:136|358:161,1,144,4|0,3:0|1:0,0:0:0:0:
98,134,139893,2,0,B|126:102|126:102|213:81,1,107.999996704102,4|0,2:3|3:0,0:0:0:0:
277,97,140098,2,0,B|291:137|291:137|265:223,1,107.999996704102,12|0,1:3|3:0,2:0:0:0:
219,270,140302,2,0,B|177:262|177:262|116:197,1,107.999996704102,4|0,2:3|3:0,0:0:0:0:
197,167,140507,2,0,B|179:137|179:137|190:84,1,72,4|8,3:0|1:0,2:0:0:0:
197,167,140711,2,0,B|232:166|232:166|272:202,1,72,4|0,3:3|2:0,0:0:0:0:
197,167,140916,2,0,B|180:198|180:198|129:215,1,72,4|0,1:3|3:0,2:0:0:0:
68,246,141120,1,0,3:0:0:0:
68,246,141189,6,2,B|325:254,1,233.999989288331,8|0,1:0|3:0,2:1:0:0:
301,253,141393,1,0,3:0:0:0:
301,253,141461,1,0,1:0:0:0:
79,24,141734,6,0,B|73:42|73:42|102:160,1,117.311994644165,2|0,3:2|2:0,2:0:0:0:
159,69,141870,2,0,B|166:84|166:84|166:141|166:141|212:188,1,117.311994644165,2|0,1:2|1:0,2:0:0:0:
260,24,142007,2,0,B|233:90|233:90|286:147,1,117.311994644165,2|0,1:2|2:0,2:0:0:0:
327,84,142143,2,0,B|338:114|338:114|317:180|317:180|332:208,1,117.311994644165,2|0,3:2|2:0,2:0:0:0:
422,16,142279,2,0,B|403:65|403:65|414:171,1,117.311994644165,2|0,2:0|2:0,2:0:0:0:
433,360,142416,1,0,1:0:0:0:
433,360,142484,1,0,1:0:0:0:
433,360,142552,2,0,B|439:342|439:342|410:224,1,117.312007124664,2|0,2:3|2:0,2:0:0:0:
353,315,142689,2,0,B|346:300|346:300|346:243|346:243|300:196,1,113.879869839173,2|0,2:3|2:0,2:0:0:0:
252,360,142825,2,0,B|279:294|279:294|226:237,1,117.312007124664,2|0,2:3|2:0,2:0:0:0:
185,300,142961,2,0,B|174:270|174:270|195:204|195:204|180:176,1,117.312007124664,2|0,2:3|2:0,2:0:0:0:
90,368,143098,2,0,B|109:319|109:319|98:213,1,113.879869839173,2|0,2:3|2:0,2:0:0:0:
169,82,143234,6,0,B|227:72|227:72|326:79|326:79|365:63,2,180.48,4|12|4,3:0|1:3|2:3,2:0:0:0:
411,20,143643,6,0,B|480:52|480:52|436:156|436:156|465:223,1,234.623989288331,4|0,1:0|3:0,2:0:0:0:
463,275,143848,1,0,3:0:0:0:
463,275,143916,2,0,B|502:235|502:235|441:188,1,117.311994644165,8|0,1:0|2:0,2:0:0:0:
366,289,144189,2,0,L|369:329,1,36.096,2|0,2:1|3:0,2:0:0:0:
183,314,144461,2,0,L|178:351,1,36.096,10|0,1:0|2:0,2:0:0:0:
296,207,144598,2,0,L|301:251,1,36.096,2|0,2:1|2:0,2:0:0:0:
94,158,144870,2,0,L|88:209,1,36.096,2|0,2:1|3:0,2:0:0:0:
345,112,145143,2,0,L|351:154,1,36.096,2|0,2:1|2:0,2:0:0:0:
176,60,145279,2,0,L|170:103,1,36.096,2|0,2:1|3:0,2:0:0:0:
253,11,145416,6,0,B|259:86|259:86|246:126|246:126|249:173|249:173|229:183,2,180.48,4|12|4,2:3|1:3|2:3,2:0:0:0:
247,274,145825,6,0,B|176:225|176:225|137:111|137:111|95:95,1,234.623989288331,4|0,1:0|2:0,2:0:0:0:
28,93,146029,1,0,3:0:0:0:
28,93,146098,2,0,B|123:116|123:116|89:72,1,117.311994644165,8|0,1:0|2:0,2:0:0:0:
341,50,146370,2,0,L|351:4,1,36.096,2|0,2:1|3:0,2:0:0:0:
202,133,146643,2,0,L|196:85,1,36.096,10|0,1:0|2:0,2:0:0:0:
404,231,146779,2,0,L|412:192,1,36.096,2|0,2:1|2:0,2:0:0:0:
148,264,147052,2,0,L|142:229,1,36.096,2|0,2:1|3:0,2:0:0:0:
211,352,147325,2,0,B|242:346|242:346|352:372,1,135.36,0|0,1:0|3:0,2:0:0:0:
343,369,147598,6,0,B|314:348|314:348|227:354|227:354|185:341|185:341|149:348,2,180,4|12|4,2:3|1:3|2:3,2:0:0:0:
244,253,148007,5,4,1:0:0:0:
257,200,148075,1,0,3:0:0:0:
270,147,148143,1,0,1:0:0:0:
283,94,148211,1,0,3:0:0:0:
238,64,148279,1,0,1:0:0:0:
191,34,148348,1,0,3:0:0:0:
141,55,148416,1,0,1:0:0:0:
91,77,148484,1,0,3:0:0:0:
42,99,148552,1,0,1:0:0:0:
95,108,148620,1,0,3:0:0:0:
148,117,148689,1,0,1:0:0:0:
201,126,148757,1,0,3:0:0:0:
254,135,148825,1,0,1:0:0:0:
307,144,148893,1,0,3:0:0:0:
329,193,148961,1,0,1:0:0:0:
351,242,149029,1,0,3:0:0:0:
373,291,149098,1,0,1:0:0:0:
334,329,149166,1,0,3:0:0:0:
296,367,149234,1,0,1:0:0:0:
285,314,149302,1,0,3:0:0:0:
274,261,149370,1,0,1:0:0:0:
263,207,149439,1,0,3:0:0:0:
252,154,149507,1,0,1:0:0:0:
242,101,149575,1,0,3:0:0:0:
232,47,149643,1,0,1:0:0:0:
284,58,149711,1,0,3:0:0:0:
336,69,149779,1,0,1:0:0:0:
389,80,149848,1,0,3:0:0:0:
414,127,149916,1,0,1:0:0:0:
440,174,149984,1,0,3:0:0:0:
466,221,150052,1,0,1:0:0:0:
492,268,150120,1,0,3:0:0:0:
420,291,150189,5,2,3:1:0:0:
420,291,150325,1,0,2:0:0:0:
321,315,150461,1,2,3:1:0:0:
321,315,150598,1,0,2:0:0:0:
209,265,150734,1,2,3:1:0:0:
209,265,150870,1,0,2:0:0:0:
85,305,151007,1,2,3:1:0:0:
85,305,151143,1,0,2:0:0:0:
336,271,152370,5,4,1:0:0:0:
507,230,152507,1,0,1:0:0:0:
317,358,152643,1,0,1:0:0:0:
473,300,152779,1,0,1:0:0:0:
273,208,152916,1,0,1:0:0:0:
397,325,153052,1,0,1:0:0:0:
421,230,153189,1,0,1:0:0:0:
512,374,153325,1,0,1:0:0:0:
512,374,153393,1,0,1:0:0:0:
512,374,153461,1,0,1:0:0:0:
421,230,153598,1,0,1:0:0:0:
397,325,153734,1,0,1:0:0:0:
273,208,153870,1,0,1:0:0:0:
473,300,154007,1,0,1:0:0:0:
317,358,154143,1,0,1:0:0:0:
507,230,154279,1,0,1:0:0:0:
336,271,154416,1,0,1:0:0:0:
336,271,154484,1,0,1:0:0:0:
336,271,154552,2,0,B|379:252|379:252|446:253,1,90.2400000000001,2|2,1:0|2:0,2:0:0:0:
512,345,154825,2,0,L|416:325,1,90.2400000000001,2|2,1:0|2:0,2:0:0:0:
352,377,155098,2,0,L|333:257,1,90.2400000000001,2|2,1:0|2:0,2:0:0:0:
499,233,155370,2,0,B|478:250|478:250|444:316,1,90.2400000000001,2|2,1:0|3:0,2:0:0:0:
399,244,155575,5,2,3:0:0:0:
399,244,155643,2,0,L|459:299,1,67.6800025749209,2|0,3:0|2:0,2:0:0:0:
302,294,155779,2,0,L|383:328,1,67.6800025749209,2|0,2:3|2:0,2:0:0:0:
325,219,155916,2,0,L|232:234,1,67.6800025749209,2|0,3:0|2:0,2:0:0:0:
222,298,156052,2,0,L|249:377,1,67.6800025749209,2|0,2:3|2:0,2:0:0:0:
185,236,156189,2,0,L|201:152,1,67.6800025749209,2|0,3:0|2:0,2:0:0:0:
86,283,156325,2,0,L|168:304,1,67.6800025749209,2|0,2:3|2:0,2:0:0:0:
112,201,156461,2,0,B|36:221|36:221|-6:300,1,135.360005149842,0|0,3:0|3:0,2:0:0:0:
101,372,156734,5,4,1:0:0:0:
238,293,156870,1,0,1:0:0:0:
27,242,157007,1,0,1:0:0:0:
164,321,157143,1,0,1:0:0:0:
21,342,157279,1,0,1:0:0:0:
166,217,157416,1,0,1:0:0:0:
220,369,157552,1,0,1:0:0:0:
107,264,157689,1,0,1:0:0:0:
107,264,157757,1,0,1:0:0:0:
107,264,157825,1,0,1:0:0:0:
220,369,157961,1,0,1:0:0:0:
166,217,158098,1,0,1:0:0:0:
21,342,158234,1,0,1:0:0:0:
164,321,158370,1,0,1:0:0:0:
27,242,158507,1,0,1:0:0:0:
238,293,158643,1,0,1:0:0:0:
101,372,158779,1,0,1:0:0:0:
101,372,158848,1,0,1:0:0:0:
101,372,158916,2,0,L|83:265,1,90.2400000000001,2|2,1:0|2:0,2:0:0:0:
133,231,159189,2,0,B|152:226|152:226|234:258,1,90.2400000000001,0|2,1:0|2:0,2:0:0:0:
157,306,159461,2,0,L|166:370,1,45.12,2|0,3:0|2:0,2:0:0:0:
61,262,159598,2,0,L|5:254,1,45.12,2|0,2:3|2:0,2:0:0:0:
46,342,159734,2,0,L|102:324,1,45.12,2|0,3:0|2:0,2:0:0:0:
236,328,159870,1,0,3:0:0:0:
236,328,159939,1,0,3:0:0:0:
236,328,160007,6,2,B|245:59|245:59|185:8,1,324.863990112305,2|0,3:1|2:0,2:1:0:0:
146,71,160279,2,0,L|175:197,1,108.287996704102,2|0,3:1|2:0,2:0:0:0:
150,246,160416,2,0,B|120:231|120:231|72:147,1,108.287996704102,2|0,2:1|2:0,2:0:0:0:
21,223,160552,2,0,B|56:205|56:205|149:221|149:221|243:190,1,216.575993408203,8|0,1:3|3:0,2:0:0:0:
204,117,160757,1,0,3:0:0:0:
204,117,160825,2,0,B|107:16|107:16|139:134,1,216.575993408203,8|0,1:3|3:0,2:0:0:0:
31,162,161098,6,2,B|146:120|146:120|171:127|171:127|232:47|232:47|118:56|118:56|23:5|23:5|27:25|27:25|69:49,7,540.025734885081,4|0|0|0|0|0|0|0,1:0|1:0|1:0|1:0|1:0|1:0|1:0|1:0,2:1:0:0:
454,144,163279,2,2,B|405:76|405:76|308:96|308:96|421:115,3,270.060010299683,6|0|0|0,1:0|1:0|1:0|1:0,2:1:0:0:
468,21,164234,5,2,2:3:0:0:
468,21,164302,1,2,2:3:0:0:
468,21,164370,2,0,L|525:94,1,67.6800025749209,2|0,3:0|2:0,2:0:0:0:
398,149,164507,2,0,L|433:69,1,67.6800025749209,2|0,2:3|2:0,2:0:0:0:
390,25,164643,2,0,L|310:25,1,67.6800025749209,2|0,3:0|2:0,2:0:0:0:
278,117,164779,2,0,L|363:90,1,67.6800025749209,2|0,2:3|2:0,2:0:0:0:
247,50,164916,2,0,L|154:31,1,67.6800025749209,2|0,3:0|2:0,2:0:0:0:
204,117,165052,1,2,3:0:0:0:
204,117,165120,1,0,3:0:0:0:
204,117,165189,2,0,B|106:146|106:146|63:124,1,135.360005149842,0|0,3:0|3:0,2:0:0:0:
51,60,165461,5,4,1:2:0:0:
440,109,165643,5,4,1:2:0:0:
102,212,165825,5,4,1:2:0:0:
384,245,166007,5,4,1:2:0:0:
159,337,166189,5,4,1:2:0:0:
339,378,166370,5,4,1:2:0:0:
179,253,166552,5,4,1:2:0:0:
321,184,166734,5,4,1:2:0:0:
181,121,166916,5,4,1:2:0:0:
306,89,167098,5,0,3:0:0:0:
243,62,167189,5,4,3:0:0:0:
319,55,167279,5,4,3:0:0:0:
225,29,167370,5,0,3:0:0:0:
339,56,167461,5,4,3:0:0:0:
257,104,167552,5,4,3:0:0:0:
309,158,167643,6,2,L|319:235,7,45.0257142857143,0|0|0|0|0|0|0|0,2:0|2:0|2:0|2:0|2:0|2:0|2:0|2:0,2:0:0:0:
261,253,168189,2,2,B|254:263|254:263|237:380,7,67.5385740034923,0|0|0|0|0|0|0|0,2:0|2:0|2:0|2:0|2:0|2:0|2:0|2:0,2:0:0:0:
21,303,169825,6,0,B|49:285|49:285|149:314|149:314|281:315,1,270.72,4|0,1:0|2:0,2:0:0:0:
331,372,170098,2,0,B|396:318|396:318|405:243,1,90.2400000000001,0|0,1:0|2:0,2:0:0:0:
472,304,170234,2,0,B|478:235|478:235|460:195,1,90.2400000000001,0|0,3:0|2:0,2:0:0:0:
503,152,170370,2,0,B|469:102|469:102|404:87,1,90.2400000000001,0|0,1:0|2:0,2:0:0:0:
391,40,170507,2,0,B|345:27|345:27|252:59,1,90.2400000000001,0|0,3:0|2:0,2:0:0:0:
236,57,170643,2,0,B|210:93|210:93|243:133,1,90.2400000000001,0|0,1:0|2:0,2:0:0:0:
305,177,170779,2,0,B|350:161|350:161|295:117,1,90.2400000000001,0|0,3:0|2:0,2:0:0:0:
228,133,170916,2,0,B|107:119|107:119|197:159,2,180.48,0|0|0,1:0|1:0|1:0,2:0:0:0:
228,133,171461,5,2,1:2:0:0:
256,86,171529,1,2,2:0:0:0:
284,38,171598,1,2,2:0:0:0:
337,50,171666,1,2,2:0:0:0:
390,62,171734,1,2,1:2:0:0:
404,114,171802,1,2,2:0:0:0:
418,166,171870,1,2,2:0:0:0:
432,218,171939,1,2,2:0:0:0:
446,270,172007,6,0,B|340:242|340:242|320:344|320:344|238:375,1,270.72,4|0,1:0|2:0,2:0:0:0:
182,376,172279,2,0,B|218:307|218:307|249:299,1,90.2400000000001,0|0,1:0|2:0,2:0:0:0:
129,294,172416,2,0,B|171:246|171:246|218:235,1,90.2400000000001,0|0,3:0|2:0,2:0:0:0:
113,193,172552,2,0,B|151:169|151:169|224:165,1,90.2400000000001,0|0,1:0|2:0,2:0:0:0:
128,93,172689,2,0,B|162:84|162:84|251:110,1,90.2400000000001,0|0,3:0|2:0,2:0:0:0:
206,17,172825,2,0,B|221:17|221:17|291:58,1,90.2400000000001,0|0,1:0|2:0,2:0:0:0:
345,11,172961,2,0,L|412:92,1,90.2400000000001,0|0,3:0|2:0,2:0:0:0:
495,134,173098,5,2,1:2:0:0:
443,149,173166,1,2,2:0:0:0:
391,165,173234,1,2,3:2:0:0:
339,181,173302,1,2,2:0:0:0:
287,197,173370,1,2,1:2:0:0:
245,160,173439,1,2,2:0:0:0:
204,124,173507,1,2,2:0:0:0:
163,88,173575,1,2,2:0:0:0:
109,94,173643,1,2,1:2:0:0:
55,100,173711,1,2,2:0:0:0:
38,151,173779,1,2,2:0:0:0:
20,202,173848,1,2,2:0:0:0:
5,253,173916,1,2,1:2:0:0:
57,266,173984,1,2,2:0:0:0:
109,279,174052,1,6,3:2:0:0:
161,292,174120,1,2,2:0:0:0:
213,306,174189,6,0,B|224:286|224:286|229:173|229:173|177:126|177:126|148:49,1,270.72,4|0,1:0|2:0,2:0:0:0:
207,13,174461,2,0,B|262:18|262:18|174:48,1,90.2400000000001,0|0,1:0|2:0,2:0:0:0:
331,46,174598,2,0,B|373:69|373:69|325:138,1,90.2400000000001,0|0,3:0|2:0,2:0:0:0:
435,122,174734,2,0,B|446:164|446:164|385:235,1,90.2400000000001,0|0,1:0|2:0,2:0:0:0:
466,248,174870,2,0,B|447:304|447:304|396:327,1,90.2400000000001,0|0,3:0|2:0,2:0:0:0:
383,374,175007,2,0,B|306:371|306:371|291:341,1,90.2400000000001,0|0,1:0|2:0,2:0:0:0:
230,369,175143,2,0,B|190:294|190:294|196:283,1,90.2400000000001,0|0,3:0|2:0,2:0:0:0:
248,240,175279,2,0,L|278:7,2,180.48,0|0|0,1:0|1:0|1:0,2:0:0:0:
248,240,175825,5,2,1:2:0:0:
290,272,175893,1,2,2:0:0:0:
332,305,175961,1,2,2:0:0:0:
339,251,176029,1,2,2:0:0:0:
346,196,176098,1,2,1:2:0:0:
353,142,176166,1,2,2:0:0:0:
299,144,176234,1,2,2:0:0:0:
245,147,176302,1,2,2:0:0:0:
191,150,176370,6,0,B|180:46|180:46|203:2,1,126.335996154785,2|0,1:0|2:0,2:0:0:0:
115,169,176643,2,0,B|72:73|72:73|30:46,1,126.335996154785,2|0,1:0|2:0,2:0:0:0:
289,291,176916,2,0,B|313:307|313:307|432:323,1,126.335996154785,2|0,1:0|2:0,2:0:0:0:
289,291,177189,2,0,B|264:274|264:274|168:261,1,126.335996154785,2|0,1:0|2:0,2:0:0:0:
152,341,177461,5,4,2:3:0:0:
152,341,177529,1,4,2:3:0:0:
152,341,177598,1,4,2:3:0:0:
152,341,177666,1,4,2:3:0:0:
152,341,177734,1,4,2:3:0:0:
152,341,177802,1,4,2:3:0:0:
152,341,177870,1,4,2:3:0:0:
152,341,177939,1,4,2:3:0:0:
152,341,178007,1,4,2:3:0:0:
152,341,178075,1,4,2:3:0:0:
152,341,178143,1,4,2:3:0:0:
152,341,178211,1,4,2:3:0:0:
152,341,178279,1,4,2:3:0:0:
152,341,178348,1,4,2:3:0:0:
152,341,178416,1,4,2:3:0:0:
152,341,178484,1,4,2:3:0:0:
152,341,178552,1,4,2:1:0:0:
152,341,178825,6,0,B|135:308|135:308|15:171|15:171|21:113,1,234.623989288331,2|0,1:2|2:0,2:0:0:0:
152,341,179098,2,0,B|153:303|153:303|118:125|118:125|152:78,1,234.623989288331,2|0,1:2|2:0,2:0:0:0:
202,156,179302,1,2,3:2:0:0:
202,156,179370,1,2,1:2:0:0:
45,61,179507,1,2,3:2:0:0:
263,117,179643,1,2,1:2:0:0:
330,375,179779,1,2,3:2:0:0:
178,227,179916,1,2,1:2:0:0:
97,0,180052,1,2,3:2:0:0:
336,139,180189,5,2,1:2:0:0:
324,196,180257,1,2,2:0:0:0:
311,252,180325,1,2,3:2:0:0:
296,308,180393,1,2,2:0:0:0:
346,336,180461,1,2,1:2:0:0:
396,365,180529,1,2,2:0:0:0:
433,319,180598,1,2,3:2:0:0:
470,274,180666,1,2,2:0:0:0:
507,229,180734,6,0,B|449:195|449:195|321:224|321:224|286:217,1,234.623989288331,4|0,1:0|2:0,2:0:0:0:
507,229,181007,2,0,B|473:170|473:170|348:131|348:131|321:108,1,234.623989288331,2|0,1:2|2:0,2:0:0:0:
507,229,181279,2,0,B|507:161|507:161|418:65|418:65|406:31,1,234.623989288331,2|0,1:2|2:0,2:0:0:0:
485,24,181484,1,2,3:2:0:0:
485,24,181552,1,2,1:2:0:0:
191,51,181689,1,2,3:2:0:0:
2,273,181825,5,2,1:2:0:0:
58,286,181893,1,2,2:0:0:0:
114,298,181961,1,2,3:2:0:0:
170,311,182029,1,2,3:2:0:0:
227,324,182098,1,2,1:2:0:0:
283,337,182166,1,2,2:0:0:0:
333,308,182234,1,2,3:2:0:0:
383,279,182302,1,2,2:0:0:0:
371,221,182370,1,2,1:2:0:0:
359,163,182439,1,2,2:0:0:0:
347,105,182507,1,2,3:2:0:0:
335,47,182575,1,2,2:0:0:0:
282,72,182643,1,2,1:2:0:0:
229,97,182711,1,2,2:0:0:0:
176,122,182779,1,2,3:2:0:0:
130,84,182848,1,2,2:0:0:0:
84,47,182916,6,0,B|208:105|208:105|337:236,1,234.623989288331,4|0,1:0|2:0,2:0:0:0:
84,47,183189,2,0,B|220:61|220:61|385:143,1,234.623989288331,2|0,1:2|2:0,2:0:0:0:
84,47,183461,2,0,B|217:13|217:13|400:34,1,234.623989288331,2|0,1:2|2:0,2:0:0:0:
376,68,183666,1,0,3:0:0:0:
376,68,183734,1,2,1:2:0:0:
222,186,183870,1,2,3:2:0:0:
47,127,184007,2,0,B|117:244|117:244|261:359,1,234.623989288331,2|0,1:2|2:0,2:0:0:0:
251,258,184211,1,2,3:2:0:0:
251,258,184279,1,2,1:2:0:0:
454,90,184416,1,2,3:2:0:0:
486,348,184552,5,2,1:2:0:0:
428,355,184620,1,2,2:0:0:0:
369,362,184689,1,2,3:2:0:0:
311,369,184757,1,2,2:0:0:0:
253,376,184825,1,2,1:2:0:0:
236,319,184893,1,2,2:0:0:0:
182,296,184961,1,2,3:2:0:0:
128,273,185029,1,2,2:0:0:0:
73,250,185098,6,0,B|66:191|66:191|103:103,3,135.030005149842,4|0|0|0,3:0|2:0|2:0|2:0,2:0:0:0:
3,93,185643,2,0,B|58:51|58:51|167:32,3,135.030005149842,0|0|0|0,2:0|2:0|2:0|2:0,2:0:0:0:
197,59,186189,6,0,L|194:72,1,9.02400000000001,2|0,3:0|2:0,2:0:0:0:
202,87,186461,2,0,L|205:102,1,9.02400000000001,2|0,3:0|2:0,2:0:0:0:
233,89,186734,2,0,L|246:94,1,9.02400000000001,2|0,3:0|2:0,2:0:0:0:
165,345,186870,2,0,L|174:354,1,9.02400000000001,2|0,3:0|2:0,2:0:0:0:
406,175,187007,2,0,L|419:179,1,9.02400000000001,2|0,3:0|2:0,2:0:0:0:
480,300,187143,2,0,L|495:293,1,9.02400000000001,2|0,3:0|2:0,2:0:0:0:
471,225,187279,6,0,B|467:179|467:179|454:144|454:144|452:113|452:113|379:54|379:54|342:37|342:37|320:-4,2,288.24,6|2|2,1:0|1:0|1:0,2:0:0:0:
302,361,188098,1,0,1:0:0:0:
302,361,188234,2,0,B|284:357|284:357|166:266,1,144.384,2|0,3:1|1:0,2:0:0:0:
56,342,188507,2,0,B|68:329|68:329|205:272,1,144.384,2|0,3:1|1:0,2:0:0:0:
195,138,188779,2,0,B|200:154|200:154|181:302,1,144.384,2|0,3:1|1:0,2:0:0:0:
39,66,189052,1,2,3:1:0:0:
39,66,189120,1,0,3:0:0:0:
39,66,189189,1,2,1:0:0:0:
60,132,189325,1,2,3:1:0:0:
127,112,189461,1,0,1:0:0:0:
60,132,189598,2,0,B|133:87|133:87|204:73,1,144.384,2|0,3:1|3:0,2:0:0:0:
257,23,189870,1,0,3:0:0:0:
257,23,190007,2,0,B|293:28|293:28|382:59,1,72.1920000000001,2|0,1:0|2:0,2:0:0:0:
491,56,190143,2,0,B|455:51|455:51|366:20,1,72.1920000000001,2|0,3:1|2:0,2:0:0:0:
278,109,190279,2,0,B|314:114|314:114|403:145,1,72.1920000000001,2|0,1:0|2:0,2:0:0:0:
418,143,190416,2,0,B|382:138|382:138|293:107,1,72.1920000000001,2|0,3:1|2:0,2:0:0:0:
374,211,190552,6,0,B|388:238|388:238|413:364,1,144.384,4|0,1:3|3:0,2:0:0:0:
410,348,190757,1,0,3:0:0:0:
410,348,190825,1,4,1:3:0:0:
374,211,190961,2,0,B|364:240|364:240|293:346,1,144.384,4|0,1:3|3:0,2:0:0:0:
301,334,191166,1,0,3:0:0:0:
301,334,191234,1,4,1:3:0:0:
82,360,191370,2,2,B|16:263|16:263|174:289,1,216.576,4|0,1:0|2:0,3:0:0:0:
113,279,191643,6,0,B|131:199|131:199|141:184|141:184|167:117|167:117|153:58|153:58|170:-15,2,288.24,6|2|2,1:0|1:0|1:0,2:0:0:0:
490,228,192461,1,0,1:0:0:0:
490,228,192598,2,0,B|456:213|456:213|390:199|390:199|358:210|358:210|326:207,1,144.384,2|0,3:1|1:0,2:0:0:0:
269,320,192870,2,0,B|298:298|298:298|344:247|344:247|350:214|350:214|369:188,1,144.384,2|0,3:1|1:0,2:0:0:0:
300,81,193143,2,0,B|304:117|304:117|324:182|324:182|350:204|350:204|363:233,1,144.384,2|0,3:1|1:0,2:0:0:0:
481,54,193416,1,2,3:1:0:0:
481,54,193484,1,0,3:0:0:0:
481,54,193552,1,2,1:0:0:0:
413,85,193689,1,2,3:1:0:0:
358,31,193825,1,2,1:2:0:0:
201,103,193961,2,0,B|195:67|195:67|174:31,2,72.1920000000001,2|2|2,3:2|3:2|1:2,2:0:0:0:
48,71,194234,1,2,3:2:0:0:
48,71,194370,2,0,B|39:83|39:83|18:197,1,72.1920000000001,2|0,1:2|2:0,2:0:0:0:
6,351,194507,2,0,B|15:339|15:339|36:225,1,72.1920000000001,2|0,3:2|2:0,2:0:0:0:
120,100,194643,2,0,B|111:112|111:112|90:226,1,72.1920000000001,2|0,1:2|2:0,2:0:0:0:
81,236,194779,2,0,B|90:224|90:224|111:110,1,72.1920000000001,2|0,3:2|2:0,2:0:0:0:
178,186,194916,5,4,1:0:0:0:
332,171,195052,1,4,1:3:0:0:
332,171,195120,1,4,2:3:0:0:
332,171,195189,1,4,2:3:0:0:
401,210,195325,1,4,1:3:0:0:
339,256,195461,1,4,2:3:0:0:
339,256,195529,1,4,2:3:0:0:
339,256,195598,1,4,2:3:0:0:
294,382,195734,2,4,L|281:310,3,72.1920000000001,4|4|4|4,2:3|2:3|2:3|2:3,2:3:0:0:
420,345,196007,6,0,B|448:314|448:314|364:322|364:322|337:337|337:337|254:329|254:329|184:292,2,288.24,6|2|2,1:0|1:0|1:0,2:0:0:0:
197,31,196825,1,0,1:0:0:0:
197,31,196961,2,0,B|174:49|174:49|154:89|154:89|156:104|156:104|136:160,1,144.384,2|0,3:1|1:0,2:0:0:0:
0,168,197234,2,0,B|24:179|24:179|68:176|68:176|81:168|81:168|139:156,1,144.384,2|0,3:1|1:0,2:0:0:0:
215,270,197507,2,0,B|211:240|211:240|187:203|187:203|173:197|173:197|134:152,1,144.384,2|0,3:1|1:0,2:0:0:0:
169,353,197779,1,2,3:1:0:0:
169,353,197848,1,0,3:0:0:0:
169,353,197916,1,2,1:0:0:0:
86,377,198052,1,2,3:1:0:0:
61,303,198189,1,0,1:0:0:0:
86,377,198325,2,0,B|136:348|136:348|185:231,1,144.384,2|0,3:1|1:0,2:0:0:0:
263,365,198598,1,2,3:1:0:0:
263,365,198734,2,0,B|300:365|300:365|348:349,1,72.1920000000001,2|0,1:0|2:0,2:0:0:0:
511,321,198870,2,0,B|474:321|474:321|426:337,1,72.1920000000001,2|0,3:1|2:0,2:0:0:0:
292,286,199007,2,0,B|329:286|329:286|377:270,1,72.1920000000001,2|0,1:0|2:0,2:0:0:0:
432,263,199143,2,0,B|395:263|395:263|347:279,1,72.1920000000001,2|0,3:1|2:0,2:0:0:0:
346,200,199279,6,0,B|446:150|446:150|489:154,1,144.384,4|0,1:3|3:0,2:0:0:0:
478,152,199484,1,0,3:0:0:0:
478,152,199552,1,4,1:3:0:0:
346,200,199689,2,0,B|296:99|296:99|300:57,1,144.384,4|0,1:3|3:0,2:0:0:0:
298,68,199893,1,0,3:0:0:0:
298,68,199961,1,4,1:3:0:0:
76,61,200098,2,2,B|37:113|37:113|75:203|75:203|72:229|72:229|85:298,1,216.576,4|0,1:0|2:0,3:0:0:0:
32,309,200370,5,0,1:0:0:0:
86,329,200439,1,0,3:0:0:0:
139,349,200507,1,0,3:0:0:0:
192,369,200575,1,0,3:0:0:0:
227,323,200643,1,0,1:0:0:0:
282,306,200711,1,0,3:0:0:0:
337,289,200779,1,0,3:0:0:0:
393,273,200848,1,0,3:0:0:0:
415,220,200916,1,0,1:0:0:0:
438,167,200984,1,0,3:0:0:0:
461,114,201052,1,0,3:0:0:0:
484,61,201120,1,0,3:0:0:0:
426,50,201189,1,0,1:0:0:0:
369,39,201257,1,0,3:0:0:0:
312,28,201325,1,0,3:0:0:0:
255,17,201393,1,0,3:0:0:0:
198,7,201461,2,0,L|204:52,1,36.096,4|0,3:0|2:0,2:0:0:0:
197,7,201529,2,0,L|203:52,1,36.096,4|0,3:0|2:0,2:0:0:0:
196,7,201598,2,0,L|202:52,1,36.096,4|0,3:0|2:0,2:0:0:0:
195,7,201666,2,0,L|201:52,1,36.096,4|0,3:0|2:0,2:0:0:0:
194,7,201734,2,0,L|200:52,1,36.096,4|0,3:0|2:0,2:0:0:0:
193,7,201802,2,0,L|199:52,1,36.096,4|0,3:0|2:0,2:0:0:0:
192,7,201870,2,0,L|198:52,1,36.096,4|0,3:0|2:0,2:0:0:0:
191,7,201939,2,0,L|197:52,1,36.096,4|0,3:0|2:0,2:0:0:0:
209,61,202007,1,0,1:0:0:0:
227,116,202075,1,0,3:0:0:0:
245,170,202143,1,0,3:0:0:0:
263,224,202211,1,0,3:0:0:0:
216,190,202279,1,0,1:0:0:0:
169,156,202348,1,0,3:0:0:0:
122,122,202416,1,0,3:0:0:0:
74,88,202484,1,0,3:0:0:0:
26,54,202552,1,0,1:0:0:0:
424,136,202689,6,0,L|417:108,28,18,0|0|0|0|0|0|0|0|0|0|0|0|0|0|0|0|0|0|0|0|0|0|0|0|0|0|0|0|0,1:0|1:0|1:0|1:0|1:0|1:0|1:0|1:0|1:0|1:0|1:0|1:0|1:0|1:0|1:0|1:0|1:0|1:0|1:0|1:0|1:0|1:0|1:0|1:0|1:0|1:0|1:0|1:0|1:0,1:0:0:0:
212,89,204734,5,4,1:0:0:0:
266,110,204802,1,0,3:0:0:0:
321,132,204870,1,0,3:0:0:0:
375,153,204939,1,0,3:0:0:0:
429,174,205007,1,0,1:0:0:0:
483,195,205075,1,0,3:0:0:0:
437,230,205143,1,0,3:0:0:0:
391,265,205211,1,0,3:0:0:0:
346,301,205279,1,0,1:0:0:0:
399,324,205348,1,0,3:0:0:0:
451,348,205416,1,0,3:0:0:0:
503,372,205484,1,0,3:0:0:0:
468,326,205552,1,0,1:0:0:0:
433,279,205620,1,0,3:0:0:0:
398,232,205689,1,0,3:0:0:0:
363,186,205757,1,0,3:0:0:0:
328,140,205825,1,0,1:0:0:0:
293,94,205893,1,0,3:0:0:0:
238,112,205961,1,0,3:0:0:0:
183,130,206029,1,0,3:0:0:0:
128,149,206098,1,0,1:0:0:0:
74,169,206166,1,0,3:0:0:0:
54,223,206234,1,0,3:0:0:0:
35,277,206302,1,0,3:0:0:0:
16,331,206370,2,0,L|59:326,1,36.096,4|0,3:0|2:0,2:0:0:0:
16,332,206439,2,0,L|59:327,1,36.096,4|0,3:0|2:0,2:0:0:0:
16,333,206507,2,0,L|59:328,1,36.096,4|0,3:0|2:0,2:0:0:0:
16,334,206575,2,0,L|59:329,1,36.096,4|0,3:0|2:0,2:0:0:0:
16,335,206643,2,0,L|59:330,1,36.096,4|0,3:0|2:0,2:0:0:0:
16,336,206711,2,0,L|59:331,1,36.096,4|0,3:0|2:0,2:0:0:0:
16,337,206779,2,0,L|59:332,1,36.096,4|0,3:0|2:0,2:0:0:0:
16,338,206848,2,0,L|59:333,1,36.096,4|0,3:0|2:0,2:0:0:0:
72,347,206916,1,0,1:0:0:0:
129,357,206984,1,0,3:0:0:0:
185,367,207052,1,0,3:0:0:0:
241,377,207120,1,0,3:0:0:0:
220,322,207189,1,0,1:0:0:0:
200,268,207257,1,0,3:0:0:0:
180,213,207325,1,0,3:0:0:0:
225,178,207393,1,0,3:0:0:0:
270,142,207461,1,0,1:0:0:0:
315,107,207529,1,0,3:0:0:0:
361,72,207598,1,0,3:0:0:0:
407,37,207666,1,0,3:0:0:0:
396,93,207734,1,0,1:0:0:0:
386,149,207802,1,0,3:0:0:0:
376,205,207870,1,0,3:0:0:0:
366,262,207939,1,0,3:0:0:0:
356,318,208007,2,0,L|366:365,1,36.096,4|0,3:0|2:0,2:0:0:0:
355,318,208075,2,0,L|365:365,1,36.096,4|0,3:0|2:0,2:0:0:0:
354,318,208143,2,0,L|364:365,1,36.096,4|0,3:0|2:0,2:0:0:0:
353,318,208211,2,0,L|363:365,1,36.096,4|0,3:0|2:0,2:0:0:0:
352,318,208279,2,0,L|362:365,1,36.096,4|0,3:0|2:0,2:0:0:0:
351,318,208348,2,0,L|361:365,1,36.096,4|0,3:0|2:0,2:0:0:0:
350,318,208416,2,0,L|360:365,1,36.096,4|0,3:0|2:0,2:0:0:0:
349,318,208484,2,0,L|359:365,1,36.096,4|0,3:0|2:0,2:0:0:0:
348,318,208552,2,0,L|358:365,1,36.096,4|0,3:0|2:0,2:0:0:0:
347,318,208620,2,0,L|357:365,1,36.096,4|0,3:0|2:0,2:0:0:0:
346,318,208689,2,0,L|356:365,1,36.096,4|0,3:0|2:0,2:0:0:0:
345,318,208757,2,0,L|355:365,1,36.096,4|0,3:0|2:0,2:0:0:0:
344,318,208825,2,0,L|354:365,1,36.096,4|0,3:0|2:0,2:0:0:0:
343,319,208893,2,0,L|353:366,1,36.096,4|0,3:0|2:0,2:0:0:0:
342,319,208961,2,0,L|352:366,1,36.096,4|0,3:0|2:0,2:0:0:0:
341,319,209029,2,0,L|351:366,1,36.096,4|0,3:0|2:0,2:0:0:0:
284,308,209098,1,0,1:0:0:0:
227,297,209166,1,0,3:0:0:0:
170,287,209234,1,0,3:0:0:0:
140,237,209302,1,0,3:0:0:0:
110,187,209370,1,0,1:0:0:0:
80,136,209439,1,0,3:0:0:0:
50,86,209507,1,0,3:0:0:0:
21,36,209575,1,0,3:0:0:0:
18,93,209643,1,0,1:0:0:0:
15,150,209711,1,0,3:0:0:0:
12,207,209779,1,0,3:0:0:0:
67,188,209848,1,0,3:0:0:0:
121,170,209916,1,0,1:0:0:0:
175,152,209984,1,0,3:0:0:0:
229,135,210052,1,0,3:0:0:0:
283,118,210120,1,0,3:0:0:0:
338,101,210189,2,0,L|295:88,1,36.096,4|0,3:0|2:0,2:0:0:0:
338,100,210257,2,0,L|295:87,1,36.096,4|0,3:0|2:0,2:0:0:0:
338,99,210325,2,0,L|295:86,1,36.096,4|0,3:0|2:0,2:0:0:0:
338,98,210393,2,0,L|295:85,1,36.096,4|0,3:0|2:0,2:0:0:0:
338,97,210461,2,0,L|295:84,1,36.096,4|0,3:0|2:0,2:0:0:0:
338,96,210529,2,0,L|295:83,1,36.096,4|0,3:0|2:0,2:0:0:0:
338,95,210598,2,0,L|295:82,1,36.096,4|0,3:0|2:0,2:0:0:0:
338,94,210666,2,0,L|295:81,1,36.096,4|0,3:0|2:0,2:0:0:0:
380,56,210734,1,2,3:2:0:0:
388,57,210802,1,2,3:2:0:0:
397,59,210870,1,2,3:2:0:0:
406,60,210939,1,2,3:2:0:0:
415,62,211007,1,2,3:2:0:0:
424,64,211075,1,2,3:2:0:0:
433,65,211143,1,2,3:2:0:0:
441,67,211211,1,2,3:2:0:0:
487,32,211279,1,0,1:0:0:0:
429,38,211348,1,0,3:0:0:0:
371,43,211416,1,0,3:0:0:0:
313,49,211484,1,0,3:0:0:0:
339,100,211552,1,0,1:0:0:0:
365,151,211620,1,0,3:0:0:0:
391,202,211689,1,0,3:0:0:0:
417,252,211757,1,0,3:0:0:0:
384,299,211825,1,0,1:0:0:0:
353,347,211893,1,0,3:0:0:0:
341,290,211961,1,0,3:0:0:0:
329,233,212029,1,0,3:0:0:0:
317,175,212098,1,0,1:0:0:0:
306,118,212166,1,0,3:0:0:0:
250,104,212234,1,0,3:0:0:0:
194,90,212302,1,0,3:0:0:0:
138,76,212370,6,0,B|123:69|123:69|-13:89,11,96.0000000000001,2|0|0|0|0|0|0|0|0|0|0|0,3:0|3:0|3:0|3:0|3:0|3:0|3:0|3:0|3:0|3:0|3:0|3:0,2:0:0:0:
77,1,213461,6,2,B|41:26|41:26|-28:321,1,270.720010299683,4|0,1:2|2:0,2:1:0:0:
91,336,213666,2,2,B|109:296|109:296|21:6,1,270.720010299683,0|0,3:0|2:0,2:1:0:0:
156,17,213870,2,2,B|129:66|129:66|139:174,1,135.360005149842,8|0,1:0|2:0,2:1:0:0:
168,378,214007,2,2,B|198:160|198:160|158:98,1,270.720010299683,4|0,1:2|2:0,2:1:0:0:
243,6,214211,2,2,B|227:53|227:53|313:256,1,270.720010299683,0|0,3:0|2:0,2:1:0:0:
271,372,214416,2,2,B|257:314|257:314|288:211,1,135.360005149842,8|0,1:0|2:0,2:1:0:0:
318,41,214552,2,2,B|327:174|327:174|396:313,1,270.720010299683,4|0,1:2|2:0,2:1:0:0:
429,369,214757,2,2,B|426:235|426:235|482:91,1,270.720010299683,0|0,3:0|2:0,2:1:0:0:
434,47,214961,2,2,B|405:19|405:19|392:157,1,135.360005149842,8|0,1:0|2:0,2:1:0:0:
500,198,215098,5,0,1:0:0:0:
433,189,215166,1,0,3:0:0:0:
366,180,215234,1,0,3:0:0:0:
299,172,215302,1,0,3:0:0:0:
246,214,215370,1,0,1:0:0:0:
203,160,215439,1,0,3:0:0:0:
161,107,215507,1,0,3:0:0:0:
119,54,215575,1,0,3:0:0:0:
77,1,215643,6,2,B|41:26|41:26|-28:321,1,270.720010299683,4|0,1:2|2:0,2:1:0:0:
91,336,215848,2,2,B|109:296|109:296|21:6,1,270.720010299683,0|0,3:0|2:0,2:1:0:0:
156,17,216052,2,2,B|129:66|129:66|139:174,1,135.360005149842,8|0,1:0|2:0,2:1:0:0:
168,378,216189,2,2,B|198:160|198:160|158:98,1,270.720010299683,4|0,1:2|2:0,2:1:0:0:
243,6,216393,2,2,B|227:53|227:53|313:256,1,270.720010299683,0|0,3:0|2:0,2:1:0:0:
271,372,216598,2,2,B|257:314|257:314|288:211,1,135.360005149842,8|0,1:0|2:0,2:1:0:0:
500,198,216734,5,0,1:0:0:0:
433,189,216802,1,0,3:0:0:0:
366,180,216870,1,0,3:0:0:0:
299,172,216939,1,0,3:0:0:0:
246,214,217007,1,0,1:0:0:0:
203,160,217075,1,0,3:0:0:0:
161,107,217143,1,0,3:0:0:0:
119,54,217211,1,0,3:0:0:0:
77,1,217279,2,0,B|36:17|36:17|-22:112,1,135.360005149842,0|0,1:0|2:0,2:0:0:0:
79,243,217416,2,0,B|54:206|54:206|61:94,1,135.360005149842,0|0,1:0|2:0,2:0:0:0:
252,53,217552,2,0,L|109:93,1,135.360005149842,0|0,1:0|2:0,2:0:0:0:
249,133,217689,2,0,L|114:86,1,135.360005149842,0|0,1:0|2:0,2:0:0:0:
77,1,217825,6,2,B|41:26|41:26|-28:321,1,270.720010299683,4|0,1:2|2:0,2:1:0:0:
91,336,218029,2,2,B|109:296|109:296|21:6,1,272.700010299683,0|0,3:0|2:0,2:1:0:0:
156,17,218234,2,2,B|129:66|129:66|139:174,1,135.360005149842,8|0,1:0|2:0,2:1:0:0:
168,378,218370,2,2,B|198:160|198:160|158:98,1,272.700010299683,4|0,1:2|2:0,2:1:0:0:
243,6,218575,2,2,B|227:53|227:53|313:256,1,270.720010299683,0|0,3:0|2:0,2:1:0:0:
271,372,218779,2,2,B|257:314|257:314|288:211,1,137.340005149842,8|0,1:0|2:0,2:1:0:0:
318,41,218916,2,2,B|327:174|327:174|396:313,1,270.720010299683,4|0,1:2|2:0,2:1:0:0:
429,369,219120,2,2,B|426:235|426:235|482:91,1,272.700010299683,0|0,3:0|2:0,2:1:0:0:
434,47,219325,2,2,B|405:19|405:19|392:157,1,135.360005149842,8|0,1:0|2:0,2:1:0:0:
474,198,219461,2,2,B|431:204|431:204|280:157|280:157|244:129|244:129|120:135,1,324.863990112305,4|0,1:2|2:0,2:1:0:0:
23,197,219666,2,2,B|64:183|64:183|211:225|211:225|229:220|229:220|377:215,1,323.999990112305,0|0,3:0|2:0,2:1:0:0:
422,271,219870,2,2,B|346:317|346:317|239:326,1,162.431995056153,8|0,1:0|2:0,2:1:0:0:
203,365,220007,6,0,B|182:261|182:261|160:229,2,135.03,2|2|2,2:1|2:1|2:1,2:1:0:0:
247,216,220552,2,0,B|277:144|277:144|302:130,2,94.499997116089,2|2|2,2:1|2:1|2:1,2:1:0:0:
224,95,221098,5,0,3:0:0:0:
223,90,221166,1,0,3:0:0:0:
222,86,221234,1,0,3:0:0:0:
221,82,221302,1,0,3:0:0:0:
220,78,221370,1,0,3:0:0:0:
220,74,221439,1,0,3:0:0:0:
219,70,221507,1,0,3:0:0:0:
218,65,221575,1,0,3:0:0:0:
217,61,221643,1,0,3:0:0:0:
217,57,221711,1,0,3:0:0:0:
216,53,221779,1,0,3:0:0:0:
215,49,221848,1,0,3:0:0:0:
214,45,221916,1,0,3:0:0:0:
214,41,221984,1,0,3:0:0:0:
213,36,222052,1,0,3:0:0:0:
212,32,222120,1,0,3:0:0:0:
415,30,223552,5,4,1:3:0:0:
423,120,223689,1,4,2:3:0:0:
415,30,223961,1,4,2:3:0:0:
423,120,224098,1,0,2:0:0:0:
54,112,224370,1,4,2:3:0:0:
54,112,224643,1,4,2:3:0:0:
97,171,224779,1,0,2:0:0:0:
164,141,224916,1,4,2:3:0:0:
146,248,225052,1,4,2:3:0:0:
164,141,225325,1,4,2:3:0:0:
146,248,225461,1,4,2:3:0:0:
348,355,225734,1,4,2:3:0:0:
348,355,226007,1,4,2:3:0:0:
413,323,226143,1,0,2:0:0:0:
416,255,226279,1,4,2:3:0:0:
326,176,226416,1,4,2:3:0:0:
416,255,226689,1,4,2:3:0:0:
326,176,226825,1,4,2:3:0:0:
350,22,227098,1,4,2:3:0:0:
350,22,227370,1,4,2:3:0:0:
292,74,227507,1,0,2:0:0:0:
225,31,227643,2,0,B|207:101|207:101|241:188,1,144.384,4|0,2:0|2:0,2:0:0:0:
225,31,228052,2,0,B|251:97|251:97|233:167,1,144.384,4|0,2:0|2:0,2:0:0:0:
73,302,228461,1,4,2:3:0:0:
73,302,228734,1,12,1:3:0:0:
249,272,228870,1,0,2:0:0:0:
430,357,229007,6,0,B|480:337|480:337|397:331,1,90.2400000000001,6|0,1:0|2:0,2:0:0:0:
430,357,229143,2,0,B|354:350|354:350|309:375|309:375|186:398,1,180.48,2|0,2:1|1:0,2:0:0:0:
99,324,229416,2,0,L|230:312,1,90.2400000000001,2|0,2:1|2:0,2:0:0:0:
99,324,229552,2,0,B|138:335|138:335|322:293,1,180.48,2|0,1:0|2:0,2:0:0:0:
408,223,229825,2,0,B|397:278|397:278|322:254,1,135.360005149842,2|0,1:0|2:0,2:0:0:0:
408,223,229961,2,0,B|368:197|368:197|263:219|263:219|227:241|227:241|128:212,1,270.720010299683,2|0,2:1|1:0,2:0:0:0:
97,144,230234,2,0,B|112:120|112:120|241:83,1,135.360005149842,2|0,2:1|2:0,2:0:0:0:
97,144,230370,2,0,B|67:115|67:115|210:159|210:159|247:146|247:146|298:143,1,270.720010299683,0|0,1:0|2:0,2:0:0:0:
367,2,230643,2,0,B|401:61|401:61|327:136,1,135.360005149842,2|0,1:0|2:0,2:0:0:0:
84,250,230779,2,0,B|50:191|50:191|124:116,1,135.360005149842,2|0,2:1|2:0,2:0:0:0:
329,204,230916,2,0,B|376:215|376:215|287:249,1,90.2400000000001,2|0,1:0|2:0,2:0:0:0:
176,321,231052,2,0,B|129:310|129:310|218:276,1,90.2400000000001,2|0,2:1|2:0,2:0:0:0:
254,342,231461,6,2,L|239:384,3,45.12,2|2|2|2,2:0|2:0|2:0|2:0,2:0:0:0:
238,266,231734,2,2,B|221:206|221:206|229:188,3,67.6800025749208,0|0|0|0,2:0|2:0|2:0|2:0,2:0:0:0:
286,145,232007,2,2,B|332:154|332:154|437:118,3,90.2400000000001,0|0|0|0,2:0|2:0|2:0|2:0,2:0:0:0:
216,104,232279,5,4,3:0:0:0:
219,91,232347,1,4,3:0:0:0:
223,79,232416,1,4,3:0:0:0:
227,67,232484,1,4,3:0:0:0:
231,55,232552,1,4,3:0:0:0:
235,42,232620,1,4,3:0:0:0:
239,30,232688,1,4,3:0:0:0:
243,18,232757,1,4,3:0:0:0:
291,45,232825,1,0,3:0:0:0:
337,71,232893,1,0,3:0:0:0:
383,97,232961,1,0,3:0:0:0:
429,123,233029,1,0,3:0:0:0:
384,153,233097,1,0,3:0:0:0:
339,184,233166,1,0,3:0:0:0:
294,214,233234,1,0,3:0:0:0:
249,245,233302,1,0,3:0:0:0:
205,276,233370,1,4,1:0:0:0:
105,129,233734,6,0,B|101:53|101:53|89:32,2,90.4050034332278,0|0|0,3:0|3:0|3:0,2:0:0:0:
9,354,234097,1,4,3:2:0:0:
187,294,234279,2,0,B|208:349|208:349|201:383,1,90.9000034332278,4|0,3:2|2:0,2:0:0:0:
91,330,234461,1,4,3:2:0:0:
342,363,234643,1,4,3:2:0:0:
487,188,234825,1,4,3:2:0:0:
274,313,235007,1,4,3:2:0:0:
274,313,235279,2,0,L|218:113,1,180.810006866455,6|0,3:1|2:0,2:0:0:0:
210,64,235552,5,2,1:2:0:0:
121,46,235643,5,0,3:0:0:0:
32,29,235734,5,0,3:0:0:0:
56,115,235825,5,2,1:2:0:0:
80,201,235916,5,0,3:0:0:0:
105,287,236007,5,0,3:0:0:0:
191,309,236097,5,2,1:2:0:0:
278,331,236188,5,0,3:0:0:0:
364,354,236279,5,0,3:0:0:0:
396,270,236370,5,2,1:2:0:0:
428,186,236461,5,0,3:0:0:0:
461,102,236552,5,0,3:0:0:0:
494,18,236643,5,2,1:2:0:0:
406,41,236734,5,0,3:0:0:0:
319,64,236825,5,0,3:0:0:0:
232,87,236916,5,2,1:2:0:0:
293,153,237007,5,0,3:0:0:0:
353,218,237097,5,0,3:0:0:0:
413,284,237188,5,2,1:2:0:0:
474,349,237279,5,0,3:0:0:0:
386,328,237370,5,0,3:0:0:0:
298,308,237461,5,2,1:2:0:0:
210,288,237552,5,0,3:0:0:0:
122,268,237643,5,0,3:0:0:0:
34,248,237734,5,2,3:1:0:0:
86,235,237802,1,0,3:0:0:0:
138,223,237870,1,8,1:0:0:0:
190,211,237938,1,0,1:0:0:0:
243,199,238007,1,2,3:2:0:0:
265,149,238075,1,0,3:0:0:0:
287,99,238143,1,10,1:2:0:0:
310,50,238211,1,0,1:0:0:0:
258,33,238279,1,2,3:1:0:0:
206,17,238347,1,0,3:0:0:0:
200,71,238416,1,8,1:0:0:0:
195,124,238484,1,0,1:0:0:0:
190,177,238552,1,2,3:2:0:0:
185,230,238620,1,0,3:0:0:0:
180,283,238688,1,10,1:2:0:0:
233,273,238757,1,0,1:0:0:0:
286,264,238825,1,2,3:1:0:0:
339,255,238893,1,0,3:0:0:0:
392,246,238961,1,8,1:0:0:0:
421,291,239029,1,0,1:0:0:0:
450,336,239097,1,2,3:2:0:0:
479,381,239166,1,0,3:0:0:0:
483,327,239234,1,10,1:2:0:0:
487,273,239302,1,0,1:0:0:0:
491,219,239370,1,2,3:1:0:0:
495,165,239438,1,0,3:0:0:0:
500,110,239507,1,8,1:0:0:0:
505,56,239575,1,0,1:0:0:0:
451,50,239643,1,2,3:2:0:0:
397,44,239711,1,0,3:0:0:0:
343,38,239779,1,10,1:2:0:0:
289,32,239847,1,0,1:0:0:0:
317,78,239916,1,2,3:1:0:0:
345,123,239984,1,0,3:0:0:0:
300,153,240052,1,8,1:0:0:0:
255,183,240120,1,0,1:0:0:0:
211,214,240188,1,2,3:2:0:0:
166,245,240257,1,0,3:0:0:0:
117,222,240325,1,10,1:2:0:0:
68,199,240393,1,0,1:0:0:0:
19,176,240461,1,2,3:1:0:0:
72,173,240529,1,0,3:0:0:0:
125,170,240597,1,8,1:0:0:0:
179,167,240666,1,0,1:0:0:0:
232,165,240734,1,2,3:2:0:0:
252,214,240802,1,0,3:0:0:0:
303,231,240870,1,10,1:2:0:0:
354,248,240938,1,0,1:0:0:0:
405,265,241007,1,2,3:1:0:0:
456,281,241075,1,0,3:0:0:0:
404,295,241143,1,8,1:0:0:0:
352,310,241211,1,0,1:0:0:0:
300,325,241279,1,2,3:2:0:0:
248,340,241347,1,0,3:0:0:0:
195,355,241416,1,10,1:2:0:0:
143,371,241484,1,0,1:0:0:0:
158,319,241552,1,2,3:1:0:0:
173,267,241620,1,0,3:0:0:0:
188,215,241688,1,8,1:0:0:0:
203,162,241757,1,0,1:0:0:0:
219,110,241825,1,2,3:2:0:0:
234,58,241893,1,0,3:0:0:0:
250,6,241961,1,10,1:2:0:0:
205,34,242029,1,0,1:0:0:0:
160,62,242097,5,4,1:2:0:0:
269,166,242234,1,4,1:2:0:0:
413,115,242370,1,4,1:2:0:0:
407,43,242507,1,0,3:0:0:0:
407,43,242575,1,0,3:0:0:0:
407,43,242643,1,4,1:2:0:0:
252,333,242779,1,4,1:2:0:0:
386,258,242916,1,4,1:2:0:0:
68,289,243052,1,4,1:2:0:0:
172,269,243188,1,0,3:0:0:0:
172,269,243257,1,0,3:0:0:0:
172,269,243325,1,4,1:2:0:0:
38,9,243461,1,4,1:2:0:0:
99,216,243597,1,4,1:2:0:0:
307,298,243734,1,4,1:2:0:0:
14,230,243870,1,4,1:2:0:0:
252,250,244007,1,4,1:2:0:0:
466,135,244143,1,4,1:2:0:0:
211,113,244279,1,4,1:2:0:0:
239,43,244416,1,0,3:0:0:0:
239,43,244484,1,0,3:0:0:0:
239,43,244552,1,4,1:2:0:0:
285,182,244688,1,0,3:0:0:0:
285,182,244757,1,0,3:0:0:0:
285,182,244825,1,4,1:2:0:0:
212,367,244961,1,0,3:0:0:0:
212,367,245029,1,0,3:0:0:0:
212,367,245097,1,0,3:0:0:0:
196,206,245234,1,4,1:2:0:0:
47,154,245370,1,4,1:2:0:0:
47,154,245438,1,0,3:0:0:0:
47,154,245507,1,0,3:0:0:0:
351,77,245643,1,4,1:2:0:0:
491,356,245779,1,4,1:2:0:0:
427,35,245916,1,4,1:2:0:0:
107,5,246052,1,4,1:2:0:0:
177,51,246188,1,0,3:0:0:0:
177,51,246257,1,0,3:0:0:0:
177,51,246325,1,4,1:2:0:0:
450,165,246461,1,4,1:2:0:0:
375,171,246597,1,0,3:0:0:0:
375,171,246666,1,0,3:0:0:0:
375,171,246734,1,4,1:2:0:0:
36,330,246870,1,4,1:2:0:0:
281,375,247007,1,4,1:2:0:0:
494,234,247143,1,4,1:2:0:0:
486,304,247279,1,0,3:0:0:0:
486,304,247347,1,0,3:0:0:0:
486,304,247416,1,4,1:2:0:0:
192,300,247552,1,4,1:2:0:0:
116,20,247688,1,4,1:2:0:0:
195,38,247825,1,0,3:0:0:0:
195,38,247893,1,0,3:0:0:0:
195,38,247961,1,4,1:2:0:0:
307,138,248097,1,4,1:2:0:0:
295,308,248234,1,4,1:2:0:0:
444,210,248370,1,4,1:2:0:0:
238,257,248507,1,4,1:2:0:0:
130,90,248643,1,4,1:2:0:0:
477,68,248779,1,4,1:2:0:0:
343,370,248916,1,4,1:2:0:0:
0,313,249052,1,4,1:2:0:0:
126,16,249188,1,4,1:2:0:0:
43,179,250007,6,0,B|119:168|119:168|121:156|121:156|213:178|213:178|254:259|254:259|273:315|273:315|266:331|266:331|252:291|252:291|266:248|266:248|351:262|351:262|389:230|389:230|389:214|389:214|462:177|462:177|384:207|384:207|374:197|374:197|332:192|332:192|283:233,1,855.300000000001,2|0,2:0|2:0,2:0:0:0:
256,192,251779,5,4,1:0:0:0:
256,192,251847,12,0,254234,2:0:0:0:
