osu file format v14

[General]
AudioFilename: audio.mp3
AudioLeadIn: 0
PreviewTime: 132856
Countdown: 0
SampleSet: Normal
StackLeniency: 0.7
Mode: 1
LetterboxInBreaks: 0
WidescreenStoryboard: 0

[Editor]
Bookmarks: 55981,107254
DistanceSpacing: 3.3
BeatDivisor: 4
GridSize: 32
TimelineZoom: 2.699999

[Metadata]
Title:ENDYMION (long edit)
TitleUnicode:ENDYMION (long edit)
Artist:fallen shepherd feat. RabbiTon Strings
ArtistUnicode:fallen shepherd feat. RabbiTon Strings
Creator:dtn
Version:Encore Extra Stage
Source:DanceDanceRevolution A
Tags:ダンスダンスレボリューション A dancing stage video rhythm game hardcore electronic instrumental arm アニマル・ストライク!animal strike! ddra iosys cool&create sdvx sound voltex vivid wave 木村洋平 youhei kimura
BeatmapID:3360122
BeatmapSetID:1646183

[Difficulty]
HPDrainRate:5
CircleSize:5
OverallDifficulty:6
ApproachRate:5
SliderMultiplier:1.4
SliderTickRate:1

[Events]
//Background and Video events
0,0,"backg.jpg",0,0
//Break Periods
2,55636,56963
//Storyboard Layer 0 (Background)
//Storyboard Layer 1 (Fail)
//Storyboard Layer 2 (Pass)
//Storyboard Layer 3 (Foreground)
//Storyboard Layer 4 (Overlay)
//Storyboard Sound Samples

[TimingPoints]
1436,272.727272727273,4,1,0,100,1,0
1436,-71.428571428572,4,1,0,100,0,0
1538,-73.088832589375,4,1,0,100,0,0
1674,-74.828111490798,4,1,0,100,0,0
1811,-76.665928480285,4,1,0,100,0,0
1947,-78.581851591634,4,1,0,100,0,0
2083,-80.595989046927,4,1,0,100,0,0
2220,-82.732093679587,4,1,0,100,0,0
2356,-84.967625815198,4,1,0,100,0,0
2492,-87.327327327327,4,1,0,100,0,0
2629,-89.840708839485,4,1,0,100,0,0
2765,-92.483049014744,4,1,0,100,0,0
2902,-95.306764551652,4,1,0,100,0,0
3038,-98.285745187108,4,1,0,100,0,0
3174,-101.456961036061,4,1,0,100,0,0
3311,-104.865348277006,4,1,0,100,0,0
3447,-108.483175408491,4,1,0,100,0,0
3583,-71.4285714285714,4,1,0,100,0,0
3794,-72.108603667137,4,1,0,100,0,0
3840,-72.81726249822,4,1,0,100,0,0
3885,-73.524124541598,4,1,0,100,0,0
4021,-75.746351581599,4,1,0,100,0,0
4158,-78.125,4,1,0,100,0,0
4203,-78.939241874469,4,1,0,100,0,0
4249,-79.789309403043,4,1,0,100,0,0
4294,-80.63880126183,4,1,0,100,0,0
4362,-81.957358127605,4,1,0,100,0,0
4431,-83.340125519602,4,1,0,100,0,0
4499,-84.749274761707,4,1,0,100,0,0
4567,-86.206896551724,4,1,0,100,0,0
4635,-87.715535729605,4,1,0,100,0,0
4703,-89.277918449315,4,1,0,100,0,0
4840,-92.60097808368,4,1,0,100,0,0
4885,-93.747134867516,4,1,0,100,0,0
4931,-94.948463181354,4,1,0,100,0,0
4976,-96.153846153846,4,1,0,100,0,0
5112,-99.990221005281,4,1,0,100,0,0
5249,-104.177279673968,4,1,0,100,0,0
5294,-105.630165289256,4,1,0,100,0,0
5340,-107.157828547474,4,1,0,100,0,0
5385,-108.695652173913,4,1,0,100,0,0
5453,-111.10507443225,4,1,0,100,0,0
5521,-113.623735970663,4,1,0,100,0,0
5590,-116.298908098271,4,1,0,100,0,0
5658,-119.061481136469,4,1,0,100,0,0
5726,-121.958492366412,4,1,0,100,0,0
5799,-125,4,1,0,100,0,0
5936,-120.519455625839,4,1,0,100,0,0
6072,-115.261228230981,4,1,0,100,0,0
6208,-110.44264886703,4,1,0,100,0,0
6345,-105.979520458472,4,1,0,100,0,0
6481,-101.891990438764,4,1,0,100,0,0
6617,-98.108055393017,4,1,0,100,0,0
6754,-94.57020380537,4,1,0,100,0,0
6822,-92.907277428888,4,1,0,100,0,0
6890,-91.301822406157,4,1,0,100,0,0
7026,-88.251807144361,4,1,0,100,0,0
7163,-85.378687578504,4,1,0,100,0,0
7299,-82.705777894702,4,1,0,100,0,0
7436,-80.177250701352,4,1,0,100,0,0
7572,-77.815594059406,4,1,0,100,0,0
7640,-76.686181241615,4,1,0,100,0,0
7708,-75.589083914403,4,1,0,100,0,0
7811,-73.471414799451,4,1,0,100,0,0
7879,-72.463768115942,4,1,0,100,0,0
7947,-71.4285714285714,4,1,0,100,0,0
8158,-72.108603667137,4,1,0,100,0,0
8204,-72.81726249822,4,1,0,100,0,0
8249,-73.524124541598,4,1,0,100,0,0
8385,-75.746351581599,4,1,0,100,0,0
8522,-78.125,4,1,0,100,0,0
8567,-78.939241874469,4,1,0,100,0,0
8613,-79.789309403043,4,1,0,100,0,0
8658,-80.63880126183,4,1,0,100,0,0
8726,-81.957358127605,4,1,0,100,0,0
8795,-83.340125519602,4,1,0,100,0,0
8863,-84.749274761707,4,1,0,100,0,0
8931,-86.206896551724,4,1,0,100,0,0
8999,-87.715535729605,4,1,0,100,0,0
9067,-89.277918449315,4,1,0,100,0,0
9204,-92.60097808368,4,1,0,100,0,0
9249,-93.747134867516,4,1,0,100,0,0
9295,-94.948463181354,4,1,0,100,0,0
9340,-96.153846153846,4,1,0,100,0,0
9476,-99.990221005281,4,1,0,100,0,0
9613,-104.177279673968,4,1,0,100,0,0
9658,-105.630165289256,4,1,0,100,0,0
9704,-107.157828547474,4,1,0,100,0,0
9749,-108.695652173913,4,1,0,100,0,0
9817,-111.10507443225,4,1,0,100,0,0
9885,-113.623735970663,4,1,0,100,0,0
9954,-116.298908098271,4,1,0,100,0,0
10022,-119.061481136469,4,1,0,100,0,0
10090,-121.958492366412,4,1,0,100,0,0
10163,-125,4,1,0,100,0,0
10265,-120.519455625839,4,1,0,100,0,0
10401,-115.261228230981,4,1,0,100,0,0
10537,-110.44264886703,4,1,0,100,0,0
10674,-105.979520458472,4,1,0,100,0,0
10810,-101.891990438764,4,1,0,100,0,0
10946,-98.108055393017,4,1,0,100,0,0
11083,-94.57020380537,4,1,0,100,0,0
11151,-92.907277428888,4,1,0,100,0,0
11219,-91.301822406157,4,1,0,100,0,0
11765,-93.015332197615,4,1,0,100,0,0
11834,-94.3396226415094,4,1,0,100,0,0
11902,-96.1538461538461,4,1,0,100,0,0
11970,-98.0392156862745,4,1,0,100,0,0
12038,-100,4,1,0,100,0,0
12106,-102.040816326531,4,1,0,100,0,0
12174,-104.166666666667,4,1,0,100,0,0
12242,-106.382978723404,4,1,0,100,0,0
12311,-108.695652173913,4,1,0,20,0,0
12448,-111.451862040973,4,1,0,20,0,0
12584,-112.836025341019,4,1,0,21,0,0
12721,-114.265567744397,4,1,0,22,0,0
12857,-115.720958546493,4,1,0,24,0,0
12993,-117.213902031233,4,1,0,25,0,0
13130,-118.757283419633,4,1,0,26,0,0
13266,-120.330131833619,4,1,0,27,0,0
13403,-121.957237856711,4,1,0,28,0,0
13539,-123.616582254736,4,1,0,29,0,0
13675,-125.321703411641,4,1,0,30,0,0
13812,-127.087592085471,4,1,0,31,0,0
13948,-128.890511519956,4,1,0,32,0,0
14084,-125,4,1,0,34,0,0
14221,-121.951219512195,4,1,0,35,0,0
14357,-119.047619047619,4,1,0,36,0,0
14493,-111.424658671204,4,1,0,36,0,0
14630,-112.70620828611,4,1,0,37,0,0
14766,-114.007897753811,4,1,0,38,0,0
14903,-115.349916226318,4,1,0,39,0,0
15039,-116.713757878722,4,1,0,40,0,0
15175,-118.110236220472,4,1,0,41,0,0
15312,-119.551182154148,4,1,0,42,0,0
15448,-121.01681164646,4,1,0,43,0,0
15584,-122.518822724162,4,1,0,44,0,0
15721,-124.070052215702,4,1,0,45,0,0
15857,-125.649305068089,4,1,0,46,0,0
15993,-127.269279992416,4,1,0,47,0,0
16130,-128.943956202276,4,1,0,48,0,0
16266,-130.650576614277,4,1,0,49,0,0
16403,-132.416037875425,4,1,0,50,0,0
16539,-134.216445888528,4,1,0,51,0,0
16674,-100,4,1,0,80,0,0
16811,-104.166666666667,4,1,0,80,0,0
16947,-108.695652173913,4,1,0,80,0,0
17083,-113.636363636364,4,1,0,80,0,0
17220,-100,4,1,0,80,0,0
17357,-104.166666666667,4,1,0,80,0,0
17493,-108.695652173913,4,1,0,80,0,0
17629,-113.636363636364,4,1,0,80,0,0
17765,-100,4,1,0,80,0,0
17902,-104.166666666667,4,1,0,80,0,0
18038,-108.695652173913,4,1,0,80,0,0
18174,-113.636363636364,4,1,0,80,0,0
18311,-100,4,1,0,80,0,0
18448,-104.166666666667,4,1,0,80,0,0
18584,-108.695652173913,4,1,0,80,0,0
18720,-113.636363636364,4,1,0,80,0,0
18856,-100,4,1,0,80,0,0
18993,-98.0392156862745,4,1,0,80,0,0
19129,-96.1538461538461,4,1,0,80,0,0
19265,-94.3396226415094,4,1,0,80,0,0
19333,-92.5925925925926,4,1,0,80,0,0
19401,-90.9090909090909,4,1,0,80,0,0
19538,-89.2857142857143,4,1,0,80,0,0
19674,-87.719298245614,4,1,0,80,0,0
19811,-86.2068965517241,4,1,0,80,0,0
19879,-84.7457627118644,4,1,0,80,0,0
19947,-83.3333333333333,4,1,0,80,0,0
21072,-90.9090909090909,4,1,0,80,0,0
21174,-92.5925925925926,4,1,0,80,0,0
21242,-94.3396226415094,4,1,0,80,0,0
21311,-96.1538461538461,4,1,0,80,0,0
21447,-98.0392156862745,4,1,0,80,0,0
21583,-92.5925925925926,4,1,0,80,0,0
21651,-94.3396226415094,4,1,0,80,0,0
21720,-96.1538461538461,4,1,0,80,0,0
21856,-92.5925925925926,4,1,0,80,0,0
21924,-94.3396226415094,4,1,0,80,0,0
21993,-96.1538461538461,4,1,0,80,0,0
22129,-90.9090909090909,4,1,0,80,0,0
22265,-92.5925925925926,4,1,0,80,0,0
22333,-94.3396226415094,4,1,0,80,0,0
22402,-96.1538461538461,4,1,0,80,0,0
22538,-98.0392156862745,4,1,0,80,0,0
22674,-92.5925925925926,4,1,0,80,0,0
22742,-94.3396226415094,4,1,0,80,0,0
22811,-96.1538461538461,4,1,0,80,0,0
22947,-92.5925925925926,4,1,0,80,0,0
23015,-94.3396226415094,4,1,0,80,0,0
23084,-96.1538461538461,4,1,0,80,0,0
23220,-90.9090909090909,4,1,0,80,0,0
23356,-92.5925925925926,4,1,0,80,0,0
23424,-94.3396226415094,4,1,0,80,0,0
23493,-96.1538461538461,4,1,0,80,0,0
23629,-98.0392156862745,4,1,0,80,0,0
23765,-92.5925925925926,4,1,0,80,0,0
23833,-94.3396226415094,4,1,0,80,0,0
23902,-96.1538461538461,4,1,0,80,0,0
24038,-92.5925925925926,4,1,0,80,0,0
24106,-94.3396226415094,4,1,0,80,0,0
24175,-96.1538461538461,4,1,0,80,0,0
24242,-98.0392156862745,4,1,0,80,0,0
24311,-100,4,1,0,80,0,0
24447,-98.0392156862745,4,1,0,80,0,0
24515,-96.1538461538461,4,1,0,80,0,0
24583,-94.3396226415094,4,1,0,80,0,0
24720,-96.1538461538461,4,1,0,80,0,0
24788,-98.0392156862745,4,1,0,80,0,0
24856,-100,4,1,0,80,0,0
25129,-87.719298245614,4,1,0,80,0,0
25265,-89.2857142857143,4,1,0,80,0,0
25436,-90.9090909090909,4,1,0,80,0,0
25538,-92.5925925925926,4,1,0,80,0,0
25606,-94.3396226415094,4,1,0,80,0,0
25675,-96.1538461538461,4,1,0,80,0,0
25811,-98.0392156862745,4,1,0,80,0,0
25947,-92.5925925925926,4,1,0,80,0,0
26015,-94.3396226415094,4,1,0,80,0,0
26084,-96.1538461538461,4,1,0,80,0,0
26220,-92.5925925925926,4,1,0,80,0,0
26288,-94.3396226415094,4,1,0,80,0,0
26357,-96.1538461538461,4,1,0,80,0,0
26493,-90.9090909090909,4,1,0,80,0,0
26629,-92.5925925925926,4,1,0,80,0,0
26697,-94.3396226415094,4,1,0,80,0,0
26766,-96.1538461538461,4,1,0,80,0,0
26902,-98.0392156862745,4,1,0,80,0,0
27038,-92.5925925925926,4,1,0,80,0,0
27106,-94.3396226415094,4,1,0,80,0,0
27175,-96.1538461538461,4,1,0,80,0,0
29799,-90.9090909090909,4,1,0,80,0,0
29901,-92.5925925925926,4,1,0,80,0,0
29969,-94.3396226415094,4,1,0,80,0,0
30038,-96.1538461538461,4,1,0,80,0,0
30174,-98.0392156862745,4,1,0,80,0,0
30310,-92.5925925925926,4,1,0,80,0,0
30378,-94.3396226415094,4,1,0,80,0,0
30447,-96.1538461538461,4,1,0,80,0,0
30583,-92.5925925925926,4,1,0,80,0,0
30651,-94.3396226415094,4,1,0,80,0,0
30720,-96.1538461538461,4,1,0,80,0,0
30856,-90.9090909090909,4,1,0,80,0,0
30992,-92.5925925925926,4,1,0,80,0,0
31060,-94.3396226415094,4,1,0,80,0,0
31129,-96.1538461538461,4,1,0,80,0,0
31265,-98.0392156862745,4,1,0,80,0,0
31401,-92.5925925925926,4,1,0,80,0,0
31469,-94.3396226415094,4,1,0,80,0,0
31538,-96.1538461538461,4,1,0,80,0,0
31674,-92.5925925925926,4,1,0,80,0,0
31742,-94.3396226415094,4,1,0,80,0,0
31811,-96.1538461538461,4,1,0,80,0,0
31947,-90.9090909090909,4,1,0,80,0,0
32083,-92.5925925925926,4,1,0,80,0,0
32151,-94.3396226415094,4,1,0,80,0,0
32220,-96.1538461538461,4,1,0,80,0,0
32356,-98.0392156862745,4,1,0,80,0,0
32492,-92.5925925925926,4,1,0,80,0,0
32560,-94.3396226415094,4,1,0,80,0,0
32629,-96.1538461538461,4,1,0,80,0,0
32765,-92.5925925925926,4,1,0,80,0,0
32833,-94.3396226415094,4,1,0,80,0,0
32902,-96.1538461538461,4,1,0,80,0,0
32969,-98.0392156862745,4,1,0,80,0,0
33038,-100,4,1,0,80,0,0
33174,-98.0392156862745,4,1,0,80,0,0
33242,-96.1538461538461,4,1,0,80,0,0
33310,-94.3396226415094,4,1,0,80,0,0
33447,-96.1538461538461,4,1,0,80,0,0
33515,-98.0392156862745,4,1,0,80,0,0
33583,-100,4,1,0,80,0,0
33856,-87.719298245614,4,1,0,80,0,0
33992,-89.2857142857143,4,1,0,80,0,0
34163,-90.9090909090909,4,1,0,80,0,0
34299,-92.5925925925926,4,1,0,80,0,0
34481,-94.3396226415094,4,1,0,80,0,0
34663,-96.1538461538461,4,1,0,80,0,0
34845,-98.0392156862745,4,1,0,80,0,0
35026,-100,4,1,0,80,0,0
35220,-102.040816326531,4,1,0,80,0,0
35356,-104.166666666667,4,1,0,80,0,0
35424,-106.382978723404,4,1,0,80,0,0
35561,-108.695652173913,4,1,0,80,0,0
35629,-111.111111111111,4,1,0,80,0,0
35765,-108.695652173913,4,1,0,80,0,0
35901,-106.382978723404,4,1,0,80,0,0
36038,-104.166666666667,4,1,0,80,0,0
36174,-100,4,1,0,80,0,0
37538,-102.040816326531,4,1,0,80,0,0
37674,-104.166666666667,4,1,0,80,0,0
37811,-106.382978723404,4,1,0,80,0,0
37947,-108.695652173913,4,1,0,80,0,0
38083,-111.111111111111,4,1,0,80,0,0
38220,-113.636363636364,4,1,0,80,0,0
38356,-116.279069767442,4,1,0,80,0,0
38526,-90.9090909090909,4,1,0,80,0,0
40742,-89.2857142857143,4,1,0,80,0,0
40811,-87.719298245614,4,1,0,80,0,0
40879,-86.2068965517241,4,1,0,80,0,0
41288,-87.719298245614,4,1,0,80,0,0
41356,-89.2857142857143,4,1,0,80,0,0
41424,-90.9090909090909,4,1,0,80,0,0
41492,-92.5925925925926,4,1,0,80,0,0
41765,-90.9090909090909,4,1,0,80,0,0
45106,-89.2857142857143,4,1,0,80,0,0
45175,-87.719298245614,4,1,0,80,0,0
45243,-86.2068965517241,4,1,0,80,0,0
45652,-87.719298245614,4,1,0,80,0,0
45720,-89.2857142857143,4,1,0,80,0,0
45788,-90.9090909090909,4,1,0,80,0,0
45856,-92.5925925925926,4,1,0,80,0,0
46129,-90.9090909090909,4,1,0,80,0,0
47254,-100,4,1,0,100,0,1
51583,-90.9090909090909,4,1,0,100,0,1
53799,-90.9090909090909,4,1,0,100,0,0
53901,-93.4579439252336,4,1,0,100,0,0
54038,-96.1538461538461,4,1,0,100,0,0
54311,-99.009900990099,4,1,0,100,0,0
54583,-102.040816326531,4,1,0,100,0,0
54856,-105.263157894737,4,1,0,100,0,0
55504,-111.111111111111,4,1,0,50,0,0
57072,-133.333333333333,4,1,0,50,0,0
58163,-166.666666666667,4,1,0,50,0,0
66845,-142.857142857143,4,1,0,50,0,0
67027,-145.256790719468,4,1,0,50,0,0
67118,-146.487101832163,4,1,0,50,0,0
67209,-147.738432210733,4,1,0,50,0,0
67391,-150.306342839512,4,1,0,50,0,0
67572,-152.950235106789,4,1,0,50,0,0
67754,-155.704207666492,4,1,0,50,0,0
67936,-158.559172950394,4,1,0,50,0,0
68118,-161.520790078234,4,1,0,50,0,0
68300,-164.595149028599,4,1,0,50,0,0
68481,-167.770926266072,4,1,0,50,0,0
68663,-171.090261401836,4,1,0,50,0,0
68845,-174.543593243474,4,1,0,50,0,0
69026,-142.857142857143,4,1,0,50,0,0
69208,-145.256790719468,4,1,0,50,0,0
69299,-146.487101832163,4,1,0,50,0,0
69390,-147.738432210733,4,1,0,50,0,0
69572,-150.306342839512,4,1,0,50,0,0
69753,-152.950235106789,4,1,0,50,0,0
69935,-155.704207666492,4,1,0,50,0,0
70117,-158.559172950394,4,1,0,50,0,0
70299,-161.520790078234,4,1,0,50,0,0
70481,-164.595149028599,4,1,0,50,0,0
70662,-167.770926266072,4,1,0,50,0,0
70844,-171.090261401836,4,1,0,50,0,0
71026,-174.543593243474,4,1,0,50,0,0
71208,-142.857142857143,4,1,0,50,0,0
71390,-145.121030939804,4,1,0,50,0,0
71571,-147.444781929168,4,1,0,50,0,0
71753,-149.857635246516,4,1,0,50,0,0
71935,-152.350772418416,4,1,0,50,0,0
72117,-154.928268211818,4,1,0,50,0,0
72299,-157.594477889495,4,1,0,50,0,0
72480,-160.338635197537,4,1,0,50,0,0
72662,-163.196031072524,4,1,0,50,0,0
72844,-166.157118170942,4,1,0,50,0,0
73026,-169.227645028092,4,1,0,50,0,0
73208,-172.413793103448,4,1,0,50,0,0
73390,-142.857142857143,4,1,0,50,0,0
73572,-145.121030939804,4,1,0,50,0,0
73753,-147.444781929168,4,1,0,50,0,0
73935,-149.857635246516,4,1,0,50,0,0
74117,-152.350772418416,4,1,0,50,0,0
74299,-154.928268211818,4,1,0,50,0,0
74481,-157.594477889495,4,1,0,50,0,0
74662,-160.338635197537,4,1,0,50,0,0
74844,-163.196031072524,4,1,0,50,0,0
75026,-166.157118170942,4,1,0,50,0,0
75208,-169.227645028092,4,1,0,50,0,0
75390,-172.413793103448,4,1,0,50,0,0
75617,-166.666666666667,4,1,0,50,0,0
77799,-166.666666666667,4,1,0,30,0,0
79947,-166.666666666667,4,1,0,50,0,0
80015,-163.934426229508,4,1,0,50,0,0
80083,-161.290322580645,4,1,0,50,0,0
80151,-158.730158730159,4,1,0,50,0,0
80220,-156.25,4,1,0,50,0,0
80492,-166.666666666667,4,1,0,50,0,0
80560,-163.934426229508,4,1,0,50,0,0
80628,-161.290322580645,4,1,0,50,0,0
80696,-158.730158730159,4,1,0,50,0,0
80765,-156.25,4,1,0,50,0,0
81038,-166.666666666667,4,1,0,50,0,0
81106,-163.934426229508,4,1,0,50,0,0
81174,-161.290322580645,4,1,0,50,0,0
81242,-158.730158730159,4,1,0,50,0,0
81311,-156.25,4,1,0,50,0,0
81583,-166.666666666667,4,1,0,50,0,0
81651,-163.934426229508,4,1,0,50,0,0
81719,-161.290322580645,4,1,0,50,0,0
81787,-158.730158730159,4,1,0,50,0,0
81856,-156.25,4,1,0,50,0,0
82129,-156.25,4,1,0,50,0,0
82197,-158.730158730159,4,1,0,50,0,0
82265,-161.290322580645,4,1,0,50,0,0
82333,-163.934426229508,4,1,0,50,0,0
82401,-166.666666666667,4,1,0,50,0,0
82674,-156.25,4,1,0,50,0,0
82742,-158.730158730159,4,1,0,50,0,0
82810,-161.290322580645,4,1,0,50,0,0
82878,-163.934426229508,4,1,0,50,0,0
82946,-166.666666666667,4,1,0,50,0,0
83220,-156.25,4,1,0,50,0,0
83288,-158.730158730159,4,1,0,50,0,0
83356,-161.290322580645,4,1,0,50,0,0
83424,-163.934426229508,4,1,0,50,0,0
83492,-166.666666666667,4,1,0,50,0,0
83765,-156.25,4,1,0,50,0,0
83833,-158.730158730159,4,1,0,50,0,0
83901,-161.290322580645,4,1,0,50,0,0
83969,-163.934426229508,4,1,0,50,0,0
84037,-166.666666666667,4,1,0,50,0,0
100845,-153.846153846154,4,1,0,50,0,0
102038,-149.253731343284,4,1,0,50,0,0
102311,-144.927536231884,4,1,0,50,0,0
102583,-140.845070422535,4,1,0,50,0,0
102856,-136.986301369863,4,1,0,50,0,0
102992,-133.333333333333,4,1,0,50,0,0
103129,-129.87012987013,4,1,0,50,0,0
103333,-126.582278481013,4,1,0,50,0,0
103606,-123.456790123457,4,1,0,50,0,0
104492,-120.481927710843,4,1,0,50,0,0
105754,-100,4,1,0,100,0,0
107254,272.727272727273,5,1,0,100,1,0
118163,-100,5,1,0,100,0,1
126344,272.727272727273,4,1,0,100,1,0
126446,-98.0392156862745,4,1,0,100,0,0
126514,-96.1538461538461,4,1,0,100,0,0
126582,-94.3396226415094,4,1,0,100,0,0
126719,-92.5925925925926,4,1,0,100,0,0
126855,-90.9090909090909,4,1,0,100,0,0
126991,-92.5925925925926,4,1,0,100,0,0
127059,-94.3396226415094,4,1,0,100,0,0
127128,-96.1538461538461,4,1,0,100,0,0
127264,-98.0392156862745,4,1,0,100,0,0
127400,-100,4,1,0,100,0,0
127537,-98.0392156862745,4,1,0,100,0,0
127605,-96.1538461538461,4,1,0,100,0,0
127673,-94.3396226415094,4,1,0,100,0,0
127810,-92.5925925925926,4,1,0,100,0,0
127946,-90.9090909090909,4,1,0,100,0,0
128082,-92.5925925925926,4,1,0,100,0,0
128150,-94.3396226415094,4,1,0,100,0,0
128219,-96.1538461538461,4,1,0,100,0,0
128355,-98.0392156862745,4,1,0,100,0,0
128491,-100,4,1,0,100,0,0
128628,-98.0392156862745,4,1,0,100,0,0
128696,-96.1538461538461,4,1,0,100,0,0
128764,-94.3396226415094,4,1,0,100,0,0
128901,-92.5925925925926,4,1,0,100,0,0
129037,-90.9090909090909,4,1,0,100,0,0
129173,-92.5925925925926,4,1,0,100,0,0
129241,-94.3396226415094,4,1,0,100,0,0
129310,-96.1538461538461,4,1,0,100,0,0
129446,-98.0392156862745,4,1,0,100,0,0
129582,-100,4,1,0,100,0,0
129719,-98.0392156862745,4,1,0,100,0,0
129787,-96.1538461538461,4,1,0,100,0,0
129855,-94.3396226415094,4,1,0,100,0,0
129992,-92.5925925925926,4,1,0,100,0,0
130128,-90.9090909090909,4,1,0,100,0,0
130264,-92.5925925925926,4,1,0,100,0,0
130332,-94.3396226415094,4,1,0,100,0,0
130401,-96.1538461538461,4,1,0,100,0,0
130537,-98.0392156862745,4,1,0,100,0,0
130673,-100,4,1,0,100,0,0
130741,-98.978288633461,4,1,0,100,0,0
130809,-97.9772439949431,4,1,0,100,0,0
130878,-96.9962453066333,4,1,0,100,0,0
130946,-96.0346964064436,4,1,0,100,0,0
131014,-95.0920245398773,4,1,0,100,0,0
131082,-94.1676792223572,4,1,0,100,0,0
131150,-93.2611311672683,4,1,0,100,0,0
131219,-92.3718712753278,4,1,0,100,0,0
131287,-91.4994096812279,4,1,0,100,0,0
131355,-90.6432748538012,4,1,0,100,0,0
131423,-89.8030127462341,4,1,0,100,0,0
131491,-88.9781859931114,4,1,0,100,0,0
131559,-88.1683731513083,4,1,0,100,0,0
131627,-87.3731679819617,4,1,0,100,0,0
131695,-86.5921787709497,4,1,0,100,0,0
131764,-85.8250276854928,4,1,0,100,0,0
131832,-85.0713501646542,4,1,0,100,0,0
131900,-84.3307943416757,4,1,0,100,0,0
131968,-83.6030204962244,4,1,0,100,0,0
132036,-82.8877005347593,4,1,0,100,0,0
132105,-82.1845174973489,4,1,0,100,0,0
132173,-81.4931650893796,4,1,0,100,0,0
132241,-80.8133472367049,4,1,0,100,0,0
132309,-80.1447776628749,4,1,0,100,0,0
132377,-79.4871794871795,4,1,0,100,0,0
132446,-78.8402848423194,4,1,0,100,0,0
132514,-78.2038345105954,4,1,0,100,0,0
132582,-77.5775775775776,4,1,0,100,0,0
132650,-76.961271102284,4,1,0,100,0,0
132719,-76.3546798029557,4,1,0,100,0,0
132787,-75.7575757575758,4,1,0,100,0,0
133980,-89.2857142857143,4,1,0,100,0,0
134082,-90.9090909090909,4,1,0,100,0,0
134355,-92.5925925925926,4,1,0,100,0,0
134628,-94.3396226415094,4,1,0,100,0,0
134696,-96.1538461538461,4,1,0,100,0,0
134764,-98.0392156862745,4,1,0,100,0,0
135071,-100,4,1,0,100,0,0
141855,-98.0392156862745,4,1,0,100,0,0
141991,-96.1538461538461,4,1,0,100,0,0
142059,-94.3396226415094,4,1,0,100,0,0
142128,-92.5925925925926,4,1,0,100,0,0
142264,-90.9090909090909,4,1,0,100,0,0
142400,-89.2857142857143,4,1,0,100,0,0
142537,-87.719298245614,4,1,0,100,0,0
142605,-86.2068965517241,4,1,0,100,0,0
142673,-84.7457627118644,4,1,0,100,0,0
142809,-83.3333333333333,4,1,0,100,0,0
142946,-81.9672131147541,4,1,0,100,0,0
143082,-80.6451612903226,4,1,0,100,0,0
143219,-79.3650793650794,4,1,0,100,0,0
143355,-80.6451612903226,4,1,0,100,0,0
143491,-81.9672131147541,4,1,0,100,0,0
143628,-83.3333333333333,4,1,0,100,0,0
143764,-84.7457627118644,4,1,0,100,0,0
143969,-99.9999999999999,4,1,0,100,0,0
148128,-86.9565217391304,4,1,0,100,0,0
150446,-87.719298245614,4,1,0,100,0,0
150514,-88.4955752212389,4,1,0,100,0,0
150582,-89.2857142857143,4,1,0,100,0,0
150719,-90.0900900900901,4,1,0,100,0,0
150855,-90.9090909090909,4,1,0,100,0,0
150923,-91.743119266055,4,1,0,100,0,0
150991,-92.5925925925926,4,1,0,100,0,0
151128,-93.4579439252336,4,1,0,100,0,0
151264,-94.3396226415094,4,1,0,100,0,0
151400,-95.2380952380952,4,1,0,90,0,0
151537,-96.1538461538461,4,1,0,80,0,0
151673,-97.0873786407767,4,1,0,70,0,0
151809,-98.0392156862745,4,1,0,60,0,0
151946,-99.009900990099,4,1,0,55,0,0
152082,-100,4,1,0,50,0,0
152219,-100,4,1,0,45,0,0
152355,-100,4,1,0,40,0,0
152491,-100,4,1,0,100,0,0
165582,-100,4,1,0,100,0,0
165753,-98.978288633461,4,1,0,100,0,0
165934,-97.9772439949431,4,1,0,100,0,0
166116,-96.9962453066333,4,1,0,100,0,0
166298,-96.0346964064436,4,1,0,100,0,0
166480,-95.0920245398773,4,1,0,100,0,0
166662,-94.1676792223572,4,1,0,100,0,0
166844,-93.2611311672683,4,1,0,100,0,0
167025,-92.3718712753278,4,1,0,100,0,0
167230,-91.4994096812279,4,1,0,100,0,0
167321,-90.6432748538012,4,1,0,100,0,0
167412,-89.8030127462341,4,1,0,100,0,0
167503,-88.9781859931114,4,1,0,100,0,0
167594,-88.1683731513083,4,1,0,100,0,0
167684,-87.3731679819617,4,1,0,100,0,0
167764,-86.5921787709497,4,1,0,100,0,0
167832,-85.8250276854928,4,1,0,100,0,0
167900,-85.0713501646542,4,1,0,100,0,0
167969,-84.3307943416757,4,1,0,100,0,0
168037,-83.6030204962244,4,1,0,100,0,0
168105,-82.8877005347593,4,1,0,100,0,0
168173,-82.1845174973489,4,1,0,100,0,0
168241,-81.4931650893796,4,1,0,100,0,0
168309,-80.8133472367049,4,1,0,100,0,0
168378,-80.1447776628749,4,1,0,100,0,0
168446,-79.4871794871795,4,1,0,100,0,0
168514,-78.8402848423194,4,1,0,100,0,0
168582,-78.2038345105954,4,1,0,100,0,0
168650,-77.5775775775776,4,1,0,100,0,0
168719,-76.961271102284,4,1,0,100,0,0
168787,-76.3546798029557,4,1,0,100,0,0
168855,-75.7575757575758,4,1,0,100,0,0
169128,-78.125,4,1,0,100,0,0
169264,-80.6451612903226,4,1,0,100,0,0
169537,-83.3333333333333,4,1,0,100,0,0
169673,-86.2068965517241,4,1,0,100,0,0
169809,-89.2857142857143,4,1,0,100,0,0
169980,-90.9090909090909,4,1,0,100,0,1
170048,-100,4,1,0,100,0,1
171582,-83.3333333333333,4,1,0,100,0,1
171650,-84.0336134453781,4,1,0,100,0,1
171719,-84.7457627118644,4,1,0,100,0,1
171787,-85.4700854700855,4,1,0,100,0,1
171855,-86.2068965517241,4,1,0,100,0,1
171923,-86.9565217391304,4,1,0,100,0,1
171991,-87.719298245614,4,1,0,100,0,1
172059,-88.4955752212389,4,1,0,100,0,1
172128,-89.2857142857143,4,1,0,100,0,1
172196,-100,4,1,0,100,0,1
173219,-83.3333333333333,4,1,0,100,0,1
173287,-84.0336134453781,4,1,0,100,0,1
173356,-84.7457627118644,4,1,0,100,0,1
173424,-85.4700854700855,4,1,0,100,0,1
173492,-86.2068965517241,4,1,0,100,0,1
173560,-86.9565217391304,4,1,0,100,0,1
173628,-87.719298245614,4,1,0,100,0,1
173696,-88.4955752212389,4,1,0,100,0,1
173765,-89.2857142857143,4,1,0,100,0,1
173833,-90.0900900900901,4,1,0,100,0,1
173900,-90.9090909090909,4,1,0,100,0,1
173969,-91.743119266055,4,1,0,100,0,1
174037,-92.5925925925926,4,1,0,100,0,1
174105,-93.4579439252336,4,1,0,100,0,1
174173,-94.3396226415094,4,1,0,100,0,1
174241,-95.2380952380952,4,1,0,100,0,1
174309,-96.1538461538461,4,1,0,100,0,1
174378,-100,4,1,0,100,0,1
175946,-83.3333333333333,4,1,0,100,0,1
176014,-84.0336134453781,4,1,0,100,0,1
176083,-84.7457627118644,4,1,0,100,0,1
176151,-85.4700854700855,4,1,0,100,0,1
176219,-86.2068965517241,4,1,0,100,0,1
176287,-86.9565217391304,4,1,0,100,0,1
176355,-87.719298245614,4,1,0,100,0,1
176423,-88.4955752212389,4,1,0,100,0,1
176492,-89.2857142857143,4,1,0,100,0,1
176560,-100,4,1,0,100,0,1
177582,-100,4,1,0,100,0,1
177650,-98.159509202454,4,1,0,100,0,1
177719,-96.3855421686747,4,1,0,100,0,1
177787,-94.6745562130178,4,1,0,100,0,1
177855,-93.0232558139535,4,1,0,100,0,1
177923,-91.4285714285714,4,1,0,100,0,1
177991,-89.8876404494382,4,1,0,100,0,1
178059,-88.3977900552486,4,1,0,100,0,1
178128,-86.2068965517241,4,1,0,100,0,1
178196,-84.0336134453781,4,1,0,100,0,1
178264,-81.9672131147541,4,1,0,100,0,1
178332,-80,4,1,0,100,0,1
178400,-77.5193798449612,4,1,0,100,0,1
178469,-74.6268656716418,4,1,0,100,0,1
178537,-72.463768115942,4,1,0,100,0,1
178605,-70.4225352112676,4,1,0,100,0,1
178673,-68.4931506849315,4,1,0,100,0,1
178946,-71.4285714285714,4,1,0,100,0,1
179219,-76.9230769230769,4,1,0,100,0,1
180309,-83.3333333333333,4,1,0,100,0,1
180377,-84.0336134453781,4,1,0,100,0,1
180446,-84.7457627118644,4,1,0,100,0,1
180514,-85.4700854700855,4,1,0,100,0,1
180582,-86.2068965517241,4,1,0,100,0,1
180650,-86.9565217391304,4,1,0,100,0,1
180718,-87.719298245614,4,1,0,100,0,1
180786,-88.4955752212389,4,1,0,100,0,1
180855,-89.2857142857143,4,1,0,100,0,1
180923,-100,4,1,0,100,0,1
181128,-76.9230769230769,4,1,0,100,0,1
181946,-83.3333333333333,4,1,0,100,0,1
182014,-84.0336134453781,4,1,0,100,0,1
182083,-84.7457627118644,4,1,0,100,0,1
182151,-85.4700854700855,4,1,0,100,0,1
182219,-86.2068965517241,4,1,0,100,0,1
182287,-86.9565217391304,4,1,0,100,0,1
182355,-87.719298245614,4,1,0,100,0,1
182423,-88.4955752212389,4,1,0,100,0,1
182492,-89.2857142857143,4,1,0,100,0,1
182560,-90.0900900900901,4,1,0,100,0,1
182627,-90.9090909090909,4,1,0,100,0,1
182696,-91.743119266055,4,1,0,100,0,1
182764,-92.5925925925926,4,1,0,100,0,1
182832,-93.4579439252336,4,1,0,100,0,1
182900,-94.3396226415094,4,1,0,100,0,1
182968,-95.2380952380952,4,1,0,100,0,1
183036,-96.1538461538461,4,1,0,100,0,1
183105,-100,4,1,0,100,0,1
184673,-83.3333333333333,4,1,0,100,0,1
184741,-84.0336134453781,4,1,0,100,0,1
184810,-84.7457627118644,4,1,0,100,0,1
184878,-85.4700854700855,4,1,0,100,0,1
184946,-86.2068965517241,4,1,0,100,0,1
185014,-86.9565217391304,4,1,0,100,0,1
185082,-87.719298245614,4,1,0,100,0,1
185150,-88.4955752212389,4,1,0,100,0,1
185219,-89.2857142857143,4,1,0,100,0,1
185287,-100,4,1,0,100,0,1
186253,-90.9090909090909,4,1,0,100,0,1
186821,-92.5925925925926,4,1,0,100,0,1
186957,-94.3396226415094,4,1,0,100,0,1
187094,-96.1538461538461,4,1,0,100,0,1
187230,-98.0392156862745,4,1,0,100,0,1
187434,-100,4,1,0,100,0,0
191491,-90.9090909090909,4,1,0,100,0,0
191559,-92.5925925925926,4,1,0,100,0,0
191628,-94.3396226415094,4,1,0,100,0,0
191696,-96.1538461538461,4,1,0,100,0,0
191764,-98.0392156862745,4,1,0,100,0,0
191832,-100,4,1,0,100,0,0
195037,-90.9090909090909,4,1,0,100,0,0
195855,-83.3333333333333,4,1,0,100,0,0
196128,-100,4,1,0,100,0,0
200491,-90.9090909090909,4,1,0,100,0,0
200559,-90.0900900900901,4,1,0,100,0,0
200628,-89.2857142857143,4,1,0,100,0,0
200696,-88.4955752212389,4,1,0,100,0,0
200764,-87.719298245614,4,1,0,100,0,0
200832,-86.9565217391304,4,1,0,100,0,0
200900,-86.2068965517241,4,1,0,100,0,0
200969,-85.4700854700855,4,1,0,100,0,0
201037,-84.7457627118644,4,1,0,100,0,0
201105,-84.0336134453782,4,1,0,100,0,0
201173,-83.3333333333333,4,1,0,100,0,0
201241,-82.6446280991736,4,1,0,100,0,0
201309,-81.9672131147541,4,1,0,100,0,0
201378,-81.3008130081301,4,1,0,100,0,0
201446,-80.6451612903226,4,1,0,100,0,0
201514,-80,4,1,0,100,0,0
201582,-79.3650793650794,4,1,0,100,0,0
201650,-78.740157480315,4,1,0,100,0,0
201719,-79.3650793650794,4,1,0,100,0,0
201787,-80,4,1,0,100,0,0
201855,-80.6451612903226,4,1,0,100,0,0
201923,-81.3008130081301,4,1,0,100,0,0
201991,-81.9672131147541,4,1,0,100,0,0
202059,-82.6446280991736,4,1,0,100,0,0
202128,-83.3333333333333,4,1,0,100,0,0
202196,-84.0336134453781,4,1,0,100,0,0
202264,-84.7457627118644,4,1,0,100,0,0
202332,-85.4700854700855,4,1,0,100,0,0
202400,-86.2068965517241,4,1,0,100,0,0
202469,-86.9565217391304,4,1,0,100,0,0
202537,-87.719298245614,4,1,0,100,0,0
202605,-88.4955752212389,4,1,0,100,0,0
202673,-89.2857142857143,4,1,0,100,0,0
202775,-100,4,1,0,100,0,0
203764,-102.040816326531,4,1,0,100,0,0
203900,-104.166666666667,4,1,0,100,0,0
204037,-106.382978723404,4,1,0,100,0,0
204173,-108.695652173913,4,1,0,100,0,0
204309,-111.111111111111,4,1,0,100,0,0
204446,-113.636363636364,4,1,0,100,0,0
204582,-116.279069767442,4,1,0,100,0,0
204719,-119.047619047619,4,1,0,100,0,0
204889,-100,4,1,0,100,0,1
204957,-98.991546789263,4,1,0,100,0,1
205025,-98.003230069006,4,1,0,100,0,1
205094,-97.020348837209,4,1,0,100,0,1
205162,-96.070811744387,4,1,0,100,0,1
205230,-95.139680729761,4,1,0,100,0,1
205298,-94.226425748165,4,1,0,100,0,1
205366,-93.330536912752,4,1,0,100,0,1
205434,-92.451523545706,4,1,0,100,0,1
205503,-91.576347921526,4,1,0,100,0,1
205571,-90.729917085769,4,1,0,100,0,1
205639,-89.89898989899,4,1,0,100,0,1
205707,-89.083144267983,4,1,0,100,0,1
205775,-88.281973283957,4,1,0,100,0,1
205844,-87.483617300131,4,1,0,100,0,1
205912,-86.710833982853,4,1,0,100,0,1
205980,-85.951583826938,4,1,0,100,0,1
206048,-85.205514424304,4,1,0,100,0,1
206116,-84.472285497342,4,1,0,100,0,1
206184,-83.75156838143,4,1,0,100,0,1
206253,-83.03271551188,4,1,0,100,0,1
206321,-82.336252621192,4,1,0,100,0,1
206389,-81.651376146789,4,1,0,100,0,1
206457,-80.977799344899,4,1,0,100,0,1
206525,-81.9672131147541,4,1,0,100,0,1
206594,-82.6446280991736,4,1,0,100,0,1
206662,-83.3333333333333,4,1,0,100,0,1
206730,-84.0336134453781,4,1,0,100,0,1
206798,-84.7457627118644,4,1,0,100,0,1
206866,-85.4700854700855,4,1,0,100,0,1
206934,-86.2068965517241,4,1,0,100,0,1
207003,-86.9565217391304,4,1,0,100,0,1
207071,-87.719298245614,4,1,0,100,0,1
207139,-86.908503950387,4,1,0,100,0,1
207207,-86.112560817522,4,1,0,100,0,1
207275,-85.331064511286,4,1,0,100,0,1
207344,-84.552442350607,4,1,0,100,0,1
207412,-83.798882681564,4,1,0,100,0,1
207480,-83.058636311969,4,1,0,100,0,1
207548,-82.331353517794,4,1,0,100,0,1
207616,-81.61669671778,4,1,0,100,0,1
207684,-80.914339950961,4,1,0,100,0,1
207753,-80.213903743316,4,1,0,100,0,1
207821,-79.535382749452,4,1,0,100,0,1
207889,-78.868244545525,4,1,0,100,0,1
207957,-78.212205079588,4,1,0,100,0,1
208025,-77.566989672899,4,1,0,100,0,1
208094,-76.923076923077,4,1,0,100,0,1
208162,-77.519379844961,4,1,0,100,0,1
208230,-78.083217456412,4,1,0,100,0,1
208298,-78.655317314945,4,1,0,100,0,1
208366,-79.235862368392,4,1,0,100,0,1
208434,-79.825041006014,4,1,0,100,0,1
208503,-80.431908329661,4,1,0,100,0,1
208571,-81.039076376554,4,1,0,100,0,1
208639,-81.65548098434,4,1,0,100,0,1
208707,-82.281334535618,4,1,0,100,0,1
208775,-82.916855974557,4,1,0,100,0,1
208844,-83.571837435604,4,1,0,100,0,1
208912,-84.227529710396,4,1,0,100,0,1
208980,-84.893592278172,4,1,0,100,0,1
209048,-85.570273121557,4,1,0,100,0,1
209116,-86.257828193312,4,1,0,100,0,1
209184,-86.95652173913,4,1,0,100,0,1
209253,-86.112560817522,4,1,0,100,0,1
209321,-85.331064511286,4,1,0,100,0,1
209389,-84.552442350607,4,1,0,100,0,1
209457,-83.798882681564,4,1,0,100,0,1
209525,-83.058636311969,4,1,0,100,0,1
209594,-82.331353517794,4,1,0,100,0,1
209662,-81.61669671778,4,1,0,100,0,1
209730,-80.914339950961,4,1,0,100,0,1
209798,-80.213903743316,4,1,0,100,0,1
209866,-79.535382749452,4,1,0,100,0,1
209934,-78.868244545525,4,1,0,100,0,1
210003,-78.212205079588,4,1,0,100,0,1
210071,-77.566989672899,4,1,0,100,0,1
210139,-76.923076923077,4,1,0,100,0,1
210207,-76.3358778625954,4,1,0,100,0,1
210275,-75.7575757575758,4,1,0,100,0,1
210344,-76.3358778625954,4,1,0,100,0,1
210412,-76.9230769230769,4,1,0,100,0,1
210480,-77.519379844961,4,1,0,100,0,1
210548,-78.083217456412,4,1,0,100,0,1
210616,-78.655317314945,4,1,0,100,0,1
210684,-79.235862368392,4,1,0,100,0,1
210752,-79.825041006014,4,1,0,100,0,1
210821,-80.431908329661,4,1,0,100,0,1
210889,-81.30081300813,4,1,0,100,0,1
210957,-80.553913704298,4,1,0,100,0,1
211025,-79.820612794725,4,1,0,100,0,1
211094,-79.090049907977,4,1,0,100,0,1
211162,-78.383041656396,4,1,0,100,0,1
211230,-77.688561702959,4,1,0,100,0,1
211298,-77.006279967066,4,1,0,100,0,1
211366,-76.335877862595,4,1,0,100,0,1
211434,-76.923076923077,4,1,0,100,0,1
211503,-77.469564260329,4,1,0,100,0,1
211571,-78.015781927655,4,1,0,100,0,1
211639,-78.569756765029,4,1,0,100,0,1
211707,-79.131655200676,4,1,0,100,0,1
211775,-79.701648458018,4,1,0,100,0,1
211844,-80.6451612903226,4,1,0,100,0,1
211912,-81.3008130081301,4,1,0,100,0,1
211980,-81.9672131147541,4,1,0,100,0,1
212048,-82.6446280991736,4,1,0,100,0,1
212116,-83.3333333333333,4,1,0,100,0,1
212184,-84.0336134453781,4,1,0,100,0,1
212253,-84.7457627118644,4,1,0,100,0,1
212321,-85.4700854700855,4,1,0,100,0,1
212389,-86.2068965517241,4,1,0,100,0,1
212457,-86.9565217391304,4,1,0,100,0,1
212525,-87.719298245614,4,1,0,100,0,1
212616,-88.4955752212389,4,1,0,100,0,1
212707,-89.2857142857143,4,1,0,100,0,1
212798,-90.0900900900901,4,1,0,100,0,1
212889,-90.9090909090909,4,1,0,100,0,1
212980,-90.9090909090909,4,1,0,100,0,1
213071,-91.743119266055,4,1,0,100,0,1
213162,-92.5925925925926,4,1,0,100,0,1
213253,-93.4579439252336,4,1,0,100,0,1
213344,-94.3396226415094,4,1,0,100,0,1
213434,-95.2380952380952,4,1,0,100,0,1
213525,-96.1538461538461,4,1,0,100,0,1
213616,-97.0873786407767,4,1,0,100,0,0
213753,-103.092783505155,4,1,0,100,0,0
213957,-106.382978723404,4,1,0,100,0,0
214094,-100,4,1,0,100,0,0
214298,-103.092783505155,4,1,0,100,0,0
214502,-106.382978723404,4,1,0,100,0,0
214639,-100,4,1,0,100,0,0
214844,-103.092783505155,4,1,0,100,0,0
215048,-106.382978723404,4,1,0,100,0,0
215219,-90.9090909090909,4,1,0,100,0,0
215287,-91.743119266055,4,1,0,100,0,0
215356,-92.5925925925926,4,1,0,100,0,0
215424,-93.4579439252336,4,1,0,100,0,0
215492,-94.3396226415094,4,1,0,100,0,0
215560,-95.2380952380952,4,1,0,100,0,0
215628,-96.1538461538461,4,1,0,100,0,0
215696,-97.0873786407767,4,1,0,100,0,0
215765,-98.0392156862745,4,1,0,100,0,0
215934,-103.092783505155,4,1,0,100,0,0
216138,-106.382978723404,4,1,0,100,0,0
216275,-100,4,1,0,100,0,0
216479,-103.092783505155,4,1,0,100,0,0
216683,-106.382978723404,4,1,0,100,0,0
216855,-90.9090909090909,4,1,0,100,0,0
216923,-91.743119266055,4,1,0,100,0,0
216992,-92.5925925925926,4,1,0,100,0,0
217060,-93.4579439252336,4,1,0,100,0,0
217128,-94.3396226415094,4,1,0,100,0,0
217196,-95.2380952380952,4,1,0,100,0,0
217264,-96.1538461538461,4,1,0,100,0,0
217332,-97.0873786407767,4,1,0,100,0,0
217401,-98.0392156862745,4,1,0,100,0,0
217469,-99.009900990099,4,1,0,100,0,0
217536,-100,4,1,0,100,0,0
217605,-101.010101010101,4,1,0,100,0,0
217673,-102.040816326531,4,1,0,100,0,0
217741,-103.092783505155,4,1,0,100,0,0
217809,-104.166666666667,4,1,0,100,0,0
217877,-105.263157894737,4,1,0,100,0,0
217945,-106.382978723404,4,1,0,100,0,0
218014,-100,4,1,0,100,0,0
218116,-103.092783505155,4,1,0,100,0,0
218320,-106.382978723404,4,1,0,100,0,0
218457,-100,4,1,0,100,0,0
218661,-103.092783505155,4,1,0,100,0,0
218865,-106.382978723404,4,1,0,100,0,0
219003,-100,4,1,0,100,0,0
219207,-103.092783505155,4,1,0,100,0,0
219411,-106.382978723404,4,1,0,100,0,0
219548,-100,4,1,0,100,0,0
219752,-103.092783505155,4,1,0,100,0,0
219956,-106.382978723404,4,1,0,100,0,0
220094,-100,4,1,0,100,0,0
220298,-102.040816326531,4,1,0,100,0,0
220503,-104.166666666667,4,1,0,100,0,0
220639,-106.382978723404,4,1,0,100,0,0
220844,-108.695652173913,4,1,0,100,0,0
221048,-111.111111111111,4,1,0,100,0,0
221253,-83.333333333333,4,1,0,100,0,0
221321,-84.079241805976,4,1,0,100,0,0
221389,-84.838623987249,4,1,0,100,0,0
221457,-85.611848277711,4,1,0,100,0,0
221525,-86.399296631949,4,1,0,100,0,0
221594,-87.213271436374,4,1,0,100,0,0
221662,-88.030595369349,4,1,0,100,0,0
221730,-88.863383416806,4,1,0,100,0,0
221798,-89.712078651685,4,1,0,100,0,0
221866,-90.577141236529,4,1,0,100,0,0
221934,-91.459049255441,4,1,0,100,0,0
222003,-92.37165582068,4,1,0,100,0,0
222071,-93.289031692712,4,1,0,100,0,0
222139,-94.224811919162,4,1,0,100,0,0
222207,-95.179555952913,4,1,0,100,0,0
222275,-96.153846153846,4,1,0,100,0,0
223434,272.727272727273,4,1,0,100,1,8
223706,272.727272727273,5,1,0,100,1,0
229160,272.727272727273,4,1,0,100,1,0
231580,-100,4,1,0,100,0,0
231648,-98.9399293286219,4,1,0,100,0,0
231716,-97.9020979020979,4,1,0,100,0,0
231785,-96.8858131487889,4,1,0,100,0,0
231853,-95.8904109589041,4,1,0,100,0,0
231921,-94.9152542372881,4,1,0,100,0,0
231989,-93.9597315436242,4,1,0,100,0,0
232057,-93.0232558139535,4,1,0,100,0,0
232126,-92.1052631578947,4,1,0,100,0,0
232194,-91.2052117263844,4,1,0,100,0,0
232262,-90.3225806451613,4,1,0,100,0,0
232330,-89.4568690095847,4,1,0,100,0,0
232398,-88.6075949367089,4,1,0,100,0,0
232467,-87.7742946708464,4,1,0,100,0,0
232535,-86.9565217391304,4,1,0,100,0,0
232603,-86.1538461538461,4,1,0,100,0,0
232671,-85.3658536585366,4,1,0,100,0,0
232739,-84.5921450151057,4,1,0,100,0,0
232808,-83.8323353293413,4,1,0,100,0,0
232876,-83.0860534124629,4,1,0,100,0,0
232944,-82.3529411764706,4,1,0,100,0,0
233012,-81.6326530612245,4,1,0,100,0,0
233080,-80.9248554913295,4,1,0,100,0,0
233149,-80.2292263610315,4,1,0,100,0,0
233217,-79.5454545454545,4,1,0,100,0,0
233285,-78.8732394366197,4,1,0,100,0,0
233353,-78.2122905027933,4,1,0,100,0,0
233421,-77.5623268698061,4,1,0,100,0,0
233490,-76.9230769230769,4,1,0,100,0,0
233898,-78.7401574803149,4,1,0,100,0,0
233966,-80.6451612903226,4,1,0,100,0,0
234035,-82.6446280991736,4,1,0,100,0,0
234171,-84.7457627118644,4,1,0,100,0,0
234375,-86.9565217391304,4,1,0,100,0,0
234580,-88.4955752212389,4,1,0,100,0,0
234750,-90.0900900900901,4,1,0,100,0,0
234932,-91.743119266055,4,1,0,100,0,0
235114,-93.4579439252336,4,1,0,100,0,0
235387,-95.2380952380952,4,1,0,100,0,0
235705,-102.040816326531,4,1,0,100,0,1
235750,-100,4,1,0,100,0,1
235841,-98.0392156862745,4,1,0,100,0,1
235932,-96.1538461538461,4,1,0,100,0,1
236023,-94.3396226415094,4,1,0,100,0,1
236114,-92.5925925925926,4,1,0,100,0,1
236205,-90.9090909090909,4,1,0,100,0,1
236295,-92.5925925925926,4,1,0,100,0,1
236386,-94.3396226415094,4,1,0,100,0,1
236477,-96.1538461538461,4,1,0,100,0,1
236568,-98.0392156862745,4,1,0,100,0,1
236659,-100,4,1,0,100,0,1
236750,-102.040816326531,4,1,0,100,0,1
236841,-100,4,1,0,100,0,1
236932,-98.0392156862745,4,1,0,100,0,1
237023,-96.1538461538461,4,1,0,100,0,1
237114,-94.3396226415094,4,1,0,100,0,1
237205,-92.5925925925926,4,1,0,100,0,1
237295,-90.9090909090909,4,1,0,100,0,1
237386,-92.5925925925926,4,1,0,100,0,1
237477,-94.3396226415094,4,1,0,100,0,1
237568,-96.1538461538461,4,1,0,100,0,1
237659,-98.0392156862745,4,1,0,100,0,1
237750,-100,4,1,0,100,0,1
237887,-100,4,1,0,100,0,1
242250,-99.991821286653,4,1,0,100,0,0
242353,-98.891842364367,4,1,0,100,0,0
242489,-97.815801162589,4,1,0,100,0,0
242626,-96.755266892261,4,1,0,100,0,0
242694,-96.237364689532,4,1,0,100,0,0
242762,-95.724977320835,4,1,0,100,0,0
242898,-94.716398452694,4,1,0,100,0,0
243035,-93.721666080714,4,1,0,100,0,0
243171,-92.754646888776,4,1,0,100,0,0
243308,-91.800485736035,4,1,0,100,0,0
243444,-90.872509367904,4,1,0,100,0,0
243580,-89.963106372397,4,1,0,100,0,0
243717,-89.065235794905,4,1,0,100,0,0
243853,-88.19147163222,4,1,0,100,0,0
243989,-87.334684838915,4,1,0,100,0,0
244126,-86.488266575596,4,1,0,100,0,0
244262,-85.66409911956,4,1,0,100,0,0
244398,-84.855490776109,4,1,0,100,0,0
244535,-84.056225566084,4,1,0,100,0,0
244603,-83.665075405937,4,1,0,100,0,0
244671,-83.277548767455,4,1,0,100,0,0
244808,-82.507598006134,4,1,0,100,0,0
244876,-82.130695638074,4,1,0,100,0,0
244944,-81.757221061564,4,1,0,100,0,0
245080,-81.020369921802,4,1,0,100,0,0
245217,-80.291408785291,4,1,0,100,0,0
245353,-79.580627711701,4,1,0,100,0,0
245489,-78.882320615307,4,1,0,100,0,0
245626,-78.191160903317,4,1,0,100,0,0
245762,-77.516922323474,4,1,0,100,0,0
245898,-76.854212187424,4,1,0,100,0,0
246035,-76.197987969078,4,1,0,100,0,0
246171,-75.557544566271,4,1,0,100,0,0
246308,-74.923185508582,4,1,0,100,0,0
246376,-74.612260359014,4,1,0,100,0,0
246444,-74.303905172667,4,1,0,100,0,0
246580,-73.694778281709,4,1,0,100,0,0
246717,-73.091187208681,4,1,0,100,0,0
246853,-72.501702373917,4,1,0,100,0,0
246989,-71.921649927886,4,1,0,100,0,0
247126,-71.346641445647,4,1,0,100,0,0
247262,-70.78485238099,4,1,0,100,0,0
247398,-70.231841340021,4,1,0,100,0,0
247467,-69.954560611173,4,1,0,100,0,0
247535,-69.683432225959,4,1,0,100,0,0
247671,-69.147431959356,4,1,0,100,0,0
247808,-68.615763337062,4,1,0,100,0,0
247944,-68.096000860443,4,1,0,100,0,0
248080,-67.584053556383,4,1,0,100,0,0
248217,-67.0760662077,4,1,0,100,0,0
248353,-66.579283899475,4,1,0,100,0,0
248489,-66.089806083133,4,1,0,100,0,0
248626,-65.603952335134,4,1,0,100,0,0
248762,-65.128659181754,4,1,0,100,0,0
248898,-64.660203381917,4,1,0,100,0,0
249035,-64.19506754469,4,1,0,100,0,0
249171,-63.739898785607,4,1,0,100,0,0
249307,-63.2911392405063,4,1,0,100,0,0
249887,-76.9230769230769,4,1,0,100,0,0
250466,-88.4955752212389,4,1,0,100,0,0
250603,-86.2068965517241,4,1,0,100,0,0
250739,-84.0336134453781,4,1,0,100,0,0
250875,-81.9672131147541,4,1,0,100,0,0
251080,-80,4,1,0,100,0,0
251421,-76.9230769230769,4,1,0,100,0,0
251898,-66.6666666666667,4,1,0,100,0,0

[HitObjects]
256,192,1436,5,8,0:0:0:0:
256,192,1572,1,0,0:0:0:0:
256,192,1708,1,8,0:0:0:0:
256,192,1845,1,8,0:0:0:0:
256,192,1981,1,0,0:0:0:0:
256,192,2117,1,0,0:0:0:0:
256,192,2254,1,8,0:0:0:0:
256,192,2390,1,0,0:0:0:0:
256,192,2526,1,8,0:0:0:0:
256,192,2663,1,0,0:0:0:0:
256,192,2799,1,8,0:0:0:0:
256,192,2936,1,8,0:0:0:0:
256,192,3072,1,0,0:0:0:0:
256,192,3208,1,0,0:0:0:0:
256,192,3345,1,8,0:0:0:0:
256,192,3481,1,0,0:0:0:0:
256,192,3617,1,12,0:0:0:0:
256,192,3754,1,0,0:0:0:0:
256,192,3799,1,0,0:0:0:0:
256,192,3845,1,0,0:0:0:0:
256,192,3890,1,8,0:0:0:0:
256,192,4026,1,0,0:0:0:0:
256,192,4163,1,8,0:0:0:0:
256,192,4208,1,8,0:0:0:0:
256,192,4254,1,8,0:0:0:0:
256,192,4299,1,0,0:0:0:0:
256,192,4367,1,0,0:0:0:0:
256,192,4436,1,8,0:0:0:0:
256,192,4504,1,8,0:0:0:0:
256,192,4572,1,0,0:0:0:0:
256,192,4640,1,0,0:0:0:0:
256,192,4708,1,8,0:0:0:0:
256,192,4845,1,0,0:0:0:0:
256,192,4890,1,0,0:0:0:0:
256,192,4936,1,0,0:0:0:0:
256,192,4981,1,8,0:0:0:0:
256,192,5117,1,0,0:0:0:0:
256,192,5254,1,8,0:0:0:0:
256,192,5299,1,0,0:0:0:0:
256,192,5345,1,0,0:0:0:0:
256,192,5390,1,8,0:0:0:0:
256,192,5458,1,0,0:0:0:0:
256,192,5526,1,8,0:0:0:0:
256,192,5595,1,8,0:0:0:0:
256,192,5663,1,0,0:0:0:0:
256,192,5731,1,8,0:0:0:0:
256,192,5799,1,0,0:0:0:0:
256,192,5936,1,8,0:0:0:0:
256,192,6072,1,0,0:0:0:0:
256,192,6208,1,8,0:0:0:0:
256,192,6345,1,0,0:0:0:0:
256,192,6481,1,8,0:0:0:0:
256,192,6617,1,0,0:0:0:0:
256,192,6754,1,8,0:0:0:0:
256,192,6822,1,8,0:0:0:0:
256,192,6890,1,0,0:0:0:0:
256,192,7026,1,0,0:0:0:0:
256,192,7163,1,0,0:0:0:0:
256,192,7299,1,0,0:0:0:0:
256,192,7436,1,8,0:0:0:0:
256,192,7572,1,0,0:0:0:0:
256,192,7640,1,0,0:0:0:0:
256,192,7708,1,0,0:0:0:0:
256,192,7845,1,0,0:0:0:0:
256,192,7913,1,0,0:0:0:0:
256,192,7981,1,8,0:0:0:0:
256,192,8117,1,0,0:0:0:0:
256,192,8163,1,0,0:0:0:0:
256,192,8208,1,0,0:0:0:0:
256,192,8254,1,8,0:0:0:0:
256,192,8390,1,0,0:0:0:0:
256,192,8526,1,8,0:0:0:0:
256,192,8572,1,8,0:0:0:0:
256,192,8617,1,8,0:0:0:0:
256,192,8663,1,0,0:0:0:0:
256,192,8731,1,0,0:0:0:0:
256,192,8799,1,8,0:0:0:0:
256,192,8867,1,0,0:0:0:0:
256,192,8936,1,0,0:0:0:0:
256,192,9004,1,0,0:0:0:0:
256,192,9072,1,8,0:0:0:0:
256,192,9208,1,0,0:0:0:0:
256,192,9254,1,0,0:0:0:0:
256,192,9299,1,0,0:0:0:0:
256,192,9345,1,8,0:0:0:0:
256,192,9481,1,0,0:0:0:0:
256,192,9617,1,8,0:0:0:0:
256,192,9663,1,0,0:0:0:0:
256,192,9708,1,0,0:0:0:0:
256,192,9754,1,8,0:0:0:0:
256,192,9822,1,8,0:0:0:0:
256,192,9890,1,0,0:0:0:0:
256,192,9958,1,0,0:0:0:0:
256,192,10026,1,8,0:0:0:0:
256,192,10095,1,8,0:0:0:0:
256,192,10163,1,0,0:0:0:0:
256,192,10299,1,8,0:0:0:0:
256,192,10436,1,0,0:0:0:0:
256,192,10572,1,8,0:0:0:0:
256,192,10708,1,0,0:0:0:0:
256,192,10845,1,8,0:0:0:0:
256,192,10981,1,0,0:0:0:0:
256,192,11117,1,8,0:0:0:0:
256,192,11186,1,8,0:0:0:0:
256,192,11254,1,0,0:0:0:0:
256,192,11390,1,0,0:0:0:0:
256,192,11526,1,0,0:0:0:0:
256,192,11663,1,0,0:0:0:0:
256,192,11799,1,8,0:0:0:0:
256,192,11867,1,8,0:0:0:0:
256,192,11936,1,0,0:0:0:0:
256,192,12004,1,0,0:0:0:0:
256,192,12072,1,8,0:0:0:0:
256,192,12140,1,8,0:0:0:0:
256,192,12208,1,0,0:0:0:0:
256,192,12276,1,8,0:0:0:0:
256,192,12345,1,0,0:0:0:0:
256,192,12481,1,0,0:0:0:0:
256,192,12617,1,8,0:0:0:0:
256,192,12754,1,0,0:0:0:0:
256,192,12890,1,0,0:0:0:0:
256,192,13026,1,0,0:0:0:0:
256,192,13163,1,8,0:0:0:0:
256,192,13299,1,0,0:0:0:0:
256,192,13436,1,0,0:0:0:0:
256,192,13572,1,0,0:0:0:0:
256,192,13708,1,8,0:0:0:0:
256,192,13845,1,0,0:0:0:0:
256,192,13981,1,0,0:0:0:0:
256,192,14117,1,0,0:0:0:0:
256,192,14254,1,8,0:0:0:0:
256,192,14390,1,0,0:0:0:0:
256,192,14526,1,0,0:0:0:0:
256,192,14663,1,0,0:0:0:0:
256,192,14799,1,8,0:0:0:0:
256,192,14936,1,8,0:0:0:0:
256,192,15072,1,0,0:0:0:0:
256,192,15208,1,0,0:0:0:0:
256,192,15345,1,8,0:0:0:0:
256,192,15481,1,8,0:0:0:0:
256,192,15617,1,0,0:0:0:0:
256,192,15754,1,0,0:0:0:0:
256,192,15890,1,8,0:0:0:0:
256,192,16026,1,8,0:0:0:0:
256,192,16163,1,0,0:0:0:0:
256,192,16299,1,0,0:0:0:0:
256,192,16436,1,8,0:0:0:0:
256,192,16572,1,8,0:0:0:0:
256,192,16708,1,4,0:0:0:0:
256,192,16845,1,8,0:0:0:0:
256,192,16981,1,8,0:0:0:0:
256,192,17117,1,8,0:0:0:0:
256,192,17254,1,4,0:0:0:0:
256,192,17390,1,0,0:0:0:0:
256,192,17526,1,8,0:0:0:0:
256,192,17663,1,8,0:0:0:0:
256,192,17799,1,4,0:0:0:0:
256,192,17936,1,8,0:0:0:0:
256,192,18072,1,0,0:0:0:0:
256,192,18208,1,8,0:0:0:0:
256,192,18345,1,4,0:0:0:0:
256,192,18481,1,8,0:0:0:0:
256,192,18617,1,8,0:0:0:0:
256,192,18754,1,0,0:0:0:0:
256,192,18890,1,12,0:0:0:0:
256,192,19026,1,0,0:0:0:0:
256,192,19163,1,8,0:0:0:0:
256,192,19299,1,0,0:0:0:0:
256,192,19367,1,0,0:0:0:0:
256,192,19436,1,8,0:0:0:0:
256,192,19572,1,8,0:0:0:0:
256,192,19708,1,0,0:0:0:0:
256,192,19845,1,8,0:0:0:0:
256,192,19913,1,8,0:0:0:0:
256,192,19981,1,0,0:0:0:0:
256,192,20526,1,8,0:0:0:0:
256,192,21072,1,0,0:0:0:0:
256,192,21208,1,8,0:0:0:0:
256,192,21276,1,0,0:0:0:0:
256,192,21345,1,0,0:0:0:0:
256,192,21481,1,0,0:0:0:0:
256,192,21617,1,8,0:0:0:0:
256,192,21686,1,0,0:0:0:0:
256,192,21754,1,0,0:0:0:0:
256,192,21890,1,8,0:0:0:0:
256,192,21958,1,0,0:0:0:0:
256,192,22026,1,0,0:0:0:0:
256,192,22163,1,0,0:0:0:0:
256,192,22299,1,8,0:0:0:0:
256,192,22367,1,0,0:0:0:0:
256,192,22436,1,0,0:0:0:0:
256,192,22572,1,0,0:0:0:0:
256,192,22708,1,8,0:0:0:0:
256,192,22776,1,0,0:0:0:0:
256,192,22845,1,0,0:0:0:0:
256,192,22981,1,8,0:0:0:0:
256,192,23049,1,0,0:0:0:0:
256,192,23117,1,0,0:0:0:0:
256,192,23254,1,0,0:0:0:0:
256,192,23390,1,8,0:0:0:0:
256,192,23458,1,0,0:0:0:0:
256,192,23526,1,0,0:0:0:0:
256,192,23663,1,0,0:0:0:0:
256,192,23799,1,8,0:0:0:0:
256,192,23867,1,0,0:0:0:0:
256,192,23936,1,0,0:0:0:0:
256,192,24072,1,8,0:0:0:0:
256,192,24140,1,0,0:0:0:0:
256,192,24208,1,8,0:0:0:0:
256,192,24276,1,8,0:0:0:0:
256,192,24345,1,0,0:0:0:0:
256,192,24481,1,8,0:0:0:0:
256,192,24549,1,0,0:0:0:0:
256,192,24617,1,8,0:0:0:0:
256,192,24754,1,0,0:0:0:0:
256,192,24822,1,8,0:0:0:0:
256,192,24890,1,0,0:0:0:0:
256,192,25026,1,0,0:0:0:0:
256,192,25163,1,8,0:0:0:0:
256,192,25299,1,8,0:0:0:0:
256,192,25436,1,0,0:0:0:0:
256,192,25572,1,8,0:0:0:0:
256,192,25640,1,0,0:0:0:0:
256,192,25708,1,0,0:0:0:0:
256,192,25845,1,0,0:0:0:0:
256,192,25981,1,8,0:0:0:0:
256,192,26049,1,0,0:0:0:0:
256,192,26117,1,0,0:0:0:0:
256,192,26254,1,8,0:0:0:0:
256,192,26322,1,0,0:0:0:0:
256,192,26390,1,0,0:0:0:0:
256,192,26526,1,0,0:0:0:0:
256,192,26663,1,8,0:0:0:0:
256,192,26731,1,0,0:0:0:0:
256,192,26799,1,0,0:0:0:0:
256,192,26936,1,0,0:0:0:0:
256,192,27072,1,8,0:0:0:0:
256,192,27140,1,0,0:0:0:0:
256,192,27208,1,0,0:0:0:0:
256,192,27345,1,8,0:0:0:0:
256,192,27413,1,8,0:0:0:0:
256,192,27481,1,0,0:0:0:0:
256,192,27549,1,0,0:0:0:0:
256,192,27617,1,8,0:0:0:0:
256,192,27754,1,8,0:0:0:0:
256,192,27890,1,0,0:0:0:0:
256,192,28163,1,8,0:0:0:0:
256,192,28299,1,8,0:0:0:0:
256,192,28436,1,0,0:0:0:0:
256,192,28504,1,0,0:0:0:0:
256,192,28572,1,8,0:0:0:0:
256,192,28640,1,0,0:0:0:0:
256,192,28708,1,8,0:0:0:0:
256,192,28845,1,8,0:0:0:0:
256,192,28981,1,0,0:0:0:0:
256,192,29117,1,0,0:0:0:0:
256,192,29254,1,8,0:0:0:0:
256,192,29390,1,0,0:0:0:0:
256,192,29458,1,8,0:0:0:0:
256,192,29526,1,8,0:0:0:0:
256,192,29663,1,8,0:0:0:0:
256,192,29799,1,0,0:0:0:0:
256,192,29936,1,8,0:0:0:0:
256,192,30004,1,0,0:0:0:0:
256,192,30072,1,0,0:0:0:0:
256,192,30208,1,0,0:0:0:0:
256,192,30345,1,8,0:0:0:0:
256,192,30413,1,0,0:0:0:0:
256,192,30481,1,0,0:0:0:0:
256,192,30617,1,8,0:0:0:0:
256,192,30686,1,0,0:0:0:0:
256,192,30754,1,0,0:0:0:0:
256,192,30890,1,0,0:0:0:0:
256,192,31026,1,8,0:0:0:0:
256,192,31095,1,0,0:0:0:0:
256,192,31163,1,0,0:0:0:0:
256,192,31299,1,0,0:0:0:0:
256,192,31436,1,8,0:0:0:0:
256,192,31504,1,0,0:0:0:0:
256,192,31572,1,0,0:0:0:0:
256,192,31708,1,8,0:0:0:0:
256,192,31776,1,0,0:0:0:0:
256,192,31845,1,0,0:0:0:0:
256,192,31981,1,0,0:0:0:0:
256,192,32117,1,8,0:0:0:0:
256,192,32186,1,0,0:0:0:0:
256,192,32254,1,0,0:0:0:0:
256,192,32390,1,0,0:0:0:0:
256,192,32526,1,8,0:0:0:0:
256,192,32595,1,0,0:0:0:0:
256,192,32663,1,0,0:0:0:0:
256,192,32799,1,8,0:0:0:0:
256,192,32867,1,0,0:0:0:0:
256,192,32936,1,8,0:0:0:0:
256,192,33004,1,8,0:0:0:0:
256,192,33072,1,0,0:0:0:0:
256,192,33208,1,8,0:0:0:0:
256,192,33276,1,0,0:0:0:0:
256,192,33345,1,8,0:0:0:0:
256,192,33481,1,0,0:0:0:0:
256,192,33549,1,8,0:0:0:0:
256,192,33617,1,0,0:0:0:0:
256,192,33754,1,0,0:0:0:0:
256,192,33890,1,8,0:0:0:0:
256,192,34026,1,8,0:0:0:0:
256,192,34163,1,0,0:0:0:0:
256,192,34345,1,0,0:0:0:0:
256,192,34526,1,8,0:0:0:0:
256,192,34708,1,0,0:0:0:0:
256,192,34890,1,8,0:0:0:0:
256,192,35072,1,8,0:0:0:0:
256,192,35254,1,0,0:0:0:0:
256,192,35390,1,8,0:0:0:0:
256,192,35458,1,0,0:0:0:0:
256,192,35595,1,0,0:0:0:0:
256,192,35663,1,8,0:0:0:0:
256,192,35799,1,0,0:0:0:0:
256,192,35936,1,8,0:0:0:0:
256,192,36072,1,0,0:0:0:0:
256,192,36208,1,8,0:0:0:0:
256,192,36276,1,8,0:0:0:0:
256,192,36345,1,0,0:0:0:0:
256,192,36413,1,0,0:0:0:0:
256,192,36481,1,0,0:0:0:0:
256,192,36549,1,0,0:0:0:0:
256,192,36617,1,8,0:0:0:0:
256,192,36754,1,0,0:0:0:0:
256,192,36822,1,0,0:0:0:0:
256,192,36890,1,0,0:0:0:0:
256,192,36958,1,0,0:0:0:0:
256,192,37026,1,8,0:0:0:0:
256,192,37163,1,0,0:0:0:0:
256,192,37231,1,0,0:0:0:0:
256,192,37299,1,8,0:0:0:0:
256,192,37367,1,8,0:0:0:0:
256,192,37436,1,0,0:0:0:0:
256,192,37572,1,0,0:0:0:0:
256,192,37708,1,8,0:0:0:0:
256,192,37845,1,0,0:0:0:0:
256,192,37981,1,8,0:0:0:0:
256,192,38117,1,8,0:0:0:0:
256,192,38254,1,0,0:0:0:0:
256,192,38390,1,0,0:0:0:0:
256,192,38526,1,8,0:0:0:0:
256,192,38595,1,8,0:0:0:0:
256,192,38663,1,0,0:0:0:0:
256,192,38731,1,0,0:0:0:0:
256,192,38799,1,0,0:0:0:0:
256,192,38867,1,0,0:0:0:0:
256,192,38936,1,8,0:0:0:0:
256,192,39004,1,8,0:0:0:0:
256,192,39072,1,0,0:0:0:0:
256,192,39140,1,0,0:0:0:0:
256,192,39208,1,0,0:0:0:0:
256,192,39276,1,0,0:0:0:0:
256,192,39345,1,8,0:0:0:0:
256,192,39617,1,0,0:0:0:0:
256,192,39686,1,0,0:0:0:0:
256,192,39754,1,8,0:0:0:0:
256,192,39822,1,8,0:0:0:0:
256,192,39890,1,8,0:0:0:0:
256,192,39958,1,8,0:0:0:0:
256,192,40026,1,0,0:0:0:0:
256,192,40095,1,0,0:0:0:0:
256,192,40163,1,8,0:0:0:0:
256,192,40231,1,8,0:0:0:0:
256,192,40299,1,8,0:0:0:0:
256,192,40367,1,8,0:0:0:0:
256,192,40436,1,0,0:0:0:0:
256,192,40708,1,0,0:0:0:0:
256,192,40776,1,0,0:0:0:0:
256,192,40845,1,8,0:0:0:0:
256,192,40913,1,8,0:0:0:0:
256,192,41254,1,8,0:0:0:0:
256,192,41322,1,8,0:0:0:0:
256,192,41390,1,0,0:0:0:0:
256,192,41458,1,0,0:0:0:0:
256,192,41526,1,8,0:0:0:0:
256,192,41799,1,8,0:0:0:0:
256,192,41867,1,8,0:0:0:0:
256,192,41936,1,8,0:0:0:0:
256,192,42004,1,8,0:0:0:0:
256,192,42072,1,0,0:0:0:0:
256,192,42140,1,8,0:0:0:0:
256,192,42208,1,8,0:0:0:0:
256,192,42276,1,8,0:0:0:0:
256,192,42345,1,0,0:0:0:0:
256,192,42413,1,8,0:0:0:0:
256,192,42549,1,8,0:0:0:0:
256,192,42617,1,0,0:0:0:0:
256,192,42890,1,8,0:0:0:0:
256,192,42958,1,8,0:0:0:0:
256,192,43026,1,0,0:0:0:0:
256,192,43095,1,0,0:0:0:0:
256,192,43163,1,0,0:0:0:0:
256,192,43231,1,0,0:0:0:0:
256,192,43299,1,8,0:0:0:0:
256,192,43367,1,8,0:0:0:0:
256,192,43436,1,0,0:0:0:0:
256,192,43504,1,0,0:0:0:0:
256,192,43572,1,0,0:0:0:0:
256,192,43640,1,0,0:0:0:0:
256,192,43708,1,8,0:0:0:0:
256,192,43981,1,0,0:0:0:0:
256,192,44049,1,0,0:0:0:0:
256,192,44117,1,8,0:0:0:0:
256,192,44186,1,8,0:0:0:0:
256,192,44254,1,8,0:0:0:0:
256,192,44322,1,8,0:0:0:0:
256,192,44390,1,0,0:0:0:0:
256,192,44458,1,0,0:0:0:0:
256,192,44526,1,8,0:0:0:0:
256,192,44595,1,8,0:0:0:0:
256,192,44663,1,8,0:0:0:0:
256,192,44731,1,8,0:0:0:0:
256,192,44799,1,0,0:0:0:0:
256,192,45072,1,0,0:0:0:0:
256,192,45140,1,0,0:0:0:0:
256,192,45208,1,8,0:0:0:0:
256,192,45276,1,8,0:0:0:0:
256,192,45617,1,8,0:0:0:0:
256,192,45686,1,8,0:0:0:0:
256,192,45754,1,0,0:0:0:0:
256,192,45822,1,0,0:0:0:0:
256,192,45890,1,8,0:0:0:0:
256,192,46163,1,8,0:0:0:0:
256,192,46231,1,8,0:0:0:0:
256,192,46299,1,8,0:0:0:0:
256,192,46367,1,8,0:0:0:0:
256,192,46436,1,0,0:0:0:0:
256,192,46504,1,8,0:0:0:0:
256,192,46572,1,8,0:0:0:0:
256,192,46640,1,8,0:0:0:0:
256,192,46708,1,0,0:0:0:0:
256,192,46776,1,8,0:0:0:0:
256,192,46913,1,8,0:0:0:0:
256,192,46981,1,0,0:0:0:0:
256,192,47254,1,8,0:0:0:0:
256,192,47390,1,0,0:0:0:0:
256,192,47526,1,8,0:0:0:0:
256,192,47663,1,0,0:0:0:0:
256,192,47799,1,8,0:0:0:0:
256,192,47936,1,0,0:0:0:0:
256,192,48072,1,8,0:0:0:0:
256,192,48208,1,0,0:0:0:0:
256,192,48276,1,0,0:0:0:0:
256,192,48345,1,8,0:0:0:0:
256,192,48481,1,0,0:0:0:0:
256,192,48617,1,8,0:0:0:0:
256,192,48754,1,0,0:0:0:0:
256,192,48890,1,8,0:0:0:0:
256,192,49026,1,0,0:0:0:0:
256,192,49163,1,8,0:0:0:0:
256,192,49299,1,0,0:0:0:0:
256,192,49367,1,0,0:0:0:0:
256,192,49436,1,8,0:0:0:0:
256,192,49572,1,0,0:0:0:0:
256,192,49640,1,0,0:0:0:0:
256,192,49708,1,8,0:0:0:0:
256,192,49845,1,8,0:0:0:0:
256,192,49981,1,0,0:0:0:0:
256,192,50049,1,0,0:0:0:0:
256,192,50117,1,8,0:0:0:0:
256,192,50186,1,8,0:0:0:0:
256,192,50254,1,0,0:0:0:0:
256,192,50390,1,8,0:0:0:0:
256,192,50458,1,8,0:0:0:0:
256,192,50526,1,0,0:0:0:0:
256,192,50663,1,8,0:0:0:0:
256,192,50731,1,8,0:0:0:0:
256,192,50799,1,0,0:0:0:0:
256,192,50867,1,0,0:0:0:0:
256,192,50936,1,8,0:0:0:0:
256,192,51072,1,0,0:0:0:0:
256,192,51140,1,0,0:0:0:0:
256,192,51208,1,8,0:0:0:0:
256,192,51276,1,8,0:0:0:0:
256,192,51345,1,0,0:0:0:0:
256,192,51481,1,8,0:0:0:0:
256,192,51617,1,0,0:0:0:0:
256,192,51686,1,8,0:0:0:0:
256,192,51754,1,0,0:0:0:0:
256,192,51822,1,8,0:0:0:0:
256,192,51890,1,0,0:0:0:0:
256,192,51958,1,0,0:0:0:0:
256,192,52026,1,8,0:0:0:0:
256,192,52095,1,8,0:0:0:0:
256,192,52163,1,0,0:0:0:0:
256,192,52231,1,8,0:0:0:0:
256,192,52299,1,0,0:0:0:0:
256,192,52367,1,8,0:0:0:0:
256,192,52436,1,0,0:0:0:0:
256,192,52504,1,0,0:0:0:0:
256,192,52572,1,8,0:0:0:0:
256,192,52640,1,8,0:0:0:0:
256,192,52708,1,0,0:0:0:0:
256,192,52776,1,8,0:0:0:0:
256,192,52845,1,0,0:0:0:0:
256,192,52913,1,8,0:0:0:0:
256,192,52981,1,0,0:0:0:0:
256,192,53049,1,0,0:0:0:0:
256,192,53117,1,8,0:0:0:0:
256,192,53186,1,8,0:0:0:0:
256,192,53254,1,0,0:0:0:0:
256,192,53322,1,8,0:0:0:0:
256,192,53390,1,0,0:0:0:0:
256,192,53458,1,8,0:0:0:0:
256,192,53526,1,0,0:0:0:0:
256,192,53595,1,0,0:0:0:0:
256,192,53663,1,8,0:0:0:0:
256,192,53731,1,8,0:0:0:0:
256,192,53936,1,8,0:0:0:0:
256,192,54072,1,8,0:0:0:0:
256,192,54345,1,8,0:0:0:0:
256,192,54617,1,0,0:0:0:0:
256,192,54890,1,8,0:0:0:0:
256,192,55436,1,8,0:0:0:0:
256,192,58163,5,0,0:0:0:0:
256,192,58981,1,0,0:0:0:0:
256,192,59117,1,0,0:0:0:0:
256,192,59254,1,8,0:0:0:0:
256,192,59526,1,0,0:0:0:0:
256,192,59799,1,8,0:0:0:0:
256,192,59936,1,8,0:0:0:0:
256,192,60072,1,0,0:0:0:0:
256,192,60208,1,8,0:0:0:0:
256,192,60345,1,0,0:0:0:0:
256,192,61163,1,8,0:0:0:0:
256,192,61299,1,8,0:0:0:0:
256,192,61436,1,0,0:0:0:0:
256,192,61708,1,0,0:0:0:0:
256,192,61981,1,8,0:0:0:0:
256,192,62049,1,8,0:0:0:0:
256,192,62117,1,8,0:0:0:0:
256,192,62254,1,0,0:0:0:0:
256,192,62390,1,8,0:0:0:0:
256,192,62526,1,8,0:0:0:0:
256,192,63345,1,0,0:0:0:0:
256,192,63481,1,8,0:0:0:0:
256,192,63617,1,8,0:0:0:0:
256,192,63890,1,0,0:0:0:0:
256,192,64163,1,8,0:0:0:0:
256,192,64436,1,8,0:0:0:0:
256,192,64708,1,0,0:0:0:0:
256,192,65526,1,8,0:0:0:0:
256,192,65663,1,8,0:0:0:0:
256,192,65799,1,0,0:0:0:0:
256,192,66345,1,8,0:0:0:0:
256,192,66890,1,0,0:0:0:0:
256,192,67072,1,0,0:0:0:0:
256,192,67163,1,8,0:0:0:0:
256,192,67254,1,0,0:0:0:0:
256,192,67436,1,8,0:0:0:0:
256,192,67617,1,0,0:0:0:0:
256,192,67799,1,8,0:0:0:0:
256,192,67981,1,0,0:0:0:0:
256,192,68163,1,8,0:0:0:0:
256,192,68345,1,8,0:0:0:0:
256,192,68526,1,0,0:0:0:0:
256,192,68708,1,8,0:0:0:0:
256,192,68890,1,8,0:0:0:0:
256,192,69072,1,0,0:0:0:0:
256,192,69254,1,0,0:0:0:0:
256,192,69345,1,8,0:0:0:0:
256,192,69436,1,0,0:0:0:0:
256,192,69617,1,8,0:0:0:0:
256,192,69799,1,0,0:0:0:0:
256,192,69981,1,8,0:0:0:0:
256,192,70163,1,8,0:0:0:0:
256,192,70345,1,0,0:0:0:0:
256,192,70526,1,0,0:0:0:0:
256,192,70708,1,8,0:0:0:0:
256,192,70890,1,8,0:0:0:0:
256,192,71072,1,0,0:0:0:0:
256,192,71254,1,8,0:0:0:0:
256,192,71436,1,8,0:0:0:0:
256,192,71617,1,0,0:0:0:0:
256,192,71799,1,8,0:0:0:0:
256,192,71981,1,8,0:0:0:0:
256,192,72163,1,0,0:0:0:0:
256,192,72345,1,8,0:0:0:0:
256,192,72526,1,0,0:0:0:0:
256,192,72708,1,0,0:0:0:0:
256,192,72890,1,8,0:0:0:0:
256,192,73072,1,0,0:0:0:0:
256,192,73254,1,0,0:0:0:0:
256,192,73436,1,8,0:0:0:0:
256,192,73617,1,8,0:0:0:0:
256,192,73799,1,8,0:0:0:0:
256,192,73981,1,0,0:0:0:0:
256,192,74163,1,8,0:0:0:0:
256,192,74345,1,0,0:0:0:0:
256,192,74526,1,8,0:0:0:0:
256,192,74708,1,8,0:0:0:0:
256,192,74890,1,0,0:0:0:0:
256,192,75072,1,8,0:0:0:0:
256,192,75254,1,8,0:0:0:0:
256,192,75436,1,0,0:0:0:0:
256,192,75617,1,8,0:0:0:0:
256,192,75754,1,8,0:0:0:0:
256,192,75890,1,0,0:0:0:0:
256,192,76026,1,0,0:0:0:0:
256,192,76163,1,8,0:0:0:0:
256,192,76299,1,8,0:0:0:0:
256,192,76436,1,0,0:0:0:0:
256,192,76572,1,0,0:0:0:0:
256,192,76708,1,8,0:0:0:0:
256,192,76845,1,8,0:0:0:0:
256,192,76981,1,8,0:0:0:0:
256,192,77117,1,0,0:0:0:0:
256,192,77254,1,8,0:0:0:0:
256,192,77390,1,8,0:0:0:0:
256,192,77526,1,8,0:0:0:0:
256,192,77663,1,0,0:0:0:0:
256,192,77799,1,8,0:0:0:0:
256,192,77936,1,0,0:0:0:0:
256,192,78072,1,0,0:0:0:0:
256,192,78208,1,0,0:0:0:0:
256,192,78345,1,8,0:0:0:0:
256,192,78481,1,0,0:0:0:0:
256,192,78617,1,0,0:0:0:0:
256,192,78754,1,0,0:0:0:0:
256,192,78890,1,8,0:0:0:0:
256,192,79026,1,8,0:0:0:0:
256,192,79163,1,0,0:0:0:0:
256,192,79299,1,0,0:0:0:0:
256,192,79436,1,8,0:0:0:0:
256,192,79572,1,8,0:0:0:0:
256,192,79708,1,0,0:0:0:0:
256,192,79845,1,0,0:0:0:0:
256,192,79981,1,8,0:0:0:0:
256,192,80049,1,0,0:0:0:0:
256,192,80117,1,0,0:0:0:0:
256,192,80186,1,0,0:0:0:0:
256,192,80254,1,8,0:0:0:0:
256,192,80526,1,0,0:0:0:0:
256,192,80595,1,0,0:0:0:0:
256,192,80663,1,8,0:0:0:0:
256,192,80731,1,8,0:0:0:0:
256,192,80799,1,8,0:0:0:0:
256,192,81072,1,0,0:0:0:0:
256,192,81140,1,0,0:0:0:0:
256,192,81208,1,8,0:0:0:0:
256,192,81276,1,0,0:0:0:0:
256,192,81345,1,8,0:0:0:0:
256,192,81617,1,8,0:0:0:0:
256,192,81686,1,0,0:0:0:0:
256,192,81754,1,0,0:0:0:0:
256,192,81822,1,0,0:0:0:0:
256,192,81890,1,8,0:0:0:0:
256,192,82163,1,0,0:0:0:0:
256,192,82231,1,0,0:0:0:0:
256,192,82299,1,8,0:0:0:0:
256,192,82367,1,0,0:0:0:0:
256,192,82436,1,8,0:0:0:0:
256,192,82708,1,0,0:0:0:0:
256,192,82776,1,8,0:0:0:0:
256,192,82845,1,0,0:0:0:0:
256,192,82913,1,0,0:0:0:0:
256,192,82981,1,8,0:0:0:0:
256,192,83254,1,8,0:0:0:0:
256,192,83322,1,8,0:0:0:0:
256,192,83390,1,0,0:0:0:0:
256,192,83458,1,8,0:0:0:0:
256,192,83526,1,0,0:0:0:0:
256,192,83799,1,0,0:0:0:0:
256,192,83867,1,0,0:0:0:0:
256,192,83936,1,0,0:0:0:0:
256,192,84004,1,8,0:0:0:0:
256,192,84072,1,8,0:0:0:0:
256,192,85072,1,0,0:0:0:0:
256,192,85674,1,8,0:0:0:0:
256,192,87004,1,8,0:0:0:0:
256,192,87481,1,0,0:0:0:0:
256,192,87708,1,8,0:0:0:0:
256,192,87890,1,0,0:0:0:0:
256,192,88026,1,8,0:0:0:0:
256,192,88163,1,0,0:0:0:0:
256,192,88265,1,0,0:0:0:0:
256,192,88367,1,8,0:0:0:0:
256,192,88470,1,8,0:0:0:0:
256,192,88572,1,0,0:0:0:0:
256,192,88674,1,8,0:0:0:0:
256,192,88776,1,0,0:0:0:0:
256,192,88879,1,0,0:0:0:0:
256,192,88981,1,8,0:0:0:0:
256,192,89083,1,8,0:0:0:0:
256,192,89186,1,0,0:0:0:0:
256,192,89288,1,8,0:0:0:0:
256,192,89390,1,0,0:0:0:0:
256,192,89492,1,0,0:0:0:0:
256,192,89595,1,8,0:0:0:0:
256,192,89697,1,8,0:0:0:0:
256,192,89799,1,0,0:0:0:0:
256,192,89901,1,8,0:0:0:0:
256,192,90072,1,0,0:0:0:0:
256,192,90720,1,0,0:0:0:0:
256,192,91231,1,0,0:0:0:0:
256,192,91436,1,0,0:0:0:0:
256,192,91606,1,8,0:0:0:0:
256,192,91742,1,8,0:0:0:0:
256,192,91890,1,0,0:0:0:0:
256,192,91981,1,0,0:0:0:0:
256,192,92117,1,8,0:0:0:0:
256,192,92799,1,0,0:0:0:0:
256,192,93345,1,8,0:0:0:0:
256,192,93981,1,0,0:0:0:0:
256,192,94072,1,8,0:0:0:0:
256,192,94163,1,0,0:0:0:0:
256,192,95390,1,0,0:0:0:0:
256,192,96208,1,8,0:0:0:0:
256,192,96481,1,8,0:0:0:0:
256,192,96799,1,0,0:0:0:0:
256,192,97026,1,0,0:0:0:0:
256,192,97299,1,8,0:0:0:0:
256,192,97436,1,0,0:0:0:0:
256,192,97572,1,8,0:0:0:0:
256,192,97708,1,8,0:0:0:0:
256,192,97845,1,0,0:0:0:0:
256,192,97981,1,8,0:0:0:0:
256,192,98117,1,0,0:0:0:0:
256,192,98254,1,0,0:0:0:0:
256,192,98390,1,8,0:0:0:0:
256,192,98526,1,8,0:0:0:0:
256,192,98663,1,0,0:0:0:0:
256,192,98936,1,0,0:0:0:0:
256,192,99208,1,8,0:0:0:0:
256,192,99981,1,0,0:0:0:0:
256,192,100072,1,8,0:0:0:0:
256,192,100163,1,0,0:0:0:0:
256,192,100890,1,0,0:0:0:0:
256,192,102072,1,0,0:0:0:0:
256,192,102345,1,0,0:0:0:0:
256,192,102617,1,8,0:0:0:0:
256,192,102890,1,0,0:0:0:0:
256,192,103026,1,8,0:0:0:0:
256,192,103163,1,8,0:0:0:0:
256,192,103367,1,8,0:0:0:0:
256,192,103640,1,8,0:0:0:0:
256,192,104526,1,8,0:0:0:0:
256,192,105754,1,12,0:0:0:0:
256,192,105890,8,0,107117,0:0:0:0:
256,192,107254,5,12,0:0:0:0:
256,192,107390,1,0,0:0:0:0:
256,192,107663,1,8,0:0:0:0:
256,192,107799,1,0,0:0:0:0:
256,192,108072,1,8,0:0:0:0:
256,192,108344,1,8,0:0:0:0:
256,192,108617,1,0,0:0:0:0:
256,192,108754,1,8,0:0:0:0:
256,192,109026,1,0,0:0:0:0:
256,192,109163,1,8,0:0:0:0:
256,192,109435,1,0,0:0:0:0:
256,192,109708,1,8,0:0:0:0:
256,192,109981,1,12,0:0:0:0:
256,192,110117,1,0,0:0:0:0:
256,192,110390,1,8,0:0:0:0:
256,192,110526,1,0,0:0:0:0:
256,192,110799,1,8,0:0:0:0:
256,192,111072,1,8,0:0:0:0:
256,192,111344,1,0,0:0:0:0:
256,192,111481,1,8,0:0:0:0:
256,192,111754,1,0,0:0:0:0:
256,192,111890,1,8,0:0:0:0:
256,192,112163,1,0,0:0:0:0:
256,192,112231,1,0,0:0:0:0:
256,192,112299,1,0,0:0:0:0:
256,192,112367,1,0,0:0:0:0:
256,192,112435,1,8,0:0:0:0:
256,192,112572,1,0,0:0:0:0:
256,192,112708,1,12,0:0:0:0:
256,192,112844,1,0,0:0:0:0:
256,192,113117,1,8,0:0:0:0:
256,192,113254,1,0,0:0:0:0:
256,192,113526,1,8,0:0:0:0:
256,192,113799,1,8,0:0:0:0:
256,192,114072,1,0,0:0:0:0:
256,192,114208,1,8,0:0:0:0:
256,192,114481,1,0,0:0:0:0:
256,192,114617,1,8,0:0:0:0:
256,192,114890,1,0,0:0:0:0:
256,192,114958,1,0,0:0:0:0:
256,192,115026,1,0,0:0:0:0:
256,192,115094,1,0,0:0:0:0:
256,192,115163,1,8,0:0:0:0:
256,192,115435,1,12,0:0:0:0:
256,192,115572,1,0,0:0:0:0:
256,192,115844,1,8,0:0:0:0:
256,192,115981,1,0,0:0:0:0:
256,192,116254,1,8,0:0:0:0:
256,192,116526,1,8,0:0:0:0:
256,192,116799,1,4,0:0:0:0:
256,192,117004,1,4,0:0:0:0:
256,192,117208,1,4,0:0:0:0:
256,192,117413,1,4,0:0:0:0:
256,192,117617,1,8,0:0:0:0:
256,192,117685,1,8,0:0:0:0:
256,192,117754,1,0,0:0:0:0:
256,192,117822,1,0,0:0:0:0:
256,192,117890,1,8,0:0:0:0:
256,192,117958,1,0,0:0:0:0:
256,192,118026,1,0,0:0:0:0:
256,192,118094,1,0,0:0:0:0:
256,192,118163,1,8,0:0:0:0:
256,192,118299,1,0,0:0:0:0:
256,192,118435,1,8,0:0:0:0:
256,192,118504,1,0,0:0:0:0:
256,192,118572,1,0,0:0:0:0:
256,192,118640,1,0,0:0:0:0:
256,192,118708,1,8,0:0:0:0:
256,192,118844,1,0,0:0:0:0:
256,192,118981,1,8,0:0:0:0:
256,192,119049,1,8,0:0:0:0:
256,192,119117,1,0,0:0:0:0:
256,192,119254,1,8,0:0:0:0:
256,192,119322,1,0,0:0:0:0:
256,192,119390,1,0,0:0:0:0:
256,192,119458,1,0,0:0:0:0:
256,192,119526,1,8,0:0:0:0:
256,192,119663,1,0,0:0:0:0:
256,192,119799,1,8,0:0:0:0:
256,192,119867,1,0,0:0:0:0:
256,192,119935,1,0,0:0:0:0:
256,192,120004,1,0,0:0:0:0:
256,192,120072,1,8,0:0:0:0:
256,192,120208,1,0,0:0:0:0:
256,192,120344,1,8,0:0:0:0:
256,192,120413,1,8,0:0:0:0:
256,192,120481,1,0,0:0:0:0:
256,192,120549,1,0,0:0:0:0:
256,192,120617,1,8,0:0:0:0:
256,192,120685,1,0,0:0:0:0:
256,192,120754,1,0,0:0:0:0:
256,192,120822,1,0,0:0:0:0:
256,192,120890,1,8,0:0:0:0:
256,192,121026,1,0,0:0:0:0:
256,192,121163,1,8,0:0:0:0:
256,192,121231,1,8,0:0:0:0:
256,192,121299,1,8,0:0:0:0:
256,192,121367,1,8,0:0:0:0:
256,192,121435,1,0,0:0:0:0:
256,192,121572,1,0,0:0:0:0:
256,192,121708,1,8,0:0:0:0:
256,192,121776,1,8,0:0:0:0:
256,192,121844,1,0,0:0:0:0:
256,192,121981,1,8,0:0:0:0:
256,192,122049,1,8,0:0:0:0:
256,192,122117,1,0,0:0:0:0:
256,192,122185,1,0,0:0:0:0:
256,192,122254,1,8,0:0:0:0:
256,192,122390,1,0,0:0:0:0:
256,192,122526,1,8,0:0:0:0:
256,192,122594,1,8,0:0:0:0:
256,192,122663,1,8,0:0:0:0:
256,192,122731,1,8,0:0:0:0:
256,192,122799,1,0,0:0:0:0:
256,192,122935,1,0,0:0:0:0:
256,192,123072,1,8,0:0:0:0:
256,192,123140,1,8,0:0:0:0:
256,192,123208,1,0,0:0:0:0:
256,192,123276,1,0,0:0:0:0:
256,192,123344,1,8,0:0:0:0:
256,192,123413,1,0,0:0:0:0:
256,192,123481,1,8,0:0:0:0:
256,192,123549,1,8,0:0:0:0:
256,192,123617,1,0,0:0:0:0:
256,192,123754,1,8,0:0:0:0:
256,192,123890,1,0,0:0:0:0:
256,192,123958,1,0,0:0:0:0:
256,192,124026,1,0,0:0:0:0:
256,192,124094,1,0,0:0:0:0:
256,192,124163,1,8,0:0:0:0:
256,192,124299,1,0,0:0:0:0:
256,192,124435,1,8,0:0:0:0:
256,192,124504,1,0,0:0:0:0:
256,192,124572,1,0,0:0:0:0:
256,192,124708,1,8,0:0:0:0:
256,192,124776,1,0,0:0:0:0:
256,192,124844,1,0,0:0:0:0:
256,192,124913,1,0,0:0:0:0:
256,192,124981,1,8,0:0:0:0:
256,192,125117,1,0,0:0:0:0:
256,192,125254,1,8,0:0:0:0:
256,192,125322,1,0,0:0:0:0:
256,192,125390,1,0,0:0:0:0:
256,192,125458,1,0,0:0:0:0:
256,192,125526,1,8,0:0:0:0:
256,192,125663,1,8,0:0:0:0:
256,192,125799,1,0,0:0:0:0:
256,192,125867,1,0,0:0:0:0:
256,192,125935,1,8,0:0:0:0:
256,192,126004,1,8,0:0:0:0:
256,192,126072,1,0,0:0:0:0:
256,192,126140,1,0,0:0:0:0:
256,192,126208,1,8,0:0:0:0:
256,192,126276,1,8,0:0:0:0:
256,192,126344,1,0,0:0:0:0:
256,192,126480,1,0,0:0:0:0:
256,192,126548,1,0,0:0:0:0:
256,192,126616,1,8,0:0:0:0:
256,192,126753,1,0,0:0:0:0:
256,192,126889,1,8,0:0:0:0:
256,192,127025,1,0,0:0:0:0:
256,192,127094,1,8,0:0:0:0:
256,192,127162,1,8,0:0:0:0:
256,192,127298,1,0,0:0:0:0:
256,192,127434,1,8,0:0:0:0:
256,192,127571,1,0,0:0:0:0:
256,192,127639,1,0,0:0:0:0:
256,192,127707,1,8,0:0:0:0:
256,192,127844,1,0,0:0:0:0:
256,192,127980,1,8,0:0:0:0:
256,192,128116,1,0,0:0:0:0:
256,192,128184,1,8,0:0:0:0:
256,192,128253,1,8,0:0:0:0:
256,192,128389,1,0,0:0:0:0:
256,192,128525,1,8,0:0:0:0:
256,192,128662,1,0,0:0:0:0:
256,192,128730,1,0,0:0:0:0:
256,192,128798,1,8,0:0:0:0:
256,192,128934,1,0,0:0:0:0:
256,192,129071,1,8,0:0:0:0:
256,192,129207,1,0,0:0:0:0:
256,192,129275,1,8,0:0:0:0:
256,192,129344,1,8,0:0:0:0:
256,192,129480,1,0,0:0:0:0:
256,192,129616,1,8,0:0:0:0:
256,192,129753,1,0,0:0:0:0:
256,192,129821,1,0,0:0:0:0:
256,192,129889,1,8,0:0:0:0:
256,192,130025,1,0,0:0:0:0:
256,192,130162,1,8,0:0:0:0:
256,192,130298,1,0,0:0:0:0:
256,192,130366,1,8,0:0:0:0:
256,192,130434,1,8,0:0:0:0:
256,192,130571,1,0,0:0:0:0:
256,192,130707,1,8,0:0:0:0:
256,192,130775,1,0,0:0:0:0:
256,192,130844,1,8,0:0:0:0:
256,192,130912,1,8,0:0:0:0:
256,192,130980,1,0,0:0:0:0:
256,192,131048,1,8,0:0:0:0:
256,192,131116,1,0,0:0:0:0:
256,192,131184,1,0,0:0:0:0:
256,192,131253,1,8,0:0:0:0:
256,192,131321,1,0,0:0:0:0:
256,192,131389,1,8,0:0:0:0:
256,192,131457,1,8,0:0:0:0:
256,192,131525,1,0,0:0:0:0:
256,192,131594,1,8,0:0:0:0:
256,192,131662,1,0,0:0:0:0:
256,192,131730,1,0,0:0:0:0:
256,192,131798,1,8,0:0:0:0:
256,192,131866,1,0,0:0:0:0:
256,192,131934,1,8,0:0:0:0:
256,192,132003,1,8,0:0:0:0:
256,192,132071,1,0,0:0:0:0:
256,192,132139,1,0,0:0:0:0:
256,192,132207,1,8,0:0:0:0:
256,192,132275,1,8,0:0:0:0:
256,192,132344,1,0,0:0:0:0:
256,192,132412,1,0,0:0:0:0:
256,192,132480,1,8,0:0:0:0:
256,192,132548,1,8,0:0:0:0:
256,192,132616,1,0,0:0:0:0:
256,192,132684,1,8,0:0:0:0:
256,192,132753,1,0,0:0:0:0:
256,192,132821,1,0,0:0:0:0:
256,192,133980,1,8,0:0:0:0:
256,192,134116,1,0,0:0:0:0:
256,192,134389,1,8,0:0:0:0:
256,192,134662,1,0,0:0:0:0:
256,192,134730,1,0,0:0:0:0:
256,192,134798,1,8,0:0:0:0:
256,192,135071,1,4,0:0:0:0:
256,192,135207,1,0,0:0:0:0:
256,192,135275,1,0,0:0:0:0:
256,192,135344,1,8,0:0:0:0:
256,192,135480,1,0,0:0:0:0:
256,192,135616,1,8,0:0:0:0:
256,192,135684,1,8,0:0:0:0:
256,192,135753,1,0,0:0:0:0:
256,192,135821,1,0,0:0:0:0:
256,192,135889,1,8,0:0:0:0:
256,192,136025,1,8,0:0:0:0:
256,192,136094,1,8,0:0:0:0:
256,192,136162,1,0,0:0:0:0:
256,192,136298,1,8,0:0:0:0:
256,192,136366,1,8,0:0:0:0:
256,192,136434,1,0,0:0:0:0:
256,192,136571,1,8,0:0:0:0:
256,192,136639,1,0,0:0:0:0:
256,192,136707,1,8,0:0:0:0:
256,192,136775,1,8,0:0:0:0:
256,192,136844,1,0,0:0:0:0:
256,192,136912,1,0,0:0:0:0:
256,192,136980,1,8,0:0:0:0:
256,192,137025,1,8,0:0:0:0:
256,192,137071,1,8,0:0:0:0:
256,192,137116,1,0,0:0:0:0:
256,192,137184,1,0,0:0:0:0:
256,192,137253,1,8,0:0:0:0:
256,192,137389,1,0,0:0:0:0:
256,192,137457,1,0,0:0:0:0:
256,192,137525,1,8,0:0:0:0:
256,192,137662,1,0,0:0:0:0:
256,192,137798,1,8,0:0:0:0:
256,192,137866,1,8,0:0:0:0:
256,192,137934,1,0,0:0:0:0:
256,192,138003,1,0,0:0:0:0:
256,192,138071,1,8,0:0:0:0:
256,192,138139,1,0,0:0:0:0:
256,192,138207,1,8,0:0:0:0:
256,192,138275,1,8,0:0:0:0:
256,192,138344,1,0,0:0:0:0:
256,192,138480,1,8,0:0:0:0:
256,192,138548,1,8,0:0:0:0:
256,192,138616,1,0,0:0:0:0:
256,192,138753,1,8,0:0:0:0:
256,192,138889,1,0,0:0:0:0:
256,192,138957,1,0,0:0:0:0:
256,192,139025,1,0,0:0:0:0:
256,192,139094,1,0,0:0:0:0:
256,192,139162,1,8,0:0:0:0:
256,192,139298,1,0,0:0:0:0:
256,192,139366,1,0,0:0:0:0:
256,192,139434,1,12,0:0:0:0:
256,192,139571,1,0,0:0:0:0:
256,192,139639,1,0,0:0:0:0:
256,192,139707,1,8,0:0:0:0:
256,192,139775,1,8,0:0:0:0:
256,192,139844,1,0,0:0:0:0:
256,192,139980,1,8,0:0:0:0:
256,192,140116,1,0,0:0:0:0:
256,192,140184,1,0,0:0:0:0:
256,192,140253,1,8,0:0:0:0:
256,192,140389,1,0,0:0:0:0:
256,192,140457,1,8,0:0:0:0:
256,192,140525,1,0,0:0:0:0:
256,192,140662,1,8,0:0:0:0:
256,192,140730,1,8,0:0:0:0:
256,192,140798,1,0,0:0:0:0:
256,192,140866,1,0,0:0:0:0:
256,192,140934,1,8,0:0:0:0:
256,192,141003,1,0,0:0:0:0:
256,192,141071,1,8,0:0:0:0:
256,192,141139,1,8,0:0:0:0:
256,192,141207,1,0,0:0:0:0:
256,192,141275,1,0,0:0:0:0:
256,192,141344,1,8,0:0:0:0:
256,192,141480,1,0,0:0:0:0:
256,192,141616,1,8,0:0:0:0:
256,192,141889,1,0,0:0:0:0:
256,192,141923,1,0,0:0:0:0:
256,192,142025,1,0,0:0:0:0:
256,192,142094,1,0,0:0:0:0:
256,192,142162,1,8,0:0:0:0:
256,192,142196,1,8,0:0:0:0:
256,192,142298,1,8,0:0:0:0:
256,192,142332,1,8,0:0:0:0:
256,192,142434,1,0,0:0:0:0:
256,192,142469,1,0,0:0:0:0:
256,192,142571,1,8,0:0:0:0:
256,192,142639,1,8,0:0:0:0:
256,192,142707,1,0,0:0:0:0:
256,192,142844,1,0,0:0:0:0:
256,192,142980,1,8,0:0:0:0:
256,192,143116,1,8,0:0:0:0:
256,192,143253,1,8,0:0:0:0:
256,192,143389,1,0,0:0:0:0:
256,192,143525,1,8,0:0:0:0:
256,192,143662,1,8,0:0:0:0:
256,192,143798,1,4,0:0:0:0:
256,192,144003,1,0,0:0:0:0:
256,192,144071,1,8,0:0:0:0:
256,192,144207,1,0,0:0:0:0:
256,192,144344,1,8,0:0:0:0:
256,192,144412,1,0,0:0:0:0:
256,192,144616,1,8,0:0:0:0:
256,192,144753,1,8,0:0:0:0:
256,192,144889,1,0,0:0:0:0:
256,192,145094,1,8,0:0:0:0:
256,192,145162,1,0,0:0:0:0:
256,192,145298,1,8,0:0:0:0:
256,192,145503,1,0,0:0:0:0:
256,192,145707,1,0,0:0:0:0:
256,192,145775,1,8,0:0:0:0:
256,192,145980,1,4,0:0:0:0:
256,192,146184,1,0,0:0:0:0:
256,192,146253,1,8,0:0:0:0:
256,192,146389,1,0,0:0:0:0:
256,192,146525,1,8,0:0:0:0:
256,192,146594,1,0,0:0:0:0:
256,192,146798,1,8,0:0:0:0:
256,192,146934,1,8,0:0:0:0:
256,192,147071,1,0,0:0:0:0:
256,192,147275,1,0,0:0:0:0:
256,192,147344,1,8,0:0:0:0:
256,192,147480,1,0,0:0:0:0:
256,192,147684,1,0,0:0:0:0:
256,192,147889,1,8,0:0:0:0:
256,192,147957,1,0,0:0:0:0:
256,192,148162,1,8,0:0:0:0:
256,192,148230,1,0,0:0:0:0:
256,192,148298,1,8,0:0:0:0:
256,192,148366,1,0,0:0:0:0:
256,192,148434,1,8,0:0:0:0:
256,192,148503,1,0,0:0:0:0:
256,192,148571,1,8,0:0:0:0:
256,192,148639,1,8,0:0:0:0:
256,192,148707,1,0,0:0:0:0:
256,192,148775,1,8,0:0:0:0:
256,192,148844,1,0,0:0:0:0:
256,192,148912,1,8,0:0:0:0:
256,192,148980,1,0,0:0:0:0:
256,192,149048,1,8,0:0:0:0:
256,192,149116,1,0,0:0:0:0:
256,192,149184,1,0,0:0:0:0:
256,192,149253,1,8,0:0:0:0:
256,192,149321,1,0,0:0:0:0:
256,192,149389,1,8,0:0:0:0:
256,192,149457,1,0,0:0:0:0:
256,192,149525,1,8,0:0:0:0:
256,192,149594,1,0,0:0:0:0:
256,192,149662,1,8,0:0:0:0:
256,192,149730,1,8,0:0:0:0:
256,192,149798,1,0,0:0:0:0:
256,192,149866,1,8,0:0:0:0:
256,192,149934,1,0,0:0:0:0:
256,192,150003,1,8,0:0:0:0:
256,192,150071,1,0,0:0:0:0:
256,192,150139,1,8,0:0:0:0:
256,192,150207,1,0,0:0:0:0:
256,192,150275,1,0,0:0:0:0:
256,192,150344,1,8,0:0:0:0:
256,192,150480,1,0,0:0:0:0:
256,192,150548,1,0,0:0:0:0:
256,192,150616,1,8,0:0:0:0:
256,192,150753,1,0,0:0:0:0:
256,192,150889,1,8,0:0:0:0:
256,192,150957,1,8,0:0:0:0:
256,192,151025,1,0,0:0:0:0:
256,192,151162,1,8,0:0:0:0:
256,192,151298,1,0,0:0:0:0:
256,192,151434,1,8,0:0:0:0:
256,192,151571,1,8,0:0:0:0:
256,192,151707,1,8,0:0:0:0:
256,192,151844,1,0,0:0:0:0:
256,192,151980,1,8,0:0:0:0:
256,192,152116,1,8,0:0:0:0:
256,192,152253,1,0,0:0:0:0:
256,192,152389,1,0,0:0:0:0:
256,192,152525,1,8,0:0:0:0:
256,192,152662,1,0,0:0:0:0:
256,192,152798,1,0,0:0:0:0:
256,192,152934,1,0,0:0:0:0:
256,192,153071,1,0,0:0:0:0:
256,192,153207,1,0,0:0:0:0:
256,192,153344,1,8,0:0:0:0:
256,192,153480,1,0,0:0:0:0:
256,192,153548,1,0,0:0:0:0:
256,192,153616,1,8,0:0:0:0:
256,192,153753,1,0,0:0:0:0:
256,192,153889,1,0,0:0:0:0:
256,192,154025,1,8,0:0:0:0:
256,192,154162,1,0,0:0:0:0:
256,192,154298,1,0,0:0:0:0:
256,192,154434,1,8,0:0:0:0:
256,192,154571,1,0,0:0:0:0:
256,192,154639,1,0,0:0:0:0:
256,192,154707,1,8,0:0:0:0:
256,192,154980,1,0,0:0:0:0:
256,192,155253,1,8,0:0:0:0:
256,192,155525,1,0,0:0:0:0:
256,192,155662,1,8,0:0:0:0:
256,192,155730,1,8,0:0:0:0:
256,192,155798,1,8,0:0:0:0:
256,192,155934,1,8,0:0:0:0:
256,192,156071,1,0,0:0:0:0:
256,192,156207,1,0,0:0:0:0:
256,192,156275,1,0,0:0:0:0:
256,192,156344,1,0,0:0:0:0:
256,192,156480,1,0,0:0:0:0:
256,192,156616,1,8,0:0:0:0:
256,192,156753,1,8,0:0:0:0:
256,192,156889,1,0,0:0:0:0:
256,192,157025,1,0,0:0:0:0:
256,192,157162,1,0,0:0:0:0:
256,192,157298,1,0,0:0:0:0:
256,192,157434,1,0,0:0:0:0:
256,192,157571,1,0,0:0:0:0:
256,192,157707,1,8,0:0:0:0:
256,192,157844,1,0,0:0:0:0:
256,192,157912,1,0,0:0:0:0:
256,192,157980,1,8,0:0:0:0:
256,192,158116,1,0,0:0:0:0:
256,192,158253,1,0,0:0:0:0:
256,192,158389,1,8,0:0:0:0:
256,192,158525,1,0,0:0:0:0:
256,192,158662,1,0,0:0:0:0:
256,192,158798,1,8,0:0:0:0:
256,192,158934,1,0,0:0:0:0:
256,192,159003,1,0,0:0:0:0:
256,192,159071,1,8,0:0:0:0:
256,192,159344,1,0,0:0:0:0:
256,192,159616,1,8,0:0:0:0:
256,192,159753,1,8,0:0:0:0:
256,192,159889,1,0,0:0:0:0:
256,192,160025,1,0,0:0:0:0:
256,192,160094,1,0,0:0:0:0:
256,192,160162,1,0,0:0:0:0:
256,192,160434,1,8,0:0:0:0:
256,192,160707,1,0,0:0:0:0:
256,192,160844,1,0,0:0:0:0:
256,192,160912,1,0,0:0:0:0:
256,192,160980,1,8,0:0:0:0:
256,192,161116,1,0,0:0:0:0:
256,192,161253,1,8,0:0:0:0:
256,192,161525,1,0,0:0:0:0:
256,192,161798,1,0,0:0:0:0:
256,192,162071,1,0,0:0:0:0:
256,192,162344,1,8,0:0:0:0:
256,192,162616,1,0,0:0:0:0:
256,192,162753,1,8,0:0:0:0:
256,192,162889,1,0,0:0:0:0:
256,192,163162,1,8,0:0:0:0:
256,192,163434,1,0,0:0:0:0:
256,192,163707,1,0,0:0:0:0:
256,192,163980,1,0,0:0:0:0:
256,192,164253,1,0,0:0:0:0:
256,192,164389,1,8,0:0:0:0:
256,192,164457,1,8,0:0:0:0:
256,192,164525,1,8,0:0:0:0:
256,192,164662,1,8,0:0:0:0:
256,192,164798,1,0,0:0:0:0:
256,192,164934,1,0,0:0:0:0:
256,192,165003,1,0,0:0:0:0:
256,192,165071,1,0,0:0:0:0:
256,192,165207,1,0,0:0:0:0:
256,192,165344,1,8,0:0:0:0:
256,192,165480,1,8,0:0:0:0:
256,192,165616,1,0,0:0:0:0:
256,192,165798,1,0,0:0:0:0:
256,192,165980,1,0,0:0:0:0:
256,192,166162,1,8,0:0:0:0:
256,192,166344,1,8,0:0:0:0:
256,192,166525,1,8,0:0:0:0:
256,192,166707,1,0,0:0:0:0:
256,192,166889,1,8,0:0:0:0:
256,192,167071,1,8,0:0:0:0:
256,192,167253,1,0,0:0:0:0:
256,192,167344,1,8,0:0:0:0:
256,192,167434,1,8,0:0:0:0:
256,192,167525,1,0,0:0:0:0:
256,192,167616,1,8,0:0:0:0:
256,192,167707,1,8,0:0:0:0:
256,192,167798,1,0,0:0:0:0:
256,192,167866,1,0,0:0:0:0:
256,192,167934,1,0,0:0:0:0:
256,192,168003,1,0,0:0:0:0:
256,192,168071,1,0,0:0:0:0:
256,192,168139,1,0,0:0:0:0:
256,192,168207,1,0,0:0:0:0:
256,192,168275,1,0,0:0:0:0:
256,192,168344,1,8,0:0:0:0:
256,192,168412,1,8,0:0:0:0:
256,192,168480,1,8,0:0:0:0:
256,192,168548,1,8,0:0:0:0:
256,192,168616,1,8,0:0:0:0:
256,192,168684,1,8,0:0:0:0:
256,192,168753,1,8,0:0:0:0:
256,192,168821,1,8,0:0:0:0:
256,192,168889,1,0,0:0:0:0:
256,192,169162,1,8,0:0:0:0:
256,192,169298,1,0,0:0:0:0:
256,192,169571,1,0,0:0:0:0:
256,192,169707,1,8,0:0:0:0:
256,192,169844,1,8,0:0:0:0:
256,192,169980,1,4,0:0:0:0:
256,192,170253,1,8,0:0:0:0:
256,192,170321,1,8,0:0:0:0:
256,192,170389,1,8,0:0:0:0:
256,192,170525,1,0,0:0:0:0:
256,192,170662,1,8,0:0:0:0:
256,192,170730,1,8,0:0:0:0:
256,192,170798,1,0,0:0:0:0:
256,192,170934,1,8,0:0:0:0:
256,192,171071,1,0,0:0:0:0:
256,192,171139,1,0,0:0:0:0:
256,192,171207,1,8,0:0:0:0:
256,192,171275,1,8,0:0:0:0:
256,192,171344,1,0,0:0:0:0:
256,192,171480,1,8,0:0:0:0:
256,192,171616,1,0,0:0:0:0:
256,192,171684,1,0,0:0:0:0:
256,192,171753,1,8,0:0:0:0:
256,192,171821,1,0,0:0:0:0:
256,192,171889,1,8,0:0:0:0:
256,192,171957,1,8,0:0:0:0:
256,192,172025,1,0,0:0:0:0:
256,192,172094,1,8,0:0:0:0:
256,192,172162,1,0,0:0:0:0:
256,192,172434,1,8,0:0:0:0:
256,192,172503,1,8,0:0:0:0:
256,192,172571,1,8,0:0:0:0:
256,192,172707,1,0,0:0:0:0:
256,192,172844,1,8,0:0:0:0:
256,192,172912,1,8,0:0:0:0:
256,192,172980,1,0,0:0:0:0:
256,192,173116,1,8,0:0:0:0:
256,192,173253,1,0,0:0:0:0:
256,192,173321,1,0,0:0:0:0:
256,192,173389,1,8,0:0:0:0:
256,192,173457,1,0,0:0:0:0:
256,192,173525,1,8,0:0:0:0:
256,192,173594,1,8,0:0:0:0:
256,192,173662,1,0,0:0:0:0:
256,192,173730,1,0,0:0:0:0:
256,192,173798,1,8,0:0:0:0:
256,192,173866,1,8,0:0:0:0:
256,192,173934,1,8,0:0:0:0:
256,192,174003,1,0,0:0:0:0:
256,192,174071,1,8,0:0:0:0:
256,192,174139,1,8,0:0:0:0:
256,192,174207,1,0,0:0:0:0:
256,192,174275,1,8,0:0:0:0:
256,192,174344,1,0,0:0:0:0:
256,192,174616,1,8,0:0:0:0:
256,192,174684,1,8,0:0:0:0:
256,192,174753,1,8,0:0:0:0:
256,192,174889,1,0,0:0:0:0:
256,192,175025,1,8,0:0:0:0:
256,192,175094,1,8,0:0:0:0:
256,192,175162,1,0,0:0:0:0:
256,192,175298,1,8,0:0:0:0:
256,192,175434,1,0,0:0:0:0:
256,192,175503,1,0,0:0:0:0:
256,192,175571,1,8,0:0:0:0:
256,192,175639,1,0,0:0:0:0:
256,192,175707,1,8,0:0:0:0:
256,192,175844,1,8,0:0:0:0:
256,192,175980,1,0,0:0:0:0:
256,192,176048,1,0,0:0:0:0:
256,192,176116,1,8,0:0:0:0:
256,192,176184,1,0,0:0:0:0:
256,192,176253,1,8,0:0:0:0:
256,192,176321,1,8,0:0:0:0:
256,192,176389,1,0,0:0:0:0:
256,192,176457,1,8,0:0:0:0:
256,192,176525,1,0,0:0:0:0:
256,192,176798,1,0,0:0:0:0:
256,192,176934,1,0,0:0:0:0:
256,192,177071,1,8,0:0:0:0:
256,192,177207,1,0,0:0:0:0:
256,192,177344,1,0,0:0:0:0:
256,192,177480,1,0,0:0:0:0:
256,192,177616,1,8,0:0:0:0:
256,192,177684,1,8,0:0:0:0:
256,192,177753,1,8,0:0:0:0:
256,192,177821,1,8,0:0:0:0:
256,192,177889,1,8,0:0:0:0:
256,192,177957,1,8,0:0:0:0:
256,192,178025,1,8,0:0:0:0:
256,192,178094,1,8,0:0:0:0:
256,192,178162,1,8,0:0:0:0:
256,192,178230,1,8,0:0:0:0:
256,192,178298,1,8,0:0:0:0:
256,192,178366,1,8,0:0:0:0:
256,192,178434,1,8,0:0:0:0:
256,192,178503,1,8,0:0:0:0:
256,192,178571,1,8,0:0:0:0:
256,192,178639,1,8,0:0:0:0:
256,192,178707,1,0,0:0:0:0:
256,192,178980,1,12,0:0:0:0:
256,192,179253,1,12,0:0:0:0:
256,192,179457,1,12,0:0:0:0:
256,192,179525,1,12,0:0:0:0:
256,192,179662,1,12,0:0:0:0:
256,192,179798,1,4,0:0:0:0:
256,192,179934,1,4,0:0:0:0:
256,192,180071,1,12,0:0:0:0:
256,192,180207,1,12,0:0:0:0:
256,192,180344,1,0,0:0:0:0:
256,192,180412,1,0,0:0:0:0:
256,192,180480,1,8,0:0:0:0:
256,192,180548,1,0,0:0:0:0:
256,192,180616,1,8,0:0:0:0:
256,192,180684,1,8,0:0:0:0:
256,192,180753,1,0,0:0:0:0:
256,192,180821,1,0,0:0:0:0:
256,192,180889,1,8,0:0:0:0:
256,192,181162,1,4,0:0:0:0:
256,192,181434,1,4,0:0:0:0:
256,192,181639,1,4,0:0:0:0:
256,192,181707,1,4,0:0:0:0:
256,192,181844,1,12,0:0:0:0:
256,192,181980,1,0,0:0:0:0:
256,192,182048,1,0,0:0:0:0:
256,192,182116,1,8,0:0:0:0:
256,192,182184,1,0,0:0:0:0:
256,192,182253,1,8,0:0:0:0:
256,192,182321,1,8,0:0:0:0:
256,192,182389,1,0,0:0:0:0:
256,192,182457,1,0,0:0:0:0:
256,192,182525,1,8,0:0:0:0:
256,192,182594,1,8,0:0:0:0:
256,192,182662,1,8,0:0:0:0:
256,192,182730,1,0,0:0:0:0:
256,192,182798,1,8,0:0:0:0:
256,192,182866,1,8,0:0:0:0:
256,192,182934,1,0,0:0:0:0:
256,192,183003,1,0,0:0:0:0:
256,192,183071,1,8,0:0:0:0:
256,192,183344,1,4,0:0:0:0:
256,192,183616,1,8,0:0:0:0:
256,192,183821,1,8,0:0:0:0:
256,192,183889,1,0,0:0:0:0:
256,192,184025,1,0,0:0:0:0:
256,192,184162,1,8,0:0:0:0:
256,192,184366,1,0,0:0:0:0:
256,192,184434,1,8,0:0:0:0:
256,192,184571,1,8,0:0:0:0:
256,192,184707,1,0,0:0:0:0:
256,192,184775,1,0,0:0:0:0:
256,192,184844,1,8,0:0:0:0:
256,192,184912,1,0,0:0:0:0:
256,192,184980,1,8,0:0:0:0:
256,192,185048,1,8,0:0:0:0:
256,192,185116,1,0,0:0:0:0:
256,192,185184,1,8,0:0:0:0:
256,192,185253,1,0,0:0:0:0:
256,192,186344,1,8,0:0:0:0:
256,192,186378,1,8,0:0:0:0:
256,192,186616,1,8,0:0:0:0:
256,192,186650,1,8,0:0:0:0:
256,192,186889,1,8,0:0:0:0:
256,192,186923,1,8,0:0:0:0:
256,192,187025,1,8,0:0:0:0:
256,192,187059,1,8,0:0:0:0:
256,192,187162,1,8,0:0:0:0:
256,192,187196,1,8,0:0:0:0:
256,192,187298,1,8,0:0:0:0:
256,192,187332,1,8,0:0:0:0:
256,192,187434,1,4,0:0:0:0:
256,192,187707,1,0,0:0:0:0:
256,192,187980,1,0,0:0:0:0:
256,192,188253,1,0,0:0:0:0:
256,192,188389,1,8,0:0:0:0:
256,192,188662,1,8,0:0:0:0:
256,192,188798,1,0,0:0:0:0:
256,192,188934,1,8,0:0:0:0:
256,192,189071,1,0,0:0:0:0:
256,192,189207,1,8,0:0:0:0:
256,192,189275,1,0,0:0:0:0:
256,192,189344,1,8,0:0:0:0:
256,192,189480,1,8,0:0:0:0:
256,192,189616,1,0,0:0:0:0:
256,192,189753,1,8,0:0:0:0:
256,192,190025,1,8,0:0:0:0:
256,192,190162,1,0,0:0:0:0:
256,192,190298,1,8,0:0:0:0:
256,192,190434,1,0,0:0:0:0:
256,192,190571,1,0,0:0:0:0:
256,192,190707,1,8,0:0:0:0:
256,192,190844,1,0,0:0:0:0:
256,192,190912,1,0,0:0:0:0:
256,192,190980,1,0,0:0:0:0:
256,192,191116,1,8,0:0:0:0:
256,192,191253,1,0,0:0:0:0:
256,192,191321,1,0,0:0:0:0:
256,192,191389,1,0,0:0:0:0:
256,192,191525,1,8,0:0:0:0:
256,192,191594,1,8,0:0:0:0:
256,192,191662,1,8,0:0:0:0:
256,192,191730,1,8,0:0:0:0:
256,192,191798,1,0,0:0:0:0:
256,192,192071,1,0,0:0:0:0:
256,192,192344,1,0,0:0:0:0:
256,192,192616,1,8,0:0:0:0:
256,192,192753,1,0,0:0:0:0:
256,192,193025,1,0,0:0:0:0:
256,192,193298,1,0,0:0:0:0:
256,192,193434,1,0,0:0:0:0:
256,192,193571,1,8,0:0:0:0:
256,192,193639,1,0,0:0:0:0:
256,192,193707,1,8,0:0:0:0:
256,192,193844,1,8,0:0:0:0:
256,192,193980,1,0,0:0:0:0:
256,192,194116,1,8,0:0:0:0:
256,192,194184,1,8,0:0:0:0:
256,192,194253,1,8,0:0:0:0:
256,192,194389,1,8,0:0:0:0:
256,192,194525,1,0,0:0:0:0:
256,192,194662,1,8,0:0:0:0:
256,192,194798,1,0,0:0:0:0:
256,192,194934,1,0,0:0:0:0:
256,192,195071,1,12,0:0:0:0:
256,192,195207,1,0,0:0:0:0:
256,192,195480,1,12,0:0:0:0:
256,192,195616,1,0,0:0:0:0:
256,192,195889,1,12,0:0:0:0:
256,192,196162,1,0,0:0:0:0:
256,192,196434,1,0,0:0:0:0:
256,192,196707,1,0,0:0:0:0:
256,192,196980,1,0,0:0:0:0:
256,192,197116,1,8,0:0:0:0:
256,192,197389,1,8,0:0:0:0:
256,192,197525,1,0,0:0:0:0:
256,192,197662,1,8,0:0:0:0:
256,192,197798,1,0,0:0:0:0:
256,192,197934,1,8,0:0:0:0:
256,192,198003,1,0,0:0:0:0:
256,192,198071,1,8,0:0:0:0:
256,192,198207,1,8,0:0:0:0:
256,192,198344,1,0,0:0:0:0:
256,192,198480,1,8,0:0:0:0:
256,192,198616,1,0,0:0:0:0:
256,192,198753,1,0,0:0:0:0:
256,192,198889,1,8,0:0:0:0:
256,192,199025,1,8,0:0:0:0:
256,192,199162,1,0,0:0:0:0:
256,192,199298,1,0,0:0:0:0:
256,192,199434,1,8,0:0:0:0:
256,192,199571,1,0,0:0:0:0:
256,192,199639,1,0,0:0:0:0:
256,192,199707,1,0,0:0:0:0:
256,192,199844,1,8,0:0:0:0:
256,192,199980,1,0,0:0:0:0:
256,192,200048,1,0,0:0:0:0:
256,192,200116,1,0,0:0:0:0:
256,192,200253,1,8,0:0:0:0:
256,192,200525,1,0,0:0:0:0:
256,192,200594,1,0,0:0:0:0:
256,192,200662,1,8,0:0:0:0:
256,192,200730,1,0,0:0:0:0:
256,192,200798,1,8,0:0:0:0:
256,192,200866,1,8,0:0:0:0:
256,192,200934,1,0,0:0:0:0:
256,192,201003,1,0,0:0:0:0:
256,192,201071,1,8,0:0:0:0:
256,192,201139,1,8,0:0:0:0:
256,192,201207,1,0,0:0:0:0:
256,192,201275,1,8,0:0:0:0:
256,192,201344,1,0,0:0:0:0:
256,192,201412,1,0,0:0:0:0:
256,192,201480,1,8,0:0:0:0:
256,192,201548,1,0,0:0:0:0:
256,192,201616,1,8,0:0:0:0:
256,192,201684,1,8,0:0:0:0:
256,192,201753,1,8,0:0:0:0:
256,192,201821,1,8,0:0:0:0:
256,192,201889,1,0,0:0:0:0:
256,192,201957,1,8,0:0:0:0:
256,192,202025,1,0,0:0:0:0:
256,192,202094,1,0,0:0:0:0:
256,192,202162,1,8,0:0:0:0:
256,192,202230,1,0,0:0:0:0:
256,192,202298,1,8,0:0:0:0:
256,192,202366,1,8,0:0:0:0:
256,192,202434,1,0,0:0:0:0:
256,192,202503,1,8,0:0:0:0:
256,192,202571,1,0,0:0:0:0:
256,192,202639,1,0,0:0:0:0:
256,192,202707,1,8,0:0:0:0:
256,192,203253,1,8,0:0:0:0:
256,192,203798,1,8,0:0:0:0:
256,192,203934,1,8,0:0:0:0:
256,192,204071,1,0,0:0:0:0:
256,192,204207,1,8,0:0:0:0:
256,192,204344,1,0,0:0:0:0:
256,192,204480,1,0,0:0:0:0:
256,192,204616,1,8,0:0:0:0:
256,192,204753,1,8,0:0:0:0:
256,192,204889,1,0,0:0:0:0:
256,192,204957,1,0,0:0:0:0:
256,192,205025,1,8,0:0:0:0:
256,192,205094,1,0,0:0:0:0:
256,192,205162,1,8,0:0:0:0:
256,192,205230,1,8,0:0:0:0:
256,192,205298,1,0,0:0:0:0:
256,192,205366,1,8,0:0:0:0:
256,192,205434,1,0,0:0:0:0:
256,192,205503,1,0,0:0:0:0:
256,192,205571,1,8,0:0:0:0:
256,192,205639,1,8,0:0:0:0:
256,192,205707,1,0,0:0:0:0:
256,192,205775,1,0,0:0:0:0:
256,192,205844,1,8,0:0:0:0:
256,192,205912,1,8,0:0:0:0:
256,192,205980,1,0,0:0:0:0:
256,192,206048,1,8,0:0:0:0:
256,192,206116,1,0,0:0:0:0:
256,192,206184,1,0,0:0:0:0:
256,192,206253,1,8,0:0:0:0:
256,192,206321,1,8,0:0:0:0:
256,192,206389,1,0,0:0:0:0:
256,192,206457,1,0,0:0:0:0:
256,192,206525,1,8,0:0:0:0:
256,192,206594,1,8,0:0:0:0:
256,192,206662,1,8,0:0:0:0:
256,192,206730,1,0,0:0:0:0:
256,192,206798,1,8,0:0:0:0:
256,192,206866,1,8,0:0:0:0:
256,192,206934,1,8,0:0:0:0:
256,192,207003,1,0,0:0:0:0:
256,192,207071,1,8,0:0:0:0:
256,192,207139,1,8,0:0:0:0:
256,192,207207,1,0,0:0:0:0:
256,192,207275,1,0,0:0:0:0:
256,192,207344,1,8,0:0:0:0:
256,192,207412,1,0,0:0:0:0:
256,192,207480,1,8,0:0:0:0:
256,192,207548,1,0,0:0:0:0:
256,192,207616,1,8,0:0:0:0:
256,192,207684,1,8,0:0:0:0:
256,192,207753,1,0,0:0:0:0:
256,192,207821,1,0,0:0:0:0:
256,192,207889,1,8,0:0:0:0:
256,192,207957,1,0,0:0:0:0:
256,192,208025,1,8,0:0:0:0:
256,192,208094,1,0,0:0:0:0:
256,192,208162,1,8,0:0:0:0:
256,192,208230,1,8,0:0:0:0:
256,192,208298,1,8,0:0:0:0:
256,192,208366,1,0,0:0:0:0:
256,192,208434,1,8,0:0:0:0:
256,192,208503,1,8,0:0:0:0:
256,192,208571,1,8,0:0:0:0:
256,192,208639,1,0,0:0:0:0:
256,192,208707,1,8,0:0:0:0:
256,192,208775,1,8,0:0:0:0:
256,192,208844,1,8,0:0:0:0:
256,192,208912,1,8,0:0:0:0:
256,192,208980,1,0,0:0:0:0:
256,192,209048,1,0,0:0:0:0:
256,192,209116,1,8,0:0:0:0:
256,192,209184,1,8,0:0:0:0:
256,192,209253,1,0,0:0:0:0:
256,192,209321,1,0,0:0:0:0:
256,192,209389,1,8,0:0:0:0:
256,192,209457,1,0,0:0:0:0:
256,192,209525,1,8,0:0:0:0:
256,192,209594,1,8,0:0:0:0:
256,192,209662,1,0,0:0:0:0:
256,192,209730,1,0,0:0:0:0:
256,192,209798,1,8,0:0:0:0:
256,192,209866,1,0,0:0:0:0:
256,192,209934,1,8,0:0:0:0:
256,192,210003,1,0,0:0:0:0:
256,192,210071,1,8,0:0:0:0:
256,192,210139,1,8,0:0:0:0:
256,192,210207,1,0,0:0:0:0:
256,192,210275,1,0,0:0:0:0:
256,192,210344,1,8,0:0:0:0:
256,192,210412,1,8,0:0:0:0:
256,192,210480,1,8,0:0:0:0:
256,192,210548,1,8,0:0:0:0:
256,192,210616,1,8,0:0:0:0:
256,192,210684,1,8,0:0:0:0:
256,192,210753,1,8,0:0:0:0:
256,192,210821,1,8,0:0:0:0:
256,192,210889,1,0,0:0:0:0:
256,192,210957,1,0,0:0:0:0:
256,192,211025,1,8,0:0:0:0:
256,192,211094,1,0,0:0:0:0:
256,192,211162,1,8,0:0:0:0:
256,192,211230,1,8,0:0:0:0:
256,192,211298,1,0,0:0:0:0:
256,192,211366,1,8,0:0:0:0:
256,192,211434,1,0,0:0:0:0:
256,192,211503,1,0,0:0:0:0:
256,192,211571,1,8,0:0:0:0:
256,192,211639,1,0,0:0:0:0:
256,192,211707,1,8,0:0:0:0:
256,192,211775,1,8,0:0:0:0:
256,192,211844,1,0,0:0:0:0:
256,192,211912,1,0,0:0:0:0:
256,192,211980,1,8,0:0:0:0:
256,192,212048,1,0,0:0:0:0:
256,192,212116,1,0,0:0:0:0:
256,192,212184,1,0,0:0:0:0:
256,192,212253,1,8,0:0:0:0:
256,192,212321,1,8,0:0:0:0:
256,192,212389,1,0,0:0:0:0:
256,192,212457,1,0,0:0:0:0:
256,192,212525,1,8,0:0:0:0:
256,192,212616,1,0,0:0:0:0:
256,192,212707,1,8,0:0:0:0:
256,192,212798,1,0,0:0:0:0:
256,192,212889,1,0,0:0:0:0:
256,192,212980,1,0,0:0:0:0:
256,192,213071,1,8,0:0:0:0:
256,192,213162,1,8,0:0:0:0:
256,192,213253,1,8,0:0:0:0:
256,192,213344,1,0,0:0:0:0:
256,192,213434,1,8,0:0:0:0:
256,192,213525,1,0,0:0:0:0:
256,192,213616,1,12,0:0:0:0:
256,192,213821,1,0,0:0:0:0:
256,192,214025,1,0,0:0:0:0:
256,192,214162,1,12,0:0:0:0:
256,192,214366,1,0,0:0:0:0:
256,192,214571,1,8,0:0:0:0:
256,192,214707,1,12,0:0:0:0:
256,192,214912,1,0,0:0:0:0:
256,192,215116,1,0,0:0:0:0:
256,192,215253,1,8,0:0:0:0:
256,192,215321,1,0,0:0:0:0:
256,192,215389,1,8,0:0:0:0:
256,192,215457,1,0,0:0:0:0:
256,192,215525,1,8,0:0:0:0:
256,192,215594,1,8,0:0:0:0:
256,192,215662,1,0,0:0:0:0:
256,192,215730,1,0,0:0:0:0:
256,192,215798,1,12,0:0:0:0:
256,192,216003,1,0,0:0:0:0:
256,192,216207,1,0,0:0:0:0:
256,192,216344,1,12,0:0:0:0:
256,192,216548,1,0,0:0:0:0:
256,192,216753,1,8,0:0:0:0:
256,192,216889,1,0,0:0:0:0:
256,192,216957,1,0,0:0:0:0:
256,192,217025,1,8,0:0:0:0:
256,192,217094,1,0,0:0:0:0:
256,192,217162,1,8,0:0:0:0:
256,192,217230,1,8,0:0:0:0:
256,192,217298,1,0,0:0:0:0:
256,192,217366,1,0,0:0:0:0:
256,192,217434,1,8,0:0:0:0:
256,192,217503,1,0,0:0:0:0:
256,192,217571,1,8,0:0:0:0:
256,192,217639,1,0,0:0:0:0:
256,192,217707,1,8,0:0:0:0:
256,192,217775,1,8,0:0:0:0:
256,192,217844,1,0,0:0:0:0:
256,192,217912,1,0,0:0:0:0:
256,192,217980,1,12,0:0:0:0:
256,192,218184,1,0,0:0:0:0:
256,192,218389,1,0,0:0:0:0:
256,192,218525,1,12,0:0:0:0:
256,192,218730,1,0,0:0:0:0:
256,192,218934,1,8,0:0:0:0:
256,192,219071,1,12,0:0:0:0:
256,192,219275,1,0,0:0:0:0:
256,192,219480,1,0,0:0:0:0:
256,192,219616,1,12,0:0:0:0:
256,192,219821,1,0,0:0:0:0:
256,192,220025,1,8,0:0:0:0:
256,192,220162,1,8,0:0:0:0:
256,192,220366,1,8,0:0:0:0:
256,192,220571,1,0,0:0:0:0:
256,192,220707,1,8,0:0:0:0:
256,192,220912,1,0,0:0:0:0:
256,192,221116,1,0,0:0:0:0:
256,192,221253,1,8,0:0:0:0:
256,192,221321,1,8,0:0:0:0:
256,192,221389,1,0,0:0:0:0:
256,192,221457,1,0,0:0:0:0:
256,192,221525,1,8,0:0:0:0:
256,192,221594,1,0,0:0:0:0:
256,192,221662,1,8,0:0:0:0:
256,192,221730,1,0,0:0:0:0:
256,192,221798,1,8,0:0:0:0:
256,192,221866,1,8,0:0:0:0:
256,192,221934,1,0,0:0:0:0:
256,192,222003,1,0,0:0:0:0:
256,192,222071,1,8,0:0:0:0:
256,192,222139,1,8,0:0:0:0:
256,192,222207,1,0,0:0:0:0:
256,192,222275,1,0,0:0:0:0:
256,192,223706,1,12,0:0:0:0:
256,192,223842,1,0,0:0:0:0:
256,192,224115,1,8,0:0:0:0:
256,192,224251,1,0,0:0:0:0:
256,192,224524,1,8,0:0:0:0:
256,192,224796,1,8,0:0:0:0:
256,192,224933,1,0,0:0:0:0:
256,192,225069,1,8,0:0:0:0:
256,192,225206,1,0,0:0:0:0:
256,192,225478,1,8,0:0:0:0:
256,192,225615,1,0,0:0:0:0:
256,192,225887,1,8,0:0:0:0:
256,192,226160,1,8,0:0:0:0:
256,192,226433,1,0,0:0:0:0:
256,192,226569,1,8,0:0:0:0:
256,192,226842,1,0,0:0:0:0:
256,192,226978,1,8,0:0:0:0:
256,192,227115,1,8,0:0:0:0:
256,192,227251,1,0,0:0:0:0:
256,192,227524,1,8,0:0:0:0:
256,192,227796,1,12,0:0:0:0:
256,192,227933,1,0,0:0:0:0:
256,192,228206,1,12,0:0:0:0:
256,192,228342,1,0,0:0:0:0:
256,192,228615,1,8,0:0:0:0:
256,192,228683,1,8,0:0:0:0:
256,192,228751,1,0,0:0:0:0:
256,192,228819,1,0,0:0:0:0:
256,192,228887,1,8,0:0:0:0:
256,192,229160,1,8,0:0:0:0:
256,192,229228,1,8,0:0:0:0:
256,192,229296,1,0,0:0:0:0:
256,192,229432,1,0,0:0:0:0:
256,192,229569,1,8,0:0:0:0:
256,192,229637,1,8,0:0:0:0:
256,192,229705,1,0,0:0:0:0:
256,192,229841,1,0,0:0:0:0:
256,192,229978,1,8,0:0:0:0:
256,192,230046,1,8,0:0:0:0:
256,192,230114,1,8,0:0:0:0:
256,192,230250,1,0,0:0:0:0:
256,192,230387,1,8,0:0:0:0:
256,192,230455,1,8,0:0:0:0:
256,192,230523,1,8,0:0:0:0:
256,192,230660,1,0,0:0:0:0:
256,192,230796,1,8,0:0:0:0:
256,192,230864,1,8,0:0:0:0:
256,192,230932,1,0,0:0:0:0:
256,192,231069,1,8,0:0:0:0:
256,192,231137,1,0,0:0:0:0:
256,192,231205,1,8,0:0:0:0:
256,192,231341,1,0,0:0:0:0:
256,192,231614,1,0,0:0:0:0:
256,192,231682,1,0,0:0:0:0:
256,192,231750,1,0,0:0:0:0:
256,192,231819,1,0,0:0:0:0:
256,192,231887,1,8,0:0:0:0:
256,192,231955,1,8,0:0:0:0:
256,192,232023,1,8,0:0:0:0:
256,192,232091,1,8,0:0:0:0:
256,192,232160,1,0,0:0:0:0:
256,192,232228,1,8,0:0:0:0:
256,192,232296,1,0,0:0:0:0:
256,192,232364,1,0,0:0:0:0:
256,192,232432,1,8,0:0:0:0:
256,192,232500,1,8,0:0:0:0:
256,192,232569,1,0,0:0:0:0:
256,192,232637,1,8,0:0:0:0:
256,192,232705,1,0,0:0:0:0:
256,192,232773,1,0,0:0:0:0:
256,192,232841,1,8,0:0:0:0:
256,192,232910,1,0,0:0:0:0:
256,192,232978,1,8,0:0:0:0:
256,192,233046,1,8,0:0:0:0:
256,192,233114,1,0,0:0:0:0:
256,192,233182,1,0,0:0:0:0:
256,192,233250,1,8,0:0:0:0:
256,192,233319,1,8,0:0:0:0:
256,192,233387,1,0,0:0:0:0:
256,192,233455,1,0,0:0:0:0:
256,192,233523,1,12,0:0:0:0:
256,192,233932,1,8,0:0:0:0:
256,192,234000,1,8,0:0:0:0:
256,192,234069,1,8,0:0:0:0:
256,192,234250,1,8,0:0:0:0:
256,192,234432,1,8,0:0:0:0:
256,192,234614,1,0,0:0:0:0:
256,192,234796,1,0,0:0:0:0:
256,192,234978,1,8,0:0:0:0:
256,192,235160,1,8,0:0:0:0:
256,192,235432,1,0,0:0:0:0:
256,192,235705,1,0,0:0:0:0:
256,192,235796,1,0,0:0:0:0:
256,192,235887,1,0,0:0:0:0:
256,192,235978,1,8,0:0:0:0:
256,192,236069,1,8,0:0:0:0:
256,192,236160,1,8,0:0:0:0:
256,192,236250,1,0,0:0:0:0:
256,192,236341,1,8,0:0:0:0:
256,192,236432,1,8,0:0:0:0:
256,192,236523,1,0,0:0:0:0:
256,192,236614,1,0,0:0:0:0:
256,192,236705,1,0,0:0:0:0:
256,192,236796,1,8,0:0:0:0:
256,192,236887,1,0,0:0:0:0:
256,192,236978,1,0,0:0:0:0:
256,192,237069,1,8,0:0:0:0:
256,192,237160,1,8,0:0:0:0:
256,192,237250,1,8,0:0:0:0:
256,192,237341,1,0,0:0:0:0:
256,192,237432,1,8,0:0:0:0:
256,192,237523,1,0,0:0:0:0:
256,192,237614,1,8,0:0:0:0:
256,192,237705,1,8,0:0:0:0:
256,192,237796,1,8,0:0:0:0:
256,192,237887,1,0,0:0:0:0:
256,192,237955,1,0,0:0:0:0:
256,192,238023,1,8,0:0:0:0:
256,192,238091,1,8,0:0:0:0:
256,192,238160,1,0,0:0:0:0:
256,192,238228,1,0,0:0:0:0:
256,192,238296,1,8,0:0:0:0:
256,192,238364,1,0,0:0:0:0:
256,192,238432,1,0,0:0:0:0:
256,192,238500,1,0,0:0:0:0:
256,192,238569,1,8,0:0:0:0:
256,192,238637,1,8,0:0:0:0:
256,192,238705,1,0,0:0:0:0:
256,192,238773,1,0,0:0:0:0:
256,192,238841,1,8,0:0:0:0:
256,192,238910,1,0,0:0:0:0:
256,192,238978,1,8,0:0:0:0:
256,192,239046,1,8,0:0:0:0:
256,192,239114,1,0,0:0:0:0:
256,192,239182,1,0,0:0:0:0:
256,192,239250,1,8,0:0:0:0:
256,192,239319,1,0,0:0:0:0:
256,192,239387,1,8,0:0:0:0:
256,192,239455,1,8,0:0:0:0:
256,192,239523,1,0,0:0:0:0:
256,192,239591,1,8,0:0:0:0:
256,192,239660,1,0,0:0:0:0:
256,192,239728,1,0,0:0:0:0:
256,192,239796,1,8,0:0:0:0:
256,192,239864,1,0,0:0:0:0:
256,192,239932,1,8,0:0:0:0:
256,192,240000,1,0,0:0:0:0:
256,192,240069,1,8,0:0:0:0:
256,192,240137,1,8,0:0:0:0:
256,192,240205,1,0,0:0:0:0:
256,192,240273,1,0,0:0:0:0:
256,192,240341,1,8,0:0:0:0:
256,192,240410,1,0,0:0:0:0:
256,192,240478,1,8,0:0:0:0:
256,192,240546,1,0,0:0:0:0:
256,192,240614,1,8,0:0:0:0:
256,192,240682,1,8,0:0:0:0:
256,192,240750,1,0,0:0:0:0:
256,192,240819,1,8,0:0:0:0:
256,192,240887,1,0,0:0:0:0:
256,192,240955,1,0,0:0:0:0:
256,192,241023,1,8,0:0:0:0:
256,192,241091,1,0,0:0:0:0:
256,192,241160,1,8,0:0:0:0:
256,192,241228,1,0,0:0:0:0:
256,192,241296,1,8,0:0:0:0:
256,192,241364,1,0,0:0:0:0:
256,192,241432,1,0,0:0:0:0:
256,192,241500,1,8,0:0:0:0:
256,192,241569,1,0,0:0:0:0:
256,192,241637,1,0,0:0:0:0:
256,192,241705,1,8,0:0:0:0:
256,192,241773,1,0,0:0:0:0:
256,192,241841,1,0,0:0:0:0:
256,192,241910,1,8,0:0:0:0:
256,192,241978,1,0,0:0:0:0:
256,192,242046,1,0,0:0:0:0:
256,192,242114,1,8,0:0:0:0:
256,192,242182,1,0,0:0:0:0:
256,192,242250,1,12,0:0:0:0:
256,192,242387,1,12,0:0:0:0:
256,192,242523,1,12,0:0:0:0:
256,192,242660,1,0,0:0:0:0:
256,192,242728,1,0,0:0:0:0:
256,192,242796,1,12,0:0:0:0:
256,192,242932,1,12,0:0:0:0:
256,192,243069,1,12,0:0:0:0:
256,192,243205,1,12,0:0:0:0:
256,192,243341,1,0,0:0:0:0:
256,192,243478,1,12,0:0:0:0:
256,192,243614,1,12,0:0:0:0:
256,192,243750,1,12,0:0:0:0:
256,192,243887,1,12,0:0:0:0:
256,192,244023,1,12,0:0:0:0:
256,192,244160,1,12,0:0:0:0:
256,192,244296,1,12,0:0:0:0:
256,192,244432,1,12,0:0:0:0:
256,192,244569,1,0,0:0:0:0:
256,192,244637,1,0,0:0:0:0:
256,192,244705,1,12,0:0:0:0:
256,192,244841,1,0,0:0:0:0:
256,192,244910,1,0,0:0:0:0:
256,192,244978,1,12,0:0:0:0:
256,192,245114,1,0,0:0:0:0:
256,192,245250,1,0,0:0:0:0:
256,192,245387,1,12,0:0:0:0:
256,192,245523,1,12,0:0:0:0:
256,192,245660,1,0,0:0:0:0:
256,192,245796,1,12,0:0:0:0:
256,192,245932,1,12,0:0:0:0:
256,192,246069,1,12,0:0:0:0:
256,192,246205,1,12,0:0:0:0:
256,192,246341,1,0,0:0:0:0:
256,192,246410,1,0,0:0:0:0:
256,192,246478,1,12,0:0:0:0:
256,192,246614,1,12,0:0:0:0:
256,192,246750,1,0,0:0:0:0:
256,192,246887,1,12,0:0:0:0:
256,192,247023,1,12,0:0:0:0:
256,192,247160,1,12,0:0:0:0:
256,192,247296,1,12,0:0:0:0:
256,192,247432,1,0,0:0:0:0:
256,192,247500,1,0,0:0:0:0:
256,192,247569,1,12,0:0:0:0:
256,192,247705,1,12,0:0:0:0:
256,192,247841,1,12,0:0:0:0:
256,192,247978,1,0,0:0:0:0:
256,192,248114,1,12,0:0:0:0:
256,192,248250,1,12,0:0:0:0:
256,192,248387,1,12,0:0:0:0:
256,192,248523,1,12,0:0:0:0:
256,192,248660,1,12,0:0:0:0:
256,192,248796,1,12,0:0:0:0:
256,192,248932,1,12,0:0:0:0:
256,192,249069,1,12,0:0:0:0:
256,192,249205,1,12,0:0:0:0:
256,192,249341,1,12,0:0:0:0:
256,192,250160,1,4,0:0:0:0:
256,192,250523,1,0,0:0:0:0:
256,192,250660,1,0,0:0:0:0:
256,192,250796,1,8,0:0:0:0:
256,192,250978,1,8,0:0:0:0:
256,192,251160,1,8,0:0:0:0:
256,192,251455,1,8,0:0:0:0:
256,192,251932,1,12,0:0:0:0:
256,192,252069,8,0,254387,0:0:0:0:
