osu file format v14

[General]
AudioFilename: audio.mp3
AudioLeadIn: 0
PreviewTime: 34345
Countdown: 0
SampleSet: Normal
StackLeniency: 0.7
Mode: 1
LetterboxInBreaks: 0
WidescreenStoryboard: 1

[Editor]
DistanceSpacing: 1.5
BeatDivisor: 4
GridSize: 32
TimelineZoom: 2.699999

[Metadata]
Title:ENDYMION
TitleUnicode:ENDYMION
Artist:fallen shepherd feat. RabbiTon Strings
ArtistUnicode:fallen shepherd feat. RabbiTon Strings
Creator:Capu
Version:Oni
Source:DanceDanceRevolution A
Tags:ace ダンスダンスレボリューション ddr dancing stage video rhythm game hardcore electronic ft.
BeatmapID:2329085
BeatmapSetID:1078749

[Difficulty]
HPDrainRate:5.5
CircleSize:2
OverallDifficulty:6
ApproachRate:10
SliderMultiplier:1.4
SliderTickRate:1

[Events]
//Background and Video events
0,0,"1053416.jpg",0,30
//Break Periods
//Storyboard Layer 0 (Background)
//Storyboard Layer 1 (Fail)
//Storyboard Layer 2 (Pass)
//Storyboard Layer 3 (Foreground)
//Storyboard Layer 4 (Overlay)
//Storyboard Sound Samples

[TimingPoints]
-13,272.727272727273,4,1,0,80,1,0
1077,-100,4,1,0,80,0,0
7146,-90.9090909090909,4,1,0,80,0,0
8709,272.727272727273,5,1,0,80,1,0
18799,-100,4,1,0,80,0,0
18867,-99.173586503665,4,1,0,80,0,0
18935,-98.3606234883202,4,1,0,80,0,0
19071,-96.774224765879,4,1,0,80,0,0
19140,-95.9999692800098,4,1,0,80,0,0
19208,-95.2380952380952,4,1,0,80,0,0
19276,-94.4882187364469,4,1,0,80,0,0
19344,-93.7499707031342,4,1,0,80,0,0
19481,-92.3077207100679,4,1,0,80,0,0
19618,-90.9090909090909,4,1,0,80,0,1
27799,272.727272727273,4,1,0,80,1,0
27799,-90.9090909090909,4,1,0,80,0,0
28071,-100,4,1,0,80,0,0
32162,-100,4,1,0,80,0,0
32230,-99.5038736858026,4,1,0,80,0,0
32299,-99.0126458951337,4,1,0,80,0,0
32367,-98.5262444357303,4,1,0,80,0,0
32435,-98.0445023996392,4,1,0,80,0,0
32571,-97.0952028173144,4,1,0,80,0,0
32708,-96.16410982326,4,1,0,80,0,0
32844,-95.2507046170874,4,1,0,80,0,0
32912,-94.8003883023905,4,1,0,80,0,0
32980,-94.354398896431,4,1,0,80,0,0
33117,-93.474891709338,4,1,0,80,0,0
33253,-92.6116294275305,4,1,0,80,0,0
33321,-92.1858651412979,4,1,0,80,0,0
33389,-91.7640818865961,4,1,0,80,0,0
33458,-91.3461406712297,4,1,0,80,0,0
33526,-90.9319892372898,4,1,0,80,0,0
33662,-90.1148513780814,4,1,0,80,0,0
33799,-89.3121889703019,4,1,0,80,0,0
33867,-88.9162355711179,4,1,0,80,0,0
33935,-88.5237774866329,4,1,0,80,0,0
34071,-87.7491637504695,4,1,0,80,0,0
34208,-86.9879886985205,4,1,0,80,0,0
34344,-125,4,1,0,80,0,0
35367,-125,4,1,0,80,0,0
36526,-100,4,1,0,80,0,0
38162,-90.9090909090909,4,1,0,80,0,1
38708,-90.9090909090909,4,1,0,80,0,0
38776,-100,4,1,0,80,0,0
39764,-90.9090909090909,4,1,0,80,0,0
39799,-90.9090909090909,4,1,0,80,0,1
40889,-90.9090909090909,4,1,0,80,0,0
40958,-100,4,1,0,80,0,0
42526,-90.9090909090909,4,1,0,80,0,1
43071,-90.9090909090909,4,1,0,80,0,0
43140,-100,4,1,0,80,0,0
44162,-100,4,1,0,80,0,0
45526,-100,4,1,0,80,0,0
46889,-90.9090909090909,4,1,0,80,0,1
47435,-90.9090909090909,4,1,0,80,0,0
47503,-100,4,1,0,80,0,0
48526,-90.9090909090909,4,1,0,80,0,1
49617,-90.9090909090909,4,1,0,80,0,0
49685,-100,4,1,0,80,0,0
51253,-90.9090909090909,4,1,0,80,0,1
51799,-90.9090909090909,4,1,0,80,0,0
51867,-100,4,1,0,80,0,0
67071,-90.9090909090909,4,1,0,80,0,0
69321,-100,4,1,0,80,0,0
71435,-90.9090909090909,4,1,0,80,0,0
79071,-93.8086303939962,4,1,0,80,0,0
79617,-96.8054211035818,4,1,0,80,0,0
80162,-100,4,1,0,80,0,0
89435,-125,4,1,0,80,0,0
89980,272.727272727273,4,1,0,80,1,8
90254,272.727272727273,5,1,0,80,1,0
90254,-125,4,1,0,80,0,0
95707,-100,4,1,0,80,0,0
95708,272.727272727273,4,1,0,80,1,0
104435,-90.9090909090909,4,1,0,80,0,1
115889,-90.9090909090909,4,1,0,80,0,0
116708,-100,4,1,0,80,0,0
118480,-83.3333333333333,4,1,0,80,0,0

[HitObjects]
256,192,1077,5,0,0:0:0:0:
256,192,1214,1,0,0:0:0:0:
256,192,1350,1,0,0:0:0:0:
256,192,1623,1,0,0:0:0:0:
256,192,1896,1,8,0:0:0:0:
256,192,2168,1,0,0:0:0:0:
256,192,2441,1,8,0:0:0:0:
256,192,2577,1,8,0:0:0:0:
256,192,2714,1,8,0:0:0:0:
256,192,2987,1,8,0:0:0:0:
256,192,3259,1,0,0:0:0:0:
256,192,3532,1,8,0:0:0:0:
256,192,3805,1,8,0:0:0:0:
256,192,3941,1,0,0:0:0:0:
256,192,4077,1,8,0:0:0:0:
256,192,4350,1,8,0:0:0:0:
256,192,4623,1,8,0:0:0:0:
256,192,4759,1,0,0:0:0:0:
256,192,4896,1,8,0:0:0:0:
256,192,5168,1,8,0:0:0:0:
256,192,5441,1,0,0:0:0:0:
256,192,5714,1,0,0:0:0:0:
256,192,5850,1,8,0:0:0:0:
256,192,5987,1,8,0:0:0:0:
256,192,6191,1,8,0:0:0:0:
256,192,6396,1,8,0:0:0:0:
256,192,6668,1,8,0:0:0:0:
256,192,7214,2,4,L|209:192,18,38.5000011749268
256,192,8709,1,12,0:0:0:0:
256,192,8845,1,0,0:0:0:0:
256,192,9118,1,8,0:0:0:0:
256,192,9254,1,0,0:0:0:0:
256,192,9527,1,8,0:0:0:0:
256,192,9799,1,8,0:0:0:0:
256,192,10072,1,8,0:0:0:0:
256,192,10209,1,0,0:0:0:0:
256,192,10481,1,8,0:0:0:0:
256,192,10618,1,0,0:0:0:0:
256,192,10890,1,8,0:0:0:0:
256,192,11163,1,8,0:0:0:0:
256,192,11436,1,12,0:0:0:0:
256,192,11572,1,0,0:0:0:0:
256,192,11845,1,8,0:0:0:0:
256,192,11981,1,0,0:0:0:0:
256,192,12254,1,8,0:0:0:0:
256,192,12527,1,8,0:0:0:0:
256,192,12799,1,8,0:0:0:0:
256,192,12936,1,0,0:0:0:0:
256,192,13209,1,8,0:0:0:0:
256,192,13345,1,0,0:0:0:0:
256,192,13618,1,8,0:0:0:0:
256,192,13686,1,8,0:0:0:0:
256,192,13754,1,0,0:0:0:0:
256,192,13822,1,0,0:0:0:0:
256,192,13890,1,8,0:0:0:0:
256,192,14163,1,12,0:0:0:0:
256,192,14299,1,0,0:0:0:0:
256,192,14572,1,8,0:0:0:0:
256,192,14709,1,0,0:0:0:0:
256,192,14981,1,8,0:0:0:0:
256,192,15254,1,8,0:0:0:0:
256,192,15527,1,8,0:0:0:0:
256,192,15663,1,0,0:0:0:0:
256,192,15936,1,8,0:0:0:0:
256,192,16072,1,0,0:0:0:0:
256,192,16345,1,8,0:0:0:0:
256,192,16413,1,8,0:0:0:0:
256,192,16481,1,0,0:0:0:0:
256,192,16549,1,0,0:0:0:0:
256,192,16618,1,8,0:0:0:0:
256,192,16890,1,12,0:0:0:0:
256,192,17027,1,0,0:0:0:0:
256,192,17299,1,8,0:0:0:0:
256,192,17436,1,0,0:0:0:0:
256,192,17709,1,8,0:0:0:0:
256,192,17981,1,12,0:0:0:0:
256,192,18254,1,0,0:0:0:0:
256,192,18459,1,0,0:0:0:0:
256,192,18663,1,0,0:0:0:0:
256,192,18799,5,8,0:0:0:0:
256,192,18868,1,8,0:0:0:0:
256,192,18936,1,0,0:0:0:0:
256,192,19072,1,8,0:0:0:0:
256,192,19140,1,8,0:0:0:0:
256,192,19209,1,0,0:0:0:0:
256,192,19277,1,0,0:0:0:0:
256,192,19345,1,8,0:0:0:0:
256,192,19481,1,0,0:0:0:0:
256,192,19618,1,12,0:0:0:0:
256,192,19754,1,0,0:0:0:0:
256,192,19890,1,8,0:0:0:0:
256,192,19959,1,0,0:0:0:0:
256,192,20027,1,0,0:0:0:0:
256,192,20095,1,0,0:0:0:0:
256,192,20163,1,8,0:0:0:0:
256,192,20299,1,0,0:0:0:0:
256,192,20436,1,8,0:0:0:0:
256,192,20504,1,8,0:0:0:0:
256,192,20572,1,0,0:0:0:0:
256,192,20709,1,8,0:0:0:0:
256,192,20777,1,8,0:0:0:0:
256,192,20845,1,0,0:0:0:0:
256,192,20981,1,12,0:0:0:0:
256,192,21254,1,8,0:0:0:0:
256,192,21390,1,0,0:0:0:0:
256,192,21459,1,0,0:0:0:0:
256,192,21527,1,8,0:0:0:0:
256,192,21663,1,0,0:0:0:0:
256,192,21799,1,8,0:0:0:0:
256,192,21868,1,8,0:0:0:0:
256,192,21936,1,0,0:0:0:0:
256,192,22072,1,8,0:0:0:0:
256,192,22140,1,8,0:0:0:0:
256,192,22209,1,0,0:0:0:0:
256,192,22345,1,12,0:0:0:0:
256,192,22618,1,8,0:0:0:0:
256,192,22686,1,0,0:0:0:0:
256,192,22754,1,0,0:0:0:0:
256,192,22822,1,0,0:0:0:0:
256,192,22890,1,8,0:0:0:0:
256,192,23027,1,0,0:0:0:0:
256,192,23163,1,8,0:0:0:0:
256,192,23231,1,8,0:0:0:0:
256,192,23299,1,0,0:0:0:0:
256,192,23436,1,8,0:0:0:0:
256,192,23504,1,8,0:0:0:0:
256,192,23572,1,0,0:0:0:0:
256,192,23709,1,12,0:0:0:0:
256,192,23981,1,8,0:0:0:0:
256,192,24118,1,0,0:0:0:0:
256,192,24186,1,0,0:0:0:0:
256,192,24254,1,8,0:0:0:0:
256,192,24390,1,0,0:0:0:0:
256,192,24527,1,8,0:0:0:0:
256,192,24595,1,8,0:0:0:0:
256,192,24663,1,0,0:0:0:0:
256,192,24799,1,8,0:0:0:0:
256,192,24868,1,8,0:0:0:0:
256,192,24936,1,0,0:0:0:0:
256,192,25072,1,12,0:0:0:0:
256,192,25345,1,8,0:0:0:0:
256,192,25413,1,0,0:0:0:0:
256,192,25481,1,0,0:0:0:0:
256,192,25549,1,0,0:0:0:0:
256,192,25618,1,8,0:0:0:0:
256,192,25754,1,0,0:0:0:0:
256,192,25890,1,8,0:0:0:0:
256,192,25959,1,8,0:0:0:0:
256,192,26027,1,0,0:0:0:0:
256,192,26163,1,8,0:0:0:0:
256,192,26231,1,8,0:0:0:0:
256,192,26299,1,0,0:0:0:0:
256,192,26436,1,12,0:0:0:0:
256,192,26709,1,8,0:0:0:0:
256,192,26845,1,0,0:0:0:0:
256,192,26913,1,0,0:0:0:0:
256,192,26981,1,8,0:0:0:0:
256,192,27118,1,0,0:0:0:0:
256,192,27254,1,8,0:0:0:0:
256,192,27322,1,8,0:0:0:0:
256,192,27390,1,0,0:0:0:0:
256,192,27527,1,8,0:0:0:0:
256,192,27595,1,0,0:0:0:0:
256,192,27663,1,0,0:0:0:0:
256,192,27799,1,8,0:0:0:0:
256,192,28071,1,0,0:0:0:0:
256,192,28344,1,8,0:0:0:0:
256,192,28480,1,8,0:0:0:0:
256,192,28617,1,0,0:0:0:0:
256,192,28753,1,8,0:0:0:0:
256,192,28889,1,8,0:0:0:0:
256,192,29026,1,0,0:0:0:0:
256,192,29162,1,0,0:0:0:0:
256,192,29435,1,0,0:0:0:0:
256,192,29571,1,8,0:0:0:0:
256,192,29708,1,8,0:0:0:0:
256,192,29844,1,8,0:0:0:0:
256,192,29980,1,0,0:0:0:0:
256,192,30117,1,8,0:0:0:0:
256,192,30253,1,8,0:0:0:0:
256,192,30526,1,8,0:0:0:0:
256,192,30662,1,0,0:0:0:0:
256,192,30799,1,8,0:0:0:0:
256,192,30935,1,0,0:0:0:0:
256,192,31071,1,8,0:0:0:0:
256,192,31208,1,8,0:0:0:0:
256,192,31344,1,0,0:0:0:0:
256,192,31617,1,0,0:0:0:0:
256,192,31753,1,8,0:0:0:0:
256,160,31889,1,0,0:0:0:0:
256,160,32026,1,0,0:0:0:0:
256,160,32162,5,8,0:0:0:0:
256,160,32230,1,0,0:0:0:0:
256,160,32299,1,0,0:0:0:0:
256,160,32367,1,0,0:0:0:0:
256,160,32435,1,8,0:0:0:0:
256,160,32571,1,0,0:0:0:0:
256,160,32708,1,8,0:0:0:0:
256,160,32844,1,0,0:0:0:0:
256,160,32912,1,0,0:0:0:0:
256,160,32980,1,8,0:0:0:0:
256,160,33117,1,0,0:0:0:0:
256,160,33253,1,8,0:0:0:0:
256,160,33321,1,8,0:0:0:0:
256,160,33389,1,0,0:0:0:0:
256,160,33458,1,0,0:0:0:0:
256,160,33526,1,8,0:0:0:0:
256,160,33662,1,0,0:0:0:0:
256,160,33799,1,8,0:0:0:0:
256,160,33867,1,8,0:0:0:0:
256,160,33935,1,0,0:0:0:0:
256,160,34071,1,8,0:0:0:0:
256,160,34208,1,0,0:0:0:0:
256,192,35435,1,8,0:0:0:0:
256,192,35571,1,8,0:0:0:0:
256,192,35708,1,0,0:0:0:0:
256,192,35844,1,8,0:0:0:0:
256,192,35980,1,0,0:0:0:0:
256,192,36117,1,8,0:0:0:0:
256,192,36253,1,8,0:0:0:0:
256,192,36389,1,0,0:0:0:0:
256,192,36526,1,12,0:0:0:0:
256,192,36799,1,8,0:0:0:0:
256,192,36935,1,0,0:0:0:0:
256,192,37003,1,0,0:0:0:0:
256,192,37071,1,8,0:0:0:0:
256,192,37208,1,0,0:0:0:0:
256,192,37344,1,8,0:0:0:0:
256,192,37480,1,0,0:0:0:0:
256,192,37617,1,8,0:0:0:0:
256,192,37685,1,0,0:0:0:0:
256,192,37753,1,8,0:0:0:0:
256,192,37889,1,8,0:0:0:0:
256,192,38026,1,0,0:0:0:0:
256,192,38162,1,8,0:0:0:0:
256,192,38230,1,8,0:0:0:0:
256,192,38299,1,0,0:0:0:0:
256,192,38367,1,0,0:0:0:0:
256,192,38435,1,8,0:0:0:0:
256,192,38571,1,0,0:0:0:0:
256,192,38708,1,12,0:0:0:0:
256,192,38980,1,0,0:0:0:0:
256,192,39117,1,0,0:0:0:0:
256,192,39253,1,8,0:0:0:0:
256,192,39389,1,0,0:0:0:0:
256,192,39458,1,0,0:0:0:0:
256,192,39526,1,8,0:0:0:0:
256,192,39662,1,8,0:0:0:0:
256,192,39799,1,0,0:0:0:0:
256,192,39867,1,0,0:0:0:0:
256,192,39935,1,8,0:0:0:0:
256,192,40003,1,8,0:0:0:0:
256,192,40071,1,0,0:0:0:0:
256,192,40208,1,8,0:0:0:0:
256,192,40344,1,0,0:0:0:0:
256,192,40480,1,8,0:0:0:0:
256,192,40549,1,8,0:0:0:0:
256,192,40617,1,0,0:0:0:0:
256,192,40753,1,0,0:0:0:0:
256,192,40889,1,12,0:0:0:0:
256,192,41162,1,8,0:0:0:0:
256,192,41299,1,0,0:0:0:0:
256,192,41367,1,0,0:0:0:0:
256,192,41435,1,8,0:0:0:0:
256,192,41571,1,0,0:0:0:0:
256,192,41708,1,8,0:0:0:0:
256,192,41844,1,0,0:0:0:0:
256,192,41980,1,8,0:0:0:0:
256,192,42049,1,0,0:0:0:0:
256,192,42117,1,8,0:0:0:0:
256,192,42185,1,0,0:0:0:0:
256,192,42253,1,8,0:0:0:0:
256,192,42389,1,0,0:0:0:0:
256,192,42526,1,8,0:0:0:0:
256,192,42594,1,8,0:0:0:0:
256,192,42662,1,0,0:0:0:0:
256,192,42730,1,0,0:0:0:0:
256,192,42799,1,8,0:0:0:0:
256,192,42935,1,0,0:0:0:0:
256,192,43071,1,8,0:0:0:0:
256,192,43344,1,0,0:0:0:0:
256,192,43480,1,0,0:0:0:0:
256,192,43617,1,8,0:0:0:0:
256,192,43889,1,0,0:0:0:0:
256,192,44026,1,0,0:0:0:0:
256,192,44162,1,8,0:0:0:0:
256,192,44299,1,0,0:0:0:0:
256,192,44367,1,0,0:0:0:0:
256,192,44435,1,8,0:0:0:0:
256,192,44571,1,0,0:0:0:0:
256,192,44708,1,8,0:0:0:0:
256,192,44776,1,8,0:0:0:0:
256,192,44844,1,0,0:0:0:0:
256,192,44912,1,0,0:0:0:0:
256,192,44980,1,8,0:0:0:0:
256,192,45117,1,8,0:0:0:0:
256,192,45253,5,0,0:0:0:0:
256,192,45526,1,12,0:0:0:0:
256,192,45799,1,8,0:0:0:0:
256,192,46003,1,0,0:0:0:0:
256,192,46071,1,8,0:0:0:0:
256,192,46208,1,0,0:0:0:0:
256,192,46276,1,0,0:0:0:0:
256,192,46344,1,8,0:0:0:0:
256,192,46480,1,8,0:0:0:0:
256,192,46617,1,0,0:0:0:0:
256,192,46753,1,0,0:0:0:0:
256,192,46889,1,8,0:0:0:0:
256,192,46958,1,8,0:0:0:0:
256,192,47026,1,0,0:0:0:0:
256,192,47094,1,0,0:0:0:0:
256,192,47162,1,8,0:0:0:0:
256,192,47299,1,0,0:0:0:0:
256,192,47435,1,12,0:0:0:0:
256,192,47708,1,0,0:0:0:0:
256,192,47980,1,0,0:0:0:0:
256,192,48185,1,8,0:0:0:0:
256,192,48253,1,0,0:0:0:0:
256,192,48389,1,8,0:0:0:0:
256,192,48526,1,0,0:0:0:0:
256,192,48594,1,0,0:0:0:0:
256,192,48662,1,8,0:0:0:0:
256,192,48730,1,8,0:0:0:0:
256,192,48799,1,0,0:0:0:0:
256,192,48935,1,0,0:0:0:0:
256,192,49071,1,8,0:0:0:0:
256,192,49139,1,8,0:0:0:0:
256,192,49208,1,0,0:0:0:0:
256,192,49276,1,0,0:0:0:0:
256,192,49344,1,8,0:0:0:0:
256,192,49480,1,8,0:0:0:0:
256,192,49617,1,4,0:0:0:0:
256,192,49889,1,8,0:0:0:0:
256,192,50162,1,8,0:0:0:0:
256,192,50367,1,0,0:0:0:0:
256,192,50435,1,8,0:0:0:0:
256,192,50571,1,0,0:0:0:0:
256,192,50708,1,8,0:0:0:0:
256,192,50912,1,0,0:0:0:0:
256,192,50980,1,8,0:0:0:0:
256,192,51117,1,0,0:0:0:0:
256,192,51253,1,8,0:0:0:0:
256,192,51321,1,8,0:0:0:0:
256,192,51389,1,0,0:0:0:0:
256,192,51458,1,0,0:0:0:0:
256,192,51526,1,8,0:0:0:0:
256,192,51662,1,0,0:0:0:0:
256,192,51799,1,8,0:0:0:0:
256,192,52071,1,0,0:0:0:0:
256,192,52208,1,0,0:0:0:0:
256,192,52344,1,8,0:0:0:0:
256,192,52617,1,0,0:0:0:0:
256,192,52753,1,0,0:0:0:0:
256,192,52889,1,8,0:0:0:0:
256,192,53162,1,8,0:0:0:0:
256,192,53435,1,8,0:0:0:0:
256,192,53571,1,8,0:0:0:0:
256,192,53708,1,8,0:0:0:0:
256,192,53844,1,8,0:0:0:0:
256,192,53980,1,12,0:0:0:0:
256,192,54253,1,0,0:0:0:0:
256,192,54526,1,0,0:0:0:0:
256,192,54799,1,0,0:0:0:0:
256,192,54935,1,8,0:0:0:0:
256,192,55208,1,8,0:0:0:0:
256,192,55480,1,8,0:0:0:0:
256,192,55753,1,8,0:0:0:0:
256,192,55821,1,8,0:0:0:0:
256,192,55889,1,0,0:0:0:0:
256,192,56026,1,0,0:0:0:0:
256,192,56299,1,8,0:0:0:0:
256,192,56571,1,0,0:0:0:0:
256,192,56708,1,8,0:0:0:0:
256,192,56844,1,0,0:0:0:0:
256,192,56980,1,8,0:0:0:0:
256,192,57117,1,0,0:0:0:0:
256,192,57253,1,8,0:0:0:0:
256,192,57389,1,0,0:0:0:0:
256,192,57458,1,0,0:0:0:0:
256,192,57526,1,8,0:0:0:0:
256,192,57662,1,0,0:0:0:0:
256,192,57799,1,8,0:0:0:0:
256,192,57867,1,8,0:0:0:0:
256,192,57935,1,0,0:0:0:0:
256,192,58071,1,8,0:0:0:0:
256,192,58344,1,0,0:0:0:0:
256,192,58617,1,0,0:0:0:0:
256,192,58889,1,0,0:0:0:0:
256,192,59162,1,0,0:0:0:0:
256,192,59299,1,8,0:0:0:0:
256,192,59571,1,8,0:0:0:0:
256,192,59844,1,8,0:0:0:0:
256,192,60117,1,8,0:0:0:0:
256,192,60185,1,8,0:0:0:0:
256,192,60253,1,0,0:0:0:0:
256,192,60389,1,0,0:0:0:0:
256,192,60526,1,8,0:0:0:0:
256,192,60662,1,0,0:0:0:0:
256,192,60730,1,0,0:0:0:0:
256,192,60799,1,8,0:0:0:0:
256,192,60935,1,0,0:0:0:0:
256,192,61071,1,8,0:0:0:0:
256,192,61208,1,8,0:0:0:0:
256,192,61344,1,0,0:0:0:0:
256,192,61480,1,0,0:0:0:0:
256,192,61617,1,12,0:0:0:0:
256,192,61753,1,0,0:0:0:0:
256,192,61889,1,0,0:0:0:0:
256,192,62026,1,12,0:0:0:0:
256,192,62162,1,0,0:0:0:0:
256,192,62299,1,0,0:0:0:0:
256,192,62435,1,8,0:0:0:0:
256,192,62708,1,4,0:0:0:0:
256,192,62980,1,0,0:0:0:0:
256,192,63253,1,0,0:0:0:0:
256,192,63526,1,0,0:0:0:0:
256,192,63662,1,8,0:0:0:0:
256,192,63935,1,8,0:0:0:0:
256,192,64208,1,8,0:0:0:0:
256,192,64480,1,8,0:0:0:0:
256,192,64549,1,8,0:0:0:0:
256,192,64617,1,0,0:0:0:0:
256,192,64753,1,0,0:0:0:0:
256,192,65026,1,8,0:0:0:0:
256,192,65162,1,0,0:0:0:0:
256,192,65299,1,0,0:0:0:0:
256,192,65435,1,8,0:0:0:0:
256,192,65571,1,0,0:0:0:0:
256,192,65708,1,8,0:0:0:0:
256,192,65844,1,0,0:0:0:0:
256,192,65980,1,8,0:0:0:0:
256,192,66117,1,0,0:0:0:0:
256,192,66185,1,0,0:0:0:0:
256,192,66253,1,8,0:0:0:0:
256,192,66389,1,0,0:0:0:0:
256,192,66526,1,8,0:0:0:0:
256,192,66594,1,8,0:0:0:0:
256,192,66662,1,0,0:0:0:0:
256,192,66799,1,8,0:0:0:0:
256,192,67071,1,8,0:0:0:0:
256,192,67139,1,8,0:0:0:0:
256,192,67208,1,0,0:0:0:0:
256,192,67276,1,0,0:0:0:0:
256,192,67344,1,8,0:0:0:0:
256,192,67480,1,0,0:0:0:0:
256,192,67617,1,8,0:0:0:0:
256,192,67685,1,8,0:0:0:0:
256,192,67753,1,0,0:0:0:0:
256,192,67889,1,8,0:0:0:0:
256,192,67958,1,0,0:0:0:0:
256,192,68026,1,0,0:0:0:0:
256,192,68162,1,8,0:0:0:0:
256,192,68230,1,8,0:0:0:0:
256,192,68299,1,8,0:0:0:0:
256,192,68367,1,8,0:0:0:0:
256,192,68435,1,0,0:0:0:0:
256,192,68571,1,8,0:0:0:0:
256,192,68708,1,0,0:0:0:0:
256,192,68844,1,8,0:0:0:0:
256,192,68912,1,8,0:0:0:0:
256,192,68980,1,0,0:0:0:0:
256,192,69117,1,8,0:0:0:0:
256,192,69185,1,0,0:0:0:0:
256,192,69253,1,8,0:0:0:0:
256,192,69799,1,8,0:0:0:0:
256,192,70344,1,8,0:0:0:0:
256,192,70480,1,8,0:0:0:0:
256,192,70617,1,0,0:0:0:0:
256,192,70753,1,0,0:0:0:0:
256,192,70889,1,8,0:0:0:0:
256,192,71026,1,0,0:0:0:0:
256,192,71162,1,8,0:0:0:0:
256,192,71299,1,0,0:0:0:0:
256,192,71435,1,12,0:0:0:0:
256,192,71571,1,0,0:0:0:0:
256,192,71639,1,0,0:0:0:0:
256,192,71708,1,8,0:0:0:0:
256,192,71844,1,0,0:0:0:0:
256,192,71980,1,8,0:0:0:0:
256,192,72049,1,8,0:0:0:0:
256,192,72117,1,0,0:0:0:0:
256,192,72185,1,0,0:0:0:0:
256,192,72253,1,8,0:0:0:0:
256,192,72389,1,0,0:0:0:0:
256,192,72526,1,8,0:0:0:0:
256,192,72662,1,0,0:0:0:0:
256,192,72730,1,0,0:0:0:0:
256,192,72799,1,8,0:0:0:0:
256,192,72935,1,0,0:0:0:0:
256,192,73071,1,8,0:0:0:0:
256,192,73139,1,0,0:0:0:0:
256,192,73208,1,0,0:0:0:0:
256,192,73344,1,8,0:0:0:0:
256,192,73617,1,8,0:0:0:0:
256,192,73685,1,0,0:0:0:0:
256,192,73753,1,0,0:0:0:0:
256,192,73821,1,0,0:0:0:0:
256,192,73889,1,8,0:0:0:0:
256,192,74026,1,0,0:0:0:0:
256,192,74162,1,8,0:0:0:0:
256,192,74299,1,0,0:0:0:0:
256,192,74367,1,0,0:0:0:0:
256,192,74435,1,8,0:0:0:0:
256,192,74571,1,0,0:0:0:0:
256,192,74708,1,8,0:0:0:0:
256,192,74776,1,8,0:0:0:0:
256,192,74844,1,0,0:0:0:0:
256,192,74912,1,0,0:0:0:0:
256,192,74980,1,8,0:0:0:0:
256,192,75117,1,0,0:0:0:0:
256,192,75185,1,8,0:0:0:0:
256,192,75253,1,0,0:0:0:0:
256,192,75389,1,0,0:0:0:0:
256,192,75526,1,8,0:0:0:0:
256,192,75799,1,8,0:0:0:0:
256,192,75935,1,0,0:0:0:0:
256,192,76071,1,8,0:0:0:0:
256,192,76139,1,0,0:0:0:0:
256,192,76208,1,0,0:0:0:0:
256,192,76344,1,8,0:0:0:0:
256,192,76480,1,0,0:0:0:0:
256,192,76549,1,0,0:0:0:0:
256,192,76617,1,8,0:0:0:0:
256,192,76685,1,8,0:0:0:0:
256,192,76753,1,0,0:0:0:0:
256,192,76889,1,8,0:0:0:0:
256,192,77026,1,0,0:0:0:0:
256,192,77094,1,0,0:0:0:0:
256,192,77162,1,8,0:0:0:0:
256,192,77299,1,0,0:0:0:0:
256,192,77435,1,8,0:0:0:0:
256,192,77503,1,8,0:0:0:0:
256,192,77571,1,0,0:0:0:0:
256,192,77708,1,8,0:0:0:0:
256,192,77980,1,0,0:0:0:0:
256,192,78117,1,8,0:0:0:0:
256,192,78185,1,0,0:0:0:0:
256,192,78253,1,8,0:0:0:0:
256,192,78389,1,8,0:0:0:0:
256,192,78526,1,0,0:0:0:0:
256,192,78594,1,0,0:0:0:0:
256,192,78662,1,8,0:0:0:0:
256,192,78799,1,0,0:0:0:0:
256,192,78935,1,8,0:0:0:0:
256,192,79071,1,0,0:0:0:0:
256,192,79162,1,0,0:0:0:0:
256,192,79253,1,0,0:0:0:0:
256,192,79344,1,0,0:0:0:0:
256,192,79617,1,0,0:0:0:0:
256,192,79708,1,0,0:0:0:0:
256,192,79799,1,0,0:0:0:0:
256,192,79889,1,0,0:0:0:0:
256,192,80162,1,12,0:0:0:0:
256,192,80367,1,0,0:0:0:0:
256,192,80571,1,0,0:0:0:0:
256,192,80708,1,12,0:0:0:0:
256,192,80912,1,0,0:0:0:0:
256,192,81117,1,0,0:0:0:0:
256,192,81253,1,12,0:0:0:0:
256,192,81458,1,0,0:0:0:0:
256,192,81662,1,0,0:0:0:0:
256,192,81799,1,12,0:0:0:0:
256,192,82071,1,12,0:0:0:0:
256,192,82208,1,0,0:0:0:0:
256,192,82344,1,12,0:0:0:0:
256,192,82549,1,0,0:0:0:0:
256,192,82753,1,0,0:0:0:0:
256,192,82889,1,12,0:0:0:0:
256,192,83094,1,0,0:0:0:0:
256,192,83299,1,0,0:0:0:0:
256,192,83435,1,12,0:0:0:0:
256,192,83571,1,0,0:0:0:0:
256,192,83639,1,0,0:0:0:0:
256,192,83708,1,12,0:0:0:0:
256,192,83844,1,0,0:0:0:0:
256,192,83912,1,0,0:0:0:0:
256,192,83980,1,12,0:0:0:0:
256,192,84117,1,0,0:0:0:0:
256,192,84253,1,12,0:0:0:0:
256,192,84389,1,0,0:0:0:0:
256,192,84526,1,12,0:0:0:0:
256,192,84730,1,0,0:0:0:0:
256,192,84935,1,0,0:0:0:0:
256,192,85071,1,12,0:0:0:0:
256,192,85276,1,0,0:0:0:0:
256,192,85480,1,0,0:0:0:0:
256,192,85617,1,12,0:0:0:0:
256,192,85821,1,0,0:0:0:0:
256,192,86026,1,0,0:0:0:0:
256,192,86162,1,12,0:0:0:0:
256,192,86367,1,0,0:0:0:0:
256,192,86571,1,0,0:0:0:0:
256,192,86708,1,8,0:0:0:0:
256,192,86912,1,0,0:0:0:0:
256,192,87117,1,0,0:0:0:0:
256,192,87253,1,8,0:0:0:0:
256,192,87458,1,0,0:0:0:0:
256,192,87662,1,0,0:0:0:0:
256,192,87799,1,8,0:0:0:0:
256,192,87867,1,8,0:0:0:0:
256,192,87935,1,0,0:0:0:0:
256,192,88003,1,0,0:0:0:0:
256,192,88071,1,8,0:0:0:0:
256,192,88208,1,0,0:0:0:0:
256,192,88344,1,8,0:0:0:0:
256,192,88480,1,0,0:0:0:0:
256,192,88549,1,0,0:0:0:0:
256,192,88617,1,8,0:0:0:0:
256,192,88753,1,0,0:0:0:0:
256,192,88821,1,8,0:0:0:0:
256,192,90254,1,12,0:0:0:0:
256,192,90390,1,0,0:0:0:0:
256,192,90663,1,8,0:0:0:0:
256,192,90799,1,0,0:0:0:0:
256,192,91072,1,8,0:0:0:0:
256,192,91344,1,8,0:0:0:0:
256,192,91617,1,8,0:0:0:0:
256,192,91754,1,0,0:0:0:0:
256,192,92026,1,8,0:0:0:0:
256,192,92163,1,0,0:0:0:0:
256,192,92435,1,8,0:0:0:0:
256,192,92708,1,8,0:0:0:0:
256,192,92981,1,8,0:0:0:0:
256,192,93117,1,0,0:0:0:0:
256,192,93390,1,8,0:0:0:0:
256,192,93526,1,0,0:0:0:0:
256,192,93799,1,8,0:0:0:0:
256,192,94072,1,8,0:0:0:0:
256,192,94344,1,12,0:0:0:0:
256,192,94481,1,0,0:0:0:0:
256,192,94754,1,12,0:0:0:0:
256,192,94890,1,0,0:0:0:0:
256,192,95026,1,0,0:0:0:0:
256,192,95163,1,8,0:0:0:0:
256,192,95299,1,0,0:0:0:0:
256,192,95435,1,8,0:0:0:0:
256,192,95504,1,8,0:0:0:0:
256,192,95572,1,0,0:0:0:0:
256,192,95708,1,12,0:0:0:0:
256,192,95844,1,0,0:0:0:0:
256,192,95980,1,0,0:0:0:0:
256,192,96117,1,8,0:0:0:0:
256,192,96253,1,0,0:0:0:0:
256,192,96389,1,0,0:0:0:0:
256,192,96458,1,0,0:0:0:0:
256,192,96526,1,8,0:0:0:0:
256,192,96662,1,8,0:0:0:0:
256,192,96798,1,0,0:0:0:0:
256,192,96867,1,0,0:0:0:0:
256,192,96935,1,8,0:0:0:0:
256,192,97071,1,8,0:0:0:0:
256,192,97208,1,0,0:0:0:0:
256,192,97344,1,8,0:0:0:0:
256,192,97480,1,8,0:0:0:0:
256,192,97617,1,0,0:0:0:0:
256,192,97753,1,0,0:0:0:0:
256,192,98162,1,0,0:0:0:0:
256,192,98230,1,0,0:0:0:0:
256,192,98298,1,8,0:0:0:0:
256,192,98435,1,8,0:0:0:0:
256,192,98571,1,0,0:0:0:0:
256,192,98708,1,8,0:0:0:0:
256,192,98776,1,8,0:0:0:0:
256,192,98844,1,0,0:0:0:0:
256,192,98980,1,0,0:0:0:0:
256,192,99117,1,8,0:0:0:0:
256,192,99253,1,0,0:0:0:0:
256,192,99389,1,8,0:0:0:0:
256,192,99458,1,8,0:0:0:0:
256,192,99526,1,0,0:0:0:0:
256,192,99662,1,8,0:0:0:0:
256,192,99798,1,0,0:0:0:0:
256,192,99867,1,0,0:0:0:0:
256,192,99935,1,8,0:0:0:0:
256,192,100071,1,4,0:0:0:0:
256,192,100435,1,0,0:0:0:0:
256,192,100526,1,0,0:0:0:0:
256,192,100617,1,0,0:0:0:0:
256,192,100798,1,0,0:0:0:0:
256,192,100980,1,0,0:0:0:0:
256,192,101162,1,8,0:0:0:0:
256,192,101344,1,8,0:0:0:0:
256,192,101526,1,8,0:0:0:0:
256,192,101708,1,8,0:0:0:0:
256,192,101980,1,0,0:0:0:0:
256,192,102253,1,8,0:0:0:0:
256,192,102344,1,0,0:0:0:0:
256,192,102435,1,0,0:0:0:0:
256,192,102526,1,8,0:0:0:0:
256,192,102708,1,0,0:0:0:0:
256,192,102798,1,8,0:0:0:0:
256,192,102980,1,8,0:0:0:0:
256,192,103071,1,0,0:0:0:0:
256,192,103253,1,0,0:0:0:0:
256,192,103344,1,8,0:0:0:0:
256,192,103435,1,8,0:0:0:0:
256,192,103526,1,0,0:0:0:0:
256,192,103617,1,8,0:0:0:0:
256,192,103798,1,0,0:0:0:0:
256,192,103889,1,8,0:0:0:0:
256,192,104071,1,8,0:0:0:0:
256,192,104162,1,0,0:0:0:0:
256,192,104435,1,12,0:0:0:0:
256,192,104571,1,0,0:0:0:0:
256,192,104639,1,0,0:0:0:0:
256,192,104708,1,8,0:0:0:0:
256,192,104844,1,0,0:0:0:0:
256,192,104980,1,8,0:0:0:0:
256,192,105048,1,0,0:0:0:0:
256,192,105117,1,0,0:0:0:0:
256,192,105185,1,0,0:0:0:0:
256,192,105253,1,8,0:0:0:0:
256,192,105389,1,0,0:0:0:0:
256,192,105526,1,8,0:0:0:0:
256,192,105662,1,0,0:0:0:0:
256,192,105730,1,0,0:0:0:0:
256,192,105798,1,8,0:0:0:0:
256,192,105935,1,0,0:0:0:0:
256,192,106071,1,8,0:0:0:0:
256,192,106208,1,8,0:0:0:0:
256,192,106276,1,8,0:0:0:0:
256,192,106344,1,0,0:0:0:0:
256,192,106617,1,8,0:0:0:0:
256,192,106753,1,0,0:0:0:0:
256,192,106821,1,0,0:0:0:0:
256,192,106889,1,8,0:0:0:0:
256,192,107026,1,0,0:0:0:0:
256,192,107162,1,8,0:0:0:0:
256,192,107230,1,8,0:0:0:0:
256,192,107298,1,0,0:0:0:0:
256,192,107367,1,0,0:0:0:0:
256,192,107435,1,8,0:0:0:0:
256,192,107571,1,0,0:0:0:0:
256,192,107708,1,0,0:0:0:0:
256,192,107776,1,0,0:0:0:0:
256,192,107844,1,8,0:0:0:0:
256,192,107980,1,0,0:0:0:0:
256,192,108048,1,8,0:0:0:0:
256,192,108185,1,0,0:0:0:0:
256,192,108253,1,8,0:0:0:0:
256,192,108389,1,0,0:0:0:0:
256,192,108458,1,8,0:0:0:0:
256,192,108594,1,0,0:0:0:0:
256,192,108662,1,8,0:0:0:0:
256,192,108798,1,12,0:0:0:0:
256,192,108935,1,12,0:0:0:0:
256,192,109071,1,12,0:0:0:0:
256,192,109344,1,4,0:0:0:0:
256,192,109480,1,4,0:0:0:0:
256,192,109617,1,4,0:0:0:0:
256,192,109753,1,4,0:0:0:0:
256,192,110026,1,12,0:0:0:0:
256,192,110162,1,12,0:0:0:0:
256,192,110298,1,12,0:0:0:0:
256,192,110435,1,12,0:0:0:0:
256,192,110571,1,12,0:0:0:0:
256,192,110708,1,12,0:0:0:0:
256,192,110844,1,12,0:0:0:0:
256,192,110980,1,12,0:0:0:0:
256,192,111253,1,4,0:0:0:0:
256,192,111526,1,4,0:0:0:0:
256,192,111935,1,12,0:0:0:0:
256,192,112071,1,4,0:0:0:0:
256,192,112344,1,4,0:0:0:0:
256,192,112480,1,4,0:0:0:0:
256,192,112617,1,4,0:0:0:0:
256,192,112753,1,4,0:0:0:0:
256,192,113026,1,12,0:0:0:0:
256,192,113162,1,4,0:0:0:0:
256,192,113435,1,12,0:0:0:0:
256,192,113571,1,12,0:0:0:0:
256,192,113708,1,12,0:0:0:0:
256,192,113844,1,12,0:0:0:0:
256,192,114117,1,12,0:0:0:0:
256,192,114253,1,4,0:0:0:0:
256,192,114389,1,12,0:0:0:0:
256,192,114662,1,12,0:0:0:0:
256,192,114798,1,12,0:0:0:0:
256,192,114935,1,12,0:0:0:0:
256,192,115071,1,12,0:0:0:0:
256,192,115208,1,12,0:0:0:0:
256,192,115344,1,12,0:0:0:0:
256,192,115480,1,12,0:0:0:0:
256,192,115617,1,12,0:0:0:0:
256,192,115753,1,12,0:0:0:0:
256,192,115889,1,12,0:0:0:0:
256,192,116708,1,12,0:0:0:0:
256,192,116844,12,0,118344,0:0:0:0:
256,192,118480,5,12,0:0:0:0:
256,192,118617,12,0,120935,0:0:0:0:
