osu file format v14

[General]
AudioFilename: audio.mp3
AudioLeadIn: 0
PreviewTime: 34345
Countdown: 0
SampleSet: Normal
StackLeniency: 0.7
Mode: 1
LetterboxInBreaks: 0
WidescreenStoryboard: 0

[Editor]
DistanceSpacing: 1.5
BeatDivisor: 4
GridSize: 32
TimelineZoom: 2.4

[Metadata]
Title:ENDYMION
TitleUnicode:ENDYMION
Artist:fallen shepherd feat. RabbiTon Strings
ArtistUnicode:fallen shepherd feat. RabbiTon Strings
Creator:Capu
Version:Encore Extra Stage
Source:DanceDanceRevolution A
Tags:ace ダンスダンスレボリューション ddr dancing stage video rhythm game hardcore electronic ft.
BeatmapID:2257147
BeatmapSetID:1078749

[Difficulty]
HPDrainRate:5
CircleSize:2
OverallDifficulty:7.2
ApproachRate:10
SliderMultiplier:1.4
SliderTickRate:1

[Events]
//Background and Video events
0,0,"1053416.jpg",0,30
//Break Periods
//Storyboard Layer 0 (Background)
//Storyboard Layer 1 (Fail)
//Storyboard Layer 2 (Pass)
//Storyboard Layer 3 (Foreground)
//Storyboard Layer 4 (Overlay)
//Storyboard Sound Samples

[TimingPoints]
-13,272.727272727273,4,1,0,80,1,0
1009,-111.111111111111,4,1,0,80,0,0
7075,-50,4,1,0,80,0,0
8575,-111.111111111111,4,1,0,80,0,0
8709,272.727272727273,5,1,0,80,1,0
18252,-102.564102564103,5,1,0,80,0,0
18457,-105.263157894737,5,1,0,80,0,0
18661,-108.108108108108,5,1,0,80,0,0
18797,-111.111111111111,4,1,0,80,0,0
18865,-109.090869421502,4,1,0,80,0,0
18933,-107.142895408177,4,1,0,80,0,0
19001,-105.263157894737,4,1,0,80,0,0
19069,-103.448240190262,4,1,0,80,0,0
19138,-101.694949727102,4,1,0,80,0,0
19206,-100,4,1,0,80,0,0
19274,-98.3606234883202,4,1,0,80,0,0
19342,-96.774224765879,4,1,0,80,0,0
19410,-95.2380952380952,4,1,0,80,0,0
19479,-93.7499707031342,4,1,0,80,0,0
19547,-92.3077207100679,4,1,0,80,0,0
19616,-90.9090909090909,4,1,0,80,0,0
19618,-90.9090909090909,4,1,0,80,0,1
27799,272.727272727273,4,1,0,80,1,0
27799,-90.9090909090909,4,1,0,80,0,0
27933,-91.6666743055562,4,1,0,80,0,0
28001,-92.0501783932457,4,1,0,80,0,0
28069,-92.4369903255446,4,1,0,80,0,0
28206,-93.2203626831431,4,1,0,80,0,0
28342,-94.0171261597012,4,1,0,80,0,0
28478,-94.8276270808737,4,1,0,80,0,0
28547,-95.2380952380952,4,1,0,80,0,0
28615,-95.6521323251599,4,1,0,80,0,0
28751,-96.4911942136161,4,1,0,80,0,0
28887,-97.3451068995291,4,1,0,80,0,0
29024,-98.2142681760236,4,1,0,80,0,0
29092,-98.6547439120158,4,1,0,80,0,0
29160,-99.0990901712531,4,1,0,80,0,0
29297,-100,4,1,0,80,0,0
29433,-100,4,1,0,80,0,0
29569,-99.1629654089828,4,1,0,80,0,0
29638,-98.749729672615,4,1,0,80,0,0
29706,-98.3398270399122,4,1,0,80,0,0
29842,-97.5303368112651,4,1,0,80,0,0
29978,-96.7339709391805,4,1,0,80,0,0
30115,-95.9505048915567,4,1,0,80,0,0
30183,-95.5635574107628,4,1,0,80,0,0
30251,-95.1796277524759,4,1,0,80,0,0
30387,-94.4210385181185,4,1,0,80,0,0
30524,-93.6745334539861,4,1,0,80,0,0
30660,-92.9396533536809,4,1,0,80,0,0
30729,-92.5764774280033,4,1,0,80,0,0
30797,-92.2162138235793,4,1,0,80,0,0
30933,-91.5039497679917,4,1,0,80,0,0
31069,-90.802604218689,4,1,0,80,0,0
31206,-90.1120092274697,4,1,0,80,0,0
31274,-89.7705554373577,4,1,0,80,0,0
31342,-89.4317595430395,4,1,0,80,0,0
31478,-88.761703230571,4,1,0,80,0,0
31615,-88.1016128762269,4,1,0,80,0,0
31751,-87.451267781029,4,1,0,80,0,0
31819,-87.1297204704308,4,1,0,80,0,0
31888,-86.8105290754505,4,1,0,80,0,0
32024,-86.1790369492621,4,1,0,80,0,0
32160,-85.5566658909529,4,1,0,80,0,0
32229,-85.2488755673313,4,1,0,80,0,0
32297,-84.9432197047883,4,1,0,80,0,0
32365,-84.639819480193,4,1,0,80,0,0
32433,-84.3385077819141,4,1,0,80,0,0
32501,-84.0394043959332,4,1,0,80,0,0
32569,-83.7424150307586,4,1,0,80,0,0
32638,-83.4474477180878,4,1,0,80,0,0
32706,-83.15462019543,4,1,0,80,0,0
32774,-82.8637719588996,4,1,0,80,0,0
32842,-82.5750194051296,4,1,0,80,0,0
32910,-82.2882722754353,4,1,0,80,0,0
32979,-82.0034425045163,4,1,0,80,0,0
33047,-81.7206445143792,4,1,0,80,0,0
33115,-81.4397240170632,4,1,0,80,0,0
33183,-81.1607941421385,4,1,0,80,0,0
33251,-80.8837684071236,4,1,0,80,0,0
33319,-80.6085624027155,4,1,0,80,0,0
33388,-80.3352873553061,4,1,0,80,0,0
33456,-80.0637948317219,4,1,0,80,0,0
33524,-79.794194812739,4,1,0,80,0,0
33592,-79.5264043567745,4,1,0,80,0,0
33660,-79.2603424839399,4,1,0,80,0,0
33729,-78.9961173408327,4,1,0,80,0,0
33797,-78.7335860156554,4,1,0,80,0,0
33865,-78.4728554545697,4,1,0,80,0,0
33933,-78.2138460407369,4,1,0,80,0,0
34001,-77.9564800154666,4,1,0,80,0,0
34069,-77.7008625572752,4,1,0,80,0,0
34138,-77.4468559674352,4,1,0,80,0,0
34206,-77.1945642675625,4,1,0,80,0,0
34274,-76.9439109666617,4,1,0,80,0,0
34410,-100,4,1,0,80,0,0
36524,-83.3333333333333,4,1,0,80,0,0
36592,-100,4,1,0,80,0,0
38160,-83.3333333333333,4,1,0,80,0,0
38162,-83.3333333333333,4,1,0,80,0,1
38706,-83.3333333333333,4,1,0,80,0,1
38708,-83.3333333333333,4,1,0,80,0,0
38774,-100,4,1,0,80,0,0
39762,-83.3333333333333,4,1,0,80,0,0
39797,-83.3333333333333,4,1,0,80,0,0
39799,-83.3333333333333,4,1,0,80,0,1
40887,-83.3333333333333,4,1,0,80,0,1
40889,-83.3333333333333,4,1,0,80,0,0
40956,-100,4,1,0,80,0,0
42524,-83.3333333333333,4,1,0,80,0,0
42526,-83.3333333333333,4,1,0,80,0,1
43069,-83.3333333333333,4,1,0,80,0,1
43071,-83.3333333333333,4,1,0,80,0,0
43138,-100,4,1,0,80,0,0
44160,-100,4,1,0,80,0,0
44228,-97.5733507664387,4,1,0,80,0,0
44297,-95.261593097726,4,1,0,80,0,0
44365,-93.0569294377221,4,1,0,80,0,0
44433,-90.9519209955233,4,1,0,80,0,0
44501,-88.9401183970856,4,1,0,80,0,0
44569,-87.0153138250801,4,1,0,80,0,0
44637,-85.1721286133211,4,1,0,80,0,0
44706,-83.4053399434845,4,1,0,80,0,0
44774,-81.7104280482484,4,1,0,80,0,0
44842,-80.082965952727,4,1,0,80,0,0
44910,-78.5191292228569,4,1,0,80,0,0
44978,-77.0151396361497,4,1,0,80,0,0
45047,-75.5677404338797,4,1,0,80,0,0
45115,-74.1736865879882,4,1,0,80,0,0
45183,-72.8301884044144,4,1,0,80,0,0
45251,-71.5344935751295,4,1,0,80,0,0
45456,-90.9090909090909,4,1,0,80,0,0
46887,-83.3333333333333,4,1,0,80,0,0
46889,-83.3333333333333,4,1,0,80,0,1
47433,-83.3333333333333,4,1,0,80,0,1
47435,-83.3333333333333,4,1,0,80,0,0
47501,-90.9090909090909,4,1,0,80,0,0
48524,-83.3333333333333,4,1,0,80,0,0
48526,-83.3333333333333,4,1,0,80,0,1
49615,-83.3333333333333,4,1,0,80,0,1
49617,-83.3333333333333,4,1,0,80,0,0
49683,-90.9090909090909,4,1,0,80,0,0
51251,-83.3333333333333,4,1,0,80,0,0
51253,-83.3333333333333,4,1,0,80,0,1
51797,-83.3333333333333,4,1,0,80,0,1
51799,-83.3333333333333,4,1,0,80,0,0
51865,-100,4,1,0,80,0,0
52887,-97.5609756097561,4,1,0,80,0,0
53160,-95.2380952380952,4,1,0,80,0,0
53433,-90.9090909090909,4,1,0,80,0,0
53569,-86.9565217391304,4,1,0,80,0,0
53706,-83.3333333333333,4,1,0,80,0,0
53842,-80,4,1,0,80,0,0
53978,-83.3333333333333,4,1,0,80,0,0
54047,-90.9090909090909,4,1,0,80,0,0
54319,-100,4,1,0,80,0,0
62433,-76.9230769230769,4,1,0,80,0,0
62706,-86.9565217391304,4,1,0,80,0,0
62978,-100,4,1,0,80,0,0
67069,-90.9090909090909,4,1,0,80,0,0
69319,-100,4,1,0,80,0,0
71433,-86.9565217391304,4,1,0,80,0,0
79069,-86.9565217391304,4,1,0,80,0,0
79160,-87.9070646512507,4,1,0,80,0,0
79251,-88.8786184707545,4,1,0,80,0,0
79342,-89.8719683938262,4,1,0,80,0,0
79433,-90.8876909891216,4,1,0,80,0,0
79524,-91.9266351909868,4,1,0,80,0,0
79615,-92.9896065516757,4,1,0,80,0,0
79706,-94.0775368242998,4,1,0,80,0,0
79797,-95.1911342785178,4,1,0,80,0,0
79887,-96.3314108794769,4,1,0,80,0,0
79978,-97.4993370045084,4,1,0,80,0,0
80069,-98.6960280770461,4,1,0,80,0,0
80160,-90.9090909090909,4,1,0,80,0,0
80365,-95.2380952380952,4,1,0,80,0,0
80569,-100,4,1,0,80,0,0
80706,-90.9090909090909,4,1,0,80,0,0
80910,-95.2380952380952,4,1,0,80,0,0
81115,-100,4,1,0,80,0,0
81251,-90.9090909090909,4,1,0,80,0,0
81456,-95.2380952380952,4,1,0,80,0,0
81660,-100,4,1,0,80,0,0
81797,-83.3333333333333,4,1,0,80,0,0
81865,-85.3658224271381,4,1,0,80,0,0
81933,-87.5000109375014,4,1,0,80,0,0
82001,-89.7435667324188,4,1,0,80,0,0
82069,-92.1052873961283,4,1,0,80,0,0
82137,-94.594581811543,4,1,0,80,0,0
82206,-97.2222627314984,4,1,0,80,0,0
82274,-100,4,1,0,80,0,0
82342,-90.9090909090909,4,1,0,80,0,0
82547,-95.2380952380952,4,1,0,80,0,0
82751,-100,4,1,0,80,0,0
82887,-90.9090909090909,4,1,0,80,0,0
83092,-95.2380952380952,4,1,0,80,0,0
83297,-100,4,1,0,80,0,0
83433,-83.3333333333333,4,1,0,80,0,0
83501,-84.2644555673526,4,1,0,80,0,0
83569,-85.216548031029,4,1,0,80,0,0
83637,-86.1904757800454,4,1,0,80,0,0
83706,-87.1869226590965,4,1,0,80,0,0
83774,-88.2066010291946,4,1,0,80,0,0
83842,-89.2504922164646,4,1,0,80,0,0
83910,-90.3193874177868,4,1,0,80,0,0
83978,-91.414112327833,4,1,0,80,0,0
84047,-92.5357859018029,4,1,0,80,0,0
84115,-93.6853278471205,4,1,0,80,0,0
84183,-94.8636998360755,4,1,0,80,0,0
84251,-96.0721847967689,4,1,0,80,0,0
84319,-97.3118572551828,4,1,0,80,0,0
84387,-98.5838430939553,4,1,0,80,0,0
84456,-99.8896219677257,4,1,0,80,0,0
84524,-90.9090909090909,4,1,0,80,0,0
84728,-95.2380952380952,4,1,0,80,0,0
84933,-100,4,1,0,80,0,0
85069,-90.9090909090909,4,1,0,80,0,0
85274,-95.1760042258146,4,1,0,80,0,0
85478,-99.8631874332165,4,1,0,80,0,0
85615,-90.9090909090909,4,1,0,80,0,0
85819,-95.2380952380952,4,1,0,80,0,0
86024,-100,4,1,0,80,0,0
86160,-90.9090909090909,4,1,0,80,0,0
86365,-95.2380952380952,4,1,0,80,0,0
86569,-100,4,1,0,80,0,0
86706,-83.3333333333333,4,1,0,80,0,0
86910,-84.6994651228778,4,1,0,80,0,0
87115,-86.1111350308708,4,1,0,80,0,0
87251,-87.0786590234825,4,1,0,80,0,0
87456,-88.5714488163312,4,1,0,80,0,0
87660,-90.1163131253509,4,1,0,80,0,0
87797,-91.1764866782035,4,1,0,80,0,0
87865,-91.715941055999,4,1,0,80,0,0
87933,-92.2619020160148,4,1,0,80,0,0
88001,-92.8144018251024,4,1,0,80,0,0
88069,-93.3734714762719,4,1,0,80,0,0
88137,-93.9394053259885,4,1,0,80,0,0
88206,-94.5121518999305,4,1,0,80,0,0
88274,-95.0920157890783,4,1,0,80,0,0
88342,-95.6790389231898,4,1,0,80,0,0
88410,-96.2732620269373,4,1,0,80,0,0
88478,-96.8750060546879,4,1,0,80,0,0
88547,-97.4843196471847,4,1,0,80,0,0
88615,-98.1012503004351,4,1,0,80,0,0
88683,-98.7261366586929,4,1,0,80,0,0
88751,-99.3589361439989,4,1,0,80,0,0
88819,-100,4,1,0,80,0,0
89980,272.727272727273,4,1,0,80,1,8
90254,272.727272727273,5,1,0,80,1,0
90254,-111.111111111111,4,1,0,80,0,0
95708,272.727272727273,4,1,0,80,1,0
95708,-99.9999999999999,4,1,0,80,0,0
98091,-90.9090909090909,4,1,0,80,0,0
100432,-90.9090909090909,4,1,0,80,0,0
100523,-91.3960657649531,4,1,0,80,0,0
100614,-91.8882858975372,4,1,0,80,0,0
100796,-92.8887183864858,4,1,0,80,0,0
100978,-93.9112632473576,4,1,0,80,0,0
101160,-94.956481444554,4,1,0,80,0,0
101341,-96.0253199563661,4,1,0,80,0,0
101523,-97.1184942748648,4,1,0,80,0,0
101705,-98.2367485993896,4,1,0,80,0,0
101978,-99.963413390699,4,1,0,80,0,0
104433,-90.9090909090909,4,1,0,80,0,0
104435,-90.9090909090909,4,1,0,80,0,1
104501,-92.0910375160469,4,1,0,80,0,1
104569,-93.3040358660714,4,1,0,80,0,1
104637,-94.5495047024196,4,1,0,80,0,1
104705,-95.8286736640764,4,1,0,80,0,1
104773,-97.1428349387806,4,1,0,80,0,1
104841,-98.4936382959025,4,1,0,80,0,1
104910,-99.8825381351531,4,1,0,80,0,1
104978,-90.9090909090909,4,1,0,80,0,1
105046,-92.1052873961283,4,1,0,80,0,1
105114,-93.3332960000149,4,1,0,80,0,1
105182,-94.594581811543,4,1,0,80,0,1
105251,-95.8904240945786,4,1,0,80,0,1
105319,-97.2222627314984,4,1,0,80,0,1
105387,-98.5915215235151,4,1,0,80,0,1
105455,-100,4,1,0,80,0,1
105523,-90.9090909090909,4,1,0,80,0,1
105591,-92.0910375160469,4,1,0,80,0,1
105660,-93.3040358660714,4,1,0,80,0,1
105728,-94.5495047024196,4,1,0,80,0,1
105796,-95.8286736640764,4,1,0,80,0,1
105864,-97.1428349387806,4,1,0,80,0,1
105932,-98.4936382959025,4,1,0,80,0,1
106001,-99.8825381351531,4,1,0,80,0,1
106069,-90.9090909090909,4,1,0,80,0,1
106137,-92.1052873961283,4,1,0,80,0,1
106205,-93.3332960000149,4,1,0,80,0,1
106273,-94.594581811543,4,1,0,80,0,1
106341,-95.8904240945786,4,1,0,80,0,1
106410,-97.2222627314984,4,1,0,80,0,1
106478,-98.5915215235151,4,1,0,80,0,1
106546,-100,4,1,0,80,0,1
106614,-90.9090909090909,4,1,0,80,0,1
106682,-92.1052873961283,4,1,0,80,0,1
106751,-93.3332960000149,4,1,0,80,0,1
106819,-94.594581811543,4,1,0,80,0,1
106887,-95.8904240945786,4,1,0,80,0,1
106955,-97.2222627314984,4,1,0,80,0,1
107023,-98.5915215235151,4,1,0,80,0,1
107091,-100,4,1,0,80,0,1
107160,-90.9090909090909,4,1,0,80,0,1
107228,-92.1052873961283,4,1,0,80,0,1
107296,-93.3332960000149,4,1,0,80,0,1
107364,-94.594581811543,4,1,0,80,0,1
107432,-95.8904240945786,4,1,0,80,0,1
107501,-97.2222627314984,4,1,0,80,0,1
107569,-98.5915215235151,4,1,0,80,0,1
107637,-100,4,1,0,80,0,1
107705,-90.9090909090909,4,1,0,80,0,1
107773,-92.1052873961283,4,1,0,80,0,1
107841,-93.3332960000149,4,1,0,80,0,1
107910,-94.594581811543,4,1,0,80,0,1
107978,-95.8904240945786,4,1,0,80,0,1
108046,-97.2222627314984,4,1,0,80,0,1
108114,-98.5915215235151,4,1,0,80,0,1
108182,-100,4,1,0,80,0,1
108251,-90.9090909090909,4,1,0,80,0,1
108319,-92.1052873961283,4,1,0,80,0,1
108387,-93.3332960000149,4,1,0,80,0,1
108455,-94.594581811543,4,1,0,80,0,1
108523,-95.8904240945786,4,1,0,80,0,1
108591,-97.2222627314984,4,1,0,80,0,1
108660,-98.5915215235151,4,1,0,80,0,1
108728,-100,4,1,0,80,0,1
108796,-90.9090909090909,4,1,0,80,0,1
109137,-100,4,1,0,80,0,1
109205,-96.8054211035818,4,1,0,80,0,1
109273,-93.8086303939962,4,1,0,80,0,1
109341,-90.9090909090909,4,1,0,80,0,1
109819,-95.2380952380952,4,1,0,80,0,1
109955,-90.9090909090909,4,1,0,80,0,1
111114,-96.8054211035818,4,1,0,80,0,1
111182,-93.8086303939962,4,1,0,80,0,1
111251,-90.9090909090909,4,1,0,80,0,1
111387,-100,4,1,0,80,0,1
111523,-90.9090909090909,4,1,0,80,0,1
111660,-96.6183574879227,4,1,0,80,0,1
111796,-93.4579439252336,4,1,0,80,0,1
111932,-86.9565217391304,4,1,0,80,0,1
112205,-93.4579439252336,4,1,0,80,0,1
112341,-83.3333333333333,4,1,0,80,0,1
112887,-90.9090909090909,4,1,0,80,0,1
112955,-86.9565217391304,4,1,0,80,0,1
113023,-80,4,1,0,80,0,1
113296,-83.3333333333333,4,1,0,80,0,1
113432,-76.9230769230769,4,1,0,80,0,1
113978,-83.3333333333333,4,1,0,80,0,1
114046,-80,4,1,0,80,0,1
114114,-74.0740740740741,4,1,0,80,0,1
114523,-76.9230769230769,4,1,0,80,0,1
114660,-71.4285714285714,4,1,0,80,0,1
115887,-71.4285714285714,4,1,0,80,0,1
115889,-71.4285714285714,4,1,0,80,0,0
116023,-100,4,1,0,80,0,0
116705,-100,4,1,0,80,0,0
118478,-66.6666666666667,4,1,0,80,0,0

[HitObjects]
256,192,1077,5,0,0:0:0:0:
256,192,1214,1,0,0:0:0:0:
256,192,1350,1,0,0:0:0:0:
256,192,1623,1,0,0:0:0:0:
256,192,1896,1,8,0:0:0:0:
256,192,2168,1,8,0:0:0:0:
256,192,2441,1,8,0:0:0:0:
256,192,2577,1,8,0:0:0:0:
256,192,2714,1,8,0:0:0:0:
256,192,2987,1,8,0:0:0:0:
256,192,3259,1,0,0:0:0:0:
256,192,3532,1,8,0:0:0:0:
256,192,3805,1,8,0:0:0:0:
256,192,3896,1,0,0:0:0:0:
256,192,3987,1,0,0:0:0:0:
256,192,4077,1,8,0:0:0:0:
256,192,4350,1,0,0:0:0:0:
256,192,4623,1,8,0:0:0:0:
256,192,4759,1,0,0:0:0:0:
256,192,4896,1,8,0:0:0:0:
256,192,5168,1,8,0:0:0:0:
256,192,5441,1,0,0:0:0:0:
256,192,5714,1,0,0:0:0:0:
256,192,5850,1,8,0:0:0:0:
256,192,5987,1,8,0:0:0:0:
256,192,6191,1,8,0:0:0:0:
256,192,6396,1,8,0:0:0:0:
256,192,6668,1,8,0:0:0:0:
256,192,7214,2,4,L|160:192,18,70
256,192,8709,1,12,0:0:0:0:
256,192,8845,1,0,0:0:0:0:
256,192,9118,1,8,0:0:0:0:
256,192,9254,1,0,0:0:0:0:
256,192,9527,1,8,0:0:0:0:
256,192,9799,1,8,0:0:0:0:
256,192,10072,1,0,0:0:0:0:
256,192,10209,1,8,0:0:0:0:
256,192,10481,1,0,0:0:0:0:
256,192,10618,1,8,0:0:0:0:
256,192,10890,1,8,0:0:0:0:
256,192,11027,1,0,0:0:0:0:
256,192,11163,1,8,0:0:0:0:
256,192,11299,1,0,0:0:0:0:
256,192,11436,1,12,0:0:0:0:
256,192,11572,1,0,0:0:0:0:
256,192,11845,1,8,0:0:0:0:
256,192,11981,1,0,0:0:0:0:
256,192,12118,1,0,0:0:0:0:
256,192,12254,1,8,0:0:0:0:
256,192,12527,1,8,0:0:0:0:
256,192,12799,1,0,0:0:0:0:
256,192,12936,1,8,0:0:0:0:
256,192,13209,1,0,0:0:0:0:
256,192,13345,1,8,0:0:0:0:
256,192,13618,1,0,0:0:0:0:
256,192,13686,1,0,0:0:0:0:
256,192,13754,1,0,0:0:0:0:
256,192,13822,1,0,0:0:0:0:
256,192,13890,1,8,0:0:0:0:
256,192,14163,1,12,0:0:0:0:
256,192,14299,1,0,0:0:0:0:
256,192,14572,1,8,0:0:0:0:
256,192,14709,1,0,0:0:0:0:
256,192,14981,1,8,0:0:0:0:
256,192,15254,1,8,0:0:0:0:
256,192,15527,1,0,0:0:0:0:
256,192,15663,1,8,0:0:0:0:
256,192,15936,1,0,0:0:0:0:
256,192,16072,1,8,0:0:0:0:
256,192,16345,1,0,0:0:0:0:
256,192,16413,1,0,0:0:0:0:
256,192,16481,1,0,0:0:0:0:
256,192,16549,1,0,0:0:0:0:
256,192,16618,1,8,0:0:0:0:
256,192,16890,1,12,0:0:0:0:
256,192,17027,1,0,0:0:0:0:
256,192,17299,1,8,0:0:0:0:
256,192,17436,1,0,0:0:0:0:
256,192,17709,1,8,0:0:0:0:
256,192,17981,1,8,0:0:0:0:
256,192,18254,1,0,0:0:0:0:
256,192,18459,1,0,0:0:0:0:
256,192,18663,1,0,0:0:0:0:
256,192,18799,5,8,0:0:0:0:
256,192,18868,1,8,0:0:0:0:
256,192,18936,1,0,0:0:0:0:
256,192,19004,1,0,0:0:0:0:
256,192,19072,1,8,0:0:0:0:
256,192,19140,1,0,0:0:0:0:
256,192,19209,1,8,0:0:0:0:
256,192,19277,1,0,0:0:0:0:
256,192,19345,1,8,0:0:0:0:
256,192,19413,1,8,0:0:0:0:
256,192,19481,1,0,0:0:0:0:
256,192,19549,1,0,0:0:0:0:
256,192,19618,1,12,0:0:0:0:
256,192,19754,1,0,0:0:0:0:
256,192,19890,1,8,0:0:0:0:
256,192,19959,1,8,0:0:0:0:
256,192,20027,1,0,0:0:0:0:
256,192,20095,1,0,0:0:0:0:
256,192,20163,1,8,0:0:0:0:
256,192,20299,1,0,0:0:0:0:
256,192,20436,1,8,0:0:0:0:
256,192,20504,1,0,0:0:0:0:
256,192,20572,1,0,0:0:0:0:
256,192,20709,1,8,0:0:0:0:
256,192,20777,1,8,0:0:0:0:
256,192,20845,1,0,0:0:0:0:
256,192,20913,1,0,0:0:0:0:
256,192,20981,1,12,0:0:0:0:
256,192,21118,1,0,0:0:0:0:
256,192,21254,1,8,0:0:0:0:
256,192,21322,1,0,0:0:0:0:
256,192,21390,1,0,0:0:0:0:
256,192,21459,1,0,0:0:0:0:
256,192,21527,1,8,0:0:0:0:
256,192,21663,1,0,0:0:0:0:
256,192,21799,1,8,0:0:0:0:
256,192,21868,1,8,0:0:0:0:
256,192,21936,1,0,0:0:0:0:
256,192,22004,1,0,0:0:0:0:
256,192,22072,1,8,0:0:0:0:
256,192,22140,1,0,0:0:0:0:
256,192,22209,1,0,0:0:0:0:
256,192,22277,1,0,0:0:0:0:
256,192,22345,1,12,0:0:0:0:
256,192,22481,1,0,0:0:0:0:
256,192,22618,1,8,0:0:0:0:
256,192,22686,1,8,0:0:0:0:
256,192,22754,1,0,0:0:0:0:
256,192,22822,1,0,0:0:0:0:
256,192,22890,1,8,0:0:0:0:
256,192,23027,1,0,0:0:0:0:
256,192,23163,1,8,0:0:0:0:
256,192,23231,1,0,0:0:0:0:
256,192,23299,1,0,0:0:0:0:
256,192,23436,1,8,0:0:0:0:
256,192,23504,1,8,0:0:0:0:
256,192,23572,1,0,0:0:0:0:
256,192,23640,1,0,0:0:0:0:
256,192,23709,1,12,0:0:0:0:
256,192,23845,1,0,0:0:0:0:
256,192,23981,1,8,0:0:0:0:
256,192,24049,1,0,0:0:0:0:
256,192,24118,1,0,0:0:0:0:
256,192,24186,1,0,0:0:0:0:
256,192,24254,1,8,0:0:0:0:
256,192,24390,1,0,0:0:0:0:
256,192,24527,1,8,0:0:0:0:
256,192,24595,1,0,0:0:0:0:
256,192,24663,1,0,0:0:0:0:
256,192,24731,1,0,0:0:0:0:
256,192,24799,1,8,0:0:0:0:
256,192,24868,1,8,0:0:0:0:
256,192,24936,1,0,0:0:0:0:
256,192,25004,1,0,0:0:0:0:
256,192,25072,1,12,0:0:0:0:
256,192,25209,1,0,0:0:0:0:
256,192,25345,1,8,0:0:0:0:
256,192,25413,1,8,0:0:0:0:
256,192,25481,1,0,0:0:0:0:
256,192,25549,1,0,0:0:0:0:
256,192,25618,1,8,0:0:0:0:
256,192,25754,1,0,0:0:0:0:
256,192,25890,1,8,0:0:0:0:
256,192,25959,1,0,0:0:0:0:
256,192,26027,1,0,0:0:0:0:
256,192,26163,1,8,0:0:0:0:
256,192,26231,1,8,0:0:0:0:
256,192,26299,1,0,0:0:0:0:
256,192,26368,1,0,0:0:0:0:
256,192,26436,1,12,0:0:0:0:
256,192,26572,1,0,0:0:0:0:
256,192,26709,1,8,0:0:0:0:
256,192,26777,1,0,0:0:0:0:
256,192,26845,1,0,0:0:0:0:
256,192,26913,1,0,0:0:0:0:
256,192,26981,1,8,0:0:0:0:
256,192,27118,1,0,0:0:0:0:
256,192,27254,1,8,0:0:0:0:
256,192,27322,1,8,0:0:0:0:
256,192,27390,1,0,0:0:0:0:
256,192,27459,1,0,0:0:0:0:
256,192,27527,1,8,0:0:0:0:
256,192,27595,1,0,0:0:0:0:
256,192,27663,1,0,0:0:0:0:
256,192,27731,1,0,0:0:0:0:
256,192,27799,5,8,0:0:0:0:
256,192,27935,1,0,0:0:0:0:
256,192,28003,1,8,0:0:0:0:
256,192,28071,1,8,0:0:0:0:
256,192,28208,1,0,0:0:0:0:
256,192,28344,1,8,0:0:0:0:
256,192,28480,1,0,0:0:0:0:
256,192,28549,1,0,0:0:0:0:
256,192,28617,1,8,0:0:0:0:
256,192,28753,1,0,0:0:0:0:
256,192,28889,1,8,0:0:0:0:
256,192,29026,1,0,0:0:0:0:
256,192,29094,1,8,0:0:0:0:
256,192,29162,1,8,0:0:0:0:
256,192,29299,1,0,0:0:0:0:
256,192,29435,5,8,0:0:0:0:
256,192,29571,1,0,0:0:0:0:
256,192,29639,1,0,0:0:0:0:
256,192,29708,1,8,0:0:0:0:
256,192,29844,1,0,0:0:0:0:
256,192,29980,1,8,0:0:0:0:
256,192,30117,1,0,0:0:0:0:
256,192,30185,1,8,0:0:0:0:
256,192,30253,1,8,0:0:0:0:
256,192,30389,1,0,0:0:0:0:
256,192,30526,1,8,0:0:0:0:
256,192,30662,1,0,0:0:0:0:
256,192,30730,1,0,0:0:0:0:
256,192,30799,1,8,0:0:0:0:
256,192,30935,1,0,0:0:0:0:
256,192,31071,1,8,0:0:0:0:
256,192,31208,1,0,0:0:0:0:
256,192,31276,1,8,0:0:0:0:
256,192,31344,1,8,0:0:0:0:
256,192,31480,1,0,0:0:0:0:
256,192,31617,1,8,0:0:0:0:
256,192,31753,1,0,0:0:0:0:
256,192,31821,1,0,0:0:0:0:
256,192,31889,1,8,0:0:0:0:
256,192,32026,1,0,0:0:0:0:
256,192,32162,1,8,0:0:0:0:
256,192,32230,1,0,0:0:0:0:
256,192,32299,1,8,0:0:0:0:
256,192,32367,1,8,0:0:0:0:
256,192,32435,1,0,0:0:0:0:
256,192,32503,1,8,0:0:0:0:
256,192,32571,1,0,0:0:0:0:
256,192,32639,1,0,0:0:0:0:
256,192,32708,1,8,0:0:0:0:
256,192,32776,1,0,0:0:0:0:
256,192,32844,1,8,0:0:0:0:
256,192,32912,1,8,0:0:0:0:
256,192,32980,1,0,0:0:0:0:
256,192,33049,1,8,0:0:0:0:
256,192,33117,1,0,0:0:0:0:
256,192,33185,1,0,0:0:0:0:
256,192,33253,1,8,0:0:0:0:
256,192,33321,1,0,0:0:0:0:
256,192,33389,1,8,0:0:0:0:
256,192,33458,1,8,0:0:0:0:
256,192,33526,1,0,0:0:0:0:
256,192,33594,1,8,0:0:0:0:
256,192,33662,1,0,0:0:0:0:
256,192,33730,1,0,0:0:0:0:
256,192,33799,1,8,0:0:0:0:
256,192,33867,1,0,0:0:0:0:
256,192,33935,1,8,0:0:0:0:
256,192,34003,1,8,0:0:0:0:
256,192,34071,1,0,0:0:0:0:
256,192,34139,1,8,0:0:0:0:
256,192,34208,1,0,0:0:0:0:
256,192,34276,1,8,0:0:0:0:
256,192,35435,1,0,0:0:0:0:
256,192,35571,1,0,0:0:0:0:
256,192,35708,1,8,0:0:0:0:
256,192,35844,1,0,0:0:0:0:
256,192,35912,1,0,0:0:0:0:
256,192,35980,1,0,0:0:0:0:
256,192,36117,1,8,0:0:0:0:
256,192,36253,1,0,0:0:0:0:
256,192,36389,1,0,0:0:0:0:
256,192,36526,1,12,0:0:0:0:
256,192,36799,1,8,0:0:0:0:
256,192,36935,1,0,0:0:0:0:
256,192,37003,1,0,0:0:0:0:
256,192,37071,1,8,0:0:0:0:
256,192,37208,1,0,0:0:0:0:
256,192,37344,1,8,0:0:0:0:
256,192,37412,1,0,0:0:0:0:
256,192,37480,1,8,0:0:0:0:
256,192,37549,1,8,0:0:0:0:
256,192,37617,1,0,0:0:0:0:
256,192,37753,1,8,0:0:0:0:
256,192,37821,1,0,0:0:0:0:
256,192,37889,1,8,0:0:0:0:
256,192,38026,1,0,0:0:0:0:
256,192,38162,1,8,0:0:0:0:
256,192,38230,1,0,0:0:0:0:
256,192,38299,1,8,0:0:0:0:
256,192,38367,1,0,0:0:0:0:
256,192,38435,1,8,0:0:0:0:
256,192,38503,1,8,0:0:0:0:
256,192,38571,1,0,0:0:0:0:
256,192,38639,1,0,0:0:0:0:
256,192,38708,1,12,0:0:0:0:
256,192,38980,1,8,0:0:0:0:
256,192,39117,1,0,0:0:0:0:
256,192,39185,1,0,0:0:0:0:
256,192,39253,1,8,0:0:0:0:
256,192,39389,1,0,0:0:0:0:
256,192,39526,1,8,0:0:0:0:
256,192,39594,1,8,0:0:0:0:
256,192,39662,1,0,0:0:0:0:
256,192,39799,1,8,0:0:0:0:
256,192,39867,1,0,0:0:0:0:
256,192,39935,1,8,0:0:0:0:
256,192,40003,1,0,0:0:0:0:
256,192,40071,1,8,0:0:0:0:
256,192,40139,1,8,0:0:0:0:
256,192,40208,1,0,0:0:0:0:
256,192,40276,1,0,0:0:0:0:
256,192,40344,1,8,0:0:0:0:
256,192,40412,1,8,0:0:0:0:
256,192,40480,1,8,0:0:0:0:
256,192,40549,1,0,0:0:0:0:
256,192,40617,1,8,0:0:0:0:
256,192,40685,1,8,0:0:0:0:
256,192,40753,1,0,0:0:0:0:
256,192,40821,1,0,0:0:0:0:
256,192,40889,1,12,0:0:0:0:
256,192,41162,1,8,0:0:0:0:
256,192,41299,1,0,0:0:0:0:
256,192,41367,1,0,0:0:0:0:
256,192,41435,1,8,0:0:0:0:
256,192,41571,1,0,0:0:0:0:
256,192,41708,1,8,0:0:0:0:
256,192,41776,1,0,0:0:0:0:
256,192,41844,1,0,0:0:0:0:
256,192,41980,1,8,0:0:0:0:
256,192,42117,1,0,0:0:0:0:
256,192,42185,1,8,0:0:0:0:
256,192,42253,1,8,0:0:0:0:
256,192,42389,1,0,0:0:0:0:
256,192,42526,1,8,0:0:0:0:
256,192,42594,1,0,0:0:0:0:
256,192,42662,1,8,0:0:0:0:
256,192,42730,1,0,0:0:0:0:
256,192,42799,1,8,0:0:0:0:
256,192,42867,1,8,0:0:0:0:
256,192,42935,1,0,0:0:0:0:
256,192,43003,1,0,0:0:0:0:
256,192,43071,1,8,0:0:0:0:
256,192,43344,1,0,0:0:0:0:
256,192,43480,1,0,0:0:0:0:
256,192,43617,1,8,0:0:0:0:
256,192,43889,1,0,0:0:0:0:
256,192,44026,1,0,0:0:0:0:
256,192,44162,5,8,0:0:0:0:
256,192,44230,1,0,0:0:0:0:
256,192,44299,1,8,0:0:0:0:
256,192,44367,1,0,0:0:0:0:
256,192,44435,1,8,0:0:0:0:
256,192,44503,1,0,0:0:0:0:
256,192,44571,1,8,0:0:0:0:
256,192,44639,1,0,0:0:0:0:
256,192,44708,1,8,0:0:0:0:
256,192,44776,1,0,0:0:0:0:
256,192,44844,1,8,0:0:0:0:
256,192,44912,1,0,0:0:0:0:
256,192,44980,1,8,0:0:0:0:
256,192,45049,1,0,0:0:0:0:
256,192,45117,1,8,0:0:0:0:
256,192,45185,1,8,0:0:0:0:
256,192,45253,1,0,0:0:0:0:
256,192,45526,1,12,0:0:0:0:
256,192,45799,1,12,0:0:0:0:
256,192,46003,1,12,0:0:0:0:
256,192,46071,1,12,0:0:0:0:
256,192,46208,1,12,0:0:0:0:
256,192,46344,1,12,0:0:0:0:
256,192,46480,1,12,0:0:0:0:
256,192,46617,1,12,0:0:0:0:
256,192,46753,1,12,0:0:0:0:
256,192,46889,1,0,0:0:0:0:
256,192,46958,1,0,0:0:0:0:
256,192,47026,1,0,0:0:0:0:
256,192,47094,1,0,0:0:0:0:
256,192,47162,1,8,0:0:0:0:
256,192,47230,1,8,0:0:0:0:
256,192,47299,1,0,0:0:0:0:
256,192,47367,1,0,0:0:0:0:
256,192,47435,1,8,0:0:0:0:
256,192,47708,1,4,0:0:0:0:
256,192,47980,1,4,0:0:0:0:
256,192,48185,1,4,0:0:0:0:
256,192,48253,1,4,0:0:0:0:
256,192,48389,1,4,0:0:0:0:
256,192,48526,1,8,0:0:0:0:
256,192,48594,1,0,0:0:0:0:
256,192,48662,1,8,0:0:0:0:
256,192,48730,1,0,0:0:0:0:
256,192,48799,1,8,0:0:0:0:
256,192,48867,1,8,0:0:0:0:
256,192,48935,1,0,0:0:0:0:
256,192,49003,1,0,0:0:0:0:
256,192,49071,1,8,0:0:0:0:
256,192,49139,1,8,0:0:0:0:
256,192,49208,1,8,0:0:0:0:
256,192,49276,1,0,0:0:0:0:
256,192,49344,1,8,0:0:0:0:
256,192,49412,1,8,0:0:0:0:
256,192,49480,1,0,0:0:0:0:
256,192,49549,1,0,0:0:0:0:
256,192,49617,1,8,0:0:0:0:
256,192,49889,1,12,0:0:0:0:
256,192,50162,1,4,0:0:0:0:
256,192,50367,1,12,0:0:0:0:
256,192,50435,1,4,0:0:0:0:
256,192,50571,1,12,0:0:0:0:
256,192,50708,1,4,0:0:0:0:
256,192,50912,1,12,0:0:0:0:
256,192,50980,1,4,0:0:0:0:
256,192,51117,1,12,0:0:0:0:
256,192,51253,1,0,0:0:0:0:
256,192,51321,1,0,0:0:0:0:
256,192,51389,1,0,0:0:0:0:
256,192,51458,1,0,0:0:0:0:
256,192,51526,1,8,0:0:0:0:
256,192,51594,1,8,0:0:0:0:
256,192,51662,1,0,0:0:0:0:
256,192,51730,1,0,0:0:0:0:
256,192,51799,1,8,0:0:0:0:
256,192,52071,1,8,0:0:0:0:
256,192,52208,1,0,0:0:0:0:
256,192,52344,1,8,0:0:0:0:
256,192,52617,1,8,0:0:0:0:
256,192,52753,1,0,0:0:0:0:
256,192,52889,1,8,0:0:0:0:
256,192,52935,1,8,0:0:0:0:
256,192,53162,1,0,0:0:0:0:
256,192,53208,1,0,0:0:0:0:
256,192,53435,1,8,0:0:0:0:
256,192,53469,1,8,0:0:0:0:
256,192,53571,1,8,0:0:0:0:
256,192,53605,1,8,0:0:0:0:
256,192,53708,1,0,0:0:0:0:
256,192,53742,1,0,0:0:0:0:
256,192,53844,1,0,0:0:0:0:
256,192,53878,1,0,0:0:0:0:
256,192,53980,1,12,0:0:0:0:
256,192,54253,1,8,0:0:0:0:
256,192,54526,1,8,0:0:0:0:
256,192,54799,1,8,0:0:0:0:
256,192,54935,1,0,0:0:0:0:
256,192,55208,1,0,0:0:0:0:
256,192,55480,1,0,0:0:0:0:
256,192,55753,1,0,0:0:0:0:
256,192,55821,1,8,0:0:0:0:
256,192,55889,1,0,0:0:0:0:
256,192,56026,1,8,0:0:0:0:
256,192,56162,1,0,0:0:0:0:
256,192,56299,1,8,0:0:0:0:
256,192,56571,1,0,0:0:0:0:
256,192,56708,1,8,0:0:0:0:
256,192,56844,1,0,0:0:0:0:
256,192,56980,1,8,0:0:0:0:
256,192,57117,1,0,0:0:0:0:
256,192,57253,1,8,0:0:0:0:
256,192,57389,1,0,0:0:0:0:
256,192,57458,1,0,0:0:0:0:
256,192,57526,1,8,0:0:0:0:
256,192,57662,1,0,0:0:0:0:
256,192,57799,1,8,0:0:0:0:
256,192,57867,1,8,0:0:0:0:
256,192,57935,1,0,0:0:0:0:
256,192,58071,1,8,0:0:0:0:
256,192,58117,1,8,0:0:0:0:
256,192,58344,1,0,0:0:0:0:
256,192,58617,1,0,0:0:0:0:
256,192,58889,1,0,0:0:0:0:
256,192,59162,1,0,0:0:0:0:
256,192,59299,1,8,0:0:0:0:
256,192,59571,1,8,0:0:0:0:
256,192,59844,1,8,0:0:0:0:
256,192,59980,1,0,0:0:0:0:
256,192,60117,1,8,0:0:0:0:
256,192,60185,1,8,0:0:0:0:
256,192,60253,1,0,0:0:0:0:
256,192,60389,1,8,0:0:0:0:
256,192,60526,1,0,0:0:0:0:
256,192,60662,1,8,0:0:0:0:
256,192,60730,1,8,0:0:0:0:
256,192,60799,1,8,0:0:0:0:
256,192,60935,1,8,0:0:0:0:
256,192,61071,1,8,0:0:0:0:
256,192,61208,1,8,0:0:0:0:
256,192,61344,1,0,0:0:0:0:
256,192,61480,1,0,0:0:0:0:
256,192,61617,1,12,0:0:0:0:
256,192,61753,1,0,0:0:0:0:
256,192,61821,1,8,0:0:0:0:
256,192,61889,1,0,0:0:0:0:
256,192,62026,1,12,0:0:0:0:
256,192,62162,1,0,0:0:0:0:
256,192,62230,1,0,0:0:0:0:
256,192,62299,1,0,0:0:0:0:
256,192,62435,1,8,0:0:0:0:
256,192,62708,1,4,0:0:0:0:
256,192,62980,1,8,0:0:0:0:
256,192,63253,1,8,0:0:0:0:
256,192,63526,1,8,0:0:0:0:
256,192,63662,1,0,0:0:0:0:
256,192,63935,1,0,0:0:0:0:
256,192,64208,1,0,0:0:0:0:
256,192,64480,1,0,0:0:0:0:
256,192,64549,1,8,0:0:0:0:
256,192,64617,1,0,0:0:0:0:
256,192,64753,1,8,0:0:0:0:
256,192,64889,1,0,0:0:0:0:
256,192,65026,1,8,0:0:0:0:
256,192,65162,1,8,0:0:0:0:
256,192,65299,1,0,0:0:0:0:
256,192,65435,1,8,0:0:0:0:
256,192,65571,1,8,0:0:0:0:
256,192,65708,1,8,0:0:0:0:
256,192,65844,1,8,0:0:0:0:
256,192,65980,1,0,0:0:0:0:
256,192,66117,1,8,0:0:0:0:
256,192,66185,1,8,0:0:0:0:
256,192,66253,1,0,0:0:0:0:
256,192,66389,1,8,0:0:0:0:
256,192,66526,1,0,0:0:0:0:
256,192,66594,1,0,0:0:0:0:
256,192,66662,1,8,0:0:0:0:
256,192,66799,1,0,0:0:0:0:
256,192,67071,1,8,0:0:0:0:
256,192,67139,1,0,0:0:0:0:
256,192,67208,1,0,0:0:0:0:
256,192,67276,1,0,0:0:0:0:
256,192,67344,1,8,0:0:0:0:
256,192,67412,1,8,0:0:0:0:
256,192,67480,1,0,0:0:0:0:
256,192,67549,1,0,0:0:0:0:
256,192,67617,1,8,0:0:0:0:
256,192,67685,1,0,0:0:0:0:
256,192,67753,1,8,0:0:0:0:
256,192,67821,1,0,0:0:0:0:
256,192,67889,1,8,0:0:0:0:
256,192,67958,1,8,0:0:0:0:
256,192,68026,1,0,0:0:0:0:
256,192,68094,1,0,0:0:0:0:
256,192,68162,1,8,0:0:0:0:
256,192,68230,1,0,0:0:0:0:
256,192,68299,1,8,0:0:0:0:
256,192,68367,1,0,0:0:0:0:
256,192,68435,1,8,0:0:0:0:
256,192,68503,1,0,0:0:0:0:
256,192,68571,1,8,0:0:0:0:
256,192,68639,1,8,0:0:0:0:
256,192,68708,1,0,0:0:0:0:
256,192,68776,1,0,0:0:0:0:
256,192,68844,1,8,0:0:0:0:
256,192,68912,1,8,0:0:0:0:
256,192,68980,1,8,0:0:0:0:
256,192,69049,1,0,0:0:0:0:
256,192,69117,1,8,0:0:0:0:
256,192,69185,1,8,0:0:0:0:
256,192,69253,1,0,0:0:0:0:
256,192,69799,1,8,0:0:0:0:
256,192,70344,1,8,0:0:0:0:
256,192,70480,1,0,0:0:0:0:
256,192,70617,1,0,0:0:0:0:
256,192,70753,1,8,0:0:0:0:
256,192,70889,1,8,0:0:0:0:
256,192,71026,1,0,0:0:0:0:
256,192,71162,1,8,0:0:0:0:
256,192,71299,1,0,0:0:0:0:
256,192,71435,1,8,0:0:0:0:
256,192,71503,1,8,0:0:0:0:
256,192,71571,1,0,0:0:0:0:
256,192,71639,1,0,0:0:0:0:
256,192,71708,1,8,0:0:0:0:
256,192,71776,1,0,0:0:0:0:
256,192,71844,1,8,0:0:0:0:
256,192,71912,1,0,0:0:0:0:
256,192,71980,1,8,0:0:0:0:
256,192,72049,1,8,0:0:0:0:
256,192,72117,1,0,0:0:0:0:
256,192,72185,1,0,0:0:0:0:
256,192,72253,1,8,0:0:0:0:
256,192,72321,1,8,0:0:0:0:
256,192,72389,1,0,0:0:0:0:
256,192,72458,1,8,0:0:0:0:
256,192,72526,1,0,0:0:0:0:
256,192,72594,1,0,0:0:0:0:
256,192,72662,1,8,0:0:0:0:
256,192,72730,1,0,0:0:0:0:
256,192,72799,1,8,0:0:0:0:
256,192,72867,1,8,0:0:0:0:
256,192,72935,1,0,0:0:0:0:
256,192,73003,1,0,0:0:0:0:
256,192,73071,1,8,0:0:0:0:
256,192,73139,1,0,0:0:0:0:
256,192,73208,1,8,0:0:0:0:
256,192,73276,1,8,0:0:0:0:
256,192,73344,1,8,0:0:0:0:
256,192,73412,1,0,0:0:0:0:
256,192,73480,1,8,0:0:0:0:
256,192,73549,1,0,0:0:0:0:
256,192,73617,1,8,0:0:0:0:
256,192,73685,1,8,0:0:0:0:
256,192,73753,1,0,0:0:0:0:
256,192,73821,1,0,0:0:0:0:
256,192,73889,1,8,0:0:0:0:
256,192,73958,1,0,0:0:0:0:
256,192,74026,1,8,0:0:0:0:
256,192,74094,1,8,0:0:0:0:
256,192,74162,1,8,0:0:0:0:
256,192,74230,1,0,0:0:0:0:
256,192,74299,1,8,0:0:0:0:
256,192,74367,1,0,0:0:0:0:
256,192,74435,1,8,0:0:0:0:
256,192,74503,1,0,0:0:0:0:
256,192,74571,1,8,0:0:0:0:
256,192,74639,1,8,0:0:0:0:
256,192,74708,1,0,0:0:0:0:
256,192,74776,1,8,0:0:0:0:
256,192,74844,1,0,0:0:0:0:
256,192,74912,1,8,0:0:0:0:
256,192,74980,1,8,0:0:0:0:
256,192,75049,1,0,0:0:0:0:
256,192,75117,1,8,0:0:0:0:
256,192,75185,1,0,0:0:0:0:
256,192,75253,1,8,0:0:0:0:
256,192,75321,1,8,0:0:0:0:
256,192,75389,1,0,0:0:0:0:
256,192,75458,1,8,0:0:0:0:
256,192,75526,1,0,0:0:0:0:
256,192,75594,1,0,0:0:0:0:
256,192,75662,1,8,0:0:0:0:
256,192,75730,1,0,0:0:0:0:
256,192,75799,1,8,0:0:0:0:
256,192,75867,1,8,0:0:0:0:
256,192,75935,1,0,0:0:0:0:
256,192,76003,1,0,0:0:0:0:
256,192,76071,1,8,0:0:0:0:
256,192,76139,1,8,0:0:0:0:
256,192,76208,1,8,0:0:0:0:
256,192,76276,1,0,0:0:0:0:
256,192,76344,1,8,0:0:0:0:
256,192,76412,1,0,0:0:0:0:
256,192,76480,1,8,0:0:0:0:
256,192,76549,1,0,0:0:0:0:
256,192,76617,1,8,0:0:0:0:
256,192,76685,1,8,0:0:0:0:
256,192,76753,1,0,0:0:0:0:
256,192,76821,1,0,0:0:0:0:
256,192,76889,1,8,0:0:0:0:
256,192,76958,1,8,0:0:0:0:
256,192,77026,1,8,0:0:0:0:
256,192,77094,1,0,0:0:0:0:
256,192,77162,1,8,0:0:0:0:
256,192,77230,1,0,0:0:0:0:
256,192,77299,1,8,0:0:0:0:
256,192,77367,1,8,0:0:0:0:
256,192,77435,1,0,0:0:0:0:
256,192,77503,1,8,0:0:0:0:
256,192,77571,1,0,0:0:0:0:
256,192,77639,1,0,0:0:0:0:
256,192,77708,1,8,0:0:0:0:
256,192,77776,1,0,0:0:0:0:
256,192,77844,1,8,0:0:0:0:
256,192,77912,1,8,0:0:0:0:
256,192,77980,1,0,0:0:0:0:
256,192,78049,1,0,0:0:0:0:
256,192,78117,1,8,0:0:0:0:
256,192,78185,1,0,0:0:0:0:
256,192,78253,1,8,0:0:0:0:
256,192,78321,1,0,0:0:0:0:
256,192,78389,1,0,0:0:0:0:
256,192,78458,1,8,0:0:0:0:
256,192,78526,1,0,0:0:0:0:
256,192,78594,1,8,0:0:0:0:
256,192,78662,1,8,0:0:0:0:
256,192,78730,1,0,0:0:0:0:
256,192,78799,1,8,0:0:0:0:
256,192,78867,1,8,0:0:0:0:
256,192,78935,1,0,0:0:0:0:
256,192,79003,1,0,0:0:0:0:
256,192,79071,5,8,0:0:0:0:
256,192,79162,1,8,0:0:0:0:
256,192,79253,1,0,0:0:0:0:
256,192,79344,1,8,0:0:0:0:
256,192,79435,1,0,0:0:0:0:
256,192,79526,1,0,0:0:0:0:
256,192,79617,1,8,0:0:0:0:
256,192,79708,1,0,0:0:0:0:
256,192,79799,1,0,0:0:0:0:
256,192,79889,1,8,0:0:0:0:
256,192,79980,1,8,0:0:0:0:
256,192,80071,1,0,0:0:0:0:
256,192,80162,5,12,0:0:0:0:
256,192,80367,1,0,0:0:0:0:
256,192,80571,1,0,0:0:0:0:
256,192,80708,5,12,0:0:0:0:
256,192,80912,1,0,0:0:0:0:
256,192,81117,1,0,0:0:0:0:
256,192,81253,5,12,0:0:0:0:
256,192,81458,1,0,0:0:0:0:
256,192,81662,1,0,0:0:0:0:
256,192,81799,5,8,0:0:0:0:
256,192,81867,1,0,0:0:0:0:
256,192,81935,1,8,0:0:0:0:
256,192,82003,1,8,0:0:0:0:
256,192,82071,1,0,0:0:0:0:
256,192,82139,1,8,0:0:0:0:
256,192,82208,1,0,0:0:0:0:
256,192,82276,1,0,0:0:0:0:
256,192,82344,5,12,0:0:0:0:
256,192,82549,1,0,0:0:0:0:
256,192,82753,1,8,0:0:0:0:
256,192,82889,5,12,0:0:0:0:
256,192,83094,1,0,0:0:0:0:
256,192,83299,1,0,0:0:0:0:
256,192,83435,5,8,0:0:0:0:
256,192,83503,1,8,0:0:0:0:
256,192,83571,1,0,0:0:0:0:
256,192,83639,1,8,0:0:0:0:
256,192,83708,1,8,0:0:0:0:
256,192,83776,1,8,0:0:0:0:
256,192,83844,1,0,0:0:0:0:
256,192,83912,1,0,0:0:0:0:
256,192,83980,1,8,0:0:0:0:
256,192,84049,1,0,0:0:0:0:
256,192,84117,1,8,0:0:0:0:
256,192,84185,1,0,0:0:0:0:
256,192,84253,1,8,0:0:0:0:
256,192,84321,1,0,0:0:0:0:
256,192,84389,1,8,0:0:0:0:
256,192,84458,1,0,0:0:0:0:
256,192,84526,5,12,0:0:0:0:
256,192,84730,1,0,0:0:0:0:
256,192,84935,1,8,0:0:0:0:
256,192,85071,5,12,0:0:0:0:
256,192,85276,1,0,0:0:0:0:
256,192,85480,1,8,0:0:0:0:
256,192,85617,5,12,0:0:0:0:
256,192,85821,1,0,0:0:0:0:
256,192,86026,1,8,0:0:0:0:
256,192,86162,5,12,0:0:0:0:
256,192,86367,1,0,0:0:0:0:
256,192,86571,1,8,0:0:0:0:
256,192,86708,5,8,0:0:0:0:
256,192,86912,1,0,0:0:0:0:
256,192,87117,1,8,0:0:0:0:
256,192,87253,1,8,0:0:0:0:
256,192,87458,1,0,0:0:0:0:
256,192,87662,1,0,0:0:0:0:
256,192,87799,1,8,0:0:0:0:
256,192,87867,1,0,0:0:0:0:
256,192,87935,1,8,0:0:0:0:
256,192,88003,1,8,0:0:0:0:
256,192,88071,1,0,0:0:0:0:
256,192,88139,1,0,0:0:0:0:
256,192,88208,1,8,0:0:0:0:
256,192,88276,1,0,0:0:0:0:
256,192,88344,1,8,0:0:0:0:
256,192,88412,1,8,0:0:0:0:
256,192,88480,1,0,0:0:0:0:
256,192,88549,1,0,0:0:0:0:
256,192,88617,1,8,0:0:0:0:
256,192,88685,1,0,0:0:0:0:
256,192,88753,1,0,0:0:0:0:
256,192,88821,1,0,0:0:0:0:
256,192,90254,1,12,0:0:0:0:
256,192,90390,1,0,0:0:0:0:
256,192,90663,1,8,0:0:0:0:
256,192,90799,1,0,0:0:0:0:
256,192,91072,1,8,0:0:0:0:
256,192,91344,1,8,0:0:0:0:
256,192,91617,1,0,0:0:0:0:
256,192,91754,1,8,0:0:0:0:
256,192,91890,1,0,0:0:0:0:
256,192,92026,1,0,0:0:0:0:
256,192,92163,1,8,0:0:0:0:
256,192,92435,1,8,0:0:0:0:
256,192,92708,1,8,0:0:0:0:
256,192,92844,1,0,0:0:0:0:
256,192,92981,1,8,0:0:0:0:
256,192,93117,1,0,0:0:0:0:
256,192,93390,1,8,0:0:0:0:
256,192,93526,1,0,0:0:0:0:
256,192,93663,1,0,0:0:0:0:
256,192,93799,1,8,0:0:0:0:
256,192,94072,1,8,0:0:0:0:
256,192,94344,1,4,0:0:0:0:
256,192,94481,1,8,0:0:0:0:
256,192,94754,1,4,0:0:0:0:
256,192,94890,1,8,0:0:0:0:
256,192,94958,1,8,0:0:0:0:
256,192,95026,1,8,0:0:0:0:
256,192,95094,1,8,0:0:0:0:
256,192,95163,1,0,0:0:0:0:
256,192,95231,1,0,0:0:0:0:
256,192,95299,1,0,0:0:0:0:
256,192,95367,1,0,0:0:0:0:
256,192,95435,1,8,0:0:0:0:
256,192,95708,1,12,0:0:0:0:
256,192,95844,1,0,0:0:0:0:
256,192,95912,1,0,0:0:0:0:
256,192,95980,1,0,0:0:0:0:
256,192,96117,1,8,0:0:0:0:
256,192,96253,1,0,0:0:0:0:
256,192,96321,1,8,0:0:0:0:
256,192,96389,1,0,0:0:0:0:
256,192,96526,1,8,0:0:0:0:
256,192,96662,1,0,0:0:0:0:
256,192,96730,1,0,0:0:0:0:
256,192,96798,1,0,0:0:0:0:
256,192,96935,1,8,0:0:0:0:
256,192,97071,1,0,0:0:0:0:
256,192,97139,1,8,0:0:0:0:
256,192,97208,1,0,0:0:0:0:
256,192,97344,1,8,0:0:0:0:
256,192,97480,1,0,0:0:0:0:
256,192,97617,1,8,0:0:0:0:
256,192,97753,1,8,0:0:0:0:
256,192,97889,1,0,0:0:0:0:
256,192,98162,1,8,0:0:0:0:
256,192,98230,1,0,0:0:0:0:
256,192,98298,1,8,0:0:0:0:
256,192,98367,1,8,0:0:0:0:
256,192,98435,1,0,0:0:0:0:
256,192,98503,1,0,0:0:0:0:
256,192,98571,1,8,0:0:0:0:
256,192,98639,1,0,0:0:0:0:
256,192,98708,1,8,0:0:0:0:
256,192,98776,1,8,0:0:0:0:
256,192,98844,1,0,0:0:0:0:
256,192,98912,1,0,0:0:0:0:
256,192,98980,1,8,0:0:0:0:
256,192,99048,1,0,0:0:0:0:
256,192,99117,1,8,0:0:0:0:
256,192,99185,1,0,0:0:0:0:
256,192,99253,1,8,0:0:0:0:
256,192,99321,1,0,0:0:0:0:
256,192,99389,1,8,0:0:0:0:
256,192,99458,1,0,0:0:0:0:
256,192,99526,1,8,0:0:0:0:
256,192,99594,1,8,0:0:0:0:
256,192,99662,1,0,0:0:0:0:
256,192,99730,1,0,0:0:0:0:
256,192,99798,1,8,0:0:0:0:
256,192,99867,1,0,0:0:0:0:
256,192,99935,1,0,0:0:0:0:
256,192,100003,1,0,0:0:0:0:
256,192,100071,1,12,0:0:0:0:
256,192,100435,1,0,0:0:0:0:
256,192,100526,1,0,0:0:0:0:
256,192,100617,1,0,0:0:0:0:
256,192,100798,1,0,0:0:0:0:
256,192,100980,1,0,0:0:0:0:
256,192,101162,1,8,0:0:0:0:
256,192,101344,1,0,0:0:0:0:
256,192,101526,1,0,0:0:0:0:
256,192,101708,1,8,0:0:0:0:
256,192,101980,1,0,0:0:0:0:
256,192,102253,1,8,0:0:0:0:
256,192,102344,1,8,0:0:0:0:
256,192,102435,1,0,0:0:0:0:
256,192,102526,1,8,0:0:0:0:
256,192,102617,1,0,0:0:0:0:
256,192,102708,1,0,0:0:0:0:
256,192,102798,1,8,0:0:0:0:
256,192,102889,1,0,0:0:0:0:
256,192,102980,1,8,0:0:0:0:
256,192,103071,1,8,0:0:0:0:
256,192,103162,1,0,0:0:0:0:
256,192,103253,1,0,0:0:0:0:
256,192,103344,1,8,0:0:0:0:
256,192,103435,1,0,0:0:0:0:
256,192,103526,1,8,0:0:0:0:
256,192,103617,1,8,0:0:0:0:
256,192,103708,1,8,0:0:0:0:
256,192,103798,1,0,0:0:0:0:
256,192,103889,1,8,0:0:0:0:
256,192,103980,1,0,0:0:0:0:
256,192,104071,1,0,0:0:0:0:
256,192,104162,1,8,0:0:0:0:
256,192,104253,1,0,0:0:0:0:
256,192,104344,1,0,0:0:0:0:
256,192,104435,1,8,0:0:0:0:
256,192,104503,1,0,0:0:0:0:
256,192,104571,1,8,0:0:0:0:
256,160,104639,1,0,0:0:0:0:
256,192,104708,1,8,0:0:0:0:
256,192,104776,1,8,0:0:0:0:
256,192,104844,1,8,0:0:0:0:
256,192,104912,1,0,0:0:0:0:
256,192,104980,1,8,0:0:0:0:
256,192,105048,1,0,0:0:0:0:
256,192,105117,1,8,0:0:0:0:
256,192,105185,1,0,0:0:0:0:
256,192,105253,1,8,0:0:0:0:
256,192,105321,1,8,0:0:0:0:
256,192,105389,1,8,0:0:0:0:
256,192,105458,1,0,0:0:0:0:
256,192,105526,1,8,0:0:0:0:
256,192,105594,1,0,0:0:0:0:
256,192,105662,1,8,0:0:0:0:
256,192,105730,1,0,0:0:0:0:
256,192,105798,1,8,0:0:0:0:
256,192,105867,1,8,0:0:0:0:
256,192,105935,1,0,0:0:0:0:
256,192,106003,1,0,0:0:0:0:
256,192,106071,1,8,0:0:0:0:
256,192,106139,1,8,0:0:0:0:
256,192,106208,1,8,0:0:0:0:
256,192,106276,1,0,0:0:0:0:
256,192,106344,1,8,0:0:0:0:
256,192,106412,1,8,0:0:0:0:
256,192,106480,1,8,0:0:0:0:
256,192,106548,1,0,0:0:0:0:
256,192,106617,1,8,0:0:0:0:
256,192,106685,1,0,0:0:0:0:
256,192,106753,1,8,0:0:0:0:
256,192,106821,1,0,0:0:0:0:
256,192,106889,1,8,0:0:0:0:
256,192,106958,1,8,0:0:0:0:
256,192,107026,1,0,0:0:0:0:
256,192,107094,1,0,0:0:0:0:
256,192,107162,1,8,0:0:0:0:
256,192,107230,1,0,0:0:0:0:
256,192,107298,1,8,0:0:0:0:
256,192,107367,1,0,0:0:0:0:
256,192,107435,1,8,0:0:0:0:
256,192,107503,1,8,0:0:0:0:
256,192,107571,1,0,0:0:0:0:
256,192,107639,1,0,0:0:0:0:
256,192,107708,1,8,0:0:0:0:
256,192,107776,1,0,0:0:0:0:
256,192,107844,1,8,0:0:0:0:
256,192,107912,1,0,0:0:0:0:
256,192,107980,1,0,0:0:0:0:
256,192,108048,1,8,0:0:0:0:
256,192,108117,1,0,0:0:0:0:
256,192,108185,1,0,0:0:0:0:
256,192,108253,1,8,0:0:0:0:
256,192,108321,1,8,0:0:0:0:
256,192,108389,1,0,0:0:0:0:
256,192,108458,1,8,0:0:0:0:
256,192,108526,1,0,0:0:0:0:
256,192,108594,1,0,0:0:0:0:
256,192,108662,1,8,0:0:0:0:
256,192,108730,1,0,0:0:0:0:
256,192,108798,5,12,0:0:0:0:
256,192,108935,1,12,0:0:0:0:
256,192,109071,1,12,0:0:0:0:
256,192,109208,1,0,0:0:0:0:
256,192,109276,1,0,0:0:0:0:
256,192,109344,1,12,0:0:0:0:
256,192,109480,1,12,0:0:0:0:
256,192,109617,1,12,0:0:0:0:
256,192,109753,1,12,0:0:0:0:
256,192,109889,1,0,0:0:0:0:
256,192,110026,5,12,0:0:0:0:
256,192,110162,1,12,0:0:0:0:
256,192,110298,1,12,0:0:0:0:
256,192,110435,1,12,0:0:0:0:
256,192,110571,1,12,0:0:0:0:
256,192,110708,1,12,0:0:0:0:
256,192,110844,1,12,0:0:0:0:
256,192,110980,1,12,0:0:0:0:
256,192,111117,1,0,0:0:0:0:
256,192,111185,1,0,0:0:0:0:
256,192,111253,5,12,0:0:0:0:
256,192,111389,1,0,0:0:0:0:
256,192,111526,1,12,0:0:0:0:
256,192,111662,1,0,0:0:0:0:
256,192,111798,1,0,0:0:0:0:
256,192,111935,1,12,0:0:0:0:
256,192,112071,1,12,0:0:0:0:
256,192,112208,1,0,0:0:0:0:
256,192,112344,1,12,0:0:0:0:
256,192,112480,1,12,0:0:0:0:
256,192,112617,1,12,0:0:0:0:
256,192,112753,1,12,0:0:0:0:
256,192,112889,1,0,0:0:0:0:
256,192,112958,1,0,0:0:0:0:
256,192,113026,1,12,0:0:0:0:
256,192,113162,1,12,0:0:0:0:
256,192,113298,1,0,0:0:0:0:
256,192,113435,1,12,0:0:0:0:
256,192,113571,1,12,0:0:0:0:
256,192,113708,1,12,0:0:0:0:
256,192,113844,1,12,0:0:0:0:
256,192,113980,1,0,0:0:0:0:
256,192,114048,1,0,0:0:0:0:
256,192,114117,1,12,0:0:0:0:
256,192,114253,1,12,0:0:0:0:
256,192,114389,1,12,0:0:0:0:
256,192,114526,1,0,0:0:0:0:
256,192,114662,1,12,0:0:0:0:
256,192,114798,1,12,0:0:0:0:
256,192,114935,1,12,0:0:0:0:
256,192,115071,1,12,0:0:0:0:
256,192,115208,1,12,0:0:0:0:
256,192,115344,1,12,0:0:0:0:
256,192,115480,1,12,0:0:0:0:
256,192,115617,1,12,0:0:0:0:
256,192,115753,1,12,0:0:0:0:
256,192,115889,1,12,0:0:0:0:
256,192,116708,1,12,0:0:0:0:
256,192,116844,12,0,118344,0:0:0:0:
256,192,118480,5,12,0:0:0:0:
256,192,118617,12,0,120935,0:0:0:0:
