osu file format v14

[General]
AudioFilename: audio.mp3
AudioLeadIn: 0
PreviewTime: 111303
Countdown: 0
SampleSet: None
StackLeniency: 0.3
Mode: 0
LetterboxInBreaks: 0
WidescreenStoryboard: 0

[Editor]
DistanceSpacing: 0.8
BeatDivisor: 4
GridSize: 16
TimelineZoom: 3.050003

[Metadata]
Title:Forgotten feat. Renko
TitleUnicode:Forgotten feat. Renko
Artist:factal
ArtistUnicode:factal
Creator:Alternity
Version:Until The Day We Meet Again
Source:
Tags:FÜGENE2 future bass x hardcore lapix m3-41 fugene megarex
BeatmapID:2169683
BeatmapSetID:1037858

[Difficulty]
HPDrainRate:6
CircleSize:4
OverallDifficulty:9
ApproachRate:9.4
SliderMultiplier:1.7
SliderTickRate:1

[Events]
//Background and Video events
0,0,"2b.jpg",0,0
//Break Periods
//Storyboard Layer 0 (Background)
//Storyboard Layer 1 (Fail)
//Storyboard Layer 2 (Pass)
//Storyboard Layer 3 (Foreground)
//Storyboard Layer 4 (Overlay)
//Storyboard Sound Samples

[TimingPoints]
1045,344.827586206897,4,2,1,50,1,0
1045,-100,4,2,1,50,0,0
20355,-250,4,2,1,50,0,0
21389,-250,4,2,1,5,0,0
21734,-250,4,2,1,50,0,0
22769,-250,4,2,1,5,0,0
23113,-250,4,2,50,60,0,0
32769,-166.666666666667,4,2,1,60,0,0
33113,-83.3333333333333,4,2,1,60,0,0
34148,-100,4,2,33,60,0,0
39665,-100,4,2,1,60,0,0
43803,-83.3333333333333,4,2,1,60,0,0
44838,-100,4,2,1,60,0,0
45182,-83.3333333333333,4,2,1,60,0,0
45872,-47.6190476190476,4,2,1,65,0,1
47941,-83.3333333333333,4,2,1,65,0,1
48286,-100,4,2,1,65,0,1
48631,-47.6190476190476,4,2,1,65,0,1
51045,-83.3333333333333,4,2,1,65,0,1
51389,-47.6190476190476,4,2,1,65,0,1
53458,-62.5,4,2,5,65,0,1
55527,-55.5555555555556,4,2,66,65,0,1
56217,-83.3333333333333,4,2,1,65,0,1
56907,-47.6190476190476,4,2,1,65,0,1
58976,-83.3333333333333,4,2,1,65,0,1
59321,-100,4,2,1,65,0,1
59665,-47.6190476190476,4,2,1,65,0,1
61734,-62.5,4,2,5,65,0,1
64148,-47.6190476190476,4,2,1,65,0,1
65527,-62.5,4,2,1,65,0,1
65872,-125,4,2,1,60,0,0
67251,-83.3333333333333,4,2,50,65,0,1
77596,-83.3333333333333,4,2,50,65,0,1
86562,-125,4,2,1,60,0,0
86734,-125,4,2,1,20,0,0
87079,-125,4,2,1,60,0,0
88631,-250,4,2,1,50,0,0
96217,-200,4,2,1,50,0,0
108631,-250,4,2,1,50,0,0
109665,-250,4,2,1,5,0,0
110010,-250,4,2,1,50,0,0
111045,-250,4,2,1,5,0,0
111389,-250,4,2,50,60,0,0
121045,-166.666666666667,4,2,1,60,0,0
121389,-83.3333333333333,4,2,1,60,0,0
122424,-100,4,2,33,60,0,0
127941,-100,4,2,1,60,0,0
132079,-83.3333333333333,4,2,1,60,0,0
132769,-83.3333333333333,4,2,1,30,0,0
133113,-125,4,2,1,60,0,0
133458,-100,4,2,1,50,0,0
133803,-125,4,2,1,40,0,0
134148,-166.666666666667,4,2,1,30,0,0
134838,-125,4,2,1,30,0,0
135527,-166.666666666667,4,2,1,40,0,0
136217,-83.3333333333333,4,2,50,65,0,1
144493,-83.3333333333333,4,2,50,65,0,1
152769,-125,4,2,1,60,0,0
152941,-125,4,2,1,20,0,0
153286,-125,4,2,1,60,0,0
154838,-250,4,2,1,50,0,0
155527,-500,4,2,1,50,0,0
163803,-250,4,2,1,50,0,0
166562,-500,4,2,1,50,0,0
174924,-500,4,2,1,40,0,0
176217,-500,4,2,1,35,0,0
176562,-500,4,2,1,30,0,0
176907,-500,4,2,1,25,0,0
177251,-500,4,2,1,20,0,0
177596,-500,4,2,1,15,0,0

[Colours]
Combo1 : 228,40,31
Combo2 : 91,210,62
Combo3 : 233,233,233
SliderTrackOverride : 30,30,30
SliderBorder : 217,66,66

[HitObjects]
112,87,1045,5,0,0:0:0:0:
120,111,3803,1,0,0:0:0:0:
111,134,6562,1,0,0:0:0:0:
294,125,7941,5,0,0:0:0:0:
320,125,8458,1,0,0:0:0:0:
451,211,9320,5,0,0:0:0:0:
459,235,12078,1,0,0:0:0:0:
450,258,14837,1,0,0:0:0:0:
178,275,17596,5,0,0:0:0:0:
14,153,18976,5,0,0:0:0:0:
14,127,19493,1,0,0:0:0:0:
14,297,20355,6,0,B|113:257|96:349|217:305,1,204
345,315,21734,2,0,P|340:233|396:294,1,204
480,64,23113,5,0,0:0:0:0:
499,45,23458,1,0,0:0:0:0:
480,27,23803,1,0,0:0:0:0:
462,45,24148,1,0,0:0:0:0:
260,78,24493,5,0,0:0:0:0:
279,97,24838,1,0,0:0:0:0:
260,115,25183,1,0,0:0:0:0:
242,97,25528,1,0,0:0:0:0:
270,298,25872,5,0,0:0:0:0:
297,298,26217,1,0,0:0:0:0:
296,272,26562,1,0,0:0:0:0:
271,272,26907,1,0,0:0:0:0:
69,246,27251,5,0,0:0:0:0:
88,265,27596,1,0,0:0:0:0:
106,246,27941,1,0,0:0:0:0:
88,228,28286,1,0,0:0:0:0:
55,26,28631,5,0,0:0:0:0:
55,53,28976,1,0,0:0:0:0:
82,53,29321,1,0,0:0:0:0:
82,27,29666,1,0,0:0:0:0:
260,78,30010,5,0,0:0:0:0:
279,97,30355,1,0,0:0:0:0:
260,115,30700,1,0,0:0:0:0:
242,97,31045,1,0,0:0:0:0:
416,40,31389,5,0,0:0:0:0:
416,67,31734,1,0,0:0:0:0:
390,66,32079,1,0,0:0:0:0:
390,41,32424,1,0,0:0:0:0:
350,165,32769,6,0,P|309:165|280:184,1,76.4999976654053
256,192,33113,2,0,L|256:78,1,101.999996887207
38,34,33458,1,0,0:0:0:0:
38,34,33631,2,0,L|38:136,1,101.999996887207,0|0,0:0|0:0,0:0:0:0:
43,343,34148,6,0,P|93:330|138:343,1,85
345,353,34493,2,0,P|351:311|338:271,1,85,8|0,0:0|0:0,0:0:0:0:
320,257,34751,1,0,0:0:0:0:
320,257,34838,2,0,L|419:257,1,85
247,149,35182,1,8,0:0:0:0:
378,93,35355,5,0,0:0:0:0:
378,93,35441,1,0,0:0:0:0:
378,93,35527,1,0,0:0:0:0:
181,41,35700,1,0,0:0:0:0:
38,184,35872,2,0,P|32:142|49:103,1,85,8|0,0:0|0:0,0:0:0:0:
118,162,36131,1,0,0:0:0:0:
118,162,36217,6,0,L|118:255,1,85,0|0,0:0|0:0,0:0:0:0:
117,346,36562,1,8,0:0:0:0:
146,328,36648,1,0,0:0:0:0:
179,323,36734,1,0,0:0:0:0:
211,332,36820,1,0,0:0:0:0:
240,350,36907,6,0,P|284:361|333:342,1,85
483,255,37251,2,0,L|461:162,1,85,8|0,0:0|0:0,0:0:0:0:
455,153,37510,1,0,0:0:0:0:
455,153,37596,1,0,0:0:0:0:
340,29,37769,1,0,0:0:0:0:
225,74,37941,6,0,L|243:121,1,42.5,8|0,0:0|0:0,0:0:0:0:
94,84,38113,2,0,L|94:40,1,42.5,0|0,0:0|0:0,0:0:0:0:
14,148,38286,6,0,L|14:235,1,85,0|0,0:0|0:0,0:0:0:0:
14,341,38631,1,8,0:0:0:0:
151,298,38803,5,0,0:0:0:0:
158,293,38889,1,0,0:0:0:0:
165,289,38976,2,0,L|236:289,1,42.5,0|0,0:0|0:0,0:0:0:0:
292,250,39148,2,0,L|363:250,1,42.5,0|0,0:0|0:0,0:0:0:0:
454,250,39320,1,8,0:0:0:0:
454,250,39665,5,0,0:0:0:0:
349,98,39838,1,0,0:0:0:0:
366,336,40010,5,0,0:0:0:0:
272,138,40183,1,0,0:0:0:0:
257,376,40355,5,0,0:0:0:0:
186,126,40528,1,0,0:0:0:0:
139,356,40700,5,0,0:0:0:0:
109,87,40872,1,0,0:0:0:0:
26,341,41045,5,0,0:0:0:0:
274,263,41217,1,0,0:0:0:0:
63,246,41389,5,0,0:0:0:0:
350,227,41561,1,0,0:0:0:0:
113,162,41734,5,0,0:0:0:0:
424,200,41906,1,0,0:0:0:0:
172,88,42079,5,0,0:0:0:0:
496,169,42251,1,0,0:0:0:0:
487,333,42424,5,0,0:0:0:0:
454,352,42510,1,0,0:0:0:0:
411,350,42596,1,0,0:0:0:0:
372,332,42682,1,0,0:0:0:0:
336,308,42769,1,0,0:0:0:0:
298,291,42855,1,0,0:0:0:0:
251,297,42941,1,0,0:0:0:0:
210,320,43027,1,0,0:0:0:0:
176,340,43113,6,0,L|125:377,1,42.5
3,264,43286,2,0,L|45:271,1,42.5
183,183,43458,2,0,L|141:176,1,42.5
17,107,43631,2,0,L|51:82,1,42.5
185,53,43803,6,0,P|238:48|291:79,1,101.999996887207
375,142,44148,1,0,0:0:0:0:
494,195,44320,2,0,L|494:143,1,50.9999984436036
337,294,44665,5,0,0:0:0:0:
337,294,44751,1,0,0:0:0:0:
337,294,44838,6,0,P|357:327|324:327,1,85
184,332,45182,2,0,L|202:255,1,50.9999984436036,2|0,0:0|0:0,0:0:0:0:
52,194,45355,2,0,L|40:243,1,50.9999984436036
80,83,45527,5,0,0:0:0:0:
89,78,45613,1,0,0:0:0:0:
99,75,45700,2,0,L|161:69,1,50.9999984436036
349,175,45872,6,0,B|292:182|292:182|235:158|235:158|176:164,1,178.499994552612,8|0,0:0|0:0,0:0:0:0:
355,74,46131,1,0,0:0:0:0:
355,74,46217,2,0,P|402:81|441:116,1,89.2499972763062
472,298,46389,2,0,P|478:254|461:213,1,89.2499972763062
326,299,46648,1,0,0:0:0:0:
326,299,46734,2,0,L|231:299,1,89.2499972763062
67,305,46907,6,0,P|33:223|70:137,1,178.499994552612,2|0,0:0|0:0,0:0:0:0:
141,30,47165,1,0,0:0:0:0:
141,30,47251,2,0,L|47:34,1,89.2499972763062,8|0,0:0|0:0,0:0:0:0:
187,156,47424,6,0,P|230:164|272:151,1,89.2499972763062
446,49,47596,2,0,B|385:23|385:23|251:50,1,178.499994552612
429,278,47941,6,0,P|437:209|385:138,1,152.999995330811
339,231,48286,2,0,P|312:287|332:346,1,127.5,2|0,0:0|0:0,0:0:0:0:
191,348,48631,6,0,B|109:314|109:376|-3:345,1,178.499994552612,8|0,0:0|0:0,0:0:0:0:
14,200,48889,2,0,P|57:191|99:204,1,89.2499972763062
226,96,49148,2,0,L|130:46,1,89.2499972763062
388,65,49407,1,0,0:0:0:0:
388,65,49493,1,0,0:0:0:0:
388,65,49579,1,0,0:0:0:0:
388,65,49665,6,0,B|392:123|392:123|366:178|366:178|367:237,1,178.499994552612,2|0,0:0|0:0,0:0:0:0:
453,335,50010,1,8,0:0:0:0:
478,298,50096,1,0,0:0:0:0:
486,254,50182,1,0,0:0:0:0:
474,210,50269,1,0,0:0:0:0:
446,174,50355,6,0,P|398:166|358:185,1,89.2499972763062
271,316,50527,2,0,P|319:324|359:305,1,89.2499972763062
229,193,50700,1,0,0:0:0:0:
184,180,50787,1,0,0:0:0:0:
140,188,50873,1,0,0:0:0:0:
97,211,50959,1,0,0:0:0:0:
73,232,51045,2,0,P|95:160|52:102,1,152.999995330811,2|0,0:0|0:0,0:0:0:0:
11,34,51389,6,0,B|92:0|92:62|184:36,1,178.499994552612,8|0,0:0|0:0,0:0:0:0:
341,40,51648,2,0,P|348:88|330:128,1,89.2499972763062
435,334,51907,2,0,P|419:293|428:250,1,89.2499972763062
176,324,52165,1,0,0:0:0:0:
176,324,52251,2,0,L|277:315,1,89.2499972763062
395,157,52424,6,0,B|336:158|336:158|284:188|284:188|225:192,1,178.499994552612,2|0,0:0|0:0,0:0:0:0:
163,113,52682,1,0,0:0:0:0:
163,113,52769,2,0,P|190:78|232:64,1,89.2499972763062,8|0,0:0|0:0,0:0:0:0:
34,76,52941,1,0,0:0:0:0:
34,76,53027,1,0,0:0:0:0:
34,76,53113,2,0,B|68:158|6:158|37:270,1,178.499994552612
219,322,53458,6,0,B|282:295|282:295|350:324,1,136,8|0,0:0|0:0,0:0:0:0:
489,206,53803,1,0,0:0:0:0:
489,206,53889,1,0,0:0:0:0:
489,206,53976,6,0,L|423:187,1,68,8|0,0:0|0:0,0:0:0:0:
365,35,54148,2,0,L|430:53,1,68
234,154,54407,1,0,0:0:0:0:
234,154,54493,6,0,P|176:171|101:137,1,136,8|0,0:0|0:0,0:0:0:0:
30,353,54838,1,0,0:0:0:0:
30,353,54924,1,0,0:0:0:0:
30,353,55010,6,0,L|39:284,1,68,8|0,0:0|0:0,0:0:0:0:
212,292,55182,1,0,0:0:0:0:
212,292,55268,1,0,0:0:0:0:
212,292,55355,2,0,L|202:360,1,68
341,323,55527,6,0,P|374:314|414:327,1,76.4999976654053,2|0,0:0|0:0,0:0:0:0:
492,214,55700,1,2,0:0:0:0:
491,213,55786,2,0,P|455:225|418:216,1,76.4999976654053,2|0,0:0|0:0,0:0:0:0:
318,109,55958,1,2,0:0:0:0:
319,110,56044,2,0,P|354:97|391:106,1,76.4999976654053,2|0,0:0|0:0,0:0:0:0:
279,213,56217,5,0,0:0:0:0:
241,208,56303,1,0,0:0:0:0:
215,179,56389,1,0,0:0:0:0:
207,141,56476,1,0,0:0:0:0:
201,65,56562,6,0,L|148:36,1,50.9999984436036,2|0,0:0|0:0,0:0:0:0:
40,133,56734,2,0,L|90:124,1,50.9999984436036
226,226,56907,6,0,B|138:214|155:274|59:272,1,178.499994552612,8|0,0:0|0:0,0:0:0:0:
174,348,57165,1,0,0:0:0:0:
174,348,57251,2,0,L|263:348,1,89.2499972763062
401,242,57424,1,0,0:0:0:0:
401,242,57510,2,0,P|358:229|316:242,1,89.2499972763062
496,246,57682,5,0,0:0:0:0:
486,202,57769,1,0,0:0:0:0:
474,158,57855,1,0,0:0:0:0:
466,114,57941,6,0,B|408:99|408:99|350:115|350:115|292:103,1,178.499994552612,2|0,0:0|0:0,0:0:0:0:
155,55,58200,1,0,0:0:0:0:
155,55,58286,2,0,L|240:28,1,89.2499972763062,8|0,0:0|0:0,0:0:0:0:
72,140,58458,5,0,0:0:0:0:
72,140,58545,1,0,0:0:0:0:
72,140,58631,6,0,L|87:323,1,178.499994552612
202,339,58889,1,0,0:0:0:0:
202,339,58976,6,0,P|262:281|341:295,1,152.999995330811
382,349,59320,2,0,L|382:194,1,152.999995330811,2|0,0:0|0:0,0:0:0:0:
322,104,59665,6,0,P|304:32|379:56,1,178.499994552612,8|0,0:0|0:0,0:0:0:0:
175,128,59924,2,0,P|131:136|90:120,1,89.2499972763062
38,286,60182,2,0,L|130:301,1,89.2499972763062
293,333,60441,1,0,0:0:0:0:
293,333,60527,1,0,0:0:0:0:
293,333,60613,1,0,0:0:0:0:
293,333,60700,6,0,B|259:252|321:252|295:160,1,178.499994552612,2|0,0:0|0:0,0:0:0:0:
177,65,61045,1,8,0:0:0:0:
139,39,61131,1,0,0:0:0:0:
95,31,61217,1,0,0:0:0:0:
51,43,61304,1,0,0:0:0:0:
15,71,61390,6,0,P|7:118|26:158,1,89.2499972763062
157,247,61562,2,0,P|165:199|146:159,1,89.2499972763062
117,344,61734,5,0,0:0:0:0:
117,344,61820,1,0,0:0:0:0:
117,344,61907,2,0,L|217:334,1,68
294,324,62079,1,0,0:0:0:0:
341,320,62165,1,0,0:0:0:0:
388,315,62251,1,0,0:0:0:0:
435,311,62338,1,0,0:0:0:0:
482,307,62424,6,0,L|426:254,1,68,8|0,0:0|0:0,0:0:0:0:
323,128,62596,1,0,0:0:0:0:
323,128,62682,1,0,0:0:0:0:
323,128,62769,2,0,L|423:118,1,68
255,25,62941,2,0,L|187:31,1,68
52,155,63113,5,0,0:0:0:0:
92,131,63199,1,0,0:0:0:0:
137,142,63285,1,0,0:0:0:0:
163,181,63371,1,0,0:0:0:0:
156,227,63458,2,0,L|79:261,1,68
155,345,63631,5,0,0:0:0:0:
182,345,63717,1,0,0:0:0:0:
209,344,63803,2,0,L|296:342,1,68,8|0,0:0|0:0,0:0:0:0:
393,267,63976,1,0,0:0:0:0:
393,267,64062,1,0,0:0:0:0:
393,267,64148,6,0,P|371:221|326:202,1,89.2499972763062
346,54,64320,2,0,P|394:70|439:52,1,89.2499972763062
187,36,64493,5,0,0:0:0:0:
134,31,64579,1,0,0:0:0:0:
90,60,64665,1,0,0:0:0:0:
74,110,64751,1,0,0:0:0:0:
91,160,64838,1,0,0:0:0:0:
136,187,64924,1,0,0:0:0:0:
175,223,65010,1,0,0:0:0:0:
205,266,65096,1,0,0:0:0:0:
197,317,65182,5,0,0:0:0:0:
154,348,65268,1,0,0:0:0:0:
103,340,65354,1,0,0:0:0:0:
72,298,65441,1,0,0:0:0:0:
67,244,65527,2,0,L|151:228,1,68
245,95,65700,2,0,L|161:112,1,68
301,248,65872,6,0,P|372:235|432:263,1,136
436,43,66562,6,0,P|447:84|434:128,1,68
429,261,66907,2,0,P|425:227|436:195,1,68
351,342,67251,6,0,P|301:331|253:346,1,101.999996887207,4|0,0:0|0:0,0:0:0:0:
100,349,67596,2,0,P|110:299|96:251,1,101.999996887207,8|0,0:0|0:0,0:0:0:0:
37,108,67941,6,0,P|91:93|146:110,1,101.999996887207
289,137,68286,1,8,0:0:0:0:
266,37,68458,1,0,0:0:0:0:
365,60,68631,6,0,L|462:109,1,101.999996887207
488,256,68976,2,0,L|382:256,1,101.999996887207,8|0,0:0|0:0,0:0:0:0:
251,256,69320,5,0,0:0:0:0:
274,356,69492,1,0,0:0:0:0:
145,245,69665,5,8,0:0:0:0:
118,365,69837,1,0,0:0:0:0:
14,245,70010,6,0,P|11:193|34:149,1,101.999996887207
149,47,70355,2,0,P|197:32|246:43,1,101.999996887207,8|0,0:0|0:0,0:0:0:0:
347,108,70700,5,0,0:0:0:0:
415,31,70872,1,0,0:0:0:0:
398,200,71045,5,8,0:0:0:0:
512,153,71217,1,0,0:0:0:0:
457,317,71389,6,0,P|466:271|493:300,1,101.999996887207
296,352,71734,2,0,P|287:306|260:335,1,101.999996887207,8|0,0:0|0:0,0:0:0:0:
144,282,72079,2,0,P|106:262|107:304,1,101.999996887207
12,123,72424,1,8,0:0:0:0:
12,123,72769,6,0,L|83:37,1,101.999996887207
228,28,73113,2,0,L|228:135,1,101.999996887207,8|0,0:0|0:0,0:0:0:0:
381,130,73458,2,0,L|381:28,1,101.999996887207
485,182,73803,5,8,0:0:0:0:
381,247,73976,1,0,0:0:0:0:
485,328,74148,6,0,P|435:316|387:331,1,101.999996887207
236,241,74493,2,0,P|250:289|239:338,1,101.999996887207,8|0,0:0|0:0,0:0:0:0:
105,304,74838,6,0,P|114:258|141:287,1,101.999996887207
141,142,75182,2,0,P|132:96|105:125,1,101.999996887207,8|0,0:0|0:0,0:0:0:0:
239,27,75527,6,0,L|357:27,1,101.999996887207
489,72,75872,2,0,L|416:144,1,101.999996887207,8|0,0:0|0:0,0:0:0:0:
372,291,76217,2,0,P|425:308|471:291,1,101.999996887207
270,245,76562,2,0,P|249:296|264:349,1,101.999996887207,8|0,0:0|0:0,0:0:0:0:
57,349,76907,6,0,L|35:238,1,101.999996887207
22,96,77251,2,0,L|139:96,1,101.999996887207,8|0,0:0|0:0,0:0:0:0:
278,96,77596,2,0,P|287:21|342:93,1,203.999993774414,0|8,0:0|0:0,0:0:0:0:
473,192,78286,6,0,P|487:240|476:289,1,101.999996887207,4|0,0:0|0:0,0:0:0:0:
273,311,78631,2,0,P|300:268|344:244,1,101.999996887207,8|0,0:0|0:0,0:0:0:0:
191,229,78976,5,0,0:0:0:0:
149,321,79148,1,0,0:0:0:0:
84,242,79320,2,0,P|95:192|80:144,1,101.999996887207,8|0,0:0|0:0,0:0:0:0:
26,36,79665,6,0,P|75:24|123:39,1,101.999996887207
265,98,80010,2,0,P|314:109|362:94,1,101.999996887207,8|0,0:0|0:0,0:0:0:0:
470,202,80355,5,0,0:0:0:0:
370,179,80527,1,0,0:0:0:0:
481,308,80700,5,8,0:0:0:0:
361,335,80872,1,0,0:0:0:0:
245,233,81045,6,0,L|138:256,1,101.999996887207
54,132,81389,2,0,L|155:86,1,101.999996887207,8|0,0:0|0:0,0:0:0:0:
296,57,81734,6,0,P|305:11|332:40,1,101.999996887207
485,24,82079,2,0,P|442:18|458:57,1,101.999996887207,8|0,0:0|0:0,0:0:0:0:
489,154,82424,6,0,P|503:202|492:251,1,101.999996887207
365,339,82769,2,0,P|316:324|267:336,1,101.999996887207,8|0,0:0|0:0,0:0:0:0:
115,339,83113,1,0,0:0:0:0:
115,339,83458,1,8,0:0:0:0:
115,339,83803,6,0,L|83:220,1,101.999996887207
20,102,84148,2,0,L|136:102,1,101.999996887207,8|0,0:0|0:0,0:0:0:0:
276,102,84493,2,0,P|287:52|273:4,1,101.999996887207
410,74,84838,2,0,P|459:62|507:76,1,101.999996887207,8|0,0:0|0:0,0:0:0:0:
458,165,85182,6,0,B|501:252|430:252|463:371,1,203.999993774414,0|8,0:0|0:0,0:0:0:0:
280,265,85872,2,0,P|224:264|170:296,1,101.999996887207
46,352,86217,2,0,P|47:296|15:242,1,101.999996887207,8|0,0:0|0:0,0:0:0:0:
17,129,86562,6,0,L|79:93,1,68
216,19,87079,1,0,0:0:0:0:
216,19,87251,2,0,L|216:155,1,136
368,155,88113,6,0,L|368:87,1,68
486,87,88631,2,0,L|486:155,1,68
486,243,89320,5,0,0:0:0:0:
494,267,92078,1,0,0:0:0:0:
485,290,94837,1,0,0:0:0:0:
236,268,96217,6,0,P|169:253|113:275,1,127.5
115,273,97596,1,0,0:0:0:0:
36,102,100355,5,0,0:0:0:0:
58,93,103114,1,0,0:0:0:0:
83,101,105872,1,0,0:0:0:0:
250,51,107251,6,0,P|317:36|373:58,1,127.5
441,159,108631,6,0,B|494:131|494:131|456:274,1,204
327,310,110010,2,0,P|262:261|271:342,1,204
95,342,111389,5,0,0:0:0:0:
95,342,111734,1,8,0:0:0:0:
95,342,112079,1,0,0:0:0:0:
95,342,112424,1,8,0:0:0:0:
28,149,112769,5,0,0:0:0:0:
28,149,113113,1,8,0:0:0:0:
28,149,113459,1,0,0:0:0:0:
28,149,113803,1,8,0:0:0:0:
229,180,114148,5,0,0:0:0:0:
229,180,114493,1,8,0:0:0:0:
229,180,114838,1,0,0:0:0:0:
229,180,115183,1,8,0:0:0:0:
97,24,115527,5,0,0:0:0:0:
97,24,115872,1,8,0:0:0:0:
97,24,116217,1,0,0:0:0:0:
97,24,116562,1,8,0:0:0:0:
301,28,116907,5,0,0:0:0:0:
301,28,117252,1,8,0:0:0:0:
301,28,117597,1,0,0:0:0:0:
301,28,117942,1,8,0:0:0:0:
460,154,118286,5,0,0:0:0:0:
460,154,118631,1,8,0:0:0:0:
460,154,118976,1,0,0:0:0:0:
460,154,119321,1,8,0:0:0:0:
324,305,119665,5,0,0:0:0:0:
324,305,120010,1,8,0:0:0:0:
324,305,120355,1,0,0:0:0:0:
324,305,120700,1,8,0:0:0:0:
187,219,121045,6,0,L|97:219,1,76.4999976654053
85,219,121389,2,0,P|75:165|101:123,1,101.999996887207
250,29,121734,1,0,0:0:0:0:
250,29,121907,2,0,L|370:29,1,101.999996887207
463,151,122424,6,0,P|476:201|463:246,1,85
356,329,122769,2,0,L|250:329,1,85,8|0,0:0|0:0,0:0:0:0:
252,318,123027,1,0,0:0:0:0:
252,318,123113,2,0,L|146:318,1,85
31,318,123458,1,8,0:0:0:0:
79,135,123631,1,0,0:0:0:0:
79,135,123717,1,0,0:0:0:0:
79,135,123803,6,0,L|170:111,1,85
338,40,124148,2,0,P|350:80|344:121,1,85,8|0,0:0|0:0,0:0:0:0:
332,139,124407,1,0,0:0:0:0:
332,139,124493,6,0,L|417:139,1,85
495,251,124838,1,8,0:0:0:0:
354,353,125010,1,0,0:0:0:0:
354,353,125096,1,0,0:0:0:0:
354,353,125182,5,0,0:0:0:0:
253,215,125355,1,0,0:0:0:0:
134,360,125527,2,0,P|127:318|140:278,1,85,8|0,0:0|0:0,0:0:0:0:
161,272,125786,1,0,0:0:0:0:
161,272,125872,5,0,0:0:0:0:
21,198,126045,1,0,0:0:0:0:
67,61,126217,5,8,0:0:0:0:
105,44,126303,1,0,0:0:0:0:
147,46,126389,1,0,0:0:0:0:
184,66,126475,1,0,0:0:0:0:
216,94,126562,6,0,L|329:94,1,85
463,223,126907,2,0,L|378:223,1,85,8|0,0:0|0:0,0:0:0:0:
357,223,127165,1,0,0:0:0:0:
357,223,127251,2,0,L|417:283,1,85
208,349,127596,2,0,L|208:304,3,42.5,8|0|0|0,0:0|0:0|0:0|0:0,0:0:0:0:
208,218,127941,5,0,0:0:0:0:
40,243,128113,1,0,0:0:0:0:
224,225,128286,5,0,0:0:0:0:
44,134,128458,1,0,0:0:0:0:
237,233,128631,5,0,0:0:0:0:
114,51,128803,1,0,0:0:0:0:
252,242,128976,5,0,0:0:0:0:
225,25,129148,1,0,0:0:0:0:
225,25,129234,1,0,0:0:0:0:
225,25,129320,5,0,0:0:0:0:
272,254,129493,1,0,0:0:0:0:
369,35,129665,5,0,0:0:0:0:
288,261,129838,1,0,0:0:0:0:
452,108,130010,5,0,0:0:0:0:
301,269,130183,1,0,0:0:0:0:
481,234,130355,5,0,0:0:0:0:
317,278,130527,1,0,0:0:0:0:
103,334,130700,5,0,0:0:0:0:
73,304,130786,1,0,0:0:0:0:
65,263,130872,1,0,0:0:0:0:
84,225,130958,1,0,0:0:0:0:
120,206,131045,1,0,0:0:0:0:
162,211,131131,1,0,0:0:0:0:
192,240,131217,1,0,0:0:0:0:
200,281,131303,1,0,0:0:0:0:
180,318,131389,5,0,0:0:0:0:
174,276,131475,1,0,0:0:0:0:
186,235,131561,1,0,0:0:0:0:
215,205,131647,1,0,0:0:0:0:
255,190,131734,1,0,0:0:0:0:
284,160,131820,1,0,0:0:0:0:
296,119,131906,1,0,0:0:0:0:
290,77,131992,1,0,0:0:0:0:
280,43,132079,6,0,L|385:43,1,101.999996887207
452,187,132424,2,0,B|475:141|475:141|498:188,1,101.999996887207
380,319,132769,2,0,L|361:278,6,25.4999992218018
380,339,133113,2,0,L|299:339,1,68
191,298,133458,6,0,L|81:298,1,85
236,219,133803,6,0,L|158:219,1,68
270,139,134148,6,0,L|196:139,1,50.9999984436036
33,139,134665,1,0,0:0:0:0:
33,139,134838,6,0,P|53:89|60:138,1,136
219,139,135527,6,0,L|270:139,1,50.9999984436036
456,54,136045,1,0,0:0:0:0:
456,54,136217,6,0,L|469:155,1,101.999996887207,4|0,0:0|0:0,0:0:0:0:
476,286,136562,2,0,P|426:275|378:290,1,101.999996887207,8|0,0:0|0:0,0:0:0:0:
261,348,136907,2,0,L|159:334,1,101.999996887207
44,281,137251,5,8,0:0:0:0:
127,222,137423,1,0,0:0:0:0:
34,176,137596,2,0,P|40:125|71:85,1,101.999996887207
181,39,137941,2,0,L|284:53,1,101.999996887207,8|0,0:0|0:0,0:0:0:0:
424,72,138286,6,0,P|435:122|420:170,1,101.999996887207
309,301,138631,2,0,P|294:252|305:203,1,101.999996887207,8|0,0:0|0:0,0:0:0:0:
189,346,138976,6,0,L|85:332,1,101.999996887207
11,200,139320,2,0,L|112:213,1,101.999996887207,8|0,0:0|0:0,0:0:0:0:
240,129,139665,2,0,L|240:19,1,101.999996887207
417,45,140010,2,0,P|379:25|380:67,1,101.999996887207,8|0,0:0|0:0,0:0:0:0:
477,160,140355,6,0,P|488:210|473:258,1,101.999996887207
262,230,140700,2,0,P|310:215|359:226,1,101.999996887207,8|0,0:0|0:0,0:0:0:0:
156,296,141045,5,0,0:0:0:0:
179,196,141217,1,0,0:0:0:0:
50,307,141390,5,8,0:0:0:0:
23,187,141562,1,0,0:0:0:0:
60,70,141734,6,0,L|168:70,1,101.999996887207
316,70,142079,2,0,B|382:46|382:102|471:70,1,152.999995330811,8|0,0:0|0:0,0:0:0:0:
490,72,142424,2,0,L|473:182,1,101.999996887207
294,295,142769,2,0,L|309:194,1,101.999996887207,8|0,0:0|0:0,0:0:0:0:
211,54,143113,6,0,P|162:39|113:50,1,101.999996887207
80,252,143458,2,0,P|94:203|83:154,1,101.999996887207,8|0,0:0|0:0,0:0:0:0:
80,350,143803,5,0,0:0:0:0:
80,350,144148,1,8,0:0:0:0:
80,350,144493,6,0,L|191:350,1,101.999996887207,4|0,0:0|0:0,0:0:0:0:
342,327,144838,2,0,P|304:307|305:349,1,101.999996887207,8|0,0:0|0:0,0:0:0:0:
463,264,145182,2,0,P|463:221|426:241,1,101.999996887207
477,110,145527,2,0,P|428:95|379:106,1,101.999996887207,8|0,0:0|0:0,0:0:0:0:
235,158,145872,6,0,P|224:108|239:60,1,101.999996887207
53,146,146217,2,0,P|67:194|57:243,1,101.999996887207,8|0,0:0|0:0,0:0:0:0:
130,358,146562,6,0,P|129:315|166:335,1,101.999996887207
302,334,146907,2,0,L|332:220,1,101.999996887207,8|0,0:0|0:0,0:0:0:0:
345,83,147251,6,0,P|296:68|247:79,1,101.999996887207
137,185,147596,2,0,P|186:200|235:189,1,101.999996887207,8|0,0:0|0:0,0:0:0:0:
345,83,147941,2,0,P|387:76|372:116,1,101.999996887207
384,217,148286,5,8,0:0:0:0:
484,194,148458,1,0,0:0:0:0:
458,293,148631,6,0,L|348:351,1,101.999996887207
229,274,148976,2,0,L|114:274,1,101.999996887207,8|0,0:0|0:0,0:0:0:0:
35,223,149320,6,0,B|-5:119|68:119|30:18,1,203.999993774414,0|8,0:0|0:0,0:0:0:0:
194,48,150010,6,0,P|243:37|290:52,1,101.999996887207
407,151,150355,2,0,P|447:165|439:123,1,101.999996887207,8|0,0:0|0:0,0:0:0:0:
255,185,150700,2,0,L|275:305,1,101.999996887207
132,350,151045,2,0,L|31:333,1,101.999996887207,8|0,0:0|0:0,0:0:0:0:
24,180,151389,6,0,P|21:129|45:85,1,101.999996887207
187,26,151734,2,0,P|237:23|281:47,1,101.999996887207,8|0,0:0|0:0,0:0:0:0:
447,184,152079,6,0,P|462:135|451:86,1,101.999996887207
396,294,152424,2,0,P|444:309|493:298,1,101.999996887207,8|0,0:0|0:0,0:0:0:0:
251,262,152769,6,0,L|229:336,1,68
75,312,153286,1,0,0:0:0:0:
75,312,153458,2,0,L|119:177,1,136
311,36,154320,6,0,L|379:36,1,68
379,154,154838,2,0,L|311:154,1,68
235,356,155527,6,0,P|217:292|247:233,1,136
295,296,157596,1,0,0:0:0:0:
295,296,158286,6,0,L|153:296,1,136
23,296,160355,1,0,0:0:0:0:
23,296,161045,6,0,P|16:229|56:176,1,136
183,128,163113,1,0,0:0:0:0:
183,128,163803,6,0,P|236:109|284:121,1,102
333,205,164838,2,0,P|382:214|429:195,1,102
429,195,165872,1,0,0:0:0:0:
429,195,166562,6,0,L|429:331,1,136
307,270,168631,1,0,0:0:0:0:
307,270,169320,6,0,P|241:261|187:300,1,136
44,303,171389,1,0,0:0:0:0:
44,303,172079,6,0,L|44:167,1,136
176,54,174148,2,0,L|176:125,1,68
256,192,174924,12,0,177596,0:0:0:0:
