osu file format v14

[General]
AudioFilename: audio.mp3
AudioLeadIn: 0
PreviewTime: 53878
Countdown: 0
SampleSet: Soft
StackLeniency: 0.2
Mode: 0
LetterboxInBreaks: 0
WidescreenStoryboard: 0

[Editor]
DistanceSpacing: 0.2
BeatDivisor: 4
GridSize: 32
TimelineZoom: 4.099998

[Metadata]
Title:Flux
TitleUnicode:Flux
Artist:factal
ArtistUnicode:factal
Creator:Sharu
Version:liquid
Source:
Tags:Ksardas Frakturehawkens 0ppinOsu coma dubstep future bass electronic instrumental edm dance music drumstep glitchstep step [_Sharuresu_] 0pp frakture 2020
BeatmapID:2480417
BeatmapSetID:1190470

[Difficulty]
HPDrainRate:6
CircleSize:4
OverallDifficulty:8
ApproachRate:9.4
SliderMultiplier:1.72
SliderTickRate:1

[Events]
//Background and Video events
0,0,"ergerg.jpg",0,0
//Break Periods
//Storyboard Layer 0 (Background)
//Storyboard Layer 1 (Fail)
//Storyboard Layer 2 (Pass)
//Storyboard Layer 3 (Foreground)
//Storyboard Layer 4 (Overlay)
//Storyboard Sound Samples

[TimingPoints]
8955,307.692307692308,4,2,1,80,1,0
10185,-125,4,2,1,80,0,0
12955,-125,4,2,1,40,0,0
14031,-100,4,2,1,60,0,0
14493,-83.3333333333333,4,2,1,80,0,0
14762,-83.3333333333333,4,2,1,5,0,0
14801,-50,4,2,1,80,0,0
15108,-100,4,2,1,80,0,0
16031,-100,4,2,1,60,0,0
18801,-83.3333333333333,4,2,1,80,0,0
19108,-100,4,2,1,80,0,0
19724,-50,4,2,1,80,0,0
20031,-100,4,2,1,80,0,0
28647,-166.666666666667,4,2,1,80,0,0
29416,-62.5,4,2,2,80,0,0
29570,-83.3333333333333,4,2,2,80,0,0
29724,-125,4,2,2,80,0,0
29878,-500.000000000003,4,2,1,80,0,0
30493,-35.7142857142857,4,2,1,80,0,0
30647,-83.3333333333334,4,2,1,80,0,0
31108,-41.6666666666667,4,2,1,80,0,0
31416,-38.4615384615385,4,2,1,80,0,0
31724,-500.000000000003,4,2,1,80,0,0
32185,-100,4,2,1,80,0,0
32339,-500,4,2,1,80,0,0
32955,-35.7142857142857,4,2,1,80,0,0
33108,-41.6666666666667,4,2,1,80,0,0
33570,-83.3333333333334,4,2,1,80,0,0
33724,-41.6666666666667,4,2,1,80,0,0
33878,-50,4,2,1,80,0,0
34185,-100,4,2,1,80,0,0
34647,-50,4,2,1,80,0,0
34801,-500,4,2,1,80,0,0
35416,-35.7142857142857,4,2,1,80,0,0
35570,-83.3333333333334,4,2,1,80,0,0
36031,-41.6666666666667,4,2,1,80,0,0
36339,-41.6666666666667,4,2,1,80,0,0
36647,-500,4,2,1,80,0,0
37108,-83.3333333333334,4,2,1,80,0,0
37878,-35.7142857142857,4,2,1,80,0,0
38185,-83.3333333333334,4,2,1,80,0,0
38493,-41.6666666666667,4,2,1,80,0,0
38801,-35.7142857142857,4,2,1,80,0,0
39108,-83.3333333333334,4,2,1,80,0,0
39416,-100,4,2,1,80,0,0
39724,-50,4,2,1,80,0,0
40339,-35.7142857142857,4,2,1,80,0,0
40647,-125,4,2,1,80,0,0
40955,-50,4,2,1,80,0,0
41262,-41.6666666666667,4,2,1,80,0,0
41570,-35.7142857142857,4,2,1,80,0,0
41724,-125,4,2,1,80,0,0
42185,-50,4,2,1,80,0,0
42801,-35.7142857142857,4,2,1,80,0,0
42955,-83.3333333333333,4,2,1,80,0,0
43108,-50,4,2,1,80,0,0
43416,-41.6666666666667,4,2,1,80,0,0
43724,-50,4,2,1,80,0,0
43878,-83.3333333333333,4,2,1,80,0,0
44031,-500,4,2,1,80,0,0
44493,-35.7142857142857,4,2,1,80,0,0
44608,-41.6666666666667,4,2,1,5,0,0
44647,-50,4,2,1,80,0,0
45262,-35.7142857142857,4,2,1,80,0,0
45416,-83.3333333333333,4,2,1,80,0,0
45878,-41.6666666666667,4,2,1,80,0,0
46185,-38.4615384615385,4,2,1,80,0,0
46493,-250,4,2,1,80,0,0
46801,-83.3333333333333,4,2,1,80,0,0
47108,-41.6666666666667,4,2,1,80,0,0
47724,-35.7142857142857,4,2,1,80,0,0
47878,-83.3333333333333,4,2,1,80,0,0
48339,-50,4,2,1,80,0,0
48647,-41.6666666666667,4,2,1,80,0,0
48954,-41.6666666666667,4,2,2,80,0,0
49262,-83.3333333333333,4,2,2,80,0,0
49570,-83.3333333333333,4,2,1,80,0,0
53878,-125,4,2,2,80,0,0
53955,-125,4,2,2,5,0,0
54031,-125,4,2,2,80,0,0
54108,-125,4,2,2,5,0,0
54185,-83.3333333333333,4,2,2,80,0,0
54493,-83.3333333333333,4,2,1,80,0,0
55108,-35.7142857142857,4,2,1,80,0,0
55724,-50,4,2,1,80,0,0
55839,-41.6666666666667,4,2,1,5,0,0
55878,-83.3333333333333,4,2,1,80,0,0
56031,-41.6666666666667,4,2,1,80,0,0
56801,-83.3333333333333,4,2,1,80,0,0
56955,-41.6666666666667,4,2,1,80,0,0
57224,-41.6666666666667,4,2,1,5,0,0
57262,-41.6666666666667,4,2,1,80,0,0
57570,-35.7142857142857,4,2,1,80,0,0
57724,-30.7965070916027,4,2,1,80,0,1
57801,-33.3333333333333,4,2,1,80,0,0
57839,-41.6666666666667,4,2,1,5,0,0
57878,-29.7320130388176,4,2,1,80,0,1
57955,-33.3333333333333,4,2,1,80,0,0
57993,-41.6666666666667,4,2,1,5,0,0
58031,-83.3333333333333,4,2,1,80,0,0
58185,-41.6666666666667,4,2,1,80,0,0
58801,-35.7142857142857,4,2,1,80,0,0
59108,-83.3333333333333,4,2,1,80,0,0
60031,-35.7142857142857,4,2,1,80,0,0
60647,-50,4,2,1,80,0,0
60762,-41.6666666666667,4,2,1,5,0,0
60801,-83.3333333333333,4,2,1,80,0,0
60955,-41.6666666666667,4,2,1,80,0,0
61262,-35.7142857142857,4,2,1,80,0,0
61416,-31.1698402146996,4,2,1,80,0,1
61493,-35.7142857142857,4,2,1,80,0,0
61570,-35.7142857142857,4,2,1,80,0,0
61878,-83.3333333333333,4,2,1,80,0,0
62493,-35.7142857142857,4,2,1,80,0,0
62647,-83.3333333333333,4,2,1,80,0,0
63108,-41.6666666666667,4,2,1,80,0,0
63724,-83.3333333333333,4,2,1,80,0,0
64339,-41.6666666666667,4,2,1,80,0,0
64955,-50,4,2,1,80,0,0
65685,-41.6666666666667,4,2,1,5,0,0
65724,-83.3333333333333,4,2,1,80,0,0
65878,-41.6666666666667,4,2,1,80,0,0
66647,-83.3333333333333,4,2,1,80,0,0
66801,-41.6666666666667,4,2,1,80,0,0
67416,-35.7142857142857,4,2,1,80,0,0
67570,-30.1994609230971,4,2,1,80,0,1
67647,-33.3333333333333,4,2,1,80,0,0
67685,-41.6666666666667,4,2,1,5,0,0
67724,-30.0891863479331,4,2,1,80,0,1
67801,-33.3333333333333,4,2,1,80,0,0
67839,-41.6666666666667,4,2,1,5,0,0
67878,-83.3333333333333,4,2,1,80,0,0
68031,-41.6666666666667,4,2,1,80,0,0
68647,-35.7142857142857,4,2,1,80,0,0
68955,-83.3333333333333,4,2,1,80,0,0
69878,-35.7142857142857,4,2,1,80,0,0
70493,-50,4,2,1,80,0,0
70608,-41.6666666666667,4,2,1,5,0,0
70647,-83.3333333333333,4,2,1,80,0,0
70801,-41.6666666666667,4,2,1,80,0,0
71108,-33.3333333333333,4,2,1,80,0,0
71262,-29.7421081689994,4,2,1,80,0,1
71339,-33.3333333333333,4,2,1,80,0,0
71416,-33.3333333333333,4,2,1,80,0,0
71724,-83.3333333333333,4,2,1,80,0,0
73108,-41.6666666666667,4,2,1,80,0,0
73531,-41.6666666666667,4,2,1,5,0,0
73570,-83.3333333333333,4,2,1,80,0,0
73878,-100,4,2,1,80,0,0
74801,-166.666666666667,4,2,1,80,0,0
75108,-41.6666666666667,4,2,1,80,0,0
76031,-35.7142857142857,4,2,1,80,0,0
76301,-41.6666666666667,4,2,1,5,0,0
76339,-83.3333333333333,4,2,1,80,0,0
76647,-50,4,2,1,80,0,0
77262,-35.7142857142857,4,2,1,80,0,0
77416,-41.6666666666667,4,2,1,80,0,0
77878,-35.7142857142857,4,2,1,80,0,0
78339,-83.3333333333333,4,2,1,80,0,0
78493,-35.7142857142857,4,2,1,80,0,0
78801,-83.3333333333333,4,2,1,80,0,0
79108,-50,4,2,1,80,0,0
79724,-35.7142857142857,4,2,1,80,0,0
79878,-83.3333333333333,4,2,1,80,0,0
80339,-41.6666666666667,4,2,1,80,0,0
80608,-41.6666666666667,4,2,1,5,0,0
80647,-83.3333333333333,4,2,1,80,0,0
80955,-35.7142857142857,4,2,1,80,0,0
81262,-55.5555555555556,4,2,1,80,0,0
81570,-50,4,2,1,80,0,0
82185,-35.7142857142857,4,2,1,80,0,0
82493,-83.3333333333333,4,2,1,80,0,0
82647,-41.6666666666667,4,2,1,80,0,0
83416,-35.7142857142857,4,2,1,80,0,0
83621,-83.3333333333333,4,2,1,40,0,0
83724,-71.4285714285714,4,2,1,60,0,0
83827,-62.5,4,2,1,80,0,0
83929,-55.5555555555556,4,2,1,100,0,0
84031,-142.857142857143,4,2,1,80,0,0
84647,-35.7142857142857,4,2,1,80,0,0
84955,-83.3333333333333,4,2,1,80,0,0
85262,-41.6666666666667,4,2,1,80,0,0
85878,-35.7142857142857,4,2,1,80,0,0
86031,-83.3333333333333,4,2,1,80,0,0
86493,-41.6666666666667,4,2,1,80,0,0
87108,-35.7142857142857,4,2,1,80,0,0
87262,-50,4,2,1,80,0,0
87378,-41.6666666666667,4,2,1,5,0,0
87416,-83.3333333333333,4,2,1,80,0,0
87724,-50,4,2,1,80,0,0
87839,-41.6666666666667,4,2,1,5,0,0
87878,-83.3333333333333,4,2,1,80,0,0
88031,-41.6666666666667,4,2,1,80,0,0
88339,-35.7142857142857,4,2,1,80,0,0
88647,-166.666666666667,4,2,1,80,0,0
88955,-83.3333333333334,4,2,1,80,0,0
89570,-35.7142857142857,4,2,1,80,0,0
89724,-50,4,2,1,80,0,0
90186,-50,4,2,1,80,0,0
90301,-41.6666666666667,4,2,1,5,0,0
90339,-83.3333333333334,4,2,1,80,0,0
90493,-166.666666666667,4,2,1,80,0,0
90801,-35.7142857142857,4,2,1,80,0,0
91416,-166.666666666667,4,2,1,80,0,0
91724,-50,4,2,1,80,0,0
92031,-166.666666666667,4,2,1,80,0,0
92647,-50,4,2,1,80,0,0
96031,-125,4,2,1,100,0,0
96416,-125,4,2,1,5,0,0
97493,-125,4,2,1,80,0,0
97878,-125,4,2,1,5,0,0
98185,-125,4,2,1,80,0,0
98801,-62.5,4,2,1,100,0,0
98878,-41.6666666666667,4,2,1,5,0,0
98955,-125,4,2,1,100,0,0
99724,-125,4,2,1,40,0,0
100031,-166.666666666667,4,2,1,60,0,0
100647,-166.666666666667,4,2,1,80,0,0
100724,-166.666666666667,4,2,1,5,0,0
100801,-166.666666666667,4,2,1,80,0,0
100878,-166.666666666667,4,2,1,5,0,0
100955,-166.666666666667,4,2,1,100,0,0
101724,-166.666666666667,4,2,1,40,0,0
102185,-166.666666666667,4,2,1,60,0,0
103724,-62.5,4,2,1,80,0,0
104262,-62.5,4,2,1,5,0,0
104339,-50,4,2,1,80,0,0
104801,-100,4,2,1,80,0,0
104955,-62.5,4,2,1,80,0,0
105570,-166.666666666667,4,2,1,80,0,0
105647,-166.666666666667,4,2,1,5,0,0
105724,-100,4,2,1,80,0,0
105801,-100,4,2,1,5,0,0
105878,-71.4285714285715,4,2,1,80,0,0
105955,-71.4285714285715,4,2,1,5,0,0
106031,-55.5555555555556,4,2,1,80,0,0
106108,-55.5555555555556,4,2,1,5,0,0
106185,-55.5555555555556,4,2,1,80,0,0
106724,-55.5555555555556,4,2,1,5,0,0
106801,-55.5555555555556,4,2,1,80,0,0
107031,-55.5555555555556,4,2,1,5,0,0
107108,-55.5555555555556,4,2,1,80,0,0
107878,-55.5555555555556,4,2,1,5,0,0
108031,-45.4545454545455,4,2,1,80,0,0
108262,-45.4545454545455,4,2,1,5,0,0
108339,-45.4545454545455,4,2,1,80,0,0
109185,-45.4545454545455,4,2,1,5,0,0
109262,-45.4545454545455,4,2,1,80,0,0
110493,-166.666666666667,4,2,1,80,0,0
110570,-166.666666666667,4,2,1,5,0,0
110647,-100,4,2,1,80,0,0
110724,-100,4,2,1,5,0,0
110801,-71.4285714285714,4,2,1,80,0,0
110878,-71.4285714285714,4,2,1,5,0,0
110955,-55.5555555555556,4,2,1,80,0,0
111031,-55.5555555555556,4,2,1,5,0,0
111108,-45.4545454545455,4,2,1,80,0,0
111647,-45.4545454545455,4,2,1,5,0,0
111724,-45.4545454545455,4,2,1,80,0,0
111955,-45.4545454545455,4,2,1,5,0,0
112031,-45.4545454545455,4,2,1,80,0,0
112262,-45.4545454545455,4,2,1,5,0,0
112339,-45.4545454545455,4,2,1,80,0,0
112878,-45.4545454545455,4,2,1,5,0,0
112955,-45.4545454545455,4,2,1,80,0,0
113570,-41.6666666666667,4,2,1,100,0,0
114108,-41.6666666666667,4,2,1,5,0,0
114185,-41.6666666666667,4,2,1,100,0,0
115416,-100,4,2,1,100,0,0
115493,-100,4,2,1,5,0,0
115570,-71.4285714285714,4,2,1,100,0,0
115647,-71.4285714285714,4,2,1,5,0,0
115724,-55.5555555555556,4,2,1,100,0,0
115878,-45.4545454545455,4,2,1,100,0,0
116031,-41.6666666666667,4,2,1,100,0,0
116570,-41.6666666666667,4,2,1,5,0,0
116647,-41.6666666666667,4,2,1,100,0,0
116878,-41.6666666666667,4,2,1,5,0,0
116955,-41.6666666666667,4,2,1,100,0,0
117031,-41.6666666666667,4,2,1,5,0,0
117108,-41.6666666666667,4,2,1,100,0,0
117185,-41.6666666666667,4,2,1,5,0,0
117262,-41.6666666666667,4,2,1,100,0,0
117801,-41.6666666666667,4,2,1,5,0,0
117878,-41.6666666666667,4,2,1,100,0,0
118493,-38.4615384615385,4,2,1,100,0,0
119031,-38.4615384615385,4,2,1,5,0,0
119108,-38.4615384615385,4,2,1,100,0,0
120339,-100,4,2,1,100,0,0
120416,-100,4,2,1,5,0,0
120493,-71.4285714285714,4,2,1,100,0,0
120570,-71.4285714285714,4,2,1,5,0,0
120647,-55.5555555555556,4,2,1,100,0,0
120724,-55.5555555555556,4,2,1,5,0,0
120801,-45.4545454545455,4,2,1,100,0,0
120878,-45.4545454545455,4,2,1,5,0,0
120955,-38.4615384615385,4,2,1,100,0,0
121339,-38.4615384615385,4,2,1,5,0,0
121416,-38.4615384615385,4,2,1,100,0,0
122185,-38.4615384615385,4,2,2,100,0,0
122493,-125,4,2,1,60,0,0
123262,-38.4615384615385,4,2,1,80,0,0
123416,-83.3333333333333,4,2,1,80,0,0
123801,-250,4,2,1,5,0,0
123878,-62.5,4,2,1,80,0,0
124262,-50,4,2,1,5,0,0
124339,-50,4,2,1,80,0,0
124608,-125,4,2,1,5,0,0
124647,-71.4285714285714,4,2,1,80,0,0
125878,-83.3333333333333,4,2,1,80,0,0
126262,-125,4,2,1,5,0,0
126339,-62.5,4,2,1,80,0,0
126724,-125,4,2,1,5,0,0
126801,-50,4,2,1,80,0,0
127070,-125,4,2,1,5,0,0
127108,-50,4,2,1,80,0,0
128031,-62.5,4,2,1,80,0,0
128339,-83.3333333333333,4,2,1,80,0,0
128724,-125,4,2,1,5,0,0
128801,-62.5,4,2,1,80,0,0
129185,-125,4,2,1,5,0,0
129262,-50,4,2,1,80,0,0
129531,-125,4,2,1,5,0,0
129570,-71.4285714285714,4,2,1,80,0,0
130801,-83.3333333333333,4,2,1,80,0,0
131185,-125,4,2,1,5,0,0
131262,-62.5,4,2,1,80,0,0
131647,-125,4,2,1,5,0,0
131724,-50,4,2,1,80,0,0
131993,-125,4,2,1,5,0,0
132031,-71.4285714285714,4,2,1,80,0,0
132955,-41.6666666666667,4,2,1,80,0,0
133262,-83.3333333333333,4,2,1,80,0,0
133647,-125,4,2,1,5,0,0
133724,-62.5,4,2,1,80,0,0
134108,-125,4,2,1,5,0,0
134185,-50,4,2,1,80,0,0
134455,-125,4,2,1,5,0,0
134493,-71.4285714285714,4,2,1,80,0,0
135724,-83.3333333333333,4,2,1,80,0,0
136108,-125,4,2,1,5,0,0
136185,-62.5,4,2,1,80,0,0
136570,-125,4,2,1,5,0,0
136647,-50,4,2,1,80,0,0
136916,-125,4,2,1,5,0,0
136955,-71.4285714285714,4,2,1,80,0,0
137916,-50,4,2,1,80,0,0
138108,-125,4,2,1,5,0,0
138185,-83.3333333333333,4,2,1,80,0,0
138570,-125,4,2,1,5,0,0
138647,-62.5,4,2,1,80,0,0
139031,-125,4,2,1,5,0,0
139108,-50,4,2,1,80,0,0
139378,-125,4,2,1,5,0,0
139416,-55.5555555555556,4,2,1,80,0,0
140262,-125,4,2,1,5,0,0
140339,-41.6666666666667,4,2,1,80,0,0
140647,-250,4,2,1,80,0,0
144339,-35.7142857142857,4,2,1,80,0,0
145108,-50,4,2,1,80,0,0
145570,-55.5555555555556,4,2,1,80,0,0
146801,-45.4545454545455,4,2,1,80,0,0
146955,-125,4,2,1,80,0,0
147416,-55.5555555555556,4,2,1,80,0,0
149262,-45.4545454545455,4,2,1,80,0,0
149878,-83.3333333333333,4,2,1,80,0,0
150031,-62.5,4,2,1,80,0,0
150185,-50,4,2,1,80,0,0
150339,-41.6666666666667,4,2,1,80,0,0
150493,-55.5555555555556,4,2,1,80,0,0
151724,-45.4545454545455,4,2,1,80,0,0
152031,-62.5,4,2,1,80,0,0
152185,-45.4545454545455,4,2,1,80,0,0
152955,-55.5555555555556,4,2,1,80,0,0
154185,-71.4285714285714,4,2,1,80,0,0
154801,-45.4545454545455,4,2,1,80,0,0
155416,-55.5555555555556,4,2,1,80,0,0
156647,-45.4545454545455,4,2,1,80,0,0
156955,-38.4615384615385,4,2,1,80,0,0
157262,-45.4545454545455,4,2,1,80,0,0
157570,-83.3333333333333,4,2,1,80,0,0
157878,-55.5555555555556,4,2,1,80,0,0
159108,-45.4545454545455,4,2,1,80,0,0
160031,-83.3333333333333,4,2,1,80,0,0
160339,-55.5555555555556,4,2,1,80,0,0
161570,-45.4545454545455,4,2,1,80,0,0
162185,-83.3333333333333,4,2,1,80,0,0
165108,-125,4,2,1,80,0,0
165262,-304.878048780488,4,2,2,60,0,0

[Colours]
Combo1 : 128,32,223
Combo2 : 62,151,131
Combo3 : 135,205,192
Combo4 : 255,255,43
Combo5 : 16,112,112
Combo6 : 32,223,223
Combo7 : 32,223,175
Combo8 : 106,106,234

[HitObjects]
91,201,10185,22,0,B|36:146|80:48|80:48|73:42|73:42|78:22|78:22|52:0|52:0|7:57|-20:203|150:310|192:159|192:159|207:157|207:157|205:69|342:65|429:255|336:335|336:335|368:266|323:238,1,1100.8,4|4,2:3|2:3,0:0:0:0:
336,248,12955,1,0,3:0:0:0:
336,248,13108,2,0,L|262:272,1,68.8,0|0,3:0|2:0,0:0:0:0:
53,317,13570,102,0,B|21:323|46:275|137:291|141:371,1,137.6,0|0,3:0|2:0,0:0:0:0:
201,178,14031,2,0,B|165:165|218:132|299:200|257:282,1,172,0|0,3:0|2:0,0:0:0:0:
449,195,14493,2,0,B|422:163|490:160|530:270|445:324,1,180.599994488526,0|0,3:0|2:0,0:0:0:0:
465,319,14801,6,0,B|458:334|458:334|418:337|380:372,1,86,0|0,3:0|2:0,0:0:0:0:
311,283,14955,2,0,B|308:299|308:299|270:312|242:356,1,86,0|0,3:0|2:0,0:0:0:0:
137,349,15108,102,0,B|110:285|38:239|-118:383|-63:29|87:7|210:106|99:194,1,516,4|2,2:3|3:2,0:0:0:0:
6,208,16339,5,2,2:2:0:0:
83,209,16493,1,0,3:0:0:0:
139,261,16647,2,0,B|161:251|161:251|179:194|244:179,1,129,2|0,2:2|2:0,0:0:0:0:
240,157,16955,102,0,P|215:123|173:116,1,86,0|0,3:0|2:0,0:0:0:0:
383,98,17262,2,0,P|400:59|385:20,1,86,0|0,2:0|2:0,0:0:0:0:
249,2,17570,5,4,2:3:0:0:
232,0,17878,102,0,L|243:50,1,43,2|0,2:2|2:0,0:0:0:0:
154,29,18031,2,0,L|165:79,1,43,2|0,2:2|2:0,0:0:0:0:
78,228,18185,6,0,L|89:178,1,43,2|0,2:2|2:0,0:0:0:0:
0,199,18339,2,0,L|11:149,1,43,2|0,2:2|2:0,0:0:0:0:
37,64,18493,102,0,B|23:11|23:11|67:77,1,129,0|0,3:0|2:0,0:0:0:0:
70,108,18801,6,0,P|100:87|176:77,1,103.199996850586,2|4,2:2|2:3,0:0:0:0:
30,296,19108,2,0,P|48:262|121:215,1,86,2|0,2:2|2:0,0:0:0:0:
351,337,19416,101,0,3:0:0:0:
368,354,19724,2,0,B|362:364|362:364|281:382,1,86,0|0,3:0|2:0,0:0:0:0:
123,316,19878,2,0,L|232:289,1,86,0|0,3:0|2:0,0:0:0:0:
451,267,20031,6,0,B|461:245|519:282|528:370|273:469|241:181|317:121|317:121|291:178|325:212,1,516,4|2,2:3|3:2,0:0:0:0:
495,26,21262,101,2,2:2:0:0:
436,77,21416,1,0,3:0:0:0:
467,147,21570,2,0,B|461:159|461:159|419:174|388:210,1,86,2|0,2:2|2:0,0:0:0:0:
310,45,21878,2,0,P|269:36|208:33,1,86,0|0,3:0|2:0,0:0:0:0:
159,77,22185,5,0,2:0:0:0:
88,44,22339,1,0,2:0:0:0:
159,77,22493,101,4,2:3:0:0:
0,199,22647,1,4,2:3:0:0:
256,192,22801,12,0,28493,2:0:0:0:
77,189,28647,86,0,L|62:261,1,51.599998425293,4|0,2:3|2:0,0:0:0:0:
172,209,28955,2,0,L|157:281,1,51.599998425293,2|0,2:2|2:0,0:0:0:0:
97,328,29262,5,0,1:0:0:0:
97,328,29416,2,0,P|66:335|95:340,1,68.8,4|0,2:3|2:0,0:0:0:0:
31,246,29570,102,0,P|7:240|27:257,1,51.599998425293,4|0,2:3|2:0,0:0:0:0:
50,166,29724,6,0,P|43:151|34:168,1,34.4,4|0,2:3|2:0,0:0:0:0:
7,56,29878,54,0,L|70:68,1,60.2,4|0,2:3|2:0,0:0:0:0:
88,46,30493,22,0,B|115:146|201:60|201:60,1,120.399996325684,8|0,2:3|2:0,0:0:0:0:
204,58,30647,2,0,L|193:113,1,51.599998425293,2|0,2:2|2:0,0:0:0:0:
280,76,30801,2,0,L|269:131,1,51.599998425293,2|0,2:2|2:0,0:0:0:0:
94,174,30955,85,4,2:3:0:0:
383,42,31108,2,0,B|464:107|444:208|261:69|235:211,1,309.599990551758,2|0,2:2|2:0,0:0:0:0:
236,210,31416,22,0,B|243:231|243:231|288:240|338:276,1,111.799994882202,2|0,2:2|2:0,0:0:0:0:
459,149,31570,2,0,B|454:170|454:170|489:200|514:257,1,111.799994882202,4|0,2:3|2:0,0:0:0:0:
457,331,31724,86,0,L|414:337,1,43,8|0,2:3|2:0,0:0:0:0:
331,278,32185,2,0,L|339:249,2,21.5,2|0|0,3:3|2:0|2:0,0:0:0:0:
309,354,32339,22,0,L|246:366,1,60.2,4|0,2:3|2:0,0:0:0:0:
228,344,32955,86,0,B|241:302|194:278|125:282,1,120.399996325684,8|0,2:3|2:0,0:0:0:0:
0,373,33108,2,0,B|78:409|86:317|86:317,1,103.199996850586,2|0,2:2|2:0,0:0:0:0:
117,135,33262,2,0,B|109:74|30:64|30:64|75:94|91:152,1,206.399993701172,2|4,2:2|2:3,0:0:0:0:
0,206,33570,22,0,B|50:218,1,51.599998425293,2|0,2:2|2:0,0:0:0:0:
297,150,33724,2,0,B|288:165|288:165|230:166|199:197,1,103.199996850586,0|0,3:0|2:0,0:0:0:0:
140,266,33878,86,0,B|124:280|124:280|134:343|134:343|174:291|174:291|162:266,1,172,2|4,2:2|2:3,0:0:0:0:
421,116,34185,22,0,B|463:156|463:156|412:141,2,86,8|0|0,2:3|2:0|2:0,0:0:0:0:
453,92,34647,86,0,L|436:178,1,86,0|0,2:0|2:0,0:0:0:0:
303,337,34801,22,0,L|362:326,1,60.2,4|0,2:3|2:0,0:0:0:0:
385,350,35416,86,0,B|361:379|450:387|477:327,1,120.399996325684,8|0,2:3|2:0,0:0:0:0:
507,337,35570,2,0,P|493:264|500:239,1,51.599998425293,2|0,2:2|2:0,0:0:0:0:
389,247,35724,2,0,P|393:221|404:198,1,51.599998425293,2|0,2:2|2:0,0:0:0:0:
492,169,35878,21,4,2:3:0:0:
217,86,36031,2,0,B|208:161|282:170|282:170|294:125|302:164|328:115|328:115|402:136|390:205,1,309.599990551758,2|0,2:2|2:0,0:0:0:0:
277,305,36339,86,0,L|324:-12,1,309.599990551758,2|0,2:2|2:0,0:0:0:0:
458,27,36647,22,0,L|413:36,1,43,8|0,2:3|2:0,0:0:0:0:
317,7,37108,2,0,L|326:52,2,25.7999992126465,2|0|0,2:3|2:0|2:0,0:0:0:0:
407,32,37262,86,0,B|420:99|346:99|318:159,1,154.799995275879,4|0,2:3|2:0,0:0:0:0:
294,158,37570,2,0,L|329:195,1,51.599998425293,2|0,2:2|2:0,0:0:0:0:
336,177,37724,2,0,L|284:175,1,51.599998425293,2|0,2:2|2:0,0:0:0:0:
400,259,37878,22,0,B|481:240|502:326|502:326|455:272|401:289,1,240.799992651367,8|2,2:3|2:2,0:0:0:0:
424,369,38185,86,0,L|353:358,1,51.599998425293,2|0,2:2|2:0,0:0:0:0:
295,345,38339,2,0,L|224:334,1,51.599998425293,4|0,2:3|2:0,0:0:0:0:
19,367,38493,22,0,B|14:267|145:253|152:310|108:319|78:298,1,206.399993701172,2|4,2:2|2:3,0:0:0:0:
66,90,38801,2,0,B|174:21|273:158|215:202|165:161|185:97,1,240.799992651367,2|4,2:2|2:3,0:0:0:0:
86,192,39108,85,4,2:3:0:0:
86,192,39416,2,0,P|62:194|37:205,2,43,4|2|2,2:3|2:2|2:3,0:0:0:0:
299,24,39724,38,0,B|224:71|282:138|282:138|373:102|308:13,1,258,4|0,2:3|2:0,0:0:0:0:
74,22,40031,2,0,B|31:20|15:57|15:57|138:34|193:143,1,258,4|0,2:3|2:0,0:0:0:0:
180,124,40339,6,0,B|170:143|170:143|118:152|79:199,1,120.399996325684,8|0,2:3|2:0,0:0:0:0:
38,275,40493,101,2,2:2:0:0:
119,366,40647,2,0,L|109:313,1,34.4,2|0,2:2|2:0,0:0:0:0:
202,352,40801,2,0,L|192:299,1,34.4,4|0,2:3|2:0,0:0:0:0:
225,214,40955,6,0,B|315:218|315:313|315:313|302:245|226:244,1,258,2|0,2:2|2:0,3:0:0:0:
193,361,41262,102,0,P|210:182|236:47,1,309.599990551758,2|0,2:2|2:0,3:0:0:0:
213,62,41570,6,0,B|215:70|215:70|325:94,1,120.399996325684,8|0,2:3|2:0,0:0:0:0:
85,0,41724,102,0,B|97:67|106:34|118:124,1,103.2,2|0,2:2|2:0,0:0:0:0:
138,205,42031,1,2,2:2:0:0:
13,215,42185,102,0,B|37:217|37:217|97:108|183:37,1,258,4|0,2:3|2:0,0:0:0:0:
261,149,42493,2,0,B|240:163|240:163|134:98|2:76,1,258,4|0,2:3|2:0,0:0:0:0:
14,77,42801,86,0,P|-13:123|26:198,1,120.399996325684,8|0,2:3|2:0,0:0:0:0:
13,215,42955,2,0,L|31:180,2,25.7999992126465,2|0|0,3:2|2:0|2:0,0:0:0:0:
104,131,43108,22,0,B|115:141|115:141|128:243,1,86,2|0,2:2|2:0,3:0:0:0:
15,313,43262,2,0,B|-11:321|-16:353|-16:353|5:331|40:329,1,86,4|0,2:3|2:0,0:0:0:0:
409,308,43416,86,0,B|388:193|239:213|239:213|312:232|310:277,1,309.599990551758,2|0,2:2|2:0,3:0:0:0:
308,272,43724,22,0,B|298:282|298:282|260:283|218:307,1,86,2|0,2:2|2:0,3:0:0:0:
203,279,43878,2,0,L|196:350,1,51.599998425293,4|0,2:3|2:0,0:0:0:0:
310,371,44031,86,0,L|355:380,1,43,8|0,2:3|2:0,0:0:0:0:
356,301,44493,22,0,B|402:262|458:284|458:284|405:285|381:338,1,180.599994488526,2|0,2:2|2:0,0:0:0:0:
456,367,44647,86,0,B|320:389|205:312|214:125|343:100|343:100|258:182|336:193|272:234,1,602,4|0,2:3|2:0,0:0:0:0:
275,233,45262,22,0,P|205:239|119:255,1,120.399996325684,8|0,2:3|2:0,0:0:0:0:
114,226,45416,86,0,L|121:280,1,51.599998425293,2|0,2:2|2:0,0:0:0:0:
25,243,45570,2,0,L|32:297,1,51.599998425293,2|0,2:2|2:0,0:0:0:0:
90,357,45724,21,4,2:3:0:0:
40,126,45878,2,0,B|24:33|112:-77|249:1|158:129|75:54,1,309.599990551758,2|0,2:2|2:0,3:0:0:0:
101,77,46185,86,0,B|110:96|110:96|226:128,1,111.799994882202,2|0,2:2|2:0,3:0:0:0:
435,26,46339,2,0,P|380:33|335:64,1,111.799994882202,4|0,2:3|2:0,0:0:0:0:
307,46,46493,22,0,L|318:99,1,51.6,8|0,2:3|2:0,0:0:0:0:
317,178,46801,86,0,L|351:172,2,25.7999992126465,2|0|0,2:3|2:0|2:0,0:0:0:0:
478,296,47108,22,0,B|459:253|360:222|259:276|283:385|283:385|300:344|345:326|345:326|327:293,1,412.799987402344,4|0,2:3|2:0,0:0:0:0:
332,302,47570,85,4,2:3:0:0:
27,196,47724,2,0,B|122:217|122:217|132:252,1,120.399996325684,8|0,2:3|2:0,0:0:0:0:
161,264,47878,22,0,L|69:277,1,51.599998425293,2|0,2:2|2:0,0:0:0:0:
169,345,48031,2,0,L|77:358,1,51.599998425293,2|0,2:2|2:0,0:0:0:0:
39,324,48185,85,4,2:3:0:0:
134,119,48339,2,0,B|93:44|93:44|176:112,1,172,2|4,2:2|2:3,0:0:0:0:
337,258,48647,2,0,B|297:173|440:162|605:18|309:-30|243:151|367:147,1,412.799987402344,2|4,2:2|2:3,0:0:0:0:
421,251,49108,21,4,2:3:0:0:
232,320,49262,2,0,P|282:328|317:364,1,103.199996850586,4|0,2:3|2:0,0:0:0:0:
317,364,49570,85,4,2:3:0:0:
256,192,51724,12,0,53724,2:0:0:0:
418,9,53878,54,0,L|427:42,1,34.4,4|0,2:3|2:0,0:0:0:0:
351,35,54031,2,0,L|360:68,1,34.4,4|0,2:3|2:0,0:0:0:0:
489,142,54185,102,0,L|498:94,6,25.7999992126465,4|0|0|0|4|0|0,2:3|2:0|2:0|2:0|2:3|2:0|2:0,3:0:0:0:
307,133,54493,70,0,B|292:150|292:150|382:154|417:210,1,154.799995275879,4|0,2:3|2:0,0:0:0:0:
401,202,54801,6,0,L|379:145,1,51.599998425293,0|0,3:0|2:0,0:0:0:0:
375,200,54955,2,0,L|413:152,1,51.599998425293,0|0,3:0|2:0,0:0:0:0:
455,42,55108,102,0,P|404:26|360:88,1,120.399996325684,8|0,2:3|2:0,0:0:0:0:
234,203,55262,2,0,B|149:328|280:385|322:185|473:233|468:308,1,361.199988977051,2|0,2:2|2:0,1:0:0:0:
403,351,55570,5,4,2:3:0:0:
197,311,55724,2,0,B|171:326|171:326|130:313|72:308,1,129,2|0,2:2|2:0,0:0:0:0:
42,291,55878,2,0,L|57:361,1,51.599998425293,0|0,3:0|2:0,0:0:0:0:
219,150,56031,2,0,B|309:117|309:117|221:205,1,206.399993701172,2|4,2:2|2:3,0:0:0:0:
29,46,56339,102,0,P|22:27|-14:1,10,51.599998425293,8|0|0|0|0|0|0|0|0|0|0,1:3|2:0|2:0|2:0|2:0|2:0|2:0|2:0|2:0|2:0|2:0,0:0:0:0:
207,0,56801,2,0,L|191:54,1,51.599998425293,2|0,3:3|2:0,0:0:0:0:
111,69,56955,6,0,B|56:51|-17:128|12:247|68:302|99:109|205:156,1,361.199988977051,4|0,2:3|2:0,0:0:0:0:
203,144,57262,2,0,B|209:98|265:156|308:236|198:312|198:312|231:272|207:246,1,309.599990551758,4|0,2:3|2:0,0:0:0:0:
121,266,57570,102,0,B|89:274|75:245|75:245|110:227|151:281,1,120.399996325684,8|0,3:3|2:0,0:0:0:0:
0,285,57724,102,2,B|12:299|12:299|29:297|45:297|45:297|47:302|47:302|48:297|48:297|73:297|98:301|98:301|98:307|98:307|101:302|101:302|126:307|147:319|147:319|146:324|146:324|150:321|150:321|164:329|176:340|176:340|177:340,1,209.439337544799,2|0,2:1|2:0,0:1:0:0:
221,249,57878,2,2,B|224:269|224:269|239:275|252:283|252:283|251:288|251:288|255:284|255:284|277:296|296:312|296:312|294:317|294:317|298:314|298:314|318:331|331:352|331:352|327:356|327:356|332:355|332:355|341:369|346:385,1,216.937879302839,2|0,2:1|2:0,0:1:0:0:
377,384,58031,22,0,L|392:334,1,51.599998425293,4|0,2:3|2:0,0:0:0:0:
380,169,58185,102,0,B|537:128|537:128|464:284,1,309.599990551758,2|0,2:2|2:0,3:0:0:0:
469,291,58493,6,0,P|420:252|378:250,1,103.199996850586,2|0,2:2|2:0,0:0:0:0:
287,190,58647,2,0,B|273:176|273:176|275:139|275:139|294:169|294:169|290:191,1,103.199996850586,4|0,2:3|2:0,0:0:0:0:
457,126,58801,102,0,B|480:29|376:-101|215:-9|318:108|413:50,1,361.199988977051,8|0,2:3|2:0,0:0:0:0:
403,64,59108,6,0,L|355:83,1,51.599998425293,0|0,3:0|2:0,3:0:0:0:
366,235,59262,2,0,L|415:217,1,51.599998425293,0|0,3:0|2:0,3:0:0:0:
450,131,59416,102,0,P|351:161|290:187,1,154.799995275879,4|0,2:3|2:0,0:0:0:0:
299,188,59724,6,0,L|263:125,1,51.599998425293,0|0,3:0|2:0,0:0:0:0:
295,142,59878,2,0,L|270:187,1,51.599998425293,0|0,3:0|2:0,0:0:0:0:
80,342,60031,102,0,B|28:369|28:369|65:320,1,120.399996325684,8|0,2:3|2:0,0:0:0:0:
88,53,60185,2,0,B|-19:153|131:270|99:167|200:47|302:184|216:273|188:260,1,361.199988977051,2|0,2:2|2:0,1:0:0:0:
130,258,60493,5,4,2:3:0:0:
441,336,60647,2,0,B|419:345|419:345|374:315|315:307,1,129,2|0,2:2|2:0,0:0:0:0:
297,329,60801,2,0,L|305:278,1,51.599998425293,0|0,3:0|2:0,0:0:0:0:
483,40,60955,2,0,B|540:64|528:137|528:137|511:84|469:73,1,206.399993701172,2|4,2:2|2:3,0:0:0:0:
238,119,61262,102,0,B|353:91|320:177|320:177,1,120.399996325684,8|0,2:3|2:0,0:0:0:0:
310,197,61416,102,2,B|336:187|359:180|359:180|362:185|362:185|362:179|362:179|387:172|411:168|411:168|414:173|414:173|414:168|414:168|422:167|426:166|426:166|427:166,1,137.953863066213,2|0,2:1|2:0,0:1:0:0:
409,198,61570,22,0,L|425:121,6,60.1999981628419,0|0|0|0|0|0|0,2:0|2:0|2:0|2:0|2:0|2:0|2:0,3:0:0:0:
198,355,61878,102,0,B|136:282|188:215|188:215|180:262|212:283,1,206.399993701172,4|0,2:3|2:0,0:0:0:0:
265,239,62339,2,0,L|278:214,2,25.7999992126465,8|0|0,2:2|2:0|2:0,0:0:0:0:
199,274,62493,6,0,P|259:280|332:294,1,120.399996325684,8|0,2:3|2:0,0:0:0:0:
351,277,62647,102,0,L|332:350,1,51.599998425293,2|0,2:2|2:0,0:0:0:0:
434,292,62801,2,0,L|415:365,1,51.599998425293,2|0,2:2|2:0,0:0:0:0:
265,364,62955,5,4,2:3:0:0:
512,144,63108,2,0,B|445:98|357:147|352:234|463:187|395:95,1,206.399993701172,2|4,2:2|2:3,0:0:0:0:
221,34,63416,2,0,B|208:11|208:11|327:20|313:139,1,206.399993701172,2|4,2:2|2:3,0:0:0:0:
314,127,63724,102,0,L|249:113,1,51.599998425293,8|0,2:3|2:0,0:0:0:0:
457,30,63878,2,0,B|445:70|445:70|337:112|320:261,1,257.999992126465,2|0,1:2|2:0,0:0:0:0:
397,345,64339,6,0,B|340:397|481:396|418:191|285:236|285:236|322:236|342:261,1,309.599990551758,4|0,2:3|2:0,3:0:0:0:
463,35,64647,2,0,B|480:125|384:147|384:147|323:75|394:10,1,309.599990551758,4|0,2:3|2:0,3:0:0:0:
467,217,64955,102,0,B|503:221|532:253|532:253|333:228|195:373,1,430,8|0,2:3|2:0,1:0:0:0:
201,369,65416,6,0,P|165:335|183:275,1,86,4|0,2:3|2:0,0:0:0:0:
15,138,65570,2,0,B|62:162|106:159|106:159|131:213,1,129,2|0,2:2|2:0,0:0:0:0:
153,212,65724,2,0,L|88:227,1,51.599998425293,0|0,3:0|2:0,0:0:0:0:
19,287,65878,2,0,B|6:324|6:324|45:376|45:376|57:316|57:316|22:282,1,206.399993701172,2|4,2:2|2:3,0:0:0:0:
229,67,66185,102,0,P|236:48|272:22,10,51.599998425293,8|0|0|0|0|0|0|0|0|0|0,1:3|2:0|2:0|2:0|2:0|2:0|2:0|2:0|2:0|2:0|2:0,0:0:0:0:
91,17,66647,2,0,L|107:85,1,51.599998425293,0|0,3:0|2:0,0:0:0:0:
45,141,66801,6,0,B|-24:162|-15:235|-15:235|-4:183|54:176,1,206.399993701172,4|4,2:3|2:3,0:0:0:0:
265,31,67108,2,0,B|251:66|251:66|180:63|123:101|123:101|91:76,1,206.399993701172,4|2,2:3|2:2,0:0:0:0:
98,74,67339,1,0,2:0:0:0:
102,67,67416,102,0,P|137:117|167:184,1,120.399996325684,8|0,2:3|2:0,0:0:0:0:
50,291,67570,102,2,B|41:264|48:240|48:240|53:240|53:240|49:237|49:237|57:211|75:196|75:196|79:198|79:198|77:194|77:194|99:177|123:174|123:174|125:179|125:179|126:174|126:174|143:173|158:177,1,213.579979539135,2|0,2:1|2:0,0:1:0:0:
36,16,67724,2,2,B|56:-5|80:-10|80:-10|82:-6|82:-6|83:-11|83:-11|108:-17|132:-8|132:-8|132:-3|132:-3|135:-7|135:-7|158:2|174:23|174:23|171:27|171:27|176:25|176:25|185:40|189:55,1,214.362733889315,2|0,2:1|2:0,0:1:0:0:
224,85,67878,22,0,L|159:100,1,51.599998425293,4|0,2:3|2:0,0:0:0:0:
252,202,68031,102,0,B|246:175|246:175|295:141|325:80|325:80|324:147|352:203|352:203|318:240,1,309.599990551758,2|0,2:2|2:0,3:0:0:0:
323,236,68339,6,0,P|371:248|424:270,1,103.199996850586,2|0,2:2|2:0,0:0:0:0:
484,29,68493,2,0,B|409:64|409:64|401:108,1,103.199996850586,4|0,2:3|2:0,0:0:0:0:
476,121,68647,102,0,B|577:194|518:281|481:271|492:264|463:252|463:252|451:218|357:267|451:354,1,361.199988977051,8|0,2:3|2:0,0:0:0:0:
474,354,68955,6,0,P|451:361|421:388,1,51.599998425293,0|0,3:0|2:0,0:0:0:0:
423,260,69108,2,0,P|406:242|394:204,1,51.599998425293,0|0,3:0|2:0,0:0:0:0:
296,287,69262,102,0,B|270:366|202:364|167:319|243:341,1,154.799995275879,4|0,2:3|2:0,0:0:0:0:
239,343,69570,6,0,L|289:366,1,51.599998425293,0|0,3:0|2:0,0:0:0:0:
282,343,69724,2,0,L|235:364,1,51.599998425293,0|0,3:0|2:0,0:0:0:0:
291,165,69878,102,0,B|286:117|237:121|237:121|258:126|267:173,1,120.399996325684,8|0,2:3|2:0,0:0:0:0:
45,148,70031,2,0,B|-24:234|6:396|84:277|140:195|241:249,1,361.199988977051,2|0,2:2|2:0,1:0:0:0:
408,334,70339,5,4,2:3:0:0:
508,164,70493,2,0,B|501:190|501:190|399:216,1,129,2|0,2:2|2:0,0:0:0:0:
379,197,70647,2,0,L|389:257,1,51.599998425293,0|0,3:0|2:0,0:0:0:0:
216,148,70801,2,0,B|153:112|167:2|268:1|224:88|150:73,1,206.399993701172,2|4,2:2|2:3,0:0:0:0:
482,14,71108,102,0,B|371:-28|412:93|412:93,1,129.00000492096,8|0,2:3|2:0,0:0:0:0:
427,92,71262,102,2,B|411:112|411:112|398:111|385:112|385:112|383:107|383:107|382:112|382:112|357:115|334:126|334:126|330:122|330:122|331:127|331:127|321:132|312:137,1,144.576172596734,2|0,2:1|2:0,0:1:0:0:
298,159,71416,22,0,L|314:78,6,64.5000024604798,0|0|0|0|0|0|0,2:0|2:0|2:0|2:0|2:0|2:0|2:0,3:0:0:0:
160,69,71724,101,4,2:3:0:0:
160,69,72031,2,0,L|90:96,1,51.599998425293,0|0,3:0|2:0,0:0:0:0:
16,0,72185,2,0,L|34:48,1,51.599998425293,4|0,2:3|2:0,0:0:0:0:
119,237,72339,5,4,2:3:0:0:
119,237,72647,2,0,P|111:269|107:305,1,51.599998425293,0|0,3:0|2:0,0:0:0:0:
38,213,72801,2,0,P|30:245|26:281,1,51.599998425293,4|0,2:3|2:0,0:0:0:0:
45,360,72955,101,4,2:3:0:0:
293,292,73108,6,0,B|404:266|487:356|487:356|482:367|482:367|464:233|363:200|363:200|415:252|400:314,1,567.599982678223,8|0,2:3|2:0,1:0:0:0:
393,315,73570,102,0,L|384:255,1,51.599998425293,0|0,3:0|2:0,0:0:0:0:
200,338,73724,2,0,L|191:278,1,51.599998425293,0|0,3:0|2:0,0:0:0:0:
286,284,73878,6,0,L|292:237,1,43,0|0,3:0|2:0,0:0:0:0:
97,277,74031,2,0,L|103:230,1,43,0|0,3:0|2:0,0:0:0:0:
43,33,74185,38,0,B|88:30|146:66|135:122|86:111|103:83,1,129,4|0,2:3|2:0,0:0:0:0:
76,122,74493,102,0,L|129:136,2,43,2|0|2,2:2|2:0|2:2,0:0:0:0:
45,211,74801,6,0,L|79:203,1,25.7999992126465,2|0,2:2|2:0,0:0:0:0:
65,283,74955,2,0,L|99:275,1,25.7999992126465,2|0,2:2|2:0,0:0:0:0:
26,354,75108,102,0,P|59:298|108:285,1,103.199996850586,4|0,2:3|2:0,0:0:0:0:
268,351,75262,2,0,P|225:323|175:327,1,103.199996850586,4|0,2:3|2:0,0:0:0:0:
103,362,75416,5,8,2:3:0:0:
203,198,75570,2,0,B|205:142|149:108|76:123|76:123|177:150|163:230,1,309.599990551758,2|0,3:2|2:0,3:0:0:0:
167,223,75878,2,0,L|279:240,1,103.199996850586,4|0,2:3|2:0,0:0:0:0:
408,202,76031,102,0,B|532:206|466:25|169:68|335:217|478:228|431:340,1,421.399987139893,8|0,2:3|2:0,0:0:0:0:
416,336,76339,6,0,P|417:297|425:273,2,51.599998425293,0|2|2,2:0|2:3|2:2,0:0:0:0:
512,193,76647,54,0,B|492:215|492:215|363:167|231:151,1,257.999992126465,4|0,2:3|2:0,0:0:0:0:
427,283,76955,2,0,B|420:312|420:312|284:334|162:387,1,257.999992126465,4|0,2:3|2:0,0:0:0:0:
180,353,77262,6,0,B|109:421|82:323|82:323,1,120.399996325684,8|0,2:3|2:0,0:0:0:0:
0,200,77416,2,0,B|14:213|14:213|82:202|82:202|106:219,1,103.199996850586,2|0,3:2|2:0,0:0:0:0:
90,186,77570,2,0,L|208:215,1,103.199996850586,2|0,2:2|2:0,0:0:0:0:
145,283,77724,101,4,2:3:0:0:
41,327,77878,2,0,B|13:364|13:364|91:327,1,120.399996325684,2|0,2:2|2:0,0:0:0:0:
166,88,78031,2,0,B|-27:-16|-27:-16|44:137,1,361.199988977051,4|0,2:3|2:0,1:0:0:0:
14,222,78339,6,0,L|87:209,1,51.599998425293,4|0,2:3|2:0,0:0:0:0:
186,324,78493,2,0,B|212:338|212:338|266:288|349:273|349:273|269:250|222:199|222:199|190:220,1,361.199988977051,8|0,2:3|2:0,0:0:0:0:
178,232,78801,102,0,L|169:194,6,25.7999992126465,0|0|0|0|0|0|0,3:0|2:0|2:0|2:0|3:0|2:0|2:0,0:0:0:0:
428,40,79108,2,0,B|372:29|337:87|384:78,1,86,4|0,2:3|2:0,0:0:0:0:
368,85,79262,6,0,B|312:109|250:217|377:335|365:190|416:199|416:199|441:145|522:262|438:306,1,430,2|0,3:2|2:0,1:0:0:0:
452,300,79724,102,0,B|438:320|438:320|385:322|348:364,1,120.399996325684,8|0,2:3|2:0,0:0:0:0:
320,371,79878,2,0,L|342:301,1,51.599998425293,2|0,2:2|2:0,0:0:0:0:
234,204,80031,2,0,L|304:226,1,51.599998425293,2|0,2:2|2:0,0:0:0:0:
360,244,80185,5,4,2:3:0:0:
176,43,80339,2,0,P|222:82|213:143,1,103.199996850586,2|0,2:2|2:0,0:0:0:0:
174,348,80493,2,0,B|116:346|99:307|99:307|128:335|184:318,1,154.799995275879,0|0,3:0|2:0,0:0:0:0:
165,318,80647,102,0,L|154:256,1,51.599998425293,2|0,2:2|2:0,0:0:0:0:
139,180,80801,2,0,L|128:118,1,51.599998425293,4|0,2:3|2:0,0:0:0:0:
2,59,80955,6,0,B|-25:78|-25:78|35:142|35:142|131:141|131:141|125:101,1,240.799992651367,8|0,2:3|2:0,0:0:0:0:
27,353,81262,102,0,B|-33:315|-4:234|69:220|69:220|24:241|31:291,1,232.199992913819,2|0,2:2|2:0,3:0:0:0:
27,353,81570,6,0,B|110:248|365:422|94:407|125:312|218:276,1,258,4|0,2:3|2:0,0:0:0:0:
169,306,81878,2,0,B|178:255|195:280|208:204,1,86,0|0,3:0|2:0,0:0:0:0:
6,54,82031,2,0,L|24:161,1,86,0|0,3:0|2:0,0:0:0:0:
114,100,82185,102,0,B|131:69|124:27|124:27|116:44|116:44|172:79|252:79|252:79|266:75|266:75|183:100|175:180,1,361.199988977051,8|0,2:3|2:0,0:0:0:0:
100,210,82493,2,0,P|95:189|110:200,1,51.599998425293,2|0,2:2|2:0,0:0:0:0:
346,213,82647,6,0,B|385:177|385:177|465:181|478:258|478:258|429:199|351:233,1,309.599990551758,4|0,2:3|2:0,0:0:0:0:
155,306,82955,2,0,B|116:342|116:342|36:338|23:261|23:261|72:320|150:286,1,309.599990551758,4|0,2:3|2:0,0:0:0:0:
252,258,83262,101,4,2:3:0:0:
183,142,83416,2,0,B|139:191|191:270|211:206|279:286|223:358,1,240.799992651367,8|0,2:3|2:0,0:0:0:0:
224,354,83621,5,2,2:2:0:0:
131,292,83724,1,2,2:2:0:0:
273,161,83826,101,2,2:2:0:0:
335,315,83929,1,2,2:2:0:0:
461,263,84031,6,0,B|547:225|519:153|431:178,1,180.599994488526,4|0,2:3|2:0,1:0:0:0:
210,366,84647,102,0,B|210:300|101:156|-69:288|1:357|91:349|89:231,1,361.199988977051,8|0,2:3|2:0,0:0:0:0:
93,253,84955,6,0,L|80:192,1,51.599998425293,2|0,2:2|2:0,0:0:0:0:
171,241,85108,2,0,L|158:180,1,51.599998425293,4|0,2:3|2:0,0:0:0:0:
0,129,85262,102,0,B|-14:148|-12:176|-12:176|41:104|129:114,1,206.399993701172,2|0,2:2|3:0,0:0:0:0:
63,2,85570,2,0,B|41:11|29:36|29:36|111:0|182:53,1,206.399993701172,4|0,2:3|2:0,0:0:0:0:
449,37,85878,6,0,B|422:30|367:30|328:117|413:71,1,120.399996325684,8|0,2:3|2:0,0:0:0:0:
465,68,86031,102,0,L|474:18,1,51.599998425293,2|0,2:2|2:0,0:0:0:0:
297,12,86185,5,0,3:0:0:0:
286,12,86262,1,0,3:0:0:0:
276,14,86339,1,0,3:0:0:0:
268,21,86416,1,0,3:0:0:0:
274,44,86493,102,0,B|349:47|422:141|402:213|402:213|389:158|316:158,1,309.599990551758,4|0,2:3|2:0,0:0:0:0:
328,342,86801,2,0,P|341:260|460:63,1,309.599990551758,4|0,2:3|2:0,0:0:0:0:
465,68,87108,6,0,B|469:94|469:94|437:133|431:199,1,120.399996325684,8|0,2:3|2:0,0:0:0:0:
331,349,87262,2,0,P|278:297|296:248,1,129,4|0,2:3|2:0,0:0:0:0:
278,220,87416,2,0,L|328:235,1,51.599998425293,4|0,2:3|2:0,0:0:0:0:
454,268,87570,101,4,2:3:0:0:
313,90,87724,2,0,B|294:110|294:110|195:136,1,129,2|0,2:2|2:0,0:0:0:0:
166,119,87878,2,0,L|181:169,1,51.599998425293,0|0,3:0|2:0,0:0:0:0:
73,358,88031,2,0,B|-29:304|-29:304|60:319,1,206.399993701172,2|4,2:2|2:3,0:0:0:0:
41,202,88339,6,0,B|-13:117|43:-39|225:-4|166:139|57:115,1,361.199988977051,8|0,2:3|2:0,0:0:0:0:
8,229,88647,102,0,L|94:211,1,77.3999976379395,4|0,2:3|2:0,0:0:0:0:
133,297,88955,6,0,B|235:153|266:328|266:328,1,206.399993701172,4|0,2:3|2:0,1:0:0:0:
270,333,89570,102,0,P|203:322|124:313,1,120.399996325684,8|0,2:3|2:0,0:0:0:0:
53,129,89724,2,0,P|15:148|0:188,1,86,2|0,2:2|2:0,0:0:0:0:
68,307,89878,2,0,P|110:301|146:324,1,86,2|0,2:2|2:0,0:0:0:0:
83,213,90031,5,4,2:3:0:0:
352,160,90185,2,0,B|343:193|343:193|220:226,1,129,2|0,2:2|2:0,0:0:0:0:
222,194,90339,2,0,L|232:263,1,51.599998425293,0|0,3:0|2:0,0:0:0:0:
234,347,90493,102,0,P|252:341|263:344,2,25.7999992126465,0|0|4,2:0|2:0|2:3,0:0:0:0:
62,303,90801,6,0,B|17:354|17:354|79:328,1,120.399996325684,8|0,2:3|2:0,0:0:0:0:
175,115,90955,2,0,B|124:70|124:70|144:118,1,120.399996325684,2|0,2:2|2:0,0:0:0:0:
257,237,91108,101,0,3:0:0:0:
268,237,91185,1,0,3:0:0:0:
278,239,91262,1,0,3:0:0:0:
286,246,91339,1,0,3:0:0:0:
318,235,91416,6,0,P|303:199|297:161,1,77.3999976379395,4|0,2:3|2:0,0:0:0:0:
395,10,91724,102,0,B|385:45|385:45|257:61|148:145,1,258,0|0,1:0|2:0,0:0:0:0:
196,151,92031,6,0,L|125:129,1,51.599998425293,4|2,2:3|2:2,0:0:0:0:
4,19,92339,101,2,1:2:0:0:
81,35,92493,2,0,L|66:79,1,25.7999992126465,4|0,2:3|2:0,0:0:0:0:
26,269,92647,6,0,B|-24:241|-38:168|9:112|9:112|-2:172|47:207,1,258,2|0,2:2|2:0,0:0:0:0:
161,58,92955,2,0,B|211:86|225:159|178:215|178:215|189:155|140:120,1,258,2|0,2:2|2:0,0:0:0:0:
84,135,93262,102,0,B|89:109|89:109|49:76|51:12|51:12|43:26|32:36|32:36|0:205|159:272|149:217|167:227|167:227|175:198|236:200|248:340|195:358|134:391|99:353|131:293,1,688,8|4,2:3|2:3,0:0:0:0:
256,192,94031,12,0,95878,2:0:0:0:
114,260,96031,69,0,1:0:0:0:
130,240,96108,1,0,1:0:0:0:
178,235,96185,1,0,1:0:0:0:
317,343,96339,2,0,B|356:203|194:314|107:259|219:32|403:109|317:211,1,412.8,0|0,1:0|2:0,0:0:0:0:
407,263,97493,5,2,2:2:0:0:
413,268,97570,2,0,P|321:282|250:296,1,137.6,2|0,2:3|2:0,0:0:0:0:
185,312,98185,101,0,3:0:0:0:
185,312,98801,1,4,2:3:0:0:
78,141,98955,2,0,B|7:163|-29:271|19:349|19:349|21:275|87:270,1,344,4|0,2:3|3:0,0:0:0:0:
68,273,99878,5,0,2:0:0:0:
118,341,100031,2,0,P|124:354|104:347,1,51.599998425293,0|0,3:0|2:0,0:0:0:0:
223,286,100339,101,0,3:0:0:0:
223,286,100493,1,0,3:0:0:0:
293,322,100647,2,0,L|302:353,1,25.7999992126465,0|0,3:0|2:0,0:0:0:0:
365,300,100801,2,0,L|374:331,1,25.7999992126465,0|0,3:0|2:0,0:0:0:0:
511,354,100955,5,0,1:0:0:0:
494,335,101031,1,0,1:0:0:0:
456,338,101108,1,0,1:0:0:0:
322,182,101262,2,0,B|336:203|336:203|410:202|451:252,1,154.799995275879,0|0,1:0|3:0,0:0:0:0:
449,153,101878,2,0,B|443:166|443:166|384:184,1,51.599998425293,0|0,3:0|2:0,0:0:0:0:
308,19,102185,101,0,1:0:0:0:
248,72,102339,2,0,P|252:98|259:123,1,51.599998425293,0|0,3:0|2:0,0:0:0:0:
486,24,102647,5,2,2:2:0:0:
447,68,102801,1,2,2:2:0:0:
389,60,102955,1,2,2:2:0:0:
255,67,103108,102,0,L|248:102,1,25.7999992126465,0|0,1:0|2:0,0:0:0:0:
88,340,103416,85,0,1:0:0:0:
92,330,103493,1,0,1:0:0:0:
102,327,103570,1,0,1:0:0:0:
108,335,103647,1,0,1:0:0:0:
134,339,103724,6,0,B|196:251|-28:189|-28:189|145:87|223:145|125:187,1,481.6,4|0,1:1|2:0,0:0:0:0:
0,324,104339,102,0,B|225:160|304:313|304:313,1,344,2|0,1:2|1:0,0:0:0:0:
303,312,104801,1,0,3:0:0:0:
512,176,104955,6,0,B|507:269|315:255|341:402|416:439|564:376|461:300|472:224,1,412.8,2|0,1:2|2:0,0:0:0:0:
370,34,105570,102,0,P|359:45|358:61,1,25.7999992126465,0|0,1:0|2:0,0:0:0:0:
313,0,105724,2,0,P|308:22|318:43,1,43,0|0,1:0|2:0,0:0:0:0:
223,8,105878,2,0,P|232:37|258:55,1,60.1999981628419,0|0,1:0|2:0,0:0:0:0:
133,82,106031,2,0,P|161:107|200:110,1,77.3999976379395,0|0,1:0|2:0,0:0:0:0:
3,87,106185,6,0,B|17:119|56:135|14:19|140:24|140:24|109:77|44:5|0:220|95:347|129:328|137:219|64:224,1,541.799983465577,10|0,1:2|2:0,0:0:0:0:
48,376,106801,102,0,B|88:297|196:243|272:342|195:361,1,232.199992913819,2|0,1:2|2:0,0:0:0:0:
223,341,107108,2,0,P|304:349|305:286,1,154.799995275879,0|0,1:0|3:0,0:0:0:0:
244,140,107416,6,0,B|363:60|504:193|428:297|428:297|431:217|375:191,1,464.399985827637,2|0,1:2|2:0,0:0:0:0:
501,113,108031,102,0,B|471:62|361:123|401:242|401:242|410:210|372:189,1,283.800008660889,2|0,1:2|2:0,0:0:0:0:
84,107,108339,5,0,1:0:0:0:
92,103,108416,1,0,1:0:0:0:
100,107,108493,1,0,1:0:0:0:
102,116,108570,1,0,1:0:0:0:
123,137,108647,102,0,B|83:315|16:402|85:288|66:229|66:229|169:122|270:85|270:85|208:122|185:189,1,662.200020208741,4|0,1:1|2:0,0:0:0:0:
1,153,109262,6,0,B|155:164|282:245|282:245|228:235|192:299,1,378.400011547852,2|0,1:2|1:0,0:0:0:0:
212,272,109724,1,0,3:0:0:0:
434,384,109878,102,0,B|291:227|447:-19|662:33|565:305|387:304|379:238,1,567.600017321778,2|0,1:2|2:0,0:0:0:0:
262,330,110493,6,0,P|251:319|250:303,1,25.7999992126465,0|0,1:0|2:0,0:0:0:0:
205,364,110647,2,0,P|200:342|210:321,1,43,0|0,1:0|2:0,0:0:0:0:
115,356,110801,2,0,P|124:327|150:309,1,60.1999981628419,0|0,1:0|2:0,0:0:0:0:
25,282,110955,2,0,P|53:257|92:254,1,77.3999976379395,0|0,1:0|2:0,0:0:0:0:
85,45,111108,102,0,B|74:8|32:-3|32:-3|154:9|303:70|247:305|90:361|95:284|39:145|190:136,1,662.200020208741,10|0,1:2|2:0,0:0:0:0:
301,287,111724,6,0,B|317:245|317:245|190:230|105:355,1,283.800008660889,2|0,1:2|2:0,0:0:0:0:
113,344,112031,2,0,B|97:386|97:386|224:401|309:276,1,283.800008660889,0|0,1:0|2:0,0:0:0:0:
448,107,112339,102,0,B|456:85|456:85|386:60|335:125|175:280|416:365|349:256|410:234|410:234|435:182|521:220|532:344|390:376,1,662.200020208741,10|0,1:2|2:0,0:0:0:0:
415,368,112955,1,2,1:2:0:0:
39,112,113262,5,0,1:0:0:0:
47,108,113339,1,0,1:0:0:0:
55,112,113416,1,0,1:0:0:0:
57,121,113493,1,0,1:0:0:0:
37,159,113570,102,0,B|64:65|302:50|560:222|403:401|136:426|427:120|131:159|106:268,1,722.399977954102,4|0,1:1|2:0,0:0:0:0:
49,317,114185,6,0,B|79:363|79:363|57:226|147:95|282:97,1,412.799987402344,2|0,1:2|1:0,0:0:0:0:
258,98,114647,1,0,3:0:0:0:
411,359,114801,102,0,B|548:307|547:136|481:63|481:63|435:222|317:140|383:330,1,619.199981103516,2|0,1:2|2:0,0:0:0:0:
226,361,115416,6,0,P|221:341|231:322,1,43,0|0,1:0|2:0,0:0:0:0:
138,357,115570,2,0,P|147:328|173:312,1,60.1999981628419,0|0,1:0|2:0,0:0:0:0:
40,282,115724,2,0,P|70:255|111:253,1,77.3999976379395,0|0,1:0|3:0,0:0:0:0:
2,147,115878,2,0,P|50:138|96:162,1,94.600002886963,0|0,1:0|3:0,0:0:0:0:
213,83,116031,102,0,B|234:74|261:82|261:82|229:10|111:6|53:94|23:248|198:309|198:309|155:266|155:266|151:229|151:229|90:211|87:125,1,722.399977954102,10|0,1:2|2:0,0:0:0:0:
2,147,116647,6,0,B|110:231|237:220|237:220|210:193|212:160,1,309.599990551758,2|0,1:2|2:0,0:0:0:0:
65,232,116955,2,0,P|31:231|9:297,1,103.199996850586,0|0,3:0|2:0,0:0:0:0:
146,292,117108,2,0,P|114:341|117:392,1,103.199996850586,0|0,3:0|2:0,0:0:0:0:
427,351,117262,102,0,B|523:245|587:113|355:-126|239:-106|211:143|242:242|425:230|384:135,1,722.399977954102,2|0,1:2|2:0,0:0:0:0:
512,76,117878,6,0,B|360:3|389:164|389:164,1,206.399993701172,2|0,1:2|2:0,0:0:0:0:
21,189,118185,101,0,1:0:0:0:
29,185,118262,1,0,1:0:0:0:
37,189,118339,1,0,1:0:0:0:
39,198,118416,1,0,1:0:0:0:
20,243,118493,6,0,B|158:148|387:148|387:148|362:145|362:145|284:196|298:309|298:309|171:237|171:237|198:179,1,782.599964175417,4|0,1:1|2:0,0:0:0:0:
164,67,119108,102,0,B|297:-14|429:174|235:120|307:318|493:238,1,447.19997952881,2|0,1:2|1:0,0:0:0:0:
471,245,119570,1,0,3:0:0:0:
424,19,119724,6,0,B|324:273|164:77|-48:106|-69:308|127:364|224:240|173:178,1,670.799969293214,2|0,1:2|2:0,0:0:0:0:
413,357,120339,102,0,P|413:336|426:319,1,43,0|0,1:0|2:0,0:0:0:0:
346,315,120493,2,0,P|362:288|390:277,1,60.1999981628419,0|0,1:0|2:0,0:0:0:0:
268,228,120647,2,0,P|304:207|345:213,1,77.3999976379395,0|0,1:0|2:0,0:0:0:0:
249,77,120801,2,0,P|299:77|340:109,1,94.600002886963,0|0,1:0|2:0,0:0:0:0:
106,40,120955,6,0,B|17:51|-20:147|-20:147|220:88|287:282|219:339,1,558.999974411012,10|0,1:2|2:0,0:0:0:0:
493,256,121416,102,0,B|447:167|515:42|515:42|466:122|438:192|316:170,1,447.19997952881,10|0,1:2|2:0,0:0:0:0:
18,352,121878,2,0,B|64:263|-4:138|-4:138|45:218|72:288|195:266,1,447.19997952881,10|4,1:2|2:3,0:0:0:0:
410,121,122493,6,0,B|398:138|398:138|308:122,1,103.2,2|0,2:2|2:0,0:0:0:0:
232,92,122801,102,0,B|245:52|286:37|286:37|204:48|194:124,1,206.4,2|0,2:2|2:0,0:0:0:0:
119,29,123416,86,0,B|59:91|122:167|168:67|231:151|219:212,1,257.999992126465,4|0,2:3|2:0,0:0:0:0:
317,124,123878,102,0,B|364:230|250:297|238:149|120:227|106:310,1,344,4|0,2:3|2:0,0:0:0:0:
0,272,124339,6,0,B|-7:375|109:397|74:269|197:298|234:362,1,301,4|0,2:3|2:0,0:0:0:0:
231,365,124647,38,0,B|134:405|-60:349|178:193|107:171|144:122|437:52|394:-29|268:-78|-19:-10|22:236|127:180,1,842.799974279786,8|0,1:2|2:0,0:0:0:0:
0,201,125878,70,0,B|7:222|7:222|123:212|210:270|210:270|235:241,1,257.999992126465,4|0,2:3|2:0,0:0:0:0:
65,300,126339,102,0,B|84:324|84:324|226:257|363:290|363:290|382:242,1,344,4|0,2:3|2:0,0:0:0:0:
231,365,126801,6,0,B|254:379|254:379|352:280|475:267|475:267|476:221,1,301,4|0,2:3|2:0,0:0:0:0:
482,237,127108,38,0,B|617:132|421:-34|513:139|323:257|330:157|330:157|233:145|200:241|200:241|206:261|206:261|56:149|265:-67|322:57,1,946,8|0,1:2|2:0,0:0:0:0:
369,88,128031,101,8,3:3:0:0:
419,13,128185,2,0,P|457:48|449:81,1,68.8,0|0,2:0|2:0,0:0:0:0:
404,299,128339,86,0,B|453:312|455:358|455:358|358:277|278:295,1,257.999992126465,4|0,2:3|2:0,0:0:0:0:
361,172,128801,102,0,B|423:166|445:219|445:219|297:165|211:221,1,344,4|0,2:3|2:0,0:0:0:0:
227,84,129262,6,0,B|277:60|312:97|312:97|172:98|117:170,1,301,4|0,2:3|2:0,0:0:0:0:
117,169,129570,38,0,B|38:130|29:24|29:24|-31:132|65:198|209:121|195:373|195:373|162:289|41:297|41:297|68:242,1,842.799974279786,8|0,1:2|2:0,0:0:0:0:
155,47,130801,70,0,P|251:5|204:102,1,257.999992126465,4|0,2:3|2:0,0:1:0:0:
135,183,131262,102,0,P|13:129|72:252,1,344,4|0,2:3|2:0,0:1:0:0:
182,299,131724,6,0,P|291:251|237:361,1,301,4|0,2:3|2:0,0:1:0:0:
243,364,132031,38,0,B|252:308|219:207|117:293|33:234|-20:79|115:70|115:70|128:51|187:47|198:123|198:123|131:130|125:208,1,662.19997979126,8|0,1:2|2:0,0:0:0:0:
42,283,132955,102,0,P|16:301|11:327,6,51.599998425293,2|0|0|0|0|0|0,2:2|2:0|2:0|2:0|2:0|2:0|2:0,0:0:0:0:
93,352,133262,86,0,B|106:360|106:360|200:280|341:306,1,257.999992126465,4|0,2:3|2:0,0:0:0:0:
94,190,133724,102,0,B|106:206|106:206|264:147|433:246,1,344,4|0,2:3|2:0,0:0:0:0:
242,35,134185,6,0,B|247:51|247:51|391:50|498:180,1,301,4|0,2:3|2:0,0:0:0:0:
489,183,134493,38,0,B|534:160|494:47|494:47|520:8|275:-25|365:222|214:163|200:118|210:249|210:249|96:163|98:-19|305:-10|241:49,1,902.999972442628,8|0,1:2|2:0,0:0:0:0:
360,192,135724,70,0,B|424:221|413:312|413:312|400:239|334:226,1,257.999992126465,4|0,2:3|2:0,0:0:0:0:
228,183,136185,102,0,B|294:248|239:357|239:357|256:260|179:213,1,344,4|0,2:3|2:0,0:0:0:0:
93,147,136647,6,0,B|128:222|49:296|49:296|93:220|43:158,1,301,4|0,2:3|2:0,0:0:0:0:
48,161,136955,38,0,B|-46:171|-36:45|56:43|91:61,1,210.699993569946,8|0,1:2|2:0,0:0:0:0:
71,30,137262,2,0,B|78:57|78:57|215:78|238:195,1,240.799992651367,2|0,2:2|2:0,0:0:0:0:
150,239,137685,102,0,P|122:246|76:262,1,60.1999981628419,0|0,3:0|2:0,0:0:0:0:
135,253,137839,2,0,P|118:249|89:239,1,30.0999990814209,0|0,3:0|2:0,0:0:0:0:
119,249,137916,6,0,B|56:370|56:370|113:332|190:332,1,258,0|0,3:0|2:0,0:0:0:0:
243,368,138185,70,0,B|326:386|399:321|390:222|281:273|343:360,1,257.999992126465,4|0,2:3|2:0,0:0:0:0:
512,325,138647,102,0,B|477:216|352:175|243:252|376:344|435:214,1,344,4|0,2:3|2:0,0:0:0:0:
305,98,139108,6,0,B|238:171|261:283|367:332|379:192|254:204,1,301,4|0,2:3|2:0,0:0:0:0:
262,205,139416,38,0,B|303:146|454:385|51:586|186:404|323:171|316:79|-32:77|18:237|18:237|36:162|120:125,1,851.399974017335,8|0,1:2|2:0,0:0:0:0:
109,46,140339,86,0,B|93:33|93:33|39:48|39:48|27:99,1,103.199996850586,2|0,2:2|2:0,0:0:0:0:
117,258,140493,2,0,P|132:222|105:248,1,103.199996850586,2|0,2:2|2:0,0:0:0:0:
57,340,140647,86,0,L|50:311,16,17.2,4|2|2|2|2|2|2|2|2|2|2|2|2|2|2|2|2,2:3|2:2|2:2|2:2|2:2|2:2|2:2|2:2|2:2|2:2|2:2|2:2|2:2|2:2|2:2|2:2|2:2,0:0:0:0:
256,192,141955,12,0,143108,2:0:0:0:
276,121,144031,38,0,L|271:146,2,17.2,0|0|0,3:0|2:0|2:0,0:0:0:0:
466,75,144262,5,0,3:0:0:0:
474,73,144339,2,0,B|509:112|528:196|464:276|507:344|421:306|417:141|381:74|311:59|377:141|377:141|311:100|295:125|295:125|261:59|283:12|283:12|315:-37|211:-11|139:73|199:146,1,842.799974279786,4|0,2:3|2:0,0:0:0:0:
370,20,144955,102,0,B|386:10|386:10|408:68|347:106,1,120.399996325684,0|0,3:0|2:0,0:0:0:0:
185,94,145108,2,0,B|36:94|4:248|4:248|62:137|163:150,1,430,0|0,3:0|2:0,3:0:0:0:
0,6,145570,70,0,B|6:23|6:23|143:20|138:167,1,232.199992913819,4|0,2:3|2:0,0:0:0:0:
203,199,145878,2,0,B|202:210|202:210|127:245,1,77.3999976379395,4|0,2:3|2:0,0:0:0:0:
36,158,146031,6,0,P|2:120|50:147,2,154.799995275879,4|0|0,2:3|2:0|2:0,0:0:0:0:
166,337,146493,102,0,B|162:202|-42:210|-27:311|24:309,1,270.899991732788,4|0,2:3|2:0,0:0:0:0:
70,367,146801,38,0,P|111:344|161:341,1,94.600002886963,8|0,1:2|2:0,0:0:0:0:
395,303,146955,6,0,B|400:287|400:287|397:281|397:281|402:259,5,34.4,0|0|0|0|0|0,3:0|2:0|2:0|2:0|2:0|2:0,0:0:0:0:
502,328,147416,102,0,B|430:353|366:284|434:290|364:226|281:256,2,232.199992913819,0|0|0,3:0|3:0|3:0,0:0:0:0:
499,165,148031,70,0,B|500:190|500:190|411:207|305:258,1,232.199992913819,4|0,2:3|2:0,0:0:0:0:
389,180,148339,2,0,P|404:215|416:252,1,77.3999976379395,0|0,2:0|2:0,0:0:0:0:
354,360,148493,6,0,P|428:336|505:338,2,154.799995275879,4|0|0,2:3|2:0|2:0,0:0:0:0:
285,64,148955,102,0,P|241:142|357:116,1,270.899991732788,4|0,2:3|2:0,0:0:0:0:
512,11,149262,38,0,B|390:1|352:115|352:115|477:84|568:311|469:394|207:368|334:241|365:253,1,662.200020208741,8|0,1:2|2:0,0:0:0:0:
505,338,149878,6,0,P|501:313|481:298,1,51.599998425293,2|0,2:2|2:0,0:0:0:0:
350,250,150031,2,0,P|319:235|285:239,1,68.8,2|0,2:2|2:0,0:0:0:0:
139,302,150185,2,0,P|103:325|86:364,1,86,4|0,2:3|2:0,0:0:0:0:
232,369,150339,102,0,P|249:335|219:358,1,103.199996850586,0|0,3:0|2:0,0:0:0:0:
78,228,150493,70,0,B|49:177|-16:165|-16:165|46:168|91:130,1,232.199992913819,4|0,2:3|2:0,0:0:0:0:
146,186,150801,2,0,P|186:186|250:199,1,77.3999976379395,0|0,2:0|2:0,0:0:0:0:
319,47,150955,6,0,P|236:51|222:129,2,154.799995275879,4|0|0,2:3|2:0|2:0,0:0:0:0:
0,22,151416,102,0,B|-7:70|77:166|195:118|170:25|96:38|79:108,1,270.899991732788,4|0,2:3|2:0,0:0:0:0:
15,199,151724,38,0,B|22:215|22:215|99:231,1,94.600002886963,8|0,1:2|2:0,0:0:0:0:
90,191,151878,2,0,B|87:208|87:208|17:243,1,94.600002886963,0|0,3:0|2:0,0:0:0:0:
45,374,152031,6,0,P|58:323|97:302,1,68.8,2|0,2:2|2:0,0:0:0:0:
146,326,152185,2,0,P|193:277|251:278,1,94.600002886963,2|0,2:2|2:0,0:0:0:0:
488,375,152339,102,0,B|382:383|331:304|331:304|370:332|413:322|413:322|426:350,2,283.800008660889,2|2|0,2:2|2:2|2:0,0:0:0:0:
413,44,152955,70,0,P|508:45|497:165,1,232.199992913819,4|0,2:3|2:0,0:0:0:0:
438,189,153262,2,0,B|425:173|425:173|435:113,1,77.3999976379395,0|0,2:0|2:0,0:0:0:0:
512,165,153416,6,0,B|504:183|504:183|425:185|395:248,2,154.799995275879,4|0|0,2:3|2:0|2:0,0:0:0:0:
193,7,153878,102,0,B|285:12|358:100|358:100|309:85|277:125,1,270.899991732788,4|0,2:3|2:0,0:0:0:0:
492,60,154185,38,0,B|431:-21|198:27|190:141|290:247|346:162,1,421.399987139893,8|0,1:2|2:0,0:0:0:0:
438,189,154801,6,0,B|479:206|479:206|340:182|250:296,1,283.800008660889,4|0,2:3|2:0,0:0:0:0:
351,356,155108,102,0,P|362:325|335:349,1,94.600002886963,0|0,3:0|2:0,0:0:0:0:
199,220,155262,2,0,P|148:221|124:269,1,94.600002886963,0|0,3:0|2:0,0:0:0:0:
158,354,155416,70,0,B|138:372|138:372|143:240|2:247,1,232.199992913819,4|0,2:3|2:0,0:0:0:0:
52,340,155724,2,0,P|29:359|36:330,1,77.3999976379395,0|0,2:0|2:0,0:0:0:0:
260,143,155878,6,0,B|185:168|186:240|186:240|208:224,2,154.799995275879,4|0|0,2:3|2:0|2:0,0:0:0:0:
32,78,156339,102,0,B|8:147|96:180|96:180|167:106|97:50,1,270.899991732788,4|0,2:3|2:0,0:0:0:0:
6,0,156647,38,0,B|91:78|225:39|225:39|193:32|168:6,1,283.800008660889,8|0,1:2|2:0,0:0:0:0:
398,12,156955,6,0,B|474:26|488:97|488:97|461:51|408:50,1,223.599989764405,2|0,2:2|2:0,0:0:0:0:
415,51,157262,102,0,B|350:81|350:81|337:111,1,94.600002886963,2|0,2:2|2:0,0:0:0:0:
307,112,157416,2,0,P|346:145|368:185,1,94.600002886963,2|0,2:2|2:0,0:0:0:0:
458,174,157570,6,0,L|433:236,2,51.599998425293,2|0|0,2:2|2:0|2:0,0:0:0:0:
512,259,157878,54,0,B|402:262|314:330|314:330|281:315,1,232.199992913819,4|0,2:3|2:0,0:0:0:0:
229,285,158185,2,0,P|208:264|232:279,1,77.3999976379395,0|0,2:0|2:0,0:0:0:0:
450,313,158339,6,0,P|365:271|283:239,2,154.799995275879,4|0|0,2:3|2:0|2:0,0:0:0:0:
458,174,158801,102,0,B|434:92|509:53|509:53|543:130|462:177,1,270.899991732788,4|0,2:3|2:0,0:0:0:0:
371,174,159108,38,0,B|250:196|196:50|262:-23|305:18|268:70,1,283.800008660889,4|0,2:3|2:0,0:0:0:0:
358,89,159416,6,0,P|262:118|158:168,1,189.200005773926,2|0,2:2|2:0,0:0:0:0:
181,154,159724,102,0,B|165:163|165:163|80:132,1,94.600002886963,2|0,2:2|2:0,0:0:0:0:
71,116,159878,2,0,L|86:220,1,94.600002886963,2|0,2:2|2:0,0:0:0:0:
158,69,160031,6,0,P|128:49|120:15,1,51.599998425293,4|0,2:3|2:0,0:0:0:0:
105,232,160185,2,0,P|75:251|67:285,1,51.599998425293,0|0,3:0|2:0,0:0:0:0:
0,109,160339,54,0,B|17:132|17:132|150:143|217:200,1,232.199992913819,4|0,2:3|2:0,0:0:0:0:
269,236,160647,2,0,B|266:253|266:253|196:281,1,77.3999976379395,0|0,2:0|2:0,0:0:0:0:
11,316,160801,6,0,B|46:341|43:383|43:383|54:343|116:329,2,154.799995275879,4|0|0,2:3|2:0|2:0,0:0:0:0:
145,110,161262,102,0,B|118:63|158:0|158:0|92:34|83:101|128:147,1,270.899991732788,4|0,2:3|2:0,0:0:0:0:
62,196,161570,38,0,B|72:254|140:285|129:204|218:242|205:297,1,189.200005773926,4|0,2:3|2:0,0:0:0:0:
205,279,161878,6,0,B|183:170|308:65|428:177|317:242|298:188,1,283.800008660889,2|0,2:2|2:0,0:0:0:0:
462,100,162185,102,0,B|504:155|506:218|346:235|381:131|221:254|320:332,1,361.199988977051,2|0,2:2|2:0,0:0:0:0:
311,324,162801,5,4,2:3:0:0:
5,51,164955,102,0,P|36:36|87:28,1,77.3999976379395,2|0,2:2|2:0,0:0:0:0:
70,46,165108,2,0,P|44:51|21:62,1,51.6,2|0,2:2|2:0,0:0:0:0:
0,137,165262,6,0,B|9:190|65:220|81:173|81:173|93:176|93:176|109:83|194:58|194:58|224:-5|241:110|208:108|208:108|177:139|177:162|201:216|114:268|298:137|335:304|141:213|158:369|158:369|137:261|202:189|202:189|291:167|309:132|309:132|311:105|325:149|325:149|370:137|430:219|325:231|325:231|434:150|358:63|477:2|477:2|525:-21|563:38|508:79|508:79|485:95|449:94|401:155,1,1805.31198237,4|0,3:3|2:0,0:0:0:0:
