osu file format v14

[General]
AudioFilename: audio.mp3
AudioLeadIn: 0
PreviewTime: 103047
Countdown: 0
SampleSet: Soft
StackLeniency: 0.7
Mode: 0
LetterboxInBreaks: 0
WidescreenStoryboard: 1

[Editor]
DistanceSpacing: 1
BeatDivisor: 4
GridSize: 32
TimelineZoom: 5.199997

[Metadata]
Title:Adrifting On The Celestial Sea
TitleUnicode:Adrifting On The Celestial Sea
Artist:factal
ArtistUnicode:factal
Creator:funny
Version:01110000 01101111 01100111
Source:
Tags:ToM5FNM4 Torneo osu!Mexico tin frog tin_frog xiqingwa silverboxer monsieursebas nik nikolomara dubstep future bass electronic instrumental edm dance music drumstep glitchstep step
BeatmapID:3832127
BeatmapSetID:1863474

[Difficulty]
HPDrainRate:5
CircleSize:4
OverallDifficulty:9
ApproachRate:9.5
SliderMultiplier:1.4
SliderTickRate:1

[Events]
//Background and Video events
0,0,"kdfgjsh fsd.png",0,0
//Break Periods
2,103246,113816
//Storyboard Layer 0 (Background)
//Storyboard Layer 1 (Fail)
//Storyboard Layer 2 (Pass)
//Storyboard Layer 3 (Foreground)
//Storyboard Layer 4 (Overlay)
//Storyboard Sound Samples

[TimingPoints]
1400,352.941176470588,4,2,0,100,1,0
23988,-166.666666666667,4,2,0,40,0,0
29635,-111.111111111111,4,2,0,40,0,0
35282,-66.6666666666667,4,2,0,50,0,0
45164,-1000,4,2,0,60,0,0
46223,-33.3333333333333,4,2,0,60,0,0
46576,-28.5714285714286,4,2,0,60,0,0
46929,-100,4,2,0,60,0,0
47282,-40,4,2,0,60,0,0
47635,-50,4,2,0,60,0,0
48164,-33.3333333333333,4,2,0,60,0,0
48517,-33.3333333333333,4,2,0,60,0,0
48694,-200,4,2,0,60,0,0
49047,-33.3333333333333,4,2,0,60,0,0
49399,-66.6666666666667,4,2,0,60,0,0
49752,-50,4,2,0,60,0,0
50105,-34.8432055749129,4,2,0,60,0,0
50635,-43.4782608695652,4,2,0,60,0,0
51341,-90.9090909090909,4,2,0,60,0,0
51517,-33.3333333333333,4,2,0,60,0,0
51958,-50,4,2,0,60,0,0
52223,-28.5714285714286,4,2,0,60,0,0
52576,-50,4,2,0,60,0,0
52929,-40,4,2,0,60,0,0
53458,-50,4,2,0,60,0,0
53811,-33.3333333333333,4,2,0,60,0,0
54341,-200,4,2,0,60,0,0
54870,-66.6666666666667,4,2,0,60,0,0
54958,-40,4,2,0,60,0,0
55047,-66.6666666666667,4,2,0,60,0,0
55399,-43.4782608695652,4,2,0,60,0,0
55752,-37.037037037037,4,2,0,60,0,0
56282,-50,4,2,0,60,0,0
57164,-35.7142857142857,4,2,0,60,0,0
58223,-66.6666666666667,4,2,0,60,0,0
58576,-40,4,2,0,60,0,0
59105,-50,4,2,0,60,0,0
59458,-33.3333333333333,4,2,0,60,0,0
59988,-200,4,2,0,60,0,0
60517,-50,4,2,0,60,0,0
60605,-33.3333333333333,4,2,0,60,0,0
60694,-66.6666666666667,4,2,0,60,0,0
61047,-43.4782608695652,4,2,0,60,0,0
61399,-28.5714285714286,4,2,0,60,0,0
61929,-43.4782608695652,4,2,0,60,0,0
62282,-100,4,2,0,60,0,0
62811,-43.4782608695652,4,2,0,60,0,0
63517,-28.5714285714286,4,2,0,60,0,0
63870,-50,4,2,0,60,0,0
64223,-40,4,2,0,60,0,0
64752,-50,4,2,0,60,0,0
65105,-33.3333333333333,4,2,0,60,0,0
66341,-66.6666666666667,4,2,0,60,0,0
66694,-40,4,2,0,60,0,0
67047,-28.5714285714286,4,2,0,60,0,0
68458,-66.6666666666667,4,2,0,50,0,0
79047,-1000,4,2,0,60,0,0
80458,-28.5714285714286,4,2,0,70,0,0
80723,-40,4,2,0,70,0,0
81870,-28.5714285714286,4,2,0,70,0,0
82929,-100,4,2,0,70,0,0
83282,-28.5714285714286,4,2,0,70,0,0
83547,-40,4,2,0,70,0,0
84341,-28.5714285714286,4,2,0,70,0,0
85752,-40,4,2,0,70,0,0
86105,-28.5714285714286,4,2,0,70,0,0
86370,-40,4,2,0,70,0,0
87164,-28.5714285714286,4,2,0,70,0,0
89194,-40,4,2,0,70,0,0
89988,-28.5714285714286,4,2,0,70,0,0
92017,-40,4,2,0,70,0,0
92811,-28.5714285714286,4,2,0,70,0,0
93870,-200,4,2,0,70,0,0
94223,-40,4,2,0,70,0,0
95635,-28.5714285714286,4,2,0,70,0,0
96694,-200,4,2,0,70,0,0
97047,-66.6666666666667,4,2,0,70,0,0
97399,-28.5714285714286,4,2,0,70,0,0
97664,-40,4,2,0,70,0,0
98458,-28.5714285714286,4,2,0,70,0,0
99076,-40,4,2,0,70,0,0
99517,-200,4,2,0,70,0,0
99870,-28.5714285714286,4,2,0,70,0,0
100399,-40,4,2,0,70,0,0
102341,-66.6666666666667,4,2,0,70,0,0
114341,-166.666666666667,4,2,0,30,0,0
119988,-111.111111111111,4,2,0,30,0,0
125635,-66.6666666666667,4,2,0,50,0,0
135517,-1000,4,2,0,50,0,0
136576,-25,4,2,0,50,0,0
136929,-100,4,2,0,50,0,0
137635,-66.6666666666667,4,2,0,50,0,0
139223,-200,4,2,0,50,0,0
139399,-50,4,2,0,50,0,0
139752,-100,4,2,0,60,0,0
141076,-66.6666666666667,4,2,0,60,0,0
142047,-200,4,2,0,60,0,0
142223,-50,4,2,0,60,0,0
144870,-200,4,2,0,60,0,0
145047,-50,4,2,0,60,0,0
147694,-200,4,2,0,60,0,0
147870,-40,4,2,0,60,0,0
148223,-50,4,2,0,60,0,0
150517,-200,4,2,0,60,0,0
150694,-50,4,2,0,60,0,0
153341,-200,4,2,0,60,0,0
153517,-50,4,2,0,60,0,0
156164,-200,4,2,0,60,0,0
156341,-50,4,2,0,60,0,0
159517,-333.333333333333,4,2,0,50,0,0

[Colours]
Combo1 : 64,255,0
Combo2 : 191,255,191

[HitObjects]
0,263,23988,6,0,L|55:272,1,41.9999987182618,4|0,1:2|3:0,0:0:0:0:
94,366,24341,2,0,L|149:357,1,41.9999987182618,0|0,3:2|3:0,0:0:0:0:
277,221,24694,1,8,1:2:0:0:
109,170,24870,1,0,3:0:0:0:
148,366,25047,2,0,B|160:294|190:323|204:242,1,125.999996154785,0|0,1:0|3:0,0:0:0:0:
103,178,25752,2,0,L|118:234,1,41.9999987182618,8|0,1:2|0:0,0:0:0:0:
264,336,26105,1,0,1:0:0:0:
264,336,26635,1,8,1:2:0:0:
381,289,26811,6,0,L|328:271,1,41.9999987182618,0|0,1:0|3:0,0:0:0:0:
471,370,27164,2,0,L|511:357,1,41.9999987182618,0|0,3:0|3:0,0:0:0:0:
476,244,27517,1,8,1:2:0:0:
364,370,27694,1,0,3:0:0:0:
254,248,27870,2,0,P|248:198|268:151,1,83.9999974365235,0|4,1:0|1:2,0:0:0:0:
243,160,28576,5,0,3:0:0:0:
262,243,28752,1,0,3:0:0:0:
164,216,28929,5,2,1:2:0:0:
345,186,29105,1,2,3:2:0:0:
273,31,29282,1,2,3:2:0:0:
160,101,29458,1,2,3:2:0:0:
246,174,29635,6,0,L|257:107,1,62.9999980773926,0|0,1:0|3:0,0:0:0:0:
418,145,29988,2,0,L|429:80,1,62.9999980773926,0|0,3:0|3:0,0:0:0:0:
365,8,30341,1,8,1:2:0:0:
511,80,30517,1,0,3:0:0:0:
358,263,30694,2,0,P|413:198|513:203,1,188.999994232178,0|0,1:0|3:0,0:0:0:0:
508,324,31399,2,0,L|433:304,1,62.9999980773926,8|0,1:2|0:0,0:0:0:0:
244,258,31752,1,0,1:0:0:0:
244,258,32282,1,8,1:2:0:0:
296,355,32458,5,0,1:0:0:0:
329,224,32635,1,0,3:2:0:0:
152,196,32811,1,0,3:0:0:0:
177,322,32988,1,0,3:0:0:0:
254,249,33164,6,0,L|202:256,1,31.4999990386963,8|0,1:2|0:0,0:0:0:0:
92,318,33341,2,0,L|40:325,1,31.4999990386963,8|0,1:2|0:0,0:0:0:0:
2,263,33517,1,0,3:0:0:0:
272,384,33870,5,0,1:0:0:0:
240,0,34223,5,4,1:2:0:0:
179,266,34576,5,2,1:2:0:0:
319,111,34752,1,2,3:2:0:0:
287,223,34929,1,2,1:2:0:0:
226,160,35105,1,2,3:2:0:0:
251,367,35282,6,0,L|260:293,1,52.5000020027161,0|0,1:0|0:0,0:0:0:0:
381,205,35458,1,0,3:0:0:0:
368,201,35546,1,0,3:0:0:0:
373,192,35635,2,0,L|382:266,1,52.5000020027161,0|0,1:0|0:0,0:0:0:0:
434,357,35811,2,0,L|443:283,1,52.5000020027161,0|0,3:0|0:0,0:0:0:0:
512,258,35988,5,0,1:0:0:0:
427,335,36164,2,0,L|353:344,1,52.5000020027161,0|0,3:0|0:0,0:0:0:0:
210,259,36341,1,0,1:0:0:0:
175,234,36429,1,0,3:0:0:0:
105,257,36517,1,0,3:0:0:0:
89,335,36605,1,0,3:0:0:0:
158,373,36694,6,0,L|232:364,1,52.5000020027161,0|0,1:0|0:0,0:0:0:0:
22,240,36870,1,0,3:0:0:0:
18,227,36958,1,0,3:0:0:0:
9,232,37047,2,0,L|83:241,1,52.5000020027161,0|0,1:0|0:0,0:0:0:0:
108,159,37223,2,0,L|182:150,1,52.5000020027161,0|0,3:0|0:0,0:0:0:0:
59,89,37399,5,0,1:0:0:0:
119,168,37576,2,0,L|193:159,1,52.5000020027161,0|0,3:0|0:0,0:0:0:0:
241,0,37752,1,0,1:0:0:0:
216,35,37840,1,0,3:0:0:0:
239,105,37928,1,0,3:0:0:0:
317,121,38016,1,0,3:0:0:0:
373,45,38105,6,0,P|332:35|310:16,1,52.5000020027161,0|0,1:0|0:0,0:0:0:0:
385,181,38282,1,0,3:0:0:0:
399,197,38370,1,0,3:0:0:0:
401,185,38458,2,0,P|364:206|335:209,1,52.5000020027161,0|0,1:0|0:0,0:0:0:0:
512,212,38635,2,0,P|500:253|482:275,1,52.5000020027161,0|0,3:0|0:0,0:0:0:0:
436,101,38811,5,0,1:0:0:0:
494,161,38988,2,0,P|503:186|505:212,1,52.5000020027161,0|0,3:0|0:0,0:0:0:0:
445,373,39164,1,0,1:0:0:0:
437,330,39252,1,0,3:0:0:0:
372,297,39340,1,0,3:0:0:0:
305,341,39428,1,0,3:0:0:0:
227,375,39517,6,0,P|198:358|181:325,1,52.5000020027161,0|0,1:0|0:0,0:0:0:0:
183,169,39694,1,0,3:0:0:0:
165,164,39782,1,0,3:0:0:0:
178,155,39870,2,0,P|177:188|157:219,1,52.5000020027161,0|0,1:0|0:0,0:0:0:0:
2,313,40047,2,0,P|31:297|67:299,1,52.5000020027161,0|0,3:0|0:0,0:0:0:0:
137,282,40223,5,0,1:0:0:0:
137,282,40399,5,0,3:0:0:0:
154,259,40488,1,0,3:0:0:0:
206,245,40576,1,0,1:0:0:0:
265,273,40664,1,0,3:0:0:0:
336,265,40752,1,0,3:0:0:0:
365,192,40841,1,0,3:0:0:0:
323,128,40929,6,0,P|332:160|352:190,1,52.5000020027161,8|0,1:2|0:0,0:0:0:0:
450,197,41105,1,0,3:0:0:0:
251,229,41282,6,0,P|279:245|315:252,1,52.5000020027161,8|0,1:2|0:0,0:0:0:0:
428,111,41458,1,0,3:0:0:0:
453,211,41635,6,0,P|485:202|515:182,1,52.5000020027161,8|0,1:2|0:0,0:0:0:0:
271,49,41811,1,0,3:0:0:0:
445,98,41988,6,0,P|461:69|468:33,1,52.5000020027161,8|0,1:2|0:0,0:0:0:0:
193,105,42164,1,0,3:0:0:0:
289,187,42341,6,0,P|280:154|260:125,1,52.5000020027161,8|0,1:2|0:0,0:0:0:0:
103,114,42517,1,0,3:0:0:0:
241,261,42694,6,0,P|212:244|176:237,1,52.5000020027161,8|0,1:2|0:0,0:0:0:0:
3,344,42870,1,0,3:0:0:0:
87,126,43047,6,0,P|70:154|63:190,1,52.5000020027161,8|0,1:2|0:0,0:0:0:0:
295,369,43223,1,0,3:0:0:0:
418,141,43399,6,0,P|410:116|397:94,1,52.5000020027161,8|0,1:2|0:0,0:0:0:0:
198,331,43575,1,0,3:0:0:0:
477,370,43752,5,8,1:2:0:0:
487,362,43841,1,0,3:0:0:0:
495,337,43929,1,8,1:2:0:0:
486,300,44017,1,0,3:0:0:0:
427,290,44105,1,8,1:2:0:0:
385,316,44194,1,0,3:0:0:0:
345,302,44282,1,8,1:2:0:0:
320,243,44370,1,0,3:0:0:0:
352,178,44458,5,8,1:2:0:0:
362,180,44547,1,0,3:0:0:0:
371,182,44635,1,8,1:2:0:0:
382,184,44723,1,0,3:0:0:0:
458,208,44811,5,8,1:2:0:0:
447,129,44899,1,0,3:0:0:0:
375,96,44988,1,8,1:2:0:0:
299,115,45076,1,0,3:0:0:0:
286,105,45164,6,0,L|282:77,1,28,0|4,1:0|1:2,0:0:0:0:
282,77,46223,6,0,L|294:16,1,52.5000020027161,2|0,1:3|3:0,0:0:0:0:
356,94,46311,2,0,L|368:33,1,52.5000020027161,2|0,3:3|3:0,0:0:0:0:
431,109,46399,2,0,L|443:48,2,52.5000020027161,2|0|2,3:3|3:0|3:3,0:0:0:0:
512,15,46576,6,0,B|517:106|321:66|383:227,1,245.000002336502,4|0,1:0|3:0,0:0:0:0:
415,384,46841,1,0,3:0:0:0:
494,322,46929,2,0,L|374:281,1,105,0|0,3:0|0:0,0:0:0:0:
363,321,47282,6,0,B|306:311|314:256|314:256,1,87.5,8|0,1:2|0:0,0:0:0:0:
463,225,47458,2,0,B|520:215|512:160|512:160,1,87.5,0|0,3:2|0:0,0:0:0:0:
427,24,47635,5,0,1:0:0:0:
468,42,47694,5,0,3:0:0:0:
469,69,47752,5,0,3:0:0:0:
459,79,47811,6,0,B|377:91|405:117|327:133,1,140,10|0,0:2|3:0,0:0:0:0:
169,87,48076,2,0,L|134:74,1,35,0|0,3:0|3:0,0:0:0:0:
112,76,48164,2,0,B|80:0|175:5|175:5,1,105.000004005432,0|0,0:0|3:0,0:0:0:0:
260,70,48341,1,0,1:0:0:0:
260,70,48517,6,0,P|246:120|234:171,1,105.000004005432,2|0,0:3|0:0,0:0:0:0:
52,315,48694,2,0,L|62:349,1,35,8|2,1:2|0:3,0:0:0:0:
138,314,48958,1,2,3:3:0:0:
41,308,49047,6,0,P|49:283|68:265,1,52.5000020027161,0|0,3:0|3:0,0:0:0:0:
12,283,49135,2,0,P|32:266|57:259,1,52.5000020027161,0|0,3:0|3:0,0:0:0:0:
8,227,49223,2,0,P|33:222|58:229,1,52.5000020027161,0|0,1:0|3:0,0:0:0:0:
48,124,49311,2,0,P|72:132|90:151,1,52.5000020027161,0|0,3:0|3:0,0:0:0:0:
59,42,49399,6,0,B|9:38|-10:5|-10:5|6:40|-26:88,1,157.500006008148,0|0,1:0|0:0,0:0:0:0:
54,131,49752,6,0,B|147:143|117:165|191:171,1,140,2|0,0:3|0:0,0:0:0:0:
244,324,50017,1,2,0:3:0:0:
193,384,50105,2,0,P|148:377|134:302,1,100.450003103809,8|0,1:2|0:0,0:0:0:0:
178,247,50282,5,2,3:3:0:0:
183,256,50370,1,0,3:0:0:0:
170,252,50458,1,2,1:3:0:0:
258,205,50635,2,0,L|20:251,1,241.500004606247,2|0,3:3|0:0,0:0:0:0:
52,236,50988,6,0,L|32:299,2,40.2500007677078,0|0|0,3:0|3:0|3:0,0:0:0:0:
256,285,51164,2,0,L|236:348,2,40.2500007677078,0|0|0,1:0|3:0|3:0,0:0:0:0:
460,334,51341,2,0,L|448:370,1,38.5000011749268,0|0,3:0|0:0,0:0:0:0:
481,379,51517,6,0,P|443:326|472:263,1,105.000004005432,8|0,1:2|0:0,0:0:0:0:
419,122,51694,2,0,P|428:70|409:120,1,157.500006008148,0|0,1:2|0:2,0:2:0:0:
409,134,51870,5,2,3:3:0:0:
466,202,51958,2,0,L|542:220,2,70,2|0|0,3:3|1:0|0:0,3:0:0:0:
384,231,52223,6,0,B|363:92|334:136|303:-2,1,245.000002336502,4|2,1:0|0:3,0:0:0:0:
512,51,52488,1,2,3:3:0:0:
431,84,52576,6,0,L|455:108,1,35,2|0,3:3|3:0,3:0:0:0:
415,80,52664,2,0,L|381:88,1,35,0|0,3:0|3:0,3:0:0:0:
428,63,52752,2,0,L|437:29,1,35,0|0,3:0|3:0,3:0:0:0:
329,154,52929,6,0,B|275:179|256:119|256:119,1,87.5,8|0,1:2|0:0,0:0:0:0:
172,128,53105,2,0,B|116:106|145:50|145:50,1,87.5,0|0,3:2|0:0,0:0:0:0:
223,13,53282,5,0,1:0:0:0:
226,20,53341,5,0,3:0:0:0:
229,29,53399,5,0,3:0:0:0:
232,38,53458,6,0,L|204:182,1,140,10|0,0:2|3:0,0:0:0:0:
61,352,53723,2,0,L|-1:365,1,35,0|0,3:0|3:0,0:0:0:0:
0,324,53811,2,0,B|66:338|22:360|130:380,1,105.000004005432,0|0,3:0|3:0,0:0:0:0:
144,301,53988,1,0,1:0:0:0:
144,301,54164,6,0,P|139:242|119:182,1,105.000004005432,2|0,0:3|0:0,0:0:0:0:
33,97,54341,2,0,L|0:88,1,35,8|2,1:2|0:3,0:0:0:0:
0,166,54605,1,2,3:3:0:0:
43,94,54694,5,2,3:3:0:0:
76,135,54782,1,0,3:0:0:0:
158,153,54870,2,0,P|155:138|150:121,1,26.2500010013581,0|0,3:0|3:0,3:0:0:0:
239,103,54958,2,0,P|221:78|195:63,1,43.75,0|0,3:0|3:0,3:0:0:0:
148,4,55047,6,0,B|136:78|81:54|64:145,1,157.500006008148,0|0,1:0|0:0,0:0:0:0:
7,333,55399,2,0,B|48:337|68:378|68:378|49:336|84:290,1,161.000003070831,2|0,0:3|0:3,0:0:0:0:
15,253,55664,5,2,3:3:0:0:
85,310,55752,2,0,L|173:276,1,94.5000003604889,8|0,1:2|0:0,0:0:0:0:
101,210,55929,5,0,3:0:0:0:
91,212,56017,1,2,3:0:0:0:
103,219,56105,1,0,1:0:0:0:
236,383,56282,2,0,B|229:287|276:281|256:174,1,210,2|0,0:2|0:0,0:0:0:0:
269,97,56635,5,8,3:2:0:0:
269,97,56723,1,8,3:2:0:0:
336,153,56811,1,0,1:0:0:0:
183,125,56899,1,8,3:2:0:0:
281,9,56988,1,8,3:2:0:0:
256,176,57164,6,0,L|273:288,1,97.9999970092774,8|0,1:2|0:0,0:0:0:0:
152,312,57341,5,0,1:0:0:0:
168,319,57429,1,0,3:0:0:0:
160,324,57517,2,0,P|159:249|194:211,1,97.9999970092774,2|0,0:3|0:0,0:0:0:0:
364,259,57694,2,0,P|372:306|354:351,1,97.9999970092774,0|0,1:3|0:0,0:0:0:0:
250,362,57870,5,4,1:0:0:0:
507,184,58047,1,0,3:0:0:0:
507,184,58105,5,0,3:0:0:0:
507,184,58164,5,0,3:0:0:0:
507,184,58223,6,0,B|409:200|437:157|323:175,1,157.500006008148,0|0,3:0|0:0,0:0:0:0:
326,160,58576,6,0,B|303:135|308:114|308:114|323:138|349:152,1,87.5,8|0,1:2|0:0,0:0:0:0:
400,84,58752,2,0,B|401:51|419:39|419:39|413:67|422:95,1,87.5,0|0,3:2|0:0,0:0:0:0:
458,341,58929,1,0,1:0:0:0:
445,351,59017,1,0,3:0:0:0:
458,359,59105,6,0,P|440:305|431:206,1,140,10|0,3:2|3:0,0:0:0:0:
253,215,59370,2,0,L|218:202,1,35,0|0,3:0|3:0,0:0:0:0:
211,181,59458,2,0,B|131:197|185:276|185:276,1,105.000004005432,0|0,3:0|3:0,0:0:0:0:
359,287,59635,5,0,1:0:0:0:
359,287,59811,2,0,B|240:304,1,105.000004005432,2|0,0:3|0:0,0:0:0:0:
34,357,59988,2,0,L|-5:351,1,35,8|2,1:2|3:3,0:0:0:0:
107,384,60252,1,2,3:3:0:0:
158,326,60341,5,2,3:3:0:0:
144,252,60429,1,0,3:0:0:0:
72,213,60517,2,0,P|75:198|110:170,1,35,0|0,3:0|3:0,3:0:0:0:
15,121,60605,2,0,P|55:93|79:95,1,52.5000020027161,0|0,3:0|3:0,3:0:0:0:
129,44,60694,6,0,P|96:88|114:36,1,157.500006008148,0|0,1:0|0:0,0:0:0:0:
160,162,61047,6,0,B|128:251|105:189|63:298,1,161.000003070831,2|0,0:3|0:0,0:0:0:0:
228,351,61311,1,2,0:3:0:0:
307,370,61399,2,0,B|349:356|352:324|352:324|332:352|302:351,1,122.500001168251,8|0,1:2|0:3,0:0:0:0:
162,288,61576,5,2,3:3:0:0:
152,290,61664,1,2,3:0:0:0:
164,297,61752,1,0,1:0:0:0:
2,354,61929,6,0,P|101:327|240:308,1,241.500004606247,2|0,3:3|0:0,0:0:0:0:
358,229,62282,6,0,L|347:264,1,35,8|8,3:2|3:2,0:0:0:0:
404,312,62458,5,0,1:0:0:0:
273,236,62547,1,8,3:2:0:0:
403,156,62635,1,8,3:2:0:0:
329,382,62811,6,0,L|312:278,1,80.5000015354157,8|0,1:2|0:0,0:0:0:0:
501,273,62988,5,0,1:0:0:0:
507,260,63076,1,0,3:0:0:0:
512,268,63164,2,0,P|482:251|405:240,1,80.5000015354157,2|0,0:3|0:3,0:0:0:0:
325,145,63341,2,0,P|364:136|400:117,1,80.5000015354157,2|0,1:3|0:3,0:0:0:0:
476,37,63517,6,0,P|435:105|480:40,1,245.000002336502,4|2,1:0|0:3,0:0:0:0:
338,60,63782,1,2,0:3:0:0:
248,29,63870,6,0,L|272:5,1,35,2|0,3:3|3:0,3:0:0:0:
244,45,63958,2,0,L|252:79,1,35,0|0,3:0|3:0,3:0:0:0:
227,32,64046,2,0,L|193:23,1,35,0|0,3:0|3:0,3:0:0:0:
308,136,64223,6,0,B|319:195|270:207|270:207,1,87.5,8|0,1:2|0:0,0:0:0:0:
289,286,64399,2,0,B|243:323|208:287|208:287,1,87.5,0|0,3:2|0:0,0:0:0:0:
61,20,64576,5,0,1:0:0:0:
20,38,64635,5,0,3:0:0:0:
19,65,64693,5,0,3:0:0:0:
29,75,64752,6,0,B|111:87|83:113|164:129,1,140,10|0,0:2|3:0,0:0:0:0:
139,354,65017,2,0,L|104:358,1,35,0|0,3:0|3:0,0:0:0:0:
82,340,65105,2,0,P|93:293|103:219,1,105.000004005432,0|0,3:0|3:0,0:0:0:0:
30,179,65282,5,0,1:0:0:0:
30,179,65458,2,0,P|-6:170|30:183,1,105.000004005432,2|0,0:3|0:0,0:0:0:0:
120,242,65635,2,0,P|246:195|337:200,1,210.000008010865,8|2,1:2|3:3,0:0:0:0:
391,162,65899,1,2,0:3:0:0:
313,214,65988,6,0,P|305:185|310:157,1,52.5000020027161,0|0,3:0|3:0,3:0:0:0:
279,165,66076,2,0,P|286:135|304:114,1,52.5000020027161,0|0,3:0|3:0,3:0:0:0:
293,84,66164,2,0,P|318:68|347:66,1,52.5000020027161,0|0,1:0|3:0,3:0:0:0:
371,26,66252,2,0,P|400:33|421:51,1,52.5000020027161,0|0,3:0|3:0,3:0:0:0:
463,121,66341,6,0,B|441:205|415:161|387:265,1,157.500006008148,4|0,1:0|0:0,0:0:0:0:
384,337,66694,2,0,B|427:341|448:384|448:384|428:340|465:291,1,175,2|0,0:3|0:3,0:0:0:0:
270,220,66958,5,2,3:3:0:0:
235,292,67047,2,0,B|260:310|258:345|258:345|261:310|303:292,1,122.500001168251,8|0,1:2|0:3,0:0:0:0:
114,146,67223,5,0,3:0:0:0:
146,213,67311,1,0,3:0:0:0:
184,186,67399,2,0,P|117:190|62:201,1,122.500001168251,0|0,1:0|0:0,0:0:0:0:
0,154,67576,1,0,3:3:0:0:
430,184,67929,5,8,3:2:0:0:
430,184,68017,1,8,3:2:0:0:
366,251,68105,1,0,1:0:0:0:
407,101,68194,1,8,3:2:0:0:
512,212,68282,1,8,3:2:0:0:
289,382,68458,6,0,L|250:44,1,315.000012016297,8|0,1:2|0:0,0:0:0:0:
238,58,69047,5,0,3:0:0:0:
260,43,69105,5,0,3:0:0:0:
251,25,69164,6,0,L|240:82,1,52.5000020027161,0|0,1:0|0:0,0:0:0:0:
150,140,69341,1,0,3:0:0:0:
171,136,69429,1,0,3:0:0:0:
163,153,69517,2,0,L|152:96,1,52.5000020027161,0|0,1:0|0:0,0:0:0:0:
83,15,69694,2,0,L|72:72,1,52.5000020027161,0|0,3:0|0:0,0:0:0:0:
0,108,69870,5,0,1:2:0:0:
93,4,70047,2,0,L|82:61,1,52.5000020027161,0|0,3:0|0:0,0:0:0:0:
6,124,70223,5,0,1:0:0:0:
49,136,70311,1,0,3:0:0:0:
101,197,70399,1,0,3:0:0:0:
81,279,70488,1,0,3:0:0:0:
12,330,70576,6,0,L|-1:276,1,52.5000020027161,0|0,1:0|0:0,0:0:0:0:
170,357,70752,1,0,3:0:0:0:
149,353,70840,1,0,3:0:0:0:
157,370,70928,2,0,L|168:313,1,52.5000020027161,0|0,1:0|0:0,0:0:0:0:
325,205,71105,2,0,L|336:262,1,52.5000020027161,0|0,3:0|0:0,0:0:0:0:
421,285,71282,5,0,1:2:0:0:
352,191,71458,2,0,L|341:248,1,52.5000020027161,0|0,3:0|0:0,0:0:0:0:
254,355,71635,5,0,1:0:0:0:
268,301,71723,1,0,3:0:0:0:
218,260,71811,1,0,3:0:0:0:
199,185,71899,1,0,3:0:0:0:
259,119,71988,6,0,P|284:114|309:104,1,52.5000020027161,0|0,1:0|0:0,0:0:0:0:
381,15,72164,1,0,3:0:0:0:
366,37,72252,1,0,3:0:0:0:
364,25,72341,2,0,P|385:39|409:50,1,52.5000020027161,0|0,1:0|0:0,0:0:0:0:
498,25,72517,2,0,P|502:49|512:74,1,52.5000020027161,0|0,3:0|0:0,0:0:0:0:
391,148,72694,5,0,1:0:0:0:
512,103,72870,2,0,P|498:123|487:147,1,52.5000020027161,0|0,3:0|0:0,0:0:0:0:
491,312,73047,5,0,1:0:0:0:
497,273,73135,1,0,3:0:0:0:
436,220,73223,1,0,3:0:0:0:
352,240,73311,1,0,3:0:0:0:
401,311,73399,6,0,P|386:345|380:377,1,52.5000020027161,0|0,1:0|0:0,0:0:0:0:
243,224,73576,1,0,3:0:0:0:
260,221,73664,1,0,3:0:0:0:
253,211,73752,2,0,P|257:247|267:278,1,52.5000020027161,0|0,1:0|0:0,0:0:0:0:
145,278,73929,2,0,P|166:307|191:329,1,52.5000020027161,0|0,3:0|0:0,0:0:0:0:
275,370,74105,5,0,1:0:0:0:
275,370,74282,5,0,3:0:0:0:
253,341,74370,1,0,3:0:0:0:
215,335,74458,1,0,1:0:0:0:
170,372,74547,1,0,3:0:0:0:
93,382,74636,1,0,3:0:0:0:
46,318,74724,1,0,3:0:0:0:
102,258,74811,6,0,P|106:233|116:208,1,52.5000020027161,8|0,1:2|0:0,0:0:0:0:
275,187,74988,1,0,3:0:0:0:
30,163,75164,6,0,P|51:148|75:137,1,52.5000020027161,8|0,1:2|0:0,0:0:0:0:
274,204,75341,1,0,3:0:0:0:
95,50,75517,6,0,P|120:54|145:64,1,52.5000020027161,8|0,1:2|0:0,0:0:0:0:
260,213,75694,1,0,3:0:0:0:
212,1,75870,6,0,P|226:22|237:46,1,52.5000020027161,8|0,1:2|0:0,0:0:0:0:
246,204,76047,1,0,3:0:0:0:
64,133,76223,6,0,P|27:128|-5:134,1,52.5000020027161,8|0,1:2|0:0,3:0:0:0:
335,281,76399,1,0,3:0:0:0:
350,78,76576,6,0,P|335:44|313:19,1,52.5000020027161,8|0,1:2|0:0,3:0:0:0:
278,344,76752,1,0,3:0:0:0:
432,147,76929,6,0,P|454:117|464:86,1,52.5000020027161,8|0,1:2|0:0,3:0:0:0:
195,308,77105,1,0,3:0:0:0:
438,240,77282,6,0,P|474:244|506:238,1,52.5000020027161,8|0,1:2|0:0,3:0:0:0:
257,254,77458,1,0,3:0:0:0:
31,383,77635,5,8,1:2:0:0:
64,384,77723,1,0,3:0:0:0:
97,351,77811,1,8,1:2:0:0:
85,288,77899,1,0,3:0:0:0:
28,241,77988,5,8,1:2:0:0:
21,191,78076,1,0,3:0:0:0:
68,130,78164,1,8,1:2:0:0:
148,127,78252,1,0,3:0:0:0:
117,214,78341,5,8,1:2:0:0:
111,206,78429,1,0,3:0:0:0:
121,204,78517,1,8,1:2:0:0:
128,212,78605,1,0,3:0:0:0:
198,246,78694,5,8,1:2:0:0:
277,232,78782,1,0,3:0:0:0:
355,219,78870,1,8,1:2:0:0:
432,202,78958,1,0,3:0:0:0:
452,185,79047,6,0,P|443:204|444:226,1,42,0|0,1:0|0:0,0:0:0:0:
512,14,80458,22,0,B|475:94|405:-1|359:81,1,183.750001752377,4|0,1:0|0:0,0:0:0:0:
365,97,80635,5,0,3:0:0:0:
420,152,80723,2,0,B|446:157|459:170|459:170|459:145|437:134,1,87.5,4|0,0:2|0:0,0:0:0:0:
364,210,80899,5,0,3:0:0:0:
349,309,80988,2,0,P|360:248|376:217,1,87.5,4|0,3:2|0:0,0:2:0:0:
294,38,81164,1,8,1:2:0:0:
294,38,81517,6,0,P|276:88|300:131,1,87.5,4|0,0:2|0:0,0:0:0:0:
210,155,81694,2,0,P|244:195|293:196,1,87.5,4|0,0:2|0:0,0:0:0:0:
496,233,81870,6,0,B|487:256|487:256|366:259|265:335,1,245.000002336502,4|0,1:0|0:0,0:0:0:0:
201,325,82135,6,0,B|130:294|125:220|125:220|158:276|212:293,1,245.000002336502,4|0,0:2|0:0,0:0:0:0:
380,241,82399,2,0,B|454:269|431:343,1,122.500001168251,4|0,0:2|0:0,0:0:0:0:
360,372,82576,1,8,1:2:0:0:
213,0,82929,6,0,P|211:36|205:0,1,105,2|0,0:1|0:0,0:0:0:0:
203,80,83282,6,0,B|187:93|187:93|134:82|134:82|118:39|118:39|72:28|72:28|55:42,1,183.750001752377,4|0,1:0|0:0,0:0:0:0:
69,49,83458,5,0,3:0:0:0:
61,127,83547,2,0,B|100:150|117:144|129:91,1,87.5,4|0,3:2|0:0,0:0:0:0:
25,293,83723,5,0,3:0:0:0:
55,364,83812,2,0,B|100:364|111:350|95:298,1,87.5,4|0,3:2|0:0,0:0:0:0:
0,188,83988,1,8,1:2:0:0:
0,188,84341,6,0,B|11:208|11:208|66:197|108:234,1,122.500001168251,4|0,3:2|0:0,0:0:0:0:
187,205,84517,2,0,B|186:227|186:227|239:246|257:298,1,122.500001168251,4|0,3:2|0:0,0:0:0:0:
154,384,84694,6,0,B|184:291|319:368|356:276,1,245.000002336502,4|2,1:0|0:3,0:0:0:0:
332,118,84958,6,0,B|312:56|226:58|226:58|276:117|249:178,1,245.000002336502,4|0,3:2|0:0,0:0:0:0:
375,308,85223,2,0,P|393:343|379:305,1,122.500001168251,4|0,0:2|0:0,0:0:0:0:
336,202,85399,1,8,1:2:0:0:
336,202,85752,6,0,L|322:255,2,43.75,4|0|0,3:2|3:0|3:0,0:0:0:0:
294,243,85929,2,0,L|373:206,1,87.5,0|0,1:0|0:0,0:0:0:0:
501,53,86105,6,0,B|529:105|529:105|480:88|480:88|476:90|476:90|474:85|474:85|414:62,1,183.750001752377,4|0,1:0|0:0,0:0:0:0:
404,41,86282,5,0,3:0:0:0:
330,57,86370,2,0,P|299:56|329:46,1,87.5,4|0,0:2|0:0,0:0:0:0:
494,196,86547,5,0,3:0:0:0:
422,173,86635,2,0,P|395:156|426:162,1,87.5,4|0,0:2|0:0,0:0:0:0:
437,373,86811,1,8,1:2:0:0:
437,373,87164,6,8,B|453:310|496:340|511:275,1,122.500001168251,4|0,3:2|0:0,0:0:0:0:
371,300,87341,2,8,B|354:237|406:242|386:177,1,122.500001168251,4|0,3:2|0:0,0:0:0:0:
108,241,87517,6,0,B|209:227|266:331|195:402|108:348|189:293,1,245.000002336502,4|0,1:0|0:0,0:0:0:0:
281,269,87782,6,0,B|274:306|274:306|173:308|108:376|108:376|88:364,1,245.000002336502,4|0,3:2|0:0,0:0:0:0:
23,307,88047,2,0,B|14:288|-18:281|-18:281|17:270|49:294,1,122.500001168251,4|0,0:2|0:0,0:0:0:0:
74,376,88223,1,8,1:2:0:0:
74,376,88576,6,0,B|171:379|132:285|132:285,1,122.500001168251,4|0,3:2|0:2,0:2:0:0:
37,83,88752,2,0,B|-48:128|32:190|32:190,1,122.500001168251,4|0,3:2|0:2,0:2:0:0:
89,221,88929,6,0,P|162:193|304:188,1,183.750001752377,4|0,1:0|0:0,0:0:0:0:
257,204,89105,5,0,3:0:0:0:
185,172,89194,2,0,B|167:164|166:127|166:127|183:150|204:163,1,87.5,4|0,3:2|0:0,0:0:0:0:
251,76,89370,5,0,3:0:0:0:
331,116,89458,2,0,L|237:87,1,87.5,4|0,3:2|0:0,0:0:0:0:
17,0,89635,5,8,1:2:0:0:
17,0,89988,6,0,P|49:68|54:126,1,122.500001168251,4|0,3:2|0:0,0:0:0:0:
150,64,90164,2,0,P|143:138|119:191,1,122.500001168251,4|0,3:2|0:0,0:0:0:0:
31,276,90341,6,0,P|78:205|52:286,1,245.000002336502,4|0,1:0|0:0,0:0:0:0:
0,379,90605,6,0,P|53:330|230:308,1,245.000002336502,4|0,0:2|0:0,0:0:0:0:
298,290,90870,2,0,B|315:326|337:339|337:339|314:336|276:361,1,122.500001168251,4|0,0:2|0:0,0:0:0:0:
211,316,91047,1,8,1:2:0:0:
291,10,91223,1,2,3:3:0:0:
277,3,91311,1,2,3:3:0:0:
288,0,91399,5,2,3:1:0:0:
292,52,91488,1,0,3:0:0:0:
342,88,91576,1,0,1:0:0:0:
416,76,91664,1,0,3:0:0:0:
450,1,91752,5,6,1:0:0:0:
452,164,91929,1,0,3:0:0:0:
465,184,92017,2,0,B|485:188|485:188|509:145|509:145|497:124,1,87.5,4|0,3:2|0:0,0:0:0:0:
288,221,92194,1,0,3:0:0:0:
366,238,92282,2,0,B|382:226|382:226|369:179|369:179|351:173,1,87.5,4|0,3:2|0:0,0:0:0:0:
512,367,92458,1,8,1:2:0:0:
503,369,92811,6,0,P|495:328|512:367,1,122.500001168251,2|0,3:1|0:0,0:0:0:0:
418,257,92988,2,0,P|389:284|417:256,1,122.500001168251,2|0,3:1|0:0,0:0:0:0:
306,326,93164,6,0,B|169:298|241:243|93:215,1,245.000002336502,6|0,1:0|0:0,0:0:0:0:
21,180,93429,6,0,B|-17:136|18:50|18:50|23:127|85:158,1,245.000002336502,2|0,3:1|0:0,0:0:0:0:
169,174,93694,2,0,B|167:206|167:206|108:222|79:272,1,122.500001168251,2|0,3:1|0:0,0:0:0:0:
3,311,93870,2,0,L|22:361,1,52.5,10|0,1:1|0:0,0:0:0:0:
10,385,94223,6,0,L|31:301,1,87.5,4|0,3:2|0:0,0:0:0:0:
179,382,94399,2,0,L|199:297,1,87.5,4|0,3:2|0:0,0:0:0:0:
133,93,94576,5,6,1:0:0:0:
16,24,94752,1,0,3:0:0:0:
32,16,94841,2,0,P|54:58|45:98,1,87.5,4|0,3:2|0:0,0:0:0:0:
211,71,95017,1,0,3:0:0:0:
233,145,95105,2,0,P|194:183|151:185,1,87.5,4|0,3:2|0:0,0:0:0:0:
0,226,95282,1,8,1:2:0:0:
4,228,95635,6,0,B|13:196|13:196|-17:188|-17:188|-25:219|-25:219|0:226,1,122.500001168251,2|0,3:1|0:0,0:0:0:0:
82,315,95811,2,0,B|110:299|110:299|94:272|94:272|66:288|66:288|80:311,1,122.500001168251,2|0,3:1|0:0,0:0:0:0:
3,352,95988,6,0,B|30:371|30:371|111:303|224:298,1,245.000002336502,6|2,1:0|0:3,0:0:0:0:
252,218,96252,6,0,B|258:199|258:199|214:179|193:122|193:122|191:179|158:212|158:212|172:231,1,245.000002336502,2|0,3:1|0:0,0:0:0:0:
221,383,96517,2,0,B|245:319|268:362|293:279,1,122.500001168251,2|0,3:1|0:0,0:0:0:0:
267,51,96694,1,10,1:1:0:0:
256,58,96782,1,0,3:0:0:0:
269,64,96870,1,0,3:0:0:0:
169,12,97047,6,0,L|177:63,1,52.5000020027161,4|0,3:2|0:0,0:0:0:0:
352,43,97223,2,0,L|360:94,1,52.5000020027161,4|0,3:2|0:0,0:0:0:0:
287,147,97399,5,6,1:0:0:0:
463,46,97576,1,0,3:0:0:0:
438,42,97664,2,0,B|416:51|402:68|402:68|425:62|446:68,1,87.5,4|0,3:2|0:0,0:0:0:0:
510,156,97841,1,0,3:0:0:0:
444,207,97929,2,0,B|428:224|425:247|425:247|438:229|462:225,1,87.5,4|0,3:2|0:0,0:0:0:0:
499,334,98105,1,8,1:2:0:0:
499,334,98458,6,0,P|471:257|439:213,1,122.500001168251,2|0,3:1|0:0,0:0:0:0:
423,381,98635,2,0,P|365:323|317:296,1,122.500001168251,2|0,3:1|0:0,0:0:0:0:
353,137,98811,6,0,P|352:205|343:132,1,245.000002336502,6|0,1:1|0:0,0:0:0:0:
223,218,99076,1,2,3:1:0:0:
180,206,99164,2,0,P|226:200|266:190,1,87.5,0|0,3:1|0:0,0:0:0:0:
439,121,99341,1,2,3:1:0:0:
452,124,99429,1,0,3:1:0:0:
444,132,99517,2,0,L|465:80,1,52.5,10|0,1:0|0:0,0:0:0:0:
447,47,99870,6,0,B|469:146|469:146|452:159,1,122.500001168251,4|0,3:2|0:0,0:0:0:0:
281,0,100047,2,0,B|250:96|250:96|229:100,1,122.500001168251,4|0,3:2|0:0,0:0:0:0:
31,1,100223,5,6,1:1:0:0:
231,85,100399,1,0,3:0:0:0:
153,100,100488,2,0,P|123:107|149:91,1,87.5,4|0,3:2|0:0,0:0:0:0:
78,202,100663,1,0,3:0:0:0:
57,199,100752,2,0,P|27:190|58:190,1,87.5,4|0,3:2|0:0,0:0:0:0:
141,266,100929,1,8,1:2:0:0:
141,266,101282,6,0,B|125:318|104:295|85:358,1,87.5,4|0,3:2|0:0,0:0:0:0:
6,281,101458,2,0,B|18:334|-11:324|3:388,1,87.5,4|0,3:2|0:0,0:0:0:0:
206,334,101635,5,6,1:0:0:0:
399,200,101899,5,2,3:1:0:0:
241,58,102164,5,2,0:1:0:0:
61,217,102341,6,0,L|477:159,1,420.000016021729,8|6,1:2|1:2,0:0:0:0:
473,26,114341,6,0,L|463:69,1,41.9999987182618,4|0,1:2|3:0,0:0:0:0:
370,62,114694,2,0,L|380:112,1,41.9999987182618,0|0,3:0|3:0,0:0:0:0:
450,152,115047,1,8,1:2:0:0:
297,123,115223,1,0,3:2:0:0:
462,163,115399,2,0,P|428:172|370:243,1,125.999996154785,0|0,1:2|3:2,0:2:0:0:
471,382,116105,2,0,L|460:333,1,41.9999987182618,8|0,1:2|3:0,0:0:0:0:
502,272,116458,1,0,1:0:0:0:
511,261,116988,1,8,3:2:0:0:
388,340,117164,6,0,P|369:330|346:324,1,41.9999987182618,0|0,1:0|3:0,0:0:0:0:
246,201,117517,2,0,P|228:212|211:229,1,41.9999987182618,0|0,3:0|3:0,0:0:0:0:
275,357,117870,1,8,1:2:0:0:
129,232,118047,1,0,3:0:0:0:
7,364,118223,2,0,B|91:341,1,83.9999974365235,0|4,1:0|1:2,0:0:0:0:
85,320,118929,5,0,1:0:0:0:
166,344,119105,1,0,3:0:0:0:
8,269,119282,5,10,1:2:0:0:
133,239,119458,1,2,3:2:0:0:
175,120,119635,1,2,3:2:0:0:
128,39,119811,1,2,3:2:0:0:
43,29,119988,6,0,L|61:95,1,62.9999980773926,0|0,1:0|3:0,0:0:0:0:
193,102,120341,2,0,L|175:168,1,62.9999980773926,0|0,3:0|3:0,0:0:0:0:
5,246,120694,1,8,1:2:0:0:
77,176,120870,1,0,3:0:0:0:
176,336,121047,1,0,1:0:0:0:
98,276,121223,2,0,P|152:255|232:253,1,125.999996154785,0|0,3:0|3:0,0:0:0:0:
288,383,121752,2,0,L|300:321,1,62.9999980773926,8|0,1:2|3:0,0:0:0:0:
379,285,122105,1,0,1:0:0:0:
390,298,122635,1,8,1:2:0:0:
314,233,122811,5,0,1:0:0:0:
450,125,122988,1,0,3:0:0:0:
483,279,123164,1,0,3:0:0:0:
418,211,123341,1,0,3:0:0:0:
463,116,123517,6,0,L|456:82,1,31.4999990386963,8|0,1:2|0:0,0:0:0:0:
326,200,123694,2,0,L|319:166,1,31.4999990386963,8|0,1:2|0:0,0:0:0:0:
245,132,123870,1,0,3:0:0:0:
504,197,124223,5,0,1:0:0:0:
7,123,124576,5,4,1:2:0:0:
423,37,124929,5,10,1:2:0:0:
135,222,125105,1,2,3:2:0:0:
236,121,125282,1,2,3:2:0:0:
289,191,125458,1,2,3:2:0:0:
251,363,125635,6,0,L|260:289,1,52.5000020027161,0|0,1:0|0:0,0:0:0:0:
177,223,125811,1,0,3:0:0:0:
164,219,125899,1,0,3:0:0:0:
169,210,125988,2,0,L|178:284,1,52.5000020027161,0|0,1:0|0:0,0:0:0:0:
28,335,126164,2,0,L|21:282,1,52.5000020027161,0|0,3:0|0:0,0:0:0:0:
103,295,126341,5,0,1:0:0:0:
0,276,126517,2,0,L|6:223,1,52.5000020027161,0|0,3:0|0:0,0:0:0:0:
57,152,126694,5,0,1:0:0:0:
99,162,126782,1,0,3:0:0:0:
157,113,126870,1,0,3:0:0:0:
128,35,126958,1,0,3:0:0:0:
52,66,127047,6,0,L|-22:57,1,52.5000020027161,0|0,1:0|0:0,0:0:0:0:
192,139,127223,1,0,3:0:0:0:
188,126,127311,1,0,3:0:0:0:
179,131,127400,2,0,L|253:140,1,52.5000020027161,0|0,1:0|0:0,0:0:0:0:
328,26,127576,2,0,L|381:19,1,52.5000020027161,0|0,3:0|0:0,0:0:0:0:
448,61,127752,5,0,1:0:0:0:
258,61,127929,2,0,L|311:68,1,52.5000020027161,0|0,3:0|0:0,0:0:0:0:
499,66,128105,5,0,1:0:0:0:
444,73,128194,1,0,3:0:0:0:
394,136,128282,1,0,3:0:0:0:
421,210,128370,1,0,3:0:0:0:
502,242,128458,6,0,P|506:202|512:187,1,52.5000020027161,0|0,1:0|0:0,0:0:0:0:
343,271,128635,1,0,3:0:0:0:
361,271,128723,1,0,3:0:0:0:
361,286,128811,2,0,P|335:254|329:240,1,52.5000020027161,0|0,1:0|0:0,0:0:0:0:
367,376,128988,2,0,P|325:371|311:366,1,52.5000020027161,0|0,3:0|0:0,0:0:0:0:
448,315,129164,5,0,1:0:0:0:
285,378,129341,2,0,P|259:346|253:332,1,52.5000020027161,0|0,3:0|0:0,0:0:0:0:
245,161,129517,5,0,1:0:0:0:
248,209,129605,1,0,3:0:0:0:
214,262,129694,1,0,3:0:0:0:
138,259,129782,1,0,3:0:0:0:
73,201,129870,6,0,P|42:213|22:228,1,52.5000020027161,0|0,1:0|0:0,0:0:0:0:
50,314,130047,1,0,3:0:0:0:
65,311,130135,1,0,3:0:0:0:
61,298,130223,2,0,P|47:328|44:353,1,52.5000020027161,0|0,1:0|0:0,0:0:0:0:
156,338,130399,2,0,P|167:369|182:388,1,52.5000020027161,0|0,3:0|0:0,0:0:0:0:
138,259,130576,5,2,1:2:0:0:
138,259,130752,5,0,3:0:0:0:
158,257,130841,1,0,3:0:0:0:
192,228,130929,1,0,1:0:0:0:
191,168,131017,1,0,3:0:0:0:
112,151,131105,1,0,3:0:0:0:
68,92,131194,1,0,3:0:0:0:
99,16,131282,6,0,P|139:5|155:-2,1,52.5000020027161,8|0,1:2|0:0,0:0:0:0:
11,154,131458,1,0,3:0:0:0:
210,74,131635,6,0,P|234:83|260:89,1,52.5000020027161,8|0,1:2|0:0,0:0:0:0:
25,163,131811,1,0,3:0:0:0:
238,177,131988,6,0,P|254:197|273:215,1,52.5000020027161,8|0,1:2|0:0,0:0:0:0:
18,176,132164,1,0,3:0:0:0:
195,273,132341,6,0,P|199:298|206:323,1,52.5000020027161,8|0,1:2|0:0,0:0:0:0:
3,170,132517,1,0,3:0:0:0:
85,379,132694,6,0,P|99:340|104:321,1,52.5000020027161,8|0,1:2|0:0,0:0:0:0:
299,224,132870,1,0,3:0:0:0:
379,347,133047,6,0,P|365:308|360:289,1,52.5000020027161,8|0,1:2|0:0,0:0:0:0:
193,144,133223,1,0,3:0:0:0:
10,296,133399,6,0,P|41:269|55:255,1,52.5000020027161,8|0,1:2|0:0,0:0:0:0:
277,92,133576,1,0,3:0:0:0:
455,252,133752,6,0,P|423:225|409:211,1,52.5000020027161,8|0,1:2|0:0,0:0:0:0:
219,21,133929,1,0,3:0:0:0:
240,372,134105,5,8,1:2:0:0:
233,361,134194,1,0,3:0:0:0:
252,354,134282,5,8,1:2:0:0:
261,326,134370,1,0,3:0:0:0:
230,311,134458,5,8,1:2:0:0:
219,273,134547,1,0,3:0:0:0:
269,257,134635,5,8,1:2:0:0:
286,204,134723,1,0,3:0:0:0:
250,136,134811,5,8,1:2:0:0:
249,125,134899,1,0,3:0:0:0:
248,114,134988,1,8,1:2:0:0:
247,103,135076,1,0,3:0:0:0:
170,87,135164,5,8,1:2:0:0:
220,27,135252,1,0,3:0:0:0:
297,39,135341,1,8,1:2:0:0:
327,107,135429,1,0,3:0:0:0:
340,117,135517,6,0,L|368:112,1,28,0|4,1:0|1:2,0:0:0:0:
389,94,136576,6,0,P|443:29|391:98,1,280,4|0,1:1|3:0,0:0:0:0:
49,53,136929,6,0,L|23:30,1,35,0|0,1:0|0:0,0:0:0:0:
36,50,137105,6,0,L|68:38,1,35,0|0,3:0|0:0,0:0:0:0:
45,40,137282,6,0,L|38:74,1,35,8|0,1:2|0:0,0:0:0:0:
191,221,137458,1,0,3:0:0:0:
177,225,137547,1,0,3:0:0:0:
188,230,137635,6,0,P|177:194|162:171,1,52.5000020027161,0|0,1:0|0:0,0:0:0:0:
97,156,137811,6,0,P|133:164|161:162,1,52.5000020027161,0|0,3:0|0:0,0:0:0:0:
206,114,137988,6,0,P|180:141|167:166,1,52.5000020027161,8|0,1:2|0:0,0:0:0:0:
4,384,138164,1,0,3:0:0:0:
62,331,138252,6,0,L|32:221,1,105.000004005432,0|0,1:0|0:0,0:0:0:0:
20,225,138517,6,0,L|0:276,1,52.5000020027161,0|0,3:0|0:0,0:0:0:0:
154,384,138694,6,0,L|173:335,1,52.5000020027161,8|0,1:2|0:0,0:0:0:0:
124,249,138870,5,0,3:0:0:0:
133,269,138958,1,0,3:0:0:0:
207,298,139047,1,0,3:0:0:0:
273,256,139135,1,0,1:0:0:0:
339,302,139223,2,0,L|367:312,1,26.25,0|0,3:0|0:0,0:0:0:0:
390,291,139399,6,0,P|347:303|302:334,1,70,12|0,1:2|0:0,0:0:0:0:
242,190,139576,2,0,P|223:219|213:253,1,70,0|0,3:2|0:0,0:0:0:0:
247,333,139752,6,0,L|256:380,1,35,0|0,1:0|0:0,0:0:0:0:
376,247,139929,2,0,L|385:294,1,35,0|0,3:0|0:0,0:0:0:0:
505,338,140105,2,0,L|514:385,1,35,8|0,1:2|0:0,0:0:0:0:
464,197,140282,1,0,3:0:0:0:
450,187,140370,1,0,3:0:0:0:
456,206,140458,6,0,L|465:159,1,35,0|0,1:0|0:0,0:0:0:0:
289,247,140635,2,0,L|298:200,1,35,0|0,3:0|0:0,0:0:0:0:
169,134,140811,2,0,L|178:87,1,35,8|0,1:2|0:0,0:0:0:0:
422,92,140988,1,0,3:0:0:0:
353,47,141076,6,0,P|367:97|372:149,1,105.000004005432,0|0,1:0|0:0,0:0:0:0:
353,156,141341,2,0,P|325:133|304:125,1,52.5000020027161,0|0,3:0|0:0,0:0:0:0:
509,1,141517,2,0,P|501:25|486:47,1,52.5000020027161,8|0,1:2|0:0,0:0:0:0:
512,172,141694,5,0,3:0:0:0:
461,165,141782,1,0,3:0:0:0:
409,223,141870,1,0,3:0:0:0:
408,300,141958,1,0,1:0:0:0:
368,318,142047,2,0,L|339:307,1,26.25,0|0,3:0|0:0,0:0:0:0:
512,347,142223,6,0,L|423:372,1,70,8|0,1:2|0:0,0:0:0:0:
340,266,142399,2,0,L|251:291,1,70,0|0,1:2|0:0,0:0:0:0:
212,361,142576,6,0,B|220:326|138:319|155:277,1,105,0|0,1:0|0:0,0:0:0:0:
154,267,142752,2,0,P|173:248|155:268,1,70,0|0,3:0|0:0,0:0:0:0:
66,347,142929,2,0,P|46:329|71:335,1,70,8|0,1:2|0:0,0:0:0:0:
265,268,143105,1,0,3:0:0:0:
297,220,143194,1,0,3:0:0:0:
261,179,143282,6,0,L|310:56,1,105,0|0,1:0|0:0,0:0:0:0:
283,51,143458,2,0,P|288:91|307:123,1,70,0|0,3:0|0:0,0:0:0:0:
96,7,143635,2,0,P|80:38|77:72,1,70,8|0,1:2|0:0,0:0:0:0:
160,195,143811,1,0,3:0:0:0:
190,121,143899,6,0,B|109:150|148:165|63:197,1,140,0|0,1:0|0:0,0:0:0:0:
60,220,144164,2,0,L|12:155,1,70,0|0,3:0|0:0,0:0:0:0:
142,274,144341,1,8,1:2:0:0:
0,384,144517,5,0,3:0:0:0:
45,322,144605,1,0,3:0:0:0:
118,313,144694,1,0,3:0:0:0:
175,362,144782,1,0,1:0:0:0:
212,356,144870,2,0,L|225:333,1,26.25,0|0,3:0|0:0,0:0:0:0:
208,314,145047,6,0,L|221:382,1,70,12|0,1:2|0:0,0:0:0:0:
412,251,145223,2,0,L|425:319,1,70,0|0,3:2|0:0,0:0:0:0:
512,356,145399,6,0,P|451:336|446:304,1,70,0|0,1:0|0:0,0:0:0:0:
351,372,145576,2,0,P|325:349|321:315,1,70,0|0,3:0|0:0,0:0:0:0:
219,212,145752,2,0,P|216:177|238:151,1,70,8|0,1:2|0:0,0:0:0:0:
370,28,145929,5,0,3:0:0:0:
352,22,146017,1,0,3:0:0:0:
365,17,146105,2,0,B|371:35|371:35|349:56|345:89,1,70,0|0,1:0|0:0,0:0:0:0:
512,40,146282,2,0,B|503:56|503:56|473:56|446:76,1,70,0|0,3:0|0:0,0:0:0:0:
345,231,146458,2,0,P|333:205|359:215,1,70,8|0,1:2|0:0,0:0:0:0:
468,152,146635,1,0,3:0:0:0:
486,227,146723,6,0,P|430:184|363:164,1,140,0|0,1:0|0:0,0:0:0:0:
341,130,146988,2,0,L|271:145,1,70,0|0,3:0|0:0,0:0:0:0:
167,304,147164,2,0,L|97:319,1,70,8|0,1:2|0:0,0:0:0:0:
10,209,147341,5,0,3:0:0:0:
52,170,147429,1,0,3:0:0:0:
132,174,147517,1,0,3:0:0:0:
192,227,147605,1,0,1:0:0:0:
268,226,147694,2,0,L|297:237,1,26.25,0|0,3:0|0:0,0:0:0:0:
294,217,147870,6,0,B|278:271|265:249|251:305,1,87.5,8|0,1:2|0:0,0:0:0:0:
107,302,148047,2,0,B|133:351|109:345|138:394,1,87.5,0|0,1:2|0:0,0:0:0:0:
270,366,148223,6,0,P|224:333|189:325,1,70,0|0,1:0|0:0,0:0:0:0:
18,308,148399,2,0,P|69:284|94:258,1,70,0|0,3:0|0:0,0:0:0:0:
198,102,148576,2,0,P|192:158|202:192,1,70,8|0,1:2|0:0,0:0:0:0:
177,257,148752,1,0,3:0:0:0:
125,200,148841,1,0,3:0:0:0:
49,197,148929,6,0,L|28:119,1,70,0|0,1:0|0:0,0:0:0:0:
225,85,149105,2,0,L|204:7,1,70,0|0,3:0|0:0,0:0:0:0:
436,162,149282,2,8,L|415:84,1,70,8|0,1:2|0:0,0:0:0:0:
426,20,149458,1,0,3:0:0:0:
477,80,149547,6,0,B|453:151|427:128|402:205,1,140,0|0,1:0|0:0,0:0:0:0:
427,238,149811,2,0,P|479:245|499:255,1,70,0|0,3:0|0:0,0:0:0:0:
360,327,149988,2,0,P|383:352|397:384,1,70,8|0,1:2|0:0,0:0:0:0:
477,367,150164,5,0,3:0:0:0:
479,327,150252,1,0,3:0:0:0:
434,262,150341,1,0,3:0:0:0:
345,250,150429,1,0,1:0:0:0:
259,285,150517,2,0,L|252:313,1,26.25,0|0,3:0|0:0,3:0:0:0:
243,331,150694,6,0,L|230:241,1,70,12|0,1:2|0:0,0:0:0:0:
65,238,150870,2,0,L|54:168,1,70,0|0,3:2|0:0,0:0:0:0:
0,40,151047,6,0,P|30:22|56:0,1,70,0|0,1:0|0:0,0:0:0:0:
102,91,151223,2,0,P|135:99|170:102,1,70,0|0,3:0|0:0,0:0:0:0:
46,183,151399,2,0,P|63:213|86:239,1,70,8|0,1:2|0:0,0:0:0:0:
5,309,151576,5,0,3:0:0:0:
45,374,151664,1,0,3:0:0:0:
117,358,151752,2,0,B|126:325|142:333|154:296,1,70,0|0,1:0|0:0,0:0:0:0:
68,197,151929,2,0,B|97:180|103:197|138:179,1,70,0|0,3:0|0:0,0:0:0:0:
214,36,152105,2,0,B|247:45|239:61|276:73,1,70,8|0,1:2|0:0,0:0:0:0:
289,216,152282,1,0,3:0:0:0:
234,163,152370,6,0,L|389:195,1,140,0|0,1:0|0:0,0:0:0:0:
388,200,152635,2,0,P|375:166|371:115,1,70,0|0,3:0|0:0,0:0:0:0:
512,101,152811,2,0,P|478:86|439:52,1,70,8|0,1:2|0:0,0:0:0:0:
387,0,152988,5,0,3:0:0:0:
329,70,153076,1,0,3:0:0:0:
250,79,153164,1,0,3:0:0:0:
189,33,153252,1,0,1:0:0:0:
128,51,153341,2,0,L|109:73,1,26.25,0|0,3:0|0:0,0:0:0:0:
31,69,153517,6,0,P|34:34|57:9,1,70,8|0,1:2|0:0,0:0:0:0:
200,146,153694,2,0,P|166:147|140:170,1,70,0|0,1:2|0:0,0:0:0:0:
1,159,153870,6,0,B|1:178|1:178|43:184|80:233,1,105,0|0,1:0|0:0,0:0:0:0:
82,250,154047,2,0,B|72:268|48:275|48:275|58:261|60:251,1,70,0|0,3:0|0:0,0:0:0:0:
31,374,154223,2,0,B|11:379|-10:367|-10:367|6:364|14:358,1,70,8|0,1:2|0:0,0:0:0:0:
165,244,154399,5,0,3:0:0:0:
168,325,154488,1,0,3:0:0:0:
127,351,154576,2,0,P|180:353|230:368,1,105,0|0,1:0|0:0,0:0:0:0:
267,384,154752,2,0,L|255:304,1,70,0|0,3:0|0:0,0:0:0:0:
449,256,154929,2,0,L|437:176,1,70,8|0,1:2|0:0,0:0:0:0:
433,367,155105,1,0,3:0:0:0:
512,335,155194,6,0,B|504:303|504:303|384:270,1,140,0|0,1:0|0:0,0:0:0:0:
324,232,155458,2,0,P|312:210|327:229,1,70,0|0,3:0|0:0,0:0:0:0:
500,121,155635,2,0,P|512:100|503:122,1,70,8|0,1:2|0:0,0:0:0:0:
483,219,155811,5,0,3:0:0:0:
410,188,155899,1,0,3:0:0:0:
374,117,155988,1,0,3:0:0:0:
401,36,156076,1,0,1:0:0:0:
492,15,156164,2,0,L|479:43,1,26.25,0|0,3:0|0:0,0:0:0:0:
492,70,156341,6,0,P|485:35|481:1,1,70,8|0,1:2|0:0,0:0:0:0:
323,185,156517,2,0,P|293:165|266:144,1,70,0|0,3:2|0:0,0:0:0:0:
491,223,156694,5,0,1:0:0:0:
335,292,156870,1,0,3:0:0:0:
485,384,157047,1,8,1:2:0:0:
432,285,157223,1,0,3:0:0:0:
443,293,157311,1,0,3:0:0:0:
431,297,157399,5,0,1:0:0:0:
228,341,157576,1,0,3:0:0:0:
274,122,157752,1,8,1:2:0:0:
326,236,157929,1,0,3:0:0:0:
285,247,158017,6,0,B|208:227|237:206|137:188,1,140,0|0,1:0|0:0,0:0:0:0:
124,230,158282,2,0,L|27:245,1,70,0|0,3:0|0:0,0:0:0:0:
190,112,158458,2,0,L|260:102,1,70,8|0,1:2|0:0,0:0:0:0:
214,327,158635,2,0,L|117:342,1,70,0|0,3:0|0:0,0:0:0:0:
8,157,158811,6,2,P|26:149|47:135,1,35,2|2,0:2|0:2,0:2:0:0:
87,141,158899,6,2,P|94:122|99:97,1,35,2|2,1:2|0:2,0:2:0:0:
112,95,158988,6,2,P|104:76|90:56,1,35,2|2,0:2|0:2,0:2:0:0:
107,58,159076,6,2,P|88:50|63:45,1,35,2|2,0:2|0:2,0:2:0:0:
25,22,159164,5,10,1:2:0:0:
114,383,159341,2,0,P|103:332|72:252,1,105,0|0,1:0|0:0,0:0:0:0:
84,244,159517,6,0,L|93:225,15,20.9999993591309,4|0|0|0|0|0|0|0|0|0|0|0|0|0|0|0,1:0|0:0|0:0|0:0|0:0|0:0|0:0|0:0|0:0|0:0|0:0|0:0|0:0|0:0|0:0|0:0,0:0:0:0:
170,186,162341,6,0,L|161:167,15,20.9999993591309,0|0|0|0|0|0|0|0|0|0|0|0|0|0|0|0,3:0|0:0|0:0|0:0|0:0|0:0|0:0|0:0|0:0|0:0|0:0|0:0|0:0|0:0|0:0|0:0,0:0:0:0:
117,96,165164,5,0,3:0:0:0:
181,140,165341,1,0,3:0:0:0:
254,114,165517,1,0,3:0:0:0:
282,41,165694,1,0,3:0:0:0:
353,10,165870,1,0,3:0:0:0:
427,32,166047,1,0,3:0:0:0:
449,106,166223,1,0,3:0:0:0:
422,178,166399,1,0,3:0:0:0:
458,109,166576,5,0,3:0:0:0:
414,172,166752,1,0,3:0:0:0:
347,132,166929,5,0,3:0:0:0:
340,208,167105,1,0,3:0:0:0:
262,207,167282,5,0,3:0:0:0:
294,276,167458,1,0,3:0:0:0:
225,314,167635,5,0,3:0:0:0:
288,358,167811,1,0,3:0:0:0:
496,309,167988,5,0,3:0:0:0:
503,319,168164,1,0,3:0:0:0:
492,326,168341,1,0,3:0:0:0:
484,314,168517,1,0,3:0:0:0:
381,277,168694,5,0,3:0:0:0:
374,287,168870,1,0,3:0:0:0:
385,294,169047,1,0,3:0:0:0:
393,282,169223,1,0,3:0:0:0:
175,354,169399,6,0,L|150:348,1,20.9999993591309,0|0,3:0|3:0,3:0:0:0:
99,275,169752,2,0,L|74:269,1,20.9999993591309,0|0,3:0|3:0,3:0:0:0:
216,250,170105,6,0,L|191:244,1,20.9999993591309,0|0,3:0|3:0,3:0:0:0:
29,363,170458,2,0,L|4:357,1,20.9999993591309,0|0,3:0|3:0,3:0:0:0:
258,353,170811,6,0,L|252:328,15,20.9999993591309,0|0|0|0|0|0|0|0|0|0|0|0|0|0|0|0,3:0|0:0|0:0|0:0|0:0|0:0|0:0|0:0|0:0|0:0|0:0|0:0|0:0|0:0|0:0|0:0,0:0:0:0:
254,249,173635,6,0,L|260:224,15,20.9999993591309,0|0|0|0|0|0|0|0|0|0|0|0|0|0|0|0,3:0|0:0|0:0|0:0|0:0|0:0|0:0|0:0|0:0|0:0|0:0|0:0|0:0|0:0|0:0|0:0,0:0:0:0:
294,156,176458,5,0,3:0:0:0:
216,161,176635,1,0,3:0:0:0:
171,224,176811,1,0,3:0:0:0:
93,242,176988,1,0,3:0:0:0:
32,194,177164,1,0,3:0:0:0:
17,117,177341,1,0,3:0:0:0:
61,53,177517,1,0,3:0:0:0:
138,43,177694,1,0,3:0:0:0:
60,41,177870,5,0,3:0:0:0:
136,57,178047,1,0,3:0:0:0:
212,71,178223,1,0,3:0:0:0:
288,85,178399,1,0,3:0:0:0:
266,165,178576,5,0,3:0:0:0:
342,149,178753,1,0,3:0:0:0:
418,135,178929,1,0,3:0:0:0:
494,121,179105,1,0,3:0:0:0:
442,32,179282,5,0,3:0:0:0:
435,42,179458,1,0,3:0:0:0:
446,49,179635,1,0,3:0:0:0:
454,37,179811,1,0,3:0:0:0:
347,247,179988,5,0,3:0:0:0:
354,257,180164,1,0,3:0:0:0:
343,264,180341,1,0,3:0:0:0:
335,252,180517,1,0,3:0:0:0:
400,173,180694,6,0,L|395:147,1,20.9999993591309,0|0,3:0|3:0,3:0:0:0:
115,226,181047,6,0,L|120:200,1,20.9999993591309,0|0,3:0|3:0,3:0:0:0:
326,305,181399,6,0,L|321:279,1,20.9999993591309,0|0,3:0|3:0,3:0:0:0:
197,360,181752,6,0,L|202:334,1,20.9999993591309,0|0,3:0|3:0,3:0:0:0:
