osu file format v14

[General]
AudioFilename: audio.mp3
AudioLeadIn: 0
PreviewTime: 25986
Countdown: 0
SampleSet: Soft
StackLeniency: 0.7
Mode: 0
LetterboxInBreaks: 0
WidescreenStoryboard: 1

[Editor]
Bookmarks: 10477,26748,43019,59291,67426,83697,99969,116240,124375,132511,148782,152850,181325
DistanceSpacing: 1
BeatDivisor: 4
GridSize: 4
TimelineZoom: 1.1

[Metadata]
Title:Pinocchio (Danger)
TitleUnicode:피노키오 (Danger)
Artist:f(x)
ArtistUnicode:에프엑스
Creator:Seto Kousuke
Version:Easy
Source:
Tags:K-POP KPOP MAPPING CONTEST V KMCV #1 FX SM ENTERTAINMENT SM엔터테인먼트빅토리아 VICTORIA 루나 LUNA AMBER LIU 크리스탈 KRYSTAL 설리 SULLI STUDIO ALBUM
BeatmapID:1843038
BeatmapSetID:881481

[Difficulty]
HPDrainRate:3
CircleSize:3
OverallDifficulty:2
ApproachRate:3
SliderMultiplier:1
SliderTickRate:1

[Events]
//Background and Video events
0,0,"background_3.jpg",0,0
//Break Periods
2,116748,122935
2,148982,150901
2,181524,183952
//Storyboard Layer 0 (Background)
//Storyboard Layer 1 (Fail)
//Storyboard Layer 2 (Pass)
//Storyboard Layer 3 (Foreground)
//Storyboard Sound Samples

[TimingPoints]
2342,508.474576271186,4,2,1,50,1,0
4375,-100,4,2,1,65,0,0
10477,-100,4,2,1,75,0,0
43019,-100,4,2,1,85,0,1
59291,-100,4,2,1,75,0,0
65138,-100,4,2,1,50,0,0
65901,-100,4,2,1,65,0,0
67426,-100,4,2,1,75,0,0
99969,-100,4,2,1,85,0,1
115986,-100,4,2,1,75,0,0
148782,-100,4,2,1,50,0,0
152341,-100,4,2,1,75,0,0
152850,-100,4,2,1,85,0,1
181325,-100,4,2,1,85,0,0
185519,-100,4,2,1,50,0,0
186155,-100,4,2,1,60,0,0
186918,-100,4,2,1,70,0,0
187935,-100,4,2,1,80,0,0
188697,-100,4,2,1,90,0,0
189460,-100,4,2,1,5,0,0

[Colours]
Combo1 : 218,159,61
Combo2 : 252,100,63
Combo3 : 213,114,178
Combo4 : 23,193,213

[HitObjects]
139,144,2342,6,0,P|182:150|238:134,1,100,0|8,0:0|0:2,0:0:0:0:
302,60,3358,1,2,0:2:0:0:
389,108,3867,1,2,0:2:0:0:
399,207,4375,6,0,L|334:334,1,100,2|10,3:2|0:2,0:0:0:0:
263,340,5392,2,0,P|220:325|162:352,1,100,2|8,3:2|0:2,0:0:0:0:
70,348,6409,1,2,3:2:0:0:
1,275,6918,1,8,0:2:0:0:
47,186,7426,2,0,L|179:200,2,100,0|10|0,3:0|0:2|3:0,0:0:0:0:
16,90,8952,5,8,0:2:0:0:
203,20,9969,1,8,0:2:0:0:
275,89,10477,6,0,P|297:136|262:201,1,100,2|10,3:2|0:2,0:0:0:0:
195,226,11494,2,0,P|173:273|208:338,1,100,2|10,3:2|0:2,0:0:0:0:
263,380,12511,1,0,3:0:0:0:
362,378,13019,1,10,0:2:0:0:
425,300,13528,2,0,L|414:180,1,100,2|10,3:2|0:2,0:0:0:0:
362,115,14545,5,2,3:2:0:0:
281,173,15053,1,10,0:2:0:0:
206,105,15562,2,0,P|160:90|104:112,1,100,2|10,3:2|0:2,0:0:0:0:
42,177,16579,2,0,B|21:221|21:221|41:308,1,100,0|10,3:0|0:2,0:0:0:0:
96,347,17596,1,2,3:2:0:0:
173,284,18104,1,10,0:2:0:0:
243,354,18613,6,0,P|288:364|364:339,1,100,2|10,3:2|0:2,0:0:0:0:
428,306,19630,2,0,L|433:178,1,100,2|10,3:2|0:2,0:0:0:0:
438,106,20647,1,0,3:0:0:0:
398,14,21155,1,10,0:2:0:0:
305,52,21664,2,0,B|276:54|253:63|253:63|236:50|179:48,1,100,2|10,3:2|0:2,0:0:0:0:
108,43,22680,6,0,P|69:77|72:136,1,100,2|8,3:2|0:0,0:0:0:0:
59,222,23697,2,0,P|55:273|99:313,1,100,2|8,3:2|0:0,0:0:0:0:
186,310,24714,1,2,3:2:0:0:
240,226,25223,1,10,0:2:0:0:
187,141,25731,2,0,P|198:86|256:73,1,100,2|8,3:2|0:0,0:0:0:0:
334,77,26748,6,0,B|384:94|411:139|411:139|395:187|322:206,1,200,2|2,3:2|3:2,0:0:0:0:
240,226,28274,1,10,0:2:0:0:
251,325,28782,2,0,B|281:363|281:363|367:364,1,100,2|10,3:2|0:2,0:0:0:0:
432,359,29799,1,2,3:2:0:0:
496,282,30308,1,10,0:2:0:0:
441,198,30816,6,0,B|406:155|422:105|422:105|377:66|322:101,1,200,2|2,3:2|3:2,0:0:0:0:
249,157,32341,1,10,0:2:0:0:
163,105,32850,2,0,P|116:87|68:110,1,100,2|10,3:2|0:2,0:0:0:0:
5,179,33867,1,2,3:2:0:0:
9,278,34375,1,10,0:2:0:0:
83,345,34884,6,0,B|126:354|161:351|161:351|203:326|203:326|244:316|310:332,1,200,2|2,3:2|3:2,0:0:0:0:
364,369,36409,1,10,0:2:0:0:
434,297,36918,2,0,P|457:253|436:201,1,100,2|10,3:2|0:2,0:0:0:0:
355,158,37935,1,2,3:2:0:0:
417,79,38443,1,10,0:2:0:0:
336,19,38952,6,0,L|186:24,1,100,2|10,3:2|0:2,0:0:0:0:
209,118,39969,2,0,L|59:123,1,100,2|10,3:2|0:2,0:0:0:0:
31,184,40986,1,2,3:2:0:0:
33,283,41494,1,10,0:2:0:0:
108,348,42003,2,0,L|246:294,1,100,2|8,3:2|0:2,0:0:0:0:
266,235,43019,6,0,P|264:186|231:151,2,100,6|10|2,3:2|0:2|3:2,0:0:0:0:
292,331,44545,1,10,0:2:0:0:
391,324,45053,2,0,P|440:326|475:359,2,100,2|10|2,3:2|0:2|3:2,0:0:0:0:
292,331,46579,1,10,0:2:0:0:
230,252,47087,6,0,P|179:238|112:272,1,100,2|10,3:2|0:2,0:0:0:0:
44,293,48104,1,2,3:2:0:0:
2,202,48613,1,10,0:2:0:0:
63,123,49121,2,0,L|198:98,1,100,2|10,3:2|0:2,0:0:0:0:
218,22,50138,1,2,3:2:0:0:
293,87,50647,1,8,0:2:0:0:
363,158,51155,6,0,L|364:288,2,100,2|10|2,3:2|0:2|3:2,0:0:0:0:
429,83,52680,1,10,0:2:0:0:
352,18,53189,2,0,P|301:15|254:59,1,100,2|10,3:2|0:2,0:0:0:0:
225,135,54206,1,2,3:2:0:0:
126,116,54714,1,10,0:2:0:0:
53,184,55223,6,0,P|35:236|57:286,1,100,2|10,3:2|0:2,0:0:0:0:
128,337,56240,2,0,L|253:332,1,100,2|10,3:2|0:2,0:0:0:0:
297,261,57257,1,0,3:0:0:0:
379,317,57765,1,8,0:2:0:0:
455,253,58274,1,0,3:0:0:0:
439,154,58782,1,8,0:2:0:0:
343,124,59291,6,0,L|206:112,1,100,0|10,3:0|0:2,0:0:0:0:
164,53,60308,2,0,P|116:35|60:92,1,100,2|8,3:2|0:2,0:0:0:0:
23,141,61325,1,2,3:2:0:0:
89,215,61833,1,10,0:2:0:0:
91,314,62341,2,0,P|136:345|203:334,1,100,0|8,3:0|0:0,0:0:0:0:
257,281,63358,5,2,3:2:0:0:
341,334,63867,2,0,L|455:308,1,100,10|2,0:2|3:2,0:0:0:0:
475,218,64884,1,10,0:2:0:0:
358,55,65901,5,8,0:2:0:0:
181,148,66918,1,8,0:2:0:0:
240,228,67426,6,0,L|373:214,1,100,2|10,3:2|0:2,0:0:0:0:
404,141,68443,2,0,P|418:90|380:43,1,100,2|10,3:2|0:2,0:0:0:0:
296,37,69460,2,0,L|196:47,1,100,0|10,3:0|0:2,0:0:0:0:
100,20,70477,1,2,3:2:0:0:
41,101,70986,1,10,0:2:0:0:
113,169,71494,6,0,P|130:219|105:279,1,100,2|10,3:2|0:2,0:0:0:0:
68,350,72511,1,2,3:2:0:0:
163,380,73019,2,0,L|288:355,1,100,10|0,0:2|3:0,0:0:0:0:
317,277,74036,1,10,0:2:0:0:
276,185,74545,2,0,P|233:160|153:191,1,100,2|10,3:2|0:2,0:0:0:0:
99,218,75562,5,2,3:2:0:0:
54,128,76070,1,10,0:2:0:0:
123,55,76579,2,0,L|285:44,1,100,2|10,3:2|0:2,0:0:0:0:
304,105,77596,1,0,3:0:0:0:
391,56,78104,1,10,0:2:0:0:
463,124,78613,2,0,P|485:171|455:245,1,100,2|10,3:2|0:2,0:0:0:0:
430,305,79630,6,0,L|308:314,1,100,2|10,3:2|0:2,0:0:0:0:
261,239,80647,2,0,L|310:148,1,100,2|10,3:2|0:2,0:0:0:0:
303,51,81664,2,0,P|266:18|210:14,1,100,0|10,3:0|0:2,0:0:0:0:
118,26,82680,1,2,3:2:0:0:
63,110,83189,1,10,0:2:0:0:
107,199,83697,6,0,B|160:214|203:186|203:186|249:217|313:187,1,200,2|2,3:2|3:2,0:0:0:0:
370,123,85223,1,10,0:2:0:0:
449,182,85731,2,0,P|466:229|442:292,1,100,2|10,3:2|0:2,0:0:0:0:
379,342,86748,1,2,3:2:0:0:
279,336,87257,1,10,0:2:0:0:
282,236,87765,6,0,B|249:190|198:182|198:182|140:206|138:277,1,200,2|2,3:2|3:2,0:0:0:0:
95,344,89291,1,10,0:2:0:0:
6,298,89799,2,0,L|12:176,1,100,2|10,3:2|0:2,0:0:0:0:
23,98,90816,1,2,3:2:0:0:
122,83,91325,1,10,0:2:0:0:
108,181,91833,6,0,B|158:187|203:162|203:162|252:189|309:178,1,200,2|2,3:2|3:2,0:0:0:0:
391,136,93358,1,10,0:2:0:0:
449,217,93867,2,0,L|436:326,1,100,2|10,3:2|0:2,0:0:0:0:
358,378,94884,2,0,P|308:366|272:307,1,100,2|10,3:2|0:2,0:0:0:0:
204,262,95901,6,0,L|247:153,1,100,2|10,3:2|0:2,0:0:0:0:
339,183,96918,2,0,L|382:74,1,100,2|10,3:2|0:2,0:0:0:0:
315,9,97935,1,2,3:2:0:0:
250,85,98443,1,10,0:2:0:0:
177,15,98952,2,0,P|130:8|73:30,1,100,10|8,0:2|0:0,0:0:0:0:
64,125,99969,6,0,B|45:171|45:171|55:257,2,100,6|10|2,3:2|0:2|3:2,0:0:0:0:
135,54,101494,1,10,0:2:0:0:
206,124,102003,2,0,B|225:170|225:170|215:256,2,100,2|10|2,3:2|0:2|3:2,0:0:0:0:
135,54,103528,1,10,0:2:0:0:
224,10,104036,6,0,L|349:25,1,100,2|8,3:2|0:0,0:0:0:0:
422,35,105053,2,0,P|449:79|434:129,1,100,2|8,3:2|0:0,0:0:0:0:
373,199,106070,1,2,3:2:0:0:
419,287,106579,1,10,0:2:0:0:
346,355,107087,2,0,L|237:346,1,100,2|8,3:2|0:2,0:0:0:0:
151,314,108104,6,0,P|104:321|69:368,2,100,2|10|2,3:2|0:0|3:2,0:0:0:0:
246,346,109630,1,10,0:2:0:0:
341,376,110138,2,0,P|388:369|423:322,1,100,2|8,3:2|0:0,0:0:0:0:
443,233,111155,1,2,3:2:0:0:
375,158,111664,1,10,0:2:0:0:
305,229,112172,6,0,P|258:243|207:221,1,100,2|8,3:2|0:0,0:0:0:0:
171,133,113189,1,2,3:2:0:0:
230,52,113697,1,8,0:0:0:0:
322,90,114206,2,0,L|467:89,2,100,0|8|0,3:0|0:0|3:0,0:0:0:0:
230,52,115731,1,8,0:0:0:0:
98,102,124375,5,0,3:0:0:0:
181,46,124884,2,0,P|229:35|278:50,1,100,10|2,0:2|3:2,0:0:0:0:
339,127,125901,1,10,0:2:0:0:
281,209,126409,2,0,L|171:208,1,100,2|10,3:2|0:2,0:0:0:0:
120,287,127426,1,2,3:2:0:0:
176,369,127935,1,10,0:2:0:0:
275,370,128443,6,0,L|374:370,1,100,2|10,3:2|0:2,0:0:0:0:
455,312,129460,1,0,3:0:0:0:
387,238,129969,1,8,0:2:0:0:
459,168,130477,2,0,P|472:121|429:74,1,100,2|10,3:2|0:2,0:0:0:0:
354,38,131494,2,0,L|216:37,1,100,0|10,3:0|0:2,0:0:0:0:
154,26,132511,5,2,3:2:0:0:
83,96,133019,1,8,0:2:0:0:
78,195,133528,2,0,P|88:251|151:288,2,100,2|8|2,3:2|0:2|3:2,0:0:0:0:
83,96,135053,1,8,0:2:0:0:
178,124,135562,2,0,L|295:115,1,100,2|8,3:2|0:2,0:0:0:0:
355,53,136579,5,2,3:2:0:0:
442,100,137087,1,8,0:2:0:0:
466,196,137596,2,0,P|464:245|428:279,2,100,2|8|2,3:2|0:2|3:2,0:0:0:0:
442,100,139121,1,8,0:2:0:0:
352,144,139630,2,0,L|249:144,1,100,2|10,3:2|0:2,0:0:0:0:
183,216,140647,5,2,3:2:0:0:
209,312,141155,1,8,0:2:0:0:
301,351,141664,2,0,L|428:321,1,100,2|8,3:2|0:2,0:0:0:0:
460,250,142680,1,2,3:2:0:0:
461,149,143189,1,8,0:2:0:0:
387,81,143697,2,0,P|337:59|283:83,1,100,2|8,3:2|0:0,0:0:0:0:
214,130,144714,6,0,L|181:245,1,100,2|8,3:2|0:0,0:0:0:0:
86,226,145731,2,0,L|58:129,1,100,2|8,3:2|0:0,0:0:0:0:
256,192,146748,12,2,148782,0:2:0:0:
98,103,152341,5,12,0:2:0:0:
36,181,152850,6,0,P|23:236|59:278,1,100,2|10,3:2|0:2,0:0:0:0:
135,312,153867,1,2,3:2:0:0:
222,263,154375,1,10,0:2:0:0:
290,335,154884,2,0,L|412:336,1,100,2|10,3:2|0:2,0:0:0:0:
472,278,155901,2,0,P|488:231|465:180,1,100,2|8,3:2|0:2,0:0:0:0:
389,126,156918,6,0,L|289:125,2,100,2|10|2,3:2|0:2|3:2,0:0:0:0:
470,185,158443,1,10,0:2:0:0:
383,236,158952,2,0,L|283:235,2,100,2|10|2,3:2|0:2|3:2,0:0:0:0:
458,301,160477,1,10,0:2:0:0:
369,348,160986,6,0,L|269:347,1,100,2|10,3:2|0:2,0:0:0:0:
185,291,162003,1,2,3:2:0:0:
87,314,162511,1,10,0:2:0:0:
20,239,163019,2,0,P|20:185|55:149,1,100,0|8,3:2|0:0,0:0:0:0:
81,57,164036,2,0,P|127:30|176:42,1,100,0|8,3:0|0:2,0:0:0:0:
266,69,165053,6,0,L|394:48,2,100,6|10|2,3:2|0:2|3:2,0:0:0:0:
191,135,166579,1,10,0:2:0:0:
257,209,167087,2,0,L|385:230,2,100,2|10|2,3:2|0:2|3:2,0:0:0:0:
166,252,168613,1,10,0:2:0:0:
91,185,169121,6,0,P|79:133|108:88,1,100,2|10,3:2|0:2,0:0:0:0:
185,41,170138,2,0,L|316:39,1,100,2|10,3:2|0:2,0:0:0:0:
384,54,171155,1,2,3:2:0:0:
442,135,171664,1,10,0:2:0:0:
373,207,172172,1,2,3:2:0:0:
421,294,172680,1,8,0:2:0:0:
352,366,173189,6,0,B|298:375|298:375|234:357,2,100,2|10|2,3:2|0:2|3:2,0:0:0:0:
421,294,174714,1,10,0:2:0:0:
351,221,175223,2,0,B|297:212|297:212|233:230,2,100,2|10|2,3:2|0:2|3:2,0:0:0:0:
421,294,176748,1,10,0:2:0:0:
489,220,177257,5,2,3:2:0:0:
421,146,177765,1,10,0:2:0:0:
320,144,178274,2,0,L|206:157,1,100,2|10,3:2|0:2,0:0:0:0:
147,223,179291,1,0,3:0:0:0:
65,165,179799,1,8,0:2:0:0:
105,73,180308,2,0,L|208:32,2,100,0|8|4,3:0|0:2|3:1,0:0:0:0:
256,192,185392,12,0,189460,0:1:0:0:
