osu file format v14

[General]
AudioFilename: audio.mp3
AudioLeadIn: 0
PreviewTime: 51376
Countdown: 0
SampleSet: Soft
StackLeniency: 0.7
Mode: 0
LetterboxInBreaks: 0
WidescreenStoryboard: 1

[Editor]
Bookmarks: 645
DistanceSpacing: 0.9
BeatDivisor: 4
GridSize: 4
TimelineZoom: 1

[Metadata]
Title:Hot Summer
TitleUnicode:Hot Summer
Artist:f(x)
ArtistUnicode:에프엑스
Creator:Imakuri
Version:Collab Hard
Source:
Tags:m_a_r_v_o_l_l_o marvollo shmiklak irreversible Deppyforce
BeatmapID:1107583
BeatmapSetID:441523

[Difficulty]
HPDrainRate:6
CircleSize:4.5
OverallDifficulty:7
ApproachRate:7
SliderMultiplier:1.6
SliderTickRate:1

[Events]
//Background and Video events
0,0,"fx-hot-summer-wallpaper.jpg",0,0
//Break Periods
//Storyboard Layer 0 (Background)
//Storyboard Layer 1 (Fail)
//Storyboard Layer 2 (Pass)
//Storyboard Layer 3 (Foreground)
Sprite,Foreground,Centre,"Sans titre-2.png",320,240 S,0,51132,,0.3525951 F,0,51132,51376,0,1 M,0,51132,97718,469.7917,97.19009,288.8992,97.19009 F,0,51376,97474,1 F,0,97474,97718,1,0
Sprite,Foreground,Centre,"Sans titre-3png.png",320,240 S,0,4547,,0.4097189 F,0,4547,4791,0,1 M,0,4547,51132,118.162,405.0248,283.1868,405.0248 F,0,4791,50888,1 F,0,50888,51132,1,0
//Storyboard Sound Samples

[TimingPoints]
645,487.80487804878,4,2,1,65,1,0
4547,-80,4,2,1,73,0,0
51376,-80,4,2,1,76,0,0
67012,487.80487804878,4,2,1,79,1,1
67012,-74.0740740740741,4,2,1,79,0,1
90426,-100,4,2,1,73,0,0
97255,-100,4,2,1,65,0,0
97499,-100,4,2,1,53,0,0
97743,-100,4,2,1,39,0,0
97987,-100,4,2,1,39,0,0

[Colours]
Combo1 : 226,45,124
Combo2 : 255,128,192
Combo3 : 128,0,64
Combo4 : 255,128,64

[HitObjects]
256,192,645,12,8,4059,0:0:0:0:
46,351,4547,5,6,1:2:0:0:
132,327,4791,1,0,0:0:0:0:
218,353,5035,2,0,P|237:306|239:257,1,100,8|0,0:0|0:0,0:0:0:0:
170,158,5523,1,2,0:0:0:0:
83,189,5766,2,0,P|112:229|170:250,1,100,0|8,0:0|0:0,0:0:0:0:
366,269,6498,6,0,B|385:172|385:172|365:72,2,200,2|8|2,1:2|0:0|0:0,0:0:0:0:
317,345,7718,2,0,L|197:354,2,100,0|8|8,0:0|0:0|0:3,0:0:0:0:
462,282,8449,5,6,1:2:0:0:
435,196,8693,1,0,0:0:0:0:
492,125,8937,2,0,P|503:78|483:33,1,100,8|0,0:0|0:0,0:0:0:0:
335,53,9425,1,2,0:0:0:0:
338,140,9669,2,0,P|385:126|415:87,1,100,0|8,0:0|0:0,0:0:0:0:
197,153,10401,6,0,L|216:351,2,200,2|8|2,1:2|0:0|0:0,0:0:0:0:
335,38,11864,1,8,0:0:0:0:
425,192,12352,6,0,P|380:211|331:204,1,100,6|0,1:2|0:0,0:0:0:0:
296,121,12840,2,0,P|250:101|201:108,1,100,8|0,0:0|0:0,0:0:0:0:
154,243,13327,1,2,0:0:0:0:
74,201,13571,2,0,P|80:152|113:115,1,100,0|8,0:0|0:0,0:0:0:0:
315,198,14303,6,0,B|330:279|330:279|268:323|268:323|259:280,2,200,2|8|2,1:2|0:0|0:0,0:0:0:0:
381,137,15523,2,0,L|501:146,2,100,0|8|8,0:0|0:0|0:3,0:0:0:0:
239,210,16255,5,6,1:2:0:0:
159,166,16499,1,0,0:0:0:0:
71,183,16742,2,0,P|80:135|72:86,1,100,8|0,0:0|0:0,0:0:0:0:
201,51,17231,1,2,0:0:0:0:
263,115,17474,2,0,P|242:160|238:209,1,100,0|8,0:0|0:0,0:0:0:0:
432,279,18205,2,0,B|483:193|483:193|441:103,2,200,2|8|2,1:2|0:0|1:2,0:0:0:0:
256,341,19669,1,8,0:0:0:0:
80,279,20157,5,6,1:2:0:0:
80,279,20401,2,0,P|56:228|59:186,2,100,0|8|0,0:0|0:0|0:0,0:0:0:0:
129,124,21132,2,0,P|87:97|37:95,1,100,2|0,0:0|0:0,0:0:0:0:
133,200,21620,1,8,0:0:0:0:
133,200,21864,1,0,0:0:0:0:
252,148,22108,2,0,B|264:101|264:101|257:51,2,100,2|0|8,1:2|0:0|0:0,0:0:0:0:
219,232,22840,1,0,0:0:0:0:
219,232,23084,2,0,P|279:189|334:288,1,200,2|8,0:0|0:0,0:0:0:0:
375,96,24059,6,0,P|435:139|477:120,2,100,6|0|8,1:2|0:0|0:0,0:0:0:0:
342,11,24791,1,0,0:0:0:0:
256,50,25035,2,0,L|153:63,1,100,2|0,0:0|0:0,0:0:0:0:
71,80,25523,1,8,0:0:0:0:
71,80,25766,1,0,0:0:0:0:
171,193,26010,2,0,L|71:180,2,100,2|0|8,1:2|0:0|0:0,0:0:0:0:
216,271,26742,1,0,0:0:0:0:
216,271,26986,2,0,B|265:243|310:278|310:278|356:311|403:291,1,200,2|8,0:0|0:0,0:0:0:0:
498,137,27962,5,6,1:2:0:0:
498,137,28206,2,0,B|510:87|510:87|492:41,2,100,0|8|0,0:0|0:0|0:0,0:0:0:0:
336,98,28937,2,0,B|381:80|381:80|431:92,1,100,2|0,0:0|0:0,0:0:0:0:
391,173,29425,1,8,0:0:0:0:
391,173,29669,1,0,0:0:0:0:
454,344,29913,6,0,P|492:272|412:283,1,200,2|8,1:2|0:0,0:0:0:0:
362,358,30645,1,0,0:0:0:0:
224,325,30888,2,0,P|173:257|255:237,1,200,2|8,0:0|0:0,0:0:0:0:
312,304,31620,1,8,0:3:0:0:
299,144,31864,6,0,L|406:129,2,100,6|0|8,1:2|0:0|0:0,0:0:0:0:
244,71,32596,1,0,0:0:0:0:
162,33,32840,2,0,L|105:116,1,100,2|0,0:0|0:0,0:0:0:0:
190,155,33327,1,8,0:0:0:0:
190,155,33571,1,0,0:0:0:0:
99,265,33815,1,2,1:2:0:0:
99,264,34059,2,0,P|61:233|54:185,2,100,0|8|0,0:0|0:0|0:0,0:0:0:0:
182,230,34791,1,2,0:0:0:0:
256,280,35035,1,0,0:0:0:0:
318,215,35279,1,8,0:0:0:0:
387,311,35523,2,0,L|395:262,1,50,8|0,0:3|0:0,0:0:0:0:
407,218,35766,6,0,L|427:318,2,100,6|0|8,1:2|0:0|0:0,0:0:0:0:
454,141,36498,1,0,0:0:0:0:
454,141,36741,1,2,0:0:0:0:
351,32,36986,2,0,P|333:84|340:130,1,100,0|8,0:0|0:0,0:0:0:0:
235,231,37474,2,0,P|253:179|246:133,1,100,0|2,0:0|1:2,0:0:0:0:
197,59,37962,1,0,0:0:0:0:
127,115,38205,1,8,0:0:0:0:
114,28,38449,1,0,0:0:0:0:
249,146,38937,2,0,L|348:134,2,100,0|8|0,0:0|0:0|0:0,0:0:0:0:
144,203,39669,6,0,B|193:210|193:210|232:243,2,100,2|0|8,1:2|0:0|0:0,0:0:0:0:
105,284,40401,1,0,0:0:0:0:
105,284,40644,1,2,0:0:0:0:
228,365,40888,2,0,P|246:313|239:267,1,100,0|8,0:0|0:0,0:0:0:0:
344,166,41376,2,0,P|326:218|333:264,1,100,0|2,0:0|1:2,0:0:0:0:
382,338,41864,1,0,0:0:0:0:
452,282,42107,1,8,0:0:0:0:
505,355,42352,1,0,0:0:0:0:
470,178,42840,2,0,L|515:78,2,100,0|8|0,0:0|0:0|0:0,0:0:0:0:
360,129,43571,6,0,P|393:78|433:69,2,100,2|0|8,1:2|0:0|0:0,0:0:0:0:
393,212,44303,1,0,0:0:0:0:
393,212,44547,1,2,0:0:0:0:
343,344,44791,2,0,L|244:355,1,100,0|8,0:0|0:0,0:0:0:0:
148,238,45279,2,0,L|247:227,1,100,0|2,0:0|1:2,0:0:0:0:
236,316,45766,1,0,0:0:0:0:
147,332,46010,1,8,0:0:0:0:
70,379,46254,1,0,0:0:0:0:
8,209,46742,2,0,P|-4:128|1:108,2,100,0|8|0,0:0|0:0|0:0,0:0:0:0:
122,150,47474,6,0,B|132:100|132:100|113:53,2,100,2|0|8,1:2|0:0|0:0,0:0:0:0:
177,221,48205,1,0,0:0:0:0:
177,221,48449,1,2,0:0:0:0:
287,132,48693,2,0,L|386:120,1,100,0|8,0:0|0:0,0:0:0:0:
492,230,49181,2,0,L|392:218,1,100,0|2,0:0|1:2,0:0:0:0:
355,301,49669,1,0,0:0:0:0:
267,280,49913,1,8,0:0:0:0:
236,368,50157,1,0,0:0:0:0:
147,354,50401,2,0,P|131:276|132:200,1,150,2|8,0:0|0:3,0:0:0:0:
162,173,50888,2,0,P|209:197|167:253,1,100,8|8,0:0|0:3,0:0:0:0:
51,284,51376,6,0,L|44:181,1,100,4|0,0:0|0:0,0:0:0:0:
98,110,51864,1,8,0:0:0:0:
162,173,52108,1,0,0:0:0:0:
208,95,52352,2,0,P|260:78|321:103,1,100,2|0,1:2|0:0,0:0:0:0:
365,156,52840,2,0,L|364:258,1,100,8|0,0:0|0:0,0:0:0:0:
305,325,53327,6,0,B|209:287|209:357|92:312,1,200,2|8,1:2|0:0,0:0:0:0:
22,158,54303,1,2,1:2:0:0:
63,77,54547,1,0,0:0:0:0:
114,153,54791,2,0,B|168:164|168:164|219:150,1,100,8|0,0:0|0:0,0:0:0:0:
255,61,55279,6,0,B|306:48|306:48|369:66,1,100,6|0,1:2|0:0,0:0:0:0:
399,137,55766,1,8,0:0:0:0:
347,211,56010,1,0,0:0:0:0:
406,284,56254,2,0,P|456:268|511:271,2,100,2|0|8,1:2|0:0|0:0,0:0:0:0:
316,295,56986,1,0,0:0:0:0:
256,228,57230,6,0,P|169:269|75:218,1,200,2|8,1:2|0:0,0:0:0:0:
169,69,58205,1,2,1:2:0:0:
255,39,58449,1,0,0:0:0:0:
341,70,58693,2,0,P|389:84|436:73,1,100,8|2,0:0|0:3,0:0:0:0:
503,148,59181,6,0,L|496:249,1,100,6|0,1:2|0:0,0:0:0:0:
431,310,59669,1,8,0:0:0:0:
378,236,59913,1,0,0:0:0:0:
318,304,60157,2,0,P|266:318|220:308,1,100,2|0,1:2|0:0,0:0:0:0:
187,225,60644,2,0,P|137:211|84:228,1,100,8|0,0:0|0:0,0:0:0:0:
76,314,61132,6,0,L|55:103,1,200,2|8,1:2|0:0,0:0:0:0:
220,35,62108,1,2,1:2:0:0:
309,54,62352,1,0,0:0:0:0:
398,74,62596,2,0,P|412:129|400:175,1,100,8|2,0:0|0:3,0:0:0:0:
351,258,63084,6,0,B|317:245|317:245|241:258,1,100,6|0,1:2|0:0,0:0:0:0:
207,333,63571,2,0,B|144:343|144:343|110:330,1,100,8|0,0:0|0:0,0:0:0:0:
52,260,64059,1,2,1:2:0:0:
112,192,64303,1,0,0:0:0:0:
50,125,64547,2,0,P|35:77|51:19,1,100,8|0,0:0|0:0,0:0:0:0:
129,73,65035,1,2,1:2:0:0:
405,56,66010,5,2,1:2:0:0:
488,104,66254,1,0,0:0:0:0:
407,155,66498,1,10,0:0:0:0:
486,209,66742,1,0,0:0:0:0:
410,261,67012,5,4,1:2:0:0:
170,359,67499,6,0,B|105:269|105:269|152:156,1,216.000000823975,8|2,0:0|0:0,0:0:0:0:
203,256,68230,1,0,0:0:0:0:
304,41,68718,1,0,0:0:0:0:
304,41,68963,2,0,P|237:57|188:31,1,108.000000411987,2|0,1:2|0:0,0:0:0:0:
94,151,69450,2,0,P|153:132|209:160,1,108.000000411987,8|0,0:0|0:0,0:0:0:0:
296,210,69938,1,2,0:0:0:0:
400,152,70182,1,0,0:0:0:0:
296,210,70426,2,0,B|283:266|283:266|299:317,1,108.000000411987,8|0,0:0|0:0,0:0:0:0:
388,264,70913,5,4,1:2:0:0:
143,191,71402,6,0,P|189:155|90:138,1,216.000000823975,8|2,0:0|0:0,0:0:0:0:
32,223,72133,1,0,0:0:0:0:
255,304,72621,1,0,0:0:0:0:
255,304,72865,2,0,B|237:251|237:251|255:184,1,108.000000411987,2|0,1:2|0:0,0:0:0:0:
414,113,73353,2,0,B|430:167|430:167|413:227,1,108.000000411987,8|0,0:0|0:0,0:0:0:0:
372,326,73840,1,2,0:0:0:0:
255,304,74084,1,0,0:0:0:0:
139,332,74328,2,0,B|86:346|86:346|25:328,1,108.000000411987,8|8,0:0|0:3,0:0:0:0:
36,249,74816,5,4,1:2:0:0:
268,143,75304,6,0,B|380:89|376:185|492:126,1,216.000000823975,8|2,0:0|0:0,0:0:0:0:
424,27,76035,1,0,0:0:0:0:
335,263,76523,1,0,0:0:0:0:
335,263,76767,2,0,L|216:259,1,108.000000411987,2|0,1:2|0:0,0:0:0:0:
57,351,77255,2,0,L|168:343,1,108.000000411987,8|0,0:0|0:0,0:0:0:0:
227,259,77743,1,2,0:0:0:0:
282,165,77987,1,0,0:0:0:0:
175,165,78231,2,0,P|120:156|69:175,1,108.000000411987,8|0,0:0|0:0,0:0:0:0:
44,251,78718,5,4,1:2:0:0:
282,165,79206,6,0,P|375:211|468:165,1,216.000000823975,8|2,0:0|0:0,0:0:0:0:
376,91,79938,1,0,0:0:0:0:
376,330,80426,1,0,0:0:0:0:
376,330,80670,2,0,P|322:313|257:338,1,108.000000411987,2|0,1:2|0:0,0:0:0:0:
137,243,81158,2,0,P|194:259|263:228,1,108.000000411987,8|0,0:0|0:0,0:0:0:0:
189,150,81645,1,2,0:0:0:0:
82,151,81889,1,0,0:0:0:0:
137,243,82133,2,0,B|120:296|120:296|133:352,1,108.000000411987,8|8,0:0|0:3,0:0:0:0:
192,300,82621,5,4,0:0:0:0:
387,138,83109,6,0,B|333:167|282:133|282:133|229:180|165:126,1,216.000000823975,8|2,0:0|0:0,0:0:0:0:
279,67,83840,1,0,0:0:0:0:
481,192,84328,1,0,0:0:0:0:
481,192,84572,2,0,P|494:246|476:306,1,108.000000411987,2|0,1:2|0:0,0:0:0:0:
334,365,85060,2,0,P|321:308|343:246,1,108.000000411987,8|0,0:0|0:0,0:0:0:0:
481,192,85548,1,2,0:0:0:0:
408,112,85791,1,0,0:0:0:0:
336,32,86036,2,0,B|282:45|282:45|212:31,1,108.000000411987,8|0,0:0|0:0,0:0:0:0:
150,16,86523,5,4,1:2:0:0:
162,270,87011,6,0,P|146:325|247:295,1,216.000000823975,8|2,0:0|0:0,0:0:0:0:
236,197,87743,1,0,0:0:0:0:
428,44,88230,1,0,0:0:0:0:
428,44,88475,2,0,B|413:97|413:97|432:150,1,108.000000411987,2|0,1:2|0:0,0:0:0:0:
475,234,88963,2,0,B|493:285|493:285|471:343,1,108.000000411987,8|0,0:0|0:0,0:0:0:0:
393,281,89450,1,2,0:0:0:0:
297,329,89694,1,0,0:0:0:0:
202,283,89938,2,0,L|87:292,1,108.000000411987,8|8,0:0|0:3,0:0:0:0:
44,240,90426,6,0,P|34:191|48:147,1,80,6|0,1:2|0:0,0:0:0:0:
87,108,90913,1,8,0:0:0:0:
153,137,91158,2,0,P|205:154|309:135,1,160
369,100,91889,1,8,0:0:0:0:
452,257,92377,6,0,L|480:337,2,80,2|0|8,1:2|0:0|0:0,0:0:0:0:
389,294,93109,2,0,P|346:314|225:292,1,160,0|0,0:0|0:0,0:0:0:0:
183,253,93840,1,8,0:0:0:0:
127,298,94084,1,8,0:3:0:0:
127,298,94206,1,8,0:3:0:0:
127,298,94328,6,0,L|35:304,1,80,6|0,1:2|0:0,0:0:0:0:
7,243,94816,1,8,0:0:0:0:
58,191,95060,2,0,P|119:152|160:59,1,160,0|0,0:0|0:0,0:0:0:0:
162,4,95791,1,8,0:0:0:0:
299,46,96280,6,0,L|391:35,2,80,2|0|8,1:2|0:0|0:0,0:0:0:0:
244,93,97011,2,0,P|260:144|234:249,1,160,0|4,0:0|0:0,0:0:0:0:
