osu file format v14

[General]
AudioFilename: STOP ME FROM PLAYING RHYTHM TENGOKU AAAAAAAAAAAAAAAAAAAAA.mp3
AudioLeadIn: 0
PreviewTime: 46454
Countdown: 1
SampleSet: Soft
StackLeniency: 0.7
Mode: 2
LetterboxInBreaks: 1
WidescreenStoryboard: 0

[Editor]
DistanceSpacing: 1
BeatDivisor: 4
GridSize: 16
TimelineZoom: 4.999997

[Metadata]
Title:STOP ME FROM PLAYING RHYTHM TENGOKU AAAAAAAAAAAAAAAAAAAAA
TitleUnicode:STOP ME FROM PLAYING RHYTHM TENGOKU AAAAAAAAAAAAAAAAAAAAA
Artist:ezdiy
ArtistUnicode:ezdiy
Creator:Vincs
Version:CS0 AAAAAAAAAAAAAAAAAAAAA
Source:
Tags:
BeatmapID:874790
BeatmapSetID:402209

[Difficulty]
HPDrainRate:5.7
CircleSize:0
OverallDifficulty:5.7
ApproachRate:9.6
SliderMultiplier:1.4
SliderTickRate:1

[Events]
//Background and Video events
0,0,"sample-19ce7c22ad25638d810c93069fc6b486.jpg",0,0
//Break Periods
//Storyboard Layer 0 (Background)
//Storyboard Layer 1 (Fail)
//Storyboard Layer 2 (Pass)
//Storyboard Layer 3 (Foreground)
//Storyboard Sound Samples

[TimingPoints]
0,385.60411311054,4,2,0,100,1,0
12489,192.80205655527,4,2,0,100,1,0
34082,385.60411311054,4,2,0,100,1,0
46417,192.80205655527,4,2,0,100,1,0
46417,-100,4,2,0,100,0,1
58756,-100,4,2,0,100,0,0
83434,-100,4,2,0,100,0,1
120260,-100,4,2,0,100,0,0

[HitObjects]
256,320,12489,6,0,P|192:288|128:224,1,140
80,176,12874,1,0,0:0:0:0:
32,80,13067,1,0,0:0:0:0:
384,320,13260,2,0,P|432:304|432:208,1,140
416,112,13645,1,0,0:0:0:0:
352,16,13838,1,0,0:0:0:0:
64,240,14031,5,0,0:0:0:0:
35,190,14127,1,0,0:0:0:0:
99,190,14224,1,0,0:0:0:0:
163,190,14320,1,0,0:0:0:0:
480,192,14513,1,0,0:0:0:0:
416,192,14609,1,0,0:0:0:0:
80,192,14802,2,0,L|32:48,1,140
384,304,15188,6,0,P|444:249|490:109,1,210,0|0,2:0|2:0,2:0:0:0:
128,192,15573,2,0,L|0:112,1,140
288,160,15863,1,0,0:0:0:0:
208,112,15959,2,0,P|128:64|64:16,1,140
432,224,16248,1,0,0:0:0:0:
480,160,16345,1,0,0:0:0:0:
160,192,16537,1,0,0:0:0:0:
304,192,16730,1,0,0:0:0:0:
160,192,16923,5,0,0:0:0:0:
384,208,17116,2,0,L|480:96,1,140
240,192,17405,1,0,0:0:0:0:
464,224,17501,2,0,P|430:151|373:88,1,140,0|0,2:0|2:0,2:0:0:0:
96,192,17887,1,0,0:0:0:0:
480,192,18080,1,0,0:0:0:0:
144,272,18273,2,0,L|4:98,1,210
352,192,18658,6,0,L|480:112,1,140
224,192,18948,1,0,0:0:0:0:
480,192,19044,2,0,L|352:96,1,140
96,144,19333,1,0,0:0:0:0:
32,80,19429,1,0,0:0:0:0:
336,80,19622,1,0,0:0:0:0:
128,80,19815,1,0,0:0:0:0:
448,80,20008,1,0,0:0:0:0:
128,208,20201,2,0,L|-16:144,1,140
320,192,20490,5,0,0:0:0:0:
16,224,20586,2,0,L|144:128,1,140
496,192,20972,2,0,L|384:96,1,140
32,144,21261,1,0,0:0:0:0:
96,80,21357,1,0,0:0:0:0:
416,64,21550,1,0,0:0:0:0:
80,320,21743,2,0,L|16:192,1,140
256,192,22033,1,0,0:0:0:0:
465,328,22129,6,0,L|497:184,1,140
96,208,22418,1,0,0:0:0:0:
32,144,22515,1,0,0:0:0:0:
368,144,22707,1,0,0:0:0:0:
160,160,22900,1,0,0:0:0:0:
384,144,23093,5,0,0:0:0:0:
16,320,23286,2,0,L|80:192,1,140
256,192,23575,1,0,0:0:0:0:
496,320,23671,2,0,L|432:160,1,140
112,192,24057,1,0,0:0:0:0:
464,192,24250,1,0,0:0:0:0:
144,256,24443,2,0,L|37:61,1,210
368,192,24828,6,0,L|496:112,1,140
256,208,25118,1,0,0:0:0:0:
352,176,25214,2,0,L|496:96,1,140
32,96,25503,1,0,0:0:0:0:
112,96,25600,1,0,0:0:0:0:
400,176,25792,1,0,0:0:0:0:
112,272,25985,1,0,0:0:0:0:
448,336,26178,1,0,0:0:0:0:
128,304,26371,2,0,L|-16:304,1,140
256,192,26660,5,0,0:0:0:0:
480,304,26756,2,0,L|320:304,1,140
128,192,27142,2,0,L|16:96,1,140
400,112,27431,1,0,0:0:0:0:
464,64,27527,1,0,0:0:0:0:
64,80,27720,1,0,0:0:0:0:
384,352,27913,6,0,L|512:272,1,140
144,288,28203,1,0,0:0:0:0:
496,272,28299,2,0,L|368:176,1,140
112,288,28588,1,0,0:0:0:0:
32,288,28685,1,0,0:0:0:0:
448,224,28877,1,0,0:0:0:0:
112,112,29070,1,0,0:0:0:0:
448,96,29263,1,0,0:0:0:0:
144,144,29456,2,0,L|0:80,1,140
256,192,29745,5,0,0:0:0:0:
496,288,29841,2,0,L|352:224,1,140
128,192,30130,1,0,0:0:0:0:
368,231,30227,2,0,L|480:135,1,140
128,192,30516,1,0,0:0:0:0:
384,288,30612,5,0,0:0:0:0:
413,252,30676,1,0,0:0:0:0:
429,208,30740,1,0,0:0:0:0:
428,162,30804,1,0,0:0:0:0:
411,119,30869,1,0,0:0:0:0:
380,85,30933,1,0,0:0:0:0:
128,256,30997,6,0,L|9:181,1,140
368,208,31287,1,0,0:0:0:0:
176,192,31383,2,0,L|48:96,1,140
400,80,31672,1,0,0:0:0:0:
480,80,31769,1,0,0:0:0:0:
64,208,31961,1,0,0:0:0:0:
432,272,32154,1,0,0:0:0:0:
16,336,32347,1,0,0:0:0:0:
368,208,32540,6,0,L|496:128,1,140
144,208,32830,1,0,0:0:0:0:
480,292,32926,2,0,L|352:196,1,140
128,192,33215,5,0,0:0:0:0:
64,112,33311,1,0,0:0:0:0:
32,32,33408,1,0,0:0:0:0:
448,304,33504,5,0,0:0:0:0:
478,275,33552,1,0,0:0:0:0:
487,241,33600,1,0,0:0:0:0:
452,216,33648,1,0,0:0:0:0:
405,200,33696,1,0,0:0:0:0:
356,188,33745,1,0,0:0:0:0:
306,177,33793,1,0,0:0:0:0:
256,167,33841,1,0,0:0:0:0:
205,157,33889,1,0,0:0:0:0:
154,148,33937,1,0,0:0:0:0:
103,139,33986,1,0,0:0:0:0:
52,130,34034,1,0,0:0:0:0:
416,192,34082,6,0,L|464:128,1,70
80,192,34467,2,0,L|48:112,1,70
368,112,34756,1,0,0:0:0:0:
400,48,34853,1,0,0:0:0:0:
80,176,35046,2,0,L|16:112,1,70
256,192,35431,1,0,0:0:0:0:
464,208,35624,2,0,L|512:128,1,70
160,176,35913,1,0,0:0:0:0:
144,112,36010,1,0,0:0:0:0:
352,112,36202,5,0,0:0:0:0:
144,112,36395,1,0,0:0:0:0:
352,112,36588,1,0,0:0:0:0:
144,112,36781,2,0,L|48:16,1,105
416,224,37166,2,0,L|480:192,1,70
96,208,37552,2,0,L|0:176,1,70
368,192,37841,1,0,0:0:0:0:
384,128,37938,1,0,0:0:0:0:
176,144,38130,6,0,L|112:80,1,70
384,144,38516,2,0,L|448:96,1,70
64,128,38902,1,0,0:0:0:0:
0,128,38998,1,0,0:0:0:0:
64,128,39094,1,0,0:0:0:0:
416,128,39287,1,0,0:0:0:0:
80,288,39480,2,0,L|16:80,1,210
464,256,40251,6,0,L|512:208,1,35
64,192,40540,2,0,L|0:128,1,70
304,240,40830,1,0,0:0:0:0:
384,208,40926,1,0,0:0:0:0:
448,144,41022,2,0,L|480:112,1,35
128,208,41312,2,0,L|0:112,1,140
432,224,41794,6,0,L|464:192,1,35
96,176,42083,2,0,L|32:112,1,70
384,160,42372,1,0,0:0:0:0:
448,128,42468,1,0,0:0:0:0:
96,176,42661,6,0,L|64:144,1,35
368,208,42854,2,0,L|473:115,1,140
80,240,43336,2,0,L|32:208,1,35
336,288,43625,2,0,L|416:224,1,70
112,272,43914,1,0,0:0:0:0:
48,192,44011,1,0,0:0:0:0:
16,112,44107,6,0,L|0:64,1,35
368,240,44396,2,0,L|496:160,1,140
96,160,44878,5,0,0:0:0:0:
432,160,45071,1,0,0:0:0:0:
96,160,45264,1,0,0:0:0:0:
432,160,45457,1,0,0:0:0:0:
96,192,45650,2,0,L|-16:112,1,105
416,224,46035,2,0,L|496:144,1,105
144,224,46417,6,0,L|80:176,1,70
416,192,46609,1,0,0:0:0:0:
32,192,46706,2,0,L|144:64,1,140
384,192,46996,1,0,0:0:0:0:
480,144,47091,1,0,0:0:0:0:
96,176,47188,2,0,L|32:128,1,70
464,112,47381,1,0,0:0:0:0:
128,304,47478,2,0,L|43:103,1,210
416,192,47863,1,0,0:0:0:0:
128,176,47960,6,0,L|64:128,1,70
384,112,48152,1,0,0:0:0:0:
112,288,48249,2,0,L|144:144,1,140
384,320,48538,1,0,0:0:0:0:
464,288,48634,1,0,0:0:0:0:
138,338,48730,5,0,0:0:0:0:
126,338,48778,1,0,0:0:0:0:
114,338,48827,1,0,0:0:0:0:
102,338,48875,1,0,0:0:0:0:
90,338,48923,1,0,0:0:0:0:
78,338,48971,1,0,0:0:0:0:
66,338,49019,1,0,0:0:0:0:
54,338,49068,1,0,0:0:0:0:
46,326,49116,5,0,0:0:0:0:
30,299,49164,1,0,0:0:0:0:
30,270,49212,1,0,0:0:0:0:
45,240,49260,1,0,0:0:0:0:
71,217,49308,1,0,0:0:0:0:
99,196,49357,1,0,0:0:0:0:
128,176,49405,1,0,0:0:0:0:
157,157,49453,1,0,0:0:0:0:
440,200,49501,6,0,L|504:136,1,70
124,192,49694,1,0,0:0:0:0:
440,200,49791,2,0,L|328:104,1,140
68,160,50080,1,0,0:0:0:0:
20,116,50176,1,0,0:0:0:0:
400,176,50273,5,0,0:0:0:0:
400,176,50297,1,0,0:0:0:0:
400,176,50321,1,0,0:0:0:0:
400,176,50345,1,0,0:0:0:0:
400,176,50369,1,0,0:0:0:0:
80,176,50465,1,0,0:0:0:0:
80,176,50489,1,0,0:0:0:0:
80,176,50514,1,0,0:0:0:0:
80,176,50538,1,0,0:0:0:0:
80,176,50562,1,0,0:0:0:0:
448,176,50658,5,0,0:0:0:0:
448,176,50682,1,0,0:0:0:0:
448,176,50706,1,0,0:0:0:0:
448,176,50730,1,0,0:0:0:0:
448,176,50755,1,0,0:0:0:0:
32,176,50851,1,0,0:0:0:0:
32,176,50875,1,0,0:0:0:0:
32,176,50899,1,0,0:0:0:0:
32,176,50923,1,0,0:0:0:0:
32,176,50947,1,0,0:0:0:0:
448,144,51044,5,0,0:0:0:0:
128,144,51237,1,0,0:0:0:0:
448,96,51430,1,0,0:0:0:0:
32,80,51623,1,0,0:0:0:0:
400,336,51816,2,0,L|456:98,1,245
144,288,52201,2,0,L|32:208,1,105
352,288,52393,2,0,L|432:208,1,105
96,224,52586,6,0,L|40:182,1,70
384,208,52778,1,0,0:0:0:0:
96,224,52875,2,0,L|208:112,1,140
480,160,53165,1,0,0:0:0:0:
400,96,53261,1,0,0:0:0:0:
64,192,53357,2,0,L|16:112,1,70
448,192,53550,1,0,0:0:0:0:
32,336,53647,2,0,L|99:129,1,210
416,208,54032,1,0,0:0:0:0:
128,224,54129,6,0,L|64:176,1,70
400,176,54321,1,0,0:0:0:0:
160,176,54418,2,0,L|48:48,1,140
384,112,54707,1,0,0:0:0:0:
464,48,54803,1,0,0:0:0:0:
80,160,54900,6,0,L|0:96,1,70
352,192,55093,5,0,0:0:0:0:
416,192,55141,1,0,0:0:0:0:
464,192,55189,1,0,0:0:0:0:
80,192,55285,5,0,0:0:0:0:
32,192,55333,1,0,0:0:0:0:
0,192,55381,1,0,0:0:0:0:
224,240,55478,5,0,0:0:0:0:
240,240,55526,1,0,0:0:0:0:
256,240,55575,1,0,0:0:0:0:
496,336,55671,6,0,L|416:288,1,70
160,304,55864,1,0,0:0:0:0:
435,299,55960,2,0,L|467:155,1,140
96,96,56249,1,0,0:0:0:0:
32,48,56346,1,0,0:0:0:0:
400,80,56442,2,0,L|480:32,1,70
112,192,56635,1,0,0:0:0:0:
416,224,56731,2,0,L|327:101,1,140
16,192,57021,5,0,0:0:0:0:
496,192,57213,5,0,0:0:0:0:
64,192,57406,1,0,0:0:0:0:
432,192,57599,1,0,0:0:0:0:
128,192,57792,1,0,0:0:0:0:
416,256,57985,2,0,L|498:44,1,210
160,304,58370,1,0,0:0:0:0:
64,304,58467,1,0,0:0:0:0:
160,304,58563,1,0,0:0:0:0:
64,304,58659,1,0,0:0:0:0:
432,304,58756,6,0,L|480:80,1,210
128,128,59141,2,0,L|16:16,1,140
416,320,59431,1,0,0:0:0:0:
480,320,59527,1,0,0:0:0:0:
144,192,59623,5,0,0:0:0:0:
96,192,59720,1,0,0:0:0:0:
48,192,59816,1,0,0:0:0:0:
384,192,59913,5,0,0:0:0:0:
384,192,59961,1,0,0:0:0:0:
384,192,60009,1,0,0:0:0:0:
384,192,60057,1,0,0:0:0:0:
384,192,60105,1,0,0:0:0:0:
384,192,60154,1,0,0:0:0:0:
384,192,60202,1,0,0:0:0:0:
384,192,60250,1,0,0:0:0:0:
384,192,60298,6,0,L|448:144,1,70
144,48,60491,1,0,0:0:0:0:
48,48,60587,1,0,0:0:0:0:
464,304,60684,1,0,0:0:0:0:
400,304,60732,1,0,0:0:0:0:
336,304,60780,1,0,0:0:0:0:
0,192,60877,2,0,L|80:128,1,70
496,192,61069,5,0,0:0:0:0:
256,192,61166,1,0,0:0:0:0:
16,192,61262,1,0,0:0:0:0:
256,192,61359,1,0,0:0:0:0:
496,192,61455,1,0,0:0:0:0:
256,192,61551,1,0,0:0:0:0:
16,192,61648,1,0,0:0:0:0:
256,192,61744,1,0,0:0:0:0:
480,320,61841,6,0,L|380:206,1,140
16,288,62082,1,0,0:0:0:0:
16,208,62130,2,0,L|16:160,1,35
16,80,62226,1,0,0:0:0:0:
464,96,62419,1,0,0:0:0:0:
32,80,62612,1,0,0:0:0:0:
464,96,62805,1,0,0:0:0:0:
160,288,62997,6,0,L|137:129,1,140
384,256,63287,1,0,0:0:0:0:
448,192,63383,1,0,0:0:0:0:
432,96,63479,1,0,0:0:0:0:
128,144,63576,1,0,0:0:0:0:
400,192,63672,2,0,L|400:112,1,70
64,160,63865,2,0,L|64:240,1,70
384,192,64058,1,0,0:0:0:0:
16,368,64154,6,0,L|170:202,1,210
480,336,64540,2,0,L|400:288,1,70
48,64,64733,2,0,L|144:32,1,70
432,240,64925,6,0,P|464:176|460:82,1,140
144,208,65215,1,0,0:0:0:0:
64,144,65311,1,0,0:0:0:0:
448,160,65408,1,0,0:0:0:0:
256,160,65504,1,0,0:0:0:0:
304,160,65552,1,0,0:0:0:0:
352,160,65600,1,0,0:0:0:0:
72,196,65697,2,0,L|48:196,14,17.5
336,192,66082,5,0,0:0:0:0:
352,192,66131,1,0,0:0:0:0:
368,192,66179,1,0,0:0:0:0:
384,192,66227,1,0,0:0:0:0:
400,192,66275,1,0,0:0:0:0:
416,192,66323,1,0,0:0:0:0:
432,192,66372,1,0,0:0:0:0:
448,192,66420,1,0,0:0:0:0:
104,188,66468,5,0,0:0:0:0:
408,196,66661,1,0,0:0:0:0:
192,192,66854,1,0,0:0:0:0:
352,80,67046,5,0,0:0:0:0:
432,80,67143,1,0,0:0:0:0:
128,96,67239,1,0,0:0:0:0:
64,96,67336,1,0,0:0:0:0:
368,320,67432,5,0,0:0:0:0:
384,314,67456,1,0,0:0:0:0:
398,304,67480,1,0,0:0:0:0:
409,291,67504,1,0,0:0:0:0:
415,274,67528,1,0,0:0:0:0:
416,257,67552,1,0,0:0:0:0:
411,240,67576,1,0,0:0:0:0:
176,320,67625,5,0,0:0:0:0:
159,314,67649,1,0,0:0:0:0:
145,304,67673,1,0,0:0:0:0:
134,291,67697,1,0,0:0:0:0:
128,274,67721,1,0,0:0:0:0:
127,257,67745,1,0,0:0:0:0:
132,240,67769,1,0,0:0:0:0:
384,208,67818,5,0,0:0:0:0:
399,200,67842,1,0,0:0:0:0:
412,188,67866,1,0,0:0:0:0:
422,174,67890,1,0,0:0:0:0:
426,157,67914,1,0,0:0:0:0:
423,140,67938,1,0,0:0:0:0:
412,126,67962,1,0,0:0:0:0:
160,160,68010,5,0,0:0:0:0:
64,96,68107,1,0,0:0:0:0:
399,200,68203,2,0,L|399:120,1,70
160,288,68396,5,0,0:0:0:0:
64,224,68493,1,0,0:0:0:0:
399,328,68589,2,0,L|399:248,1,70
32,128,68782,1,0,0:0:0:0:
464,144,68974,1,0,0:0:0:0:
96,160,69167,6,0,L|48:128,1,35
256,112,69264,2,0,L|320:96,1,35
320,96,69360,1,0,0:0:0:0:
80,96,69456,1,0,0:0:0:0:
400,80,69553,1,0,0:0:0:0:
480,32,69649,1,0,0:0:0:0:
176,288,69746,5,0,0:0:0:0:
161,278,69770,1,0,0:0:0:0:
148,266,69794,1,0,0:0:0:0:
136,253,69818,1,0,0:0:0:0:
127,238,69842,1,0,0:0:0:0:
119,223,69866,1,0,0:0:0:0:
114,206,69890,1,0,0:0:0:0:
384,208,69938,6,0,L|480:144,1,105
80,128,70131,6,0,L|48:128,6,17.5
432,128,70324,6,0,L|464:128,28,17.5
176,288,71095,5,0,0:0:0:0:
48,288,71192,1,0,0:0:0:0:
176,288,71288,1,0,0:0:0:0:
48,288,71384,1,0,0:0:0:0:
336,288,71481,5,0,0:0:0:0:
464,288,71578,1,0,0:0:0:0:
336,288,71674,1,0,0:0:0:0:
464,288,71770,1,0,0:0:0:0:
160,144,71866,5,0,0:0:0:0:
48,144,71963,1,0,0:0:0:0:
272,144,72059,1,0,0:0:0:0:
160,144,72156,1,0,0:0:0:0:
384,144,72252,1,0,0:0:0:0:
272,144,72348,1,0,0:0:0:0:
480,144,72445,1,0,0:0:0:0:
384,144,72541,5,0,0:0:0:0:
144,256,72638,1,0,0:0:0:0:
32,256,72734,1,0,0:0:0:0:
288,256,72830,1,0,0:0:0:0:
400,256,72927,1,0,0:0:0:0:
208,160,73023,1,0,0:0:0:0:
96,160,73120,1,0,0:0:0:0:
336,160,73216,1,0,0:0:0:0:
448,160,73312,5,0,0:0:0:0:
16,80,73409,1,0,0:0:0:0:
128,80,73505,1,0,0:0:0:0:
496,80,73602,1,0,0:0:0:0:
384,80,73698,1,0,0:0:0:0:
16,192,73794,1,0,0:0:0:0:
128,192,73891,1,0,0:0:0:0:
496,192,73987,5,0,0:0:0:0:
384,192,74084,1,0,0:0:0:0:
144,304,74180,5,0,0:0:0:0:
32,304,74276,1,0,0:0:0:0:
144,304,74373,1,0,0:0:0:0:
32,304,74469,1,0,0:0:0:0:
320,304,74566,5,0,0:0:0:0:
208,304,74662,1,0,0:0:0:0:
320,304,74758,1,0,0:0:0:0:
208,304,74855,1,0,0:0:0:0:
496,304,74951,1,0,0:0:0:0:
384,304,75047,1,0,0:0:0:0:
496,304,75144,1,0,0:0:0:0:
384,304,75240,1,0,0:0:0:0:
144,192,75337,5,0,0:0:0:0:
32,192,75433,1,0,0:0:0:0:
256,192,75530,1,0,0:0:0:0:
144,192,75626,1,0,0:0:0:0:
368,192,75722,1,0,0:0:0:0:
256,192,75819,1,0,0:0:0:0:
496,192,75915,1,0,0:0:0:0:
496,192,76012,1,0,0:0:0:0:
256,192,76108,5,0,0:0:0:0:
256,192,76204,1,0,0:0:0:0:
16,192,76301,1,0,0:0:0:0:
16,192,76397,1,0,0:0:0:0:
256,192,76494,5,0,0:0:0:0:
256,192,76590,1,0,0:0:0:0:
496,192,76686,1,0,0:0:0:0:
496,192,76783,1,0,0:0:0:0:
256,192,76879,1,0,0:0:0:0:
16,192,76976,1,0,0:0:0:0:
256,192,77072,1,0,0:0:0:0:
496,192,77168,1,0,0:0:0:0:
256,192,77265,1,0,0:0:0:0:
16,80,77361,5,0,0:0:0:0:
128,80,77458,1,0,0:0:0:0:
496,80,77554,1,0,0:0:0:0:
384,80,77650,1,0,0:0:0:0:
192,304,77747,1,0,0:0:0:0:
0,304,77843,1,0,0:0:0:0:
320,304,77940,1,0,0:0:0:0:
512,304,78036,1,0,0:0:0:0:
224,192,78132,1,0,0:0:0:0:
0,192,78229,5,0,0:0:0:0:
224,192,78325,1,0,0:0:0:0:
512,192,78422,1,0,0:0:0:0:
288,192,78518,1,0,0:0:0:0:
0,192,78614,1,0,0:0:0:0:
256,192,78711,1,0,0:0:0:0:
512,192,78807,1,0,0:0:0:0:
256,192,78904,1,0,0:0:0:0:
0,192,79000,1,0,0:0:0:0:
400,192,79096,5,0,0:0:0:0:
496,192,79193,1,0,0:0:0:0:
192,192,79289,1,0,0:0:0:0:
304,192,79386,1,0,0:0:0:0:
96,192,79482,1,0,0:0:0:0:
0,192,79578,5,0,0:0:0:0:
224,112,79675,1,0,0:0:0:0:
320,112,79771,1,0,0:0:0:0:
112,80,79868,1,0,0:0:0:0:
16,80,79964,5,0,0:0:0:0:
272,208,80060,1,0,0:0:0:0:
176,208,80157,1,0,0:0:0:0:
384,208,80253,1,0,0:0:0:0:
480,208,80350,1,0,0:0:0:0:
224,128,80446,1,0,0:0:0:0:
128,128,80542,1,0,0:0:0:0:
384,128,80639,1,0,0:0:0:0:
480,128,80735,1,0,0:0:0:0:
176,48,80832,5,0,0:0:0:0:
80,48,80928,1,0,0:0:0:0:
384,48,81024,1,0,0:0:0:0:
480,48,81121,1,0,0:0:0:0:
128,144,81217,1,0,0:0:0:0:
32,144,81314,1,0,0:0:0:0:
480,144,81410,5,0,0:0:0:0:
384,144,81506,1,0,0:0:0:0:
32,256,81603,1,0,0:0:0:0:
128,256,81699,1,0,0:0:0:0:
480,208,81796,1,0,0:0:0:0:
192,160,81892,5,0,0:0:0:0:
112,160,81988,1,0,0:0:0:0:
32,160,82085,1,0,0:0:0:0:
480,160,82278,1,0,0:0:0:0:
400,160,82374,1,0,0:0:0:0:
320,160,82470,1,0,0:0:0:0:
32,64,82663,5,0,0:0:0:0:
112,64,82760,1,0,0:0:0:0:
192,64,82856,1,0,0:0:0:0:
480,304,83049,1,0,0:0:0:0:
400,304,83145,1,0,0:0:0:0:
320,288,83242,6,0,L|288:272,1,35
336,240,83338,2,0,L|288:240,1,35
368,176,83434,2,0,P|453:170|539:164,1,140
128,112,83724,1,0,0:0:0:0:
32,112,83820,1,0,0:0:0:0:
