osu file format v14

[General]
AudioFilename: audio.mp3
AudioLeadIn: 0
PreviewTime: -1
Countdown: 0
SampleSet: Soft
StackLeniency: 0.3
Mode: 0
LetterboxInBreaks: 0
WidescreenStoryboard: 0

[Editor]
DistanceSpacing: 0.6
BeatDivisor: 4
GridSize: 32
TimelineZoom: 2.4

[Metadata]
Title:Bloody Purity
TitleUnicode:Bloody Purity
Artist:eyemedia
ArtistUnicode:eyemedia
Creator:Manzkie_69
Version:Expert
Source:Cytus
Tags:video game, instrumental, red girl
BeatmapID:2021907
BeatmapSetID:965907

[Difficulty]
HPDrainRate:6
CircleSize:4
OverallDifficulty:8
ApproachRate:9
SliderMultiplier:1.8
SliderTickRate:1

[Events]
//Background and Video events
0,0,"Konachan.com - 226374 apple228 blood garter_belt long_hair orange_eyes original red skirt stockings thighhighs vampire white_hair.jpg",0,0
//Break Periods
//Storyboard Layer 0 (Background)
//Storyboard Layer 1 (Fail)
//Storyboard Layer 2 (Pass)
//Storyboard Layer 3 (Foreground)
//Storyboard Sound Samples

[TimingPoints]
1060,387.096774193548,4,2,0,30,1,0
4350,-100,4,2,0,40,0,0
13640,-100,4,2,0,50,0,1
25834,-100,4,2,0,50,0,0
27963,-100,4,2,0,50,0,0
39963,-100,4,2,0,50,0,0
54092,-100,4,2,0,50,0,0
66672,-100,4,2,0,50,0,1
67641,-133.333333333333,4,2,0,50,0,1
70931,-100,4,2,0,50,0,1
77318,-100,4,1,0,50,0,1
79060,-181.818181818181,4,2,0,50,0,1
91060,-100,4,2,0,50,0,1
96770,-66.6666666666667,4,2,0,50,0,1
103640,-66.6666666666667,4,2,0,50,0,0
104995,-100,4,2,0,40,0,0
115834,-200,4,2,0,40,0,0
116366,-133.333333333333,4,2,0,40,0,0
117770,-100,4,2,0,50,0,1
117963,-66.6666666666667,4,2,0,50,0,1
118350,-100,4,2,0,50,0,1
118544,-66.6666666666667,4,2,0,50,0,1
118930,-50,4,2,0,50,0,1
119124,-57.1428571428571,4,2,0,50,0,1
120479,-40,4,2,0,50,0,1
120673,-57.1428571428571,4,2,0,50,0,1
120866,-50,4,2,0,50,0,1
122802,-100,4,2,0,50,0,1
123092,-66.6666666666667,4,2,0,50,0,1
123334,-50,4,2,0,50,0,1
123576,-50,4,2,0,50,0,1
123769,-222.22222222222,4,2,0,50,0,1
125124,-50,4,2,0,50,0,1
125705,-222.222222222222,4,2,0,50,0,1
126672,-66.6666666666667,4,2,0,50,0,1
127059,-222.222222222222,4,2,0,50,0,1
127640,-133.333333333333,4,2,0,50,0,1
129672,-66.6666666666667,4,2,0,50,0,1
129963,-100,4,2,0,50,0,1
135963,-66.6666666666667,4,2,0,50,0,1
136737,-133.333333333333,4,2,0,50,0,1
139834,-66.6666666666667,4,2,0,50,0,1
142157,-100,4,2,0,50,0,0

[HitObjects]
106,291,1060,5,0,0:0:0:0:
137,305,1157,1,0,0:0:0:0:
172,312,1254,1,4,0:0:0:0:
69,77,1834,5,0,0:0:0:0:
69,77,1931,1,0,0:0:0:0:
69,77,2028,1,0,0:0:0:0:
135,133,2221,1,0,0:0:0:0:
215,171,2414,1,0,0:0:0:0:
301,174,2608,1,0,0:0:0:0:
386,156,2801,6,0,B|476:136|476:136|466:173|486:211|486:211|415:228|415:228|469:275|450:353,1,360,6|2,0:0|0:0,0:0:0:0:
434,44,4350,6,0,P|394:65|358:91,1,90,2|0,0:0|0:0,0:0:0:0:
343,108,4737,1,0,0:0:0:0:
365,231,4931,1,0,0:0:0:0:
308,330,5124,2,0,P|270:347|206:341,1,90
222,346,5415,1,0,0:0:0:0:
222,346,5512,1,0,0:0:0:0:
187,234,5705,5,0,0:0:0:0:
148,117,5899,2,0,P|100:117|53:142,1,90,2|0,0:0|0:0,0:0:0:0:
62,135,6189,1,0,0:0:0:0:
62,135,6286,1,0,0:0:0:0:
245,38,6479,1,0,0:0:0:0:
293,164,6673,1,0,0:0:0:0:
271,158,6769,1,0,0:0:0:0:
244,159,6866,1,0,0:0:0:0:
219,165,6963,1,0,0:0:0:0:
188,176,7060,1,0,0:0:0:0:
161,185,7157,5,0,0:0:0:0:
169,145,7253,1,0,0:0:0:0:
196,103,7350,1,0,0:0:0:0:
245,38,7447,2,4,B|296:47|322:36|322:36|310:70|315:108,1,135,6|0,0:0|0:0,0:0:0:0:
322,188,7834,5,0,0:0:0:0:
444,242,8028,1,0,0:0:0:0:
344,326,8415,1,0,0:0:0:0:
170,248,8802,2,0,P|139:199|137:149,1,90,0|6,0:0|0:0,0:0:0:0:
240,162,9382,5,0,0:0:0:0:
252,147,9576,2,0,P|264:102|261:47,1,90
174,98,9963,1,0,0:0:0:0:
240,162,10350,1,0,0:0:0:0:
358,51,10544,2,4,B|433:26|433:26|412:66|412:66|413:100,1,135,4|0,0:1|0:0,0:0:0:0:
428,211,10931,5,0,0:0:0:0:
428,211,11124,1,0,0:0:0:0:
361,300,11512,2,0,L|317:253,1,45
220,315,11705,2,0,L|255:261,1,45
281,202,11899,1,0,0:0:0:0:
295,358,12092,1,4,0:0:0:0:
127,265,12479,5,0,0:0:0:0:
152,149,12673,1,0,0:0:0:0:
182,107,12770,1,0,0:0:0:0:
232,95,12866,1,4,0:0:0:0:
234,184,13060,2,0,L|265:220,2,45,0|0|8,0:0|0:0|0:0,0:0:0:0:
398,269,13641,5,0,0:0:0:0:
424,153,13834,1,0,0:0:0:0:
362,67,14028,1,2,0:0:0:0:
256,41,14222,5,0,0:0:0:0:
362,67,14415,1,0,0:0:0:0:
424,153,14609,1,0,0:0:0:0:
397,269,14802,2,0,L|327:346,2,90,2|0|6,0:0|0:0|0:0,0:0:0:0:
256,343,15383,5,0,0:0:0:0:
150,317,15576,1,2,0:0:0:0:
88,231,15769,2,0,L|38:333,2,90
170,64,16350,1,0,0:0:0:0:
152,72,16544,1,0,0:0:0:0:
286,46,16737,2,0,P|341:49|381:77,2,90,6|0|2,0:0|0:0|0:0,0:0:0:0:
407,160,17318,5,2,0:0:0:0:
448,293,17512,1,2,0:0:0:0:
326,213,17705,1,2,0:0:0:0:
257,344,17899,1,2,0:0:0:0:
252,358,18092,1,2,0:0:0:0:
334,71,18286,5,6,0:0:0:0:
414,30,18479,1,2,0:0:0:0:
455,111,18673,1,2,0:0:0:0:
375,152,18866,1,2,0:0:0:0:
188,121,19060,5,2,0:0:0:0:
79,150,19253,1,2,0:0:0:0:
110,259,19447,2,0,P|165:253|212:265,1,90,2|0,0:0|0:0,0:0:0:0:
302,309,19834,2,0,P|347:331|404:316,1,90,6|0,0:0|0:0,0:0:0:0:
101,23,20221,5,0,0:0:0:0:
101,23,20415,1,0,0:0:0:0:
146,125,20802,1,0,0:0:0:0:
110,259,21189,1,2,0:0:0:0:
348,71,21770,5,0,0:0:0:0:
367,56,21964,1,0,0:0:0:0:
267,149,22350,2,0,B|228:173|164:166|164:166|208:237|154:295,1,225
450,54,22931,5,0,1:0:0:0:
407,40,23027,1,0,0:0:0:0:
364,51,23124,1,0,0:0:0:0:
334,83,23221,1,0,0:0:0:0:
325,127,23318,1,0,1:0:0:0:
316,171,23414,5,0,0:0:0:0:
286,203,23511,1,0,0:0:0:0:
243,214,23608,1,0,0:0:0:0:
201,201,23705,1,0,1:0:0:0:
233,231,23802,1,0,0:0:0:0:
258,269,23899,5,0,0:0:0:0:
274,311,23995,1,0,0:0:0:0:
309,339,24092,1,0,1:0:0:0:
352,348,24189,1,0,0:0:0:0:
396,347,24286,1,0,0:0:0:0:
437,331,24383,1,0,0:0:0:0:
110,243,24479,5,2,0:0:0:0:
110,243,24673,1,2,0:0:0:0:
177,42,25060,1,2,0:0:0:0:
164,141,25447,1,2,0:0:0:0:
200,254,25641,1,2,0:0:0:0:
305,326,25834,1,2,0:0:0:0:
256,192,26221,12,2,27576,0:0:0:0:
227,33,27963,6,0,P|155:24|130:35,1,90
110,43,28350,1,0,0:0:0:0:
283,80,28544,2,0,L|334:108,1,45
155,141,28737,1,2,0:0:0:0:
289,120,28931,2,0,L|325:150,1,45
118,271,29124,1,2,0:0:0:0:
225,329,29318,6,0,P|274:344|328:337,1,90
421,305,29705,1,0,0:0:0:0:
437,288,29899,2,0,P|446:229|424:183,1,90
393,134,30286,1,0,0:0:0:0:
381,122,30479,1,0,0:0:0:0:
261,44,30673,6,0,P|217:31|170:26,1,90,2|0,0:0|0:0,0:0:0:0:
207,114,31060,1,0,0:0:0:0:
208,134,31253,1,0,0:0:0:0:
308,304,31447,1,0,0:0:0:0:
389,220,31641,2,0,L|442:255,1,45
283,152,31834,1,2,0:0:0:0:
198,228,32028,2,0,L|159:255,1,45
283,168,32221,1,2,0:0:0:0:
152,75,32415,1,0,0:0:0:0:
334,35,32608,6,0,P|377:84|426:111,1,90
299,128,32995,2,0,P|322:188|359:230,1,90
228,208,33383,2,0,P|229:273|249:325,1,90
334,35,33770,5,2,0:0:0:0:
352,26,33963,1,0,0:0:0:0:
445,217,34157,1,0,0:0:0:0:
461,226,34350,1,0,0:0:0:0:
295,306,34544,1,0,0:0:0:0:
192,96,34737,2,0,L|246:76,1,45,2|2,0:0|0:0,0:0:0:0:
106,119,34930,1,0,0:0:0:0:
288,160,35124,2,0,L|331:145,1,45,2|0,0:0|0:0,0:0:0:0:
113,216,35317,1,2,0:0:0:0:
212,148,35512,6,0,P|186:112|181:68,1,90
273,99,35899,2,0,P|279:54|305:18,1,90
330,145,36286,2,0,P|366:119|410:114,1,90
371,202,36673,2,0,P|374:245|357:286,1,90,0|2,0:0|0:0,0:0:0:0:
445,262,37060,1,0,0:0:0:0:
341,347,37253,5,0,0:0:0:0:
333,362,37447,1,0,0:0:0:0:
115,338,37641,1,0,0:0:0:0:
183,123,37834,2,0,L|133:136,1,45
54,157,38028,1,2,0:0:0:0:
237,53,38221,2,0,L|310:53,1,45
401,61,38415,1,2,0:0:0:0:
408,73,38608,2,0,B|434:112|419:172,2,90
72,144,39189,6,0,B|101:171|101:171|113:172|113:172|145:202,1,90
209,86,39576,2,0,B|233:80|252:69|252:69|252:93|258:119,1,90
294,279,39963,5,0,0:0:0:0:
199,342,40157,1,0,0:0:0:0:
75,169,40544,2,0,P|72:99|106:60,1,90,0|8,0:0|0:0,0:0:0:0:
102,61,40931,1,0,0:0:0:0:
222,9,41318,1,0,0:0:0:0:
184,131,41512,2,0,P|185:181|199:219,1,90
218,247,41899,1,0,0:0:0:0:
437,157,42092,6,0,P|421:83|392:47,1,90,0|8,0:0|0:0,0:0:0:0:
361,2,42479,1,0,0:0:0:0:
437,157,42866,6,0,P|421:231|392:267,1,90
360,328,43253,1,0,0:0:0:0:
220,268,43447,1,0,0:0:0:0:
245,346,43641,6,0,B|200:361|154:320,1,90,0|8,0:0|0:0,0:0:0:0:
125,233,44028,1,0,0:0:0:0:
133,201,44124,1,0,0:0:0:0:
148,167,44221,1,0,0:0:0:0:
148,167,44415,1,0,0:0:0:0:
134,26,44608,2,0,P|95:54|66:90,1,90
233,142,44995,2,0,P|272:114|301:78,1,90
294,200,45383,1,8,0:0:0:0:
381,115,45770,5,0,0:0:0:0:
434,184,45963,1,0,0:0:0:0:
351,342,46157,1,0,0:0:0:0:
365,322,46350,5,0,0:0:0:0:
162,352,46544,1,0,0:0:0:0:
232,313,46737,2,0,B|202:273|147:271,1,90,0|8,0:0|0:0,0:0:0:0:
283,191,47124,1,0,0:0:0:0:
186,127,47512,5,0,0:0:0:0:
365,21,47705,1,0,0:0:0:0:
367,39,47899,1,0,0:0:0:0:
377,112,48092,2,0,L|391:225,1,90
398,286,48479,1,8,0:0:0:0:
289,346,48673,2,0,B|235:341|181:301,1,90
188,304,49060,1,0,0:0:0:0:
82,111,49253,5,0,0:0:0:0:
80,134,49447,2,0,P|90:180|113:219,1,90
413,124,49834,1,0,0:0:0:0:
292,160,50028,1,8,0:0:0:0:
290,286,50221,1,0,0:0:0:0:
410,328,50415,1,0,0:0:0:0:
488,223,50608,1,0,0:0:0:0:
413,124,50802,1,0,0:0:0:0:
228,186,50995,5,0,1:0:0:0:
184,204,51092,1,0,0:0:0:0:
140,186,51189,1,0,0:0:0:0:
122,142,51286,1,0,0:0:0:0:
140,98,51382,5,0,1:0:0:0:
184,80,51479,1,0,0:0:0:0:
228,98,51576,1,8,0:0:0:0:
246,142,51673,1,0,0:0:0:0:
256,181,51770,5,0,1:0:0:0:
274,225,51867,1,0,0:0:0:0:
318,243,51964,1,0,0:0:0:0:
358,222,52061,1,0,0:0:0:0:
401,210,52157,5,0,1:0:0:0:
445,212,52253,1,0,0:0:0:0:
488,223,52350,1,2,1:0:0:0:
256,192,52544,12,0,53899,0:0:0:0:
140,58,54092,5,0,0:0:0:0:
192,169,54286,1,0,0:0:0:0:
380,56,54479,5,0,0:0:0:0:
394,98,54576,1,0,0:0:0:0:
399,145,54672,1,0,0:0:0:0:
400,268,54866,1,0,0:0:0:0:
278,330,55060,1,0,0:0:0:0:
185,324,55253,2,0,P|181:283|199:231,1,90
380,56,56221,5,2,0:0:0:0:
121,53,56995,5,0,0:0:0:0:
106,183,57576,1,0,0:0:0:0:
117,238,57673,1,0,0:0:0:0:
157,278,57770,1,0,0:0:0:0:
370,312,57963,1,0,0:0:0:0:
390,317,58157,1,0,0:0:0:0:
237,233,58350,2,0,P|208:194|195:154,1,90,0|2,0:0|0:0,0:0:0:0:
319,57,59124,2,0,B|371:65|413:56|413:56|379:95|374:166,1,180
362,310,60092,5,0,0:0:0:0:
135,298,60479,1,0,0:0:0:0:
246,348,60673,1,0,0:0:0:0:
235,239,61060,1,0,0:0:0:0:
133,134,61447,1,2,0:0:0:0:
326,25,62028,5,0,0:0:0:0:
243,75,62221,1,0,0:0:0:0:
406,173,62608,1,0,0:0:0:0:
337,319,62995,1,2,0:0:0:0:
179,290,63189,6,0,P|147:325|108:344,3,90
229,158,63963,1,0,0:0:0:0:
303,44,64157,1,0,0:0:0:0:
440,90,64350,1,0,0:0:0:0:
381,235,64544,1,2,0:0:0:0:
377,357,64737,2,0,P|325:343|274:303,3,90
256,192,65512,12,4,66286,0:0:0:0:
366,98,66673,5,0,0:0:0:0:
359,232,66866,1,0,0:0:0:0:
311,283,66963,1,0,0:0:0:0:
238,297,67060,1,0,0:0:0:0:
147,202,67253,1,0,0:0:0:0:
178,263,67447,1,0,0:0:0:0:
311,283,67641,6,0,P|340:262|359:228,1,67.5000025749208
238,297,68221,1,0,0:0:0:0:
422,119,68608,2,0,P|403:168|356:235,1,135.000005149842
239,36,69383,5,0,0:0:0:0:
83,111,69576,1,0,0:0:0:0:
64,138,69672,1,0,0:0:0:0:
59,172,69769,1,0,0:0:0:0:
220,170,69963,5,0,0:0:0:0:
215,204,70059,1,0,0:0:0:0:
196,231,70156,1,0,0:0:0:0:
343,0,70350,1,0,0:0:0:0:
308,99,70544,1,0,0:0:0:0:
273,198,70737,1,0,0:0:0:0:
238,297,70931,6,0,P|323:328|437:318,1,180
417,148,71512,1,2,0:0:0:0:
418,168,71705,2,0,P|431:216|458:250,1,90
456,47,72092,1,0,0:0:0:0:
468,35,72286,1,0,0:0:0:0:
324,73,72479,2,0,P|266:50|207:54,1,90,2|0,0:0|0:0,0:0:0:0:
123,302,72866,5,0,0:0:0:0:
135,315,73060,2,0,P|202:338|250:335,1,90
145,112,73447,2,0,P|123:153|128:208,1,90
340,234,73834,5,0,0:0:0:0:
341,216,74028,2,0,P|316:149|284:114,1,90
257,329,74414,1,0,0:0:0:0:
280,330,74608,2,0,P|329:305|358:263,1,90
188,233,74995,1,0,0:0:0:0:
172,245,75189,1,0,0:0:0:0:
339,101,75383,6,0,L|216:83,1,90,2|0,0:0|0:0,0:0:0:0:
226,86,75770,1,0,0:0:0:0:
83,155,75963,1,0,0:0:0:0:
70,172,76157,2,0,P|65:224|93:263,1,90
225,267,76544,2,0,P|224:222|201:183,1,90
304,333,76931,2,0,P|369:342|416:313,1,90,2|0,0:0|0:0,0:0:0:0:
417,317,77318,1,0,0:0:0:0:
427,190,77512,5,0,0:0:0:0:
212,250,77705,1,0,0:0:0:0:
80,207,77899,1,0,0:0:0:0:
80,68,78092,1,0,0:0:0:0:
218,40,78286,2,0,B|215:64|208:88|208:88|230:84|275:88,1,90
414,82,78673,1,4,0:0:0:0:
106,38,79060,5,8,0:0:0:0:
168,320,79253,2,0,L|219:361,1,49.5000015106202
342,161,79641,1,0,0:0:0:0:
323,143,79834,2,0,L|271:97,1,49.5000015106202,8|0,0:0|0:0,0:0:0:0:
395,344,80221,5,0,0:0:0:0:
432,74,80414,2,0,L|485:28,1,49.5000015106202,0|8,0:0|0:0,0:0:0:0:
322,154,80802,1,0,0:0:0:0:
303,183,80995,2,0,P|294:204|290:251,1,49.5000015106202
448,198,81383,5,8,0:0:0:0:
352,64,81576,2,0,P|335:41|314:19,1,49.5000015106202
162,30,81963,5,0,0:0:0:0:
161,340,82157,2,0,P|126:350|101:340,1,49.5000015106202,8|0,0:0|0:0,0:0:0:0:
108,194,82544,1,0,0:0:0:0:
95,181,82737,2,0,L|55:138,1,49.5000015106202,0|8,0:0|0:0,0:0:0:0:
146,40,83124,5,0,0:0:0:0:
414,253,83318,2,0,P|438:240|455:225,1,49.5000015106202
331,35,83705,5,8,0:0:0:0:
211,340,83899,2,0,P|187:335|167:322,1,49.5000015106202
416,189,84286,1,0,0:0:0:0:
428,209,84479,2,0,L|466:265,1,49.5000015106202
148,40,84866,5,0,0:0:0:0:
56,254,85059,2,0,P|68:277|88:293,1,49.5000015106202,0|8,0:0|0:0,0:0:0:0:
260,36,85447,1,0,0:0:0:0:
350,315,85641,1,0,0:0:0:0:
374,296,85834,2,0,L|428:257,1,49.5000015106202,0|8,0:0|0:0,0:0:0:0:
321,96,86221,5,0,0:0:0:0:
188,133,86415,2,0,L|133:149,1,49.5000015106202
398,69,86802,5,8,0:0:0:0:
219,16,86995,2,0,P|191:16|162:28,1,49.5000015106202
89,188,87383,1,0,0:0:0:0:
80,232,87576,2,0,P|74:255|72:291,1,49.5000015106202,8|0,0:0|0:0,0:0:0:0:
226,369,87963,1,0,0:0:0:0:
378,105,88157,5,0,0:0:0:0:
276,80,88350,2,0,L|218:67,1,49.5000015106202,8|0,0:0|0:0,0:0:0:0:
455,27,88737,1,0,0:0:0:0:
484,334,88931,2,0,P|469:362|445:379,1,49.5000015106202,0|8,0:0|0:0,0:0:0:0:
179,353,89318,5,0,0:0:0:0:
221,44,89512,2,0,P|255:37|279:20,1,49.5000015106202
73,75,89899,1,8,0:0:0:0:
83,289,90092,2,0,L|145:282,1,49.5000015106202
300,262,90479,1,0,0:0:0:0:
434,45,90673,2,0,P|453:69|460:88,1,49.5000015106202
192,35,91060,5,0,0:0:0:0:
173,52,91157,1,0,0:0:0:0:
154,71,91253,2,0,P|163:119|146:179,1,90,0|8,0:0|0:0,0:0:0:0:
124,272,91641,1,0,0:0:0:0:
252,211,91834,5,8,0:0:0:0:
288,190,91930,1,0,0:0:0:0:
328,180,92028,2,0,P|314:131|322:82,1,90,0|8,0:0|0:0,0:0:0:0:
419,18,92415,1,0,0:0:0:0:
471,191,92608,5,8,0:0:0:0:
455,219,92704,1,0,0:0:0:0:
438,247,92801,1,0,0:0:0:0:
421,274,92899,1,0,0:0:0:0:
400,305,92995,2,0,P|403:239|390:203,1,90,8|0,0:0|0:0,0:0:0:0:
359,64,93383,5,8,0:0:0:0:
243,43,93576,1,0,0:0:0:0:
272,166,93770,1,8,0:0:0:0:
309,11,93963,1,0,0:0:0:0:
339,204,94157,5,8,0:0:0:0:
334,235,94253,1,0,0:0:0:0:
321,265,94350,1,0,0:0:0:0:
303,292,94447,1,0,0:0:0:0:
288,322,94544,2,0,P|244:311|194:310,1,90,8|0,0:0|0:0,0:0:0:0:
26,325,94931,2,0,P|69:314|119:309,1,90,8|0,0:0|0:0,0:0:0:0:
62,197,95318,1,8,0:0:0:0:
130,95,95512,2,0,P|152:66|202:52,1,90,0|8,0:0|0:0,0:0:0:0:
326,63,95899,5,0,0:0:0:0:
370,38,95995,1,0,0:0:0:0:
410,70,96092,1,8,0:0:0:0:
398,120,96189,1,0,0:0:0:0:
347,128,96286,1,0,0:0:0:0:
291,140,96383,1,0,0:0:0:0:
243,159,96480,1,8,0:0:0:0:
264,205,96576,1,0,0:0:0:0:
250,257,96673,1,0,0:0:0:0:
227,302,96770,2,0,P|194:337|147:354,1,67.5000025749208,0|8,0:0|0:0,0:0:0:0:
419,233,97253,5,0,0:0:0:0:
455,273,97349,1,0,0:0:0:0:
427,320,97446,1,0,0:0:0:0:
374,306,97543,1,0,0:0:0:0:
371,259,97641,2,0,P|395:177|357:113,1,135.000005149842,8|0,1:0|0:0,0:0:0:0:
223,76,98028,5,0,0:0:0:0:
183,85,98124,1,0,0:0:0:0:
145,96,98221,1,0,0:0:0:0:
107,107,98318,1,0,0:0:0:0:
71,117,98415,2,0,P|149:124|197:164,1,135.000005149842,8|0,1:0|0:0,0:0:0:0:
126,233,98802,5,0,0:0:0:0:
132,279,98898,1,0,0:0:0:0:
170,304,98995,1,0,0:0:0:0:
215,290,99092,1,0,0:0:0:0:
231,256,99189,2,0,P|275:332|339:350,1,135.000005149842,8|0,1:0|0:0,0:0:0:0:
408,142,99576,5,0,0:0:0:0:
433,94,99672,1,0,0:0:0:0:
385,96,99769,1,0,0:0:0:0:
335,98,99866,1,0,0:0:0:0:
289,99,99963,2,0,P|347:131|374:192,1,135.000005149842,8|0,1:0|0:0,0:0:0:0:
264,278,100350,5,0,0:0:0:0:
220,284,100446,1,0,0:0:0:0:
177,278,100543,1,0,0:0:0:0:
139,258,100640,1,0,0:0:0:0:
108,237,100737,2,0,P|126:307|105:375,1,135.000005149842,8|0,1:0|0:0,0:0:0:0:
31,119,101124,5,0,0:0:0:0:
65,82,101220,1,0,0:0:0:0:
114,73,101317,1,0,0:0:0:0:
160,93,101414,1,0,0:0:0:0:
189,123,101512,2,0,L|324:124,1,135.000005149842,8|0,1:0|0:0,0:0:0:0:
418,170,102092,5,4,1:0:0:0:
441,219,102188,1,0,0:0:0:0:
414,267,102285,1,0,1:0:0:0:
359,270,102382,1,0,0:0:0:0:
326,227,102479,1,0,0:0:0:0:
301,181,102576,5,0,0:0:0:0:
265,134,102672,1,0,1:0:0:0:
204,137,102769,1,0,0:0:0:0:
175,191,102866,1,0,1:0:0:0:
200,245,102963,1,0,0:0:0:0:
262,247,103060,1,0,0:0:0:0:
288,193,103156,1,0,1:0:0:0:
313,139,103253,1,0,1:0:0:0:
369,114,103350,1,0,0:0:0:0:
427,106,103447,2,0,P|412:142|408:182,1,67.5000025749208,0|0,1:0|0:0,0:0:0:0:
411,340,103640,1,4,1:0:0:0:
65,60,104995,6,0,P|82:115|106:138,1,90,4|0,0:0|0:0,0:0:0:0:
254,152,105383,1,0,0:0:0:0:
275,164,105479,1,0,0:0:0:0:
298,177,105576,1,0,0:0:0:0:
365,279,105770,5,8,0:0:0:0:
365,279,105963,1,0,0:0:0:0:
450,277,106157,2,0,P|441:324|399:359,1,90
84,209,106737,1,0,0:0:0:0:
84,209,106834,1,0,0:0:0:0:
84,209,106931,1,0,0:0:0:0:
96,251,107027,1,0,0:0:0:0:
127,282,107124,1,0,0:0:0:0:
171,285,107221,1,0,0:0:0:0:
207,259,107318,1,8,0:0:0:0:
239,229,107415,1,0,0:0:0:0:
280,213,107511,1,0,0:0:0:0:
325,217,107608,1,0,0:0:0:0:
364,240,107705,1,0,0:0:0:0:
373,280,107802,1,0,0:0:0:0:
351,339,107899,2,0,P|417:326|433:275,1,90
439,87,108286,5,0,0:0:0:0:
410,53,108382,1,0,0:0:0:0:
367,51,108479,1,0,0:0:0:0:
357,160,108673,1,0,0:0:0:0:
270,98,108866,1,8,0:0:0:0:
245,337,109060,2,0,P|231:354|212:370,1,45
123,170,109253,2,0,P|141:148|156:137,1,45
266,200,109447,1,0,0:0:0:0:
111,35,109834,5,0,0:0:0:0:
112,41,109931,1,0,0:0:0:0:
114,47,110028,1,0,0:0:0:0:
116,55,110124,1,0,0:0:0:0:
127,90,110220,1,0,0:0:0:0:
150,118,110317,1,0,0:0:0:0:
183,135,110414,1,8,0:0:0:0:
220,139,110511,1,0,0:0:0:0:
255,133,110608,1,0,0:0:0:0:
274,93,110704,1,0,0:0:0:0:
312,69,110801,1,0,0:0:0:0:
356,68,110898,1,0,0:0:0:0:
377,103,110995,1,0,0:0:0:0:
374,143,111092,2,0,L|429:208,1,45
360,280,111383,5,0,0:0:0:0:
353,301,111479,1,0,0:0:0:0:
345,322,111576,1,0,0:0:0:0:
224,337,111770,1,0,0:0:0:0:
114,260,111963,1,8,0:0:0:0:
147,132,112157,1,0,0:0:0:0:
273,60,112350,1,0,0:0:0:0:
435,160,112544,1,0,0:0:0:0:
447,63,112737,6,0,L|346:36,1,90
205,27,113124,1,0,0:0:0:0:
111,173,113318,1,0,0:0:0:0:
221,267,113512,2,0,L|304:331,1,90,8|0,0:0|0:0,0:0:0:0:
319,346,113899,1,0,0:0:0:0:
430,362,114092,1,0,0:0:0:0:
460,336,114286,6,0,P|480:283|472:236,1,90
448,169,114673,1,0,0:0:0:0:
340,83,114866,1,0,0:0:0:0:
340,83,115060,2,0,P|356:128|343:169,1,90,8|0,0:0|0:0,0:0:0:0:
106,46,115447,5,0,0:0:0:0:
86,148,115641,1,0,0:0:0:0:
112,264,115834,2,0,L|152:306,1,45,4|0,0:0|0:0,0:0:0:0:
206,359,116124,1,0,0:0:0:0:
303,197,116366,2,0,L|328:219,1,33.7500012874604,4|0,0:0|0:0,0:0:0:0:
383,270,116608,1,0,0:0:0:0:
326,102,116802,5,0,0:0:0:0:
307,107,116898,1,0,0:0:0:0:
288,111,116995,1,0,0:0:0:0:
268,114,117092,1,0,0:0:0:0:
248,117,117189,1,0,0:0:0:0:
228,121,117285,1,0,0:0:0:0:
209,125,117382,1,0,0:0:0:0:
106,21,117770,6,0,P|132:39|148:62,1,45,8|0,0:0|0:0,0:0:0:0:
169,199,117963,2,0,P|93:142|71:93,1,135.000005149842
79,282,118350,2,0,P|106:298|135:303,1,45
206,294,118544,2,0,P|112:300|71:274,1,135.000005149842,8|0,0:0|0:0,0:0:0:0:
242,79,118931,6,0,B|279:70|279:70|288:94|288:94|329:84,1,90
337,83,119124,2,0,P|301:155|325:232,1,157.500001502037,0|8,0:0|0:0,0:0:0:0:
365,320,119512,2,0,P|404:361|445:371,1,78.7500007510185
444,229,119705,2,0,B|446:204|462:162|462:162|421:173|375:162,1,157.500001502037
91,227,120092,1,8,0:0:0:0:
69,231,120285,1,0,0:0:0:0:
336,160,120479,2,0,B|418:181|418:181|407:160|403:144,1,112.5
373,81,120673,6,0,P|349:74|286:50,1,78.7500007510185
208,10,120866,2,0,P|276:47|378:82,1,180,8|0,0:0|0:0,0:0:0:0:
192,237,121253,6,0,P|227:250|276:238,1,90
398,173,121446,2,0,B|314:233|403:272|274:334,1,180,0|8,0:0|0:0,0:0:0:0:
245,111,121834,1,0,0:0:0:0:
447,38,122028,1,0,0:0:0:0:
457,226,122318,1,0,0:0:0:0:
265,281,122559,1,0,0:0:0:0:
163,186,122802,2,0,L|191:95,1,90
317,41,123092,2,0,P|289:86|289:154,1,101.250003862381
332,258,123334,2,0,P|401:105|389:51,1,225,0|4,0:0|0:0,0:0:0:0:
72,338,123770,5,0,0:0:0:0:
295,8,123963,2,0,L|336:9,1,40.4999987640381,8|0,0:0|0:0,0:0:0:0:
95,226,124350,1,0,0:0:0:0:
433,162,124543,2,0,L|487:155,1,40.4999987640381,0|8,0:0|0:0,0:0:0:0:
385,332,124931,1,0,0:0:0:0:
227,50,125124,6,0,P|199:5|195:76,1,180
170,208,125512,1,8,0:0:0:0:
317,335,125705,2,0,L|366:348,1,40.4999987640381
366,64,126092,1,0,0:0:0:0:
187,302,126285,2,0,L|138:289,1,40.4999987640381,8|0,0:0|0:0,0:0:0:0:
119,78,126672,6,0,B|103:124|103:124|72:144|72:144|42:211,1,135.000005149842
241,41,127059,2,0,L|290:34,1,40.4999987640381,8|0,0:0|0:0,0:0:0:0:
274,291,127447,1,0,0:0:0:0:
80,292,127641,2,0,P|66:266|61:228,1,67.5000025749208,0|8,0:0|0:0,0:0:0:0:
427,92,128028,1,4,0:0:0:0:
273,58,128221,5,0,1:0:0:0:
224,49,128317,1,0,0:0:0:0:
178,69,128414,1,0,0:0:0:0:
179,120,128511,1,0,0:0:0:0:
227,137,128608,1,0,1:0:0:0:
275,152,128705,5,0,0:0:0:0:
323,168,128801,1,0,0:0:0:0:
323,219,128898,1,0,0:0:0:0:
277,239,128995,1,0,1:0:0:0:
242,203,129092,1,0,0:0:0:0:
245,157,129189,1,0,0:0:0:0:
269,112,129285,1,0,0:0:0:0:
316,96,129382,1,0,1:0:0:0:
363,105,129479,1,0,0:0:0:0:
391,144,129576,1,0,0:0:0:0:
400,184,129673,2,0,P|386:221|397:256,1,67.5000025749208,0|4,0:0|0:1,0:0:0:0:
209,308,129963,5,0,0:0:0:0:
181,340,130059,1,0,0:0:0:0:
141,328,130156,1,8,0:0:0:0:
136,286,130253,1,0,0:0:0:0:
139,245,130350,1,0,0:0:0:0:
124,207,130447,1,0,0:0:0:0:
107,169,130544,1,8,0:0:0:0:
147,169,130641,1,0,0:0:0:0:
186,162,130737,1,0,0:0:0:0:
223,145,130834,1,0,0:0:0:0:
246,112,130931,1,8,0:0:0:0:
279,147,131028,1,0,0:0:0:0:
315,166,131125,1,0,0:0:0:0:
357,162,131222,1,0,0:0:0:0:
397,148,131319,1,8,0:0:0:0:
439,222,131415,6,0,L|483:273,1,45
410,316,131608,2,0,L|363:269,1,45,0|8,0:0|0:0,0:0:0:0:
323,243,131802,1,0,0:0:0:0:
285,219,131898,1,0,0:0:0:0:
241,209,131995,1,0,0:0:0:0:
200,201,132092,1,8,0:0:0:0:
174,195,132188,1,0,0:0:0:0:
150,186,132285,1,0,0:0:0:0:
128,174,132382,1,0,0:0:0:0:
107,159,132479,1,8,0:0:0:0:
86,144,132576,5,0,0:0:0:0:
64,105,132672,1,0,0:0:0:0:
75,63,132769,1,0,0:0:0:0:
113,41,132866,1,8,0:0:0:0:
156,51,132963,1,0,0:0:0:0:
199,64,133059,1,0,0:0:0:0:
243,72,133156,1,0,0:0:0:0:
288,70,133253,5,8,0:0:0:0:
330,55,133350,1,0,0:0:0:0:
375,51,133447,1,0,0:0:0:0:
419,57,133544,1,0,0:0:0:0:
416,83,133640,1,8,0:0:0:0:
411,109,133737,1,0,0:0:0:0:
403,134,133834,1,0,0:0:0:0:
391,158,133930,1,0,0:0:0:0:
376,180,134027,1,8,0:0:0:0:
354,197,134124,1,0,0:0:0:0:
330,209,134221,1,0,0:0:0:0:
305,219,134318,1,0,0:0:0:0:
279,226,134414,1,8,0:0:0:0:
252,231,134511,1,0,0:0:0:0:
213,230,134608,5,0,0:0:0:0:
172,213,134704,1,0,0:0:0:0:
142,179,134801,1,8,0:0:0:0:
136,135,134898,1,0,0:0:0:0:
156,96,134995,1,0,0:0:0:0:
195,74,135091,1,0,0:0:0:0:
239,78,135188,1,8,0:0:0:0:
271,105,135285,5,0,0:0:0:0:
308,133,135382,1,0,0:0:0:0:
347,158,135479,1,0,0:0:0:0:
388,180,135576,1,8,0:0:0:0:
430,198,135672,1,0,0:0:0:0:
474,212,135769,1,0,0:0:0:0:
504,244,135866,1,0,0:0:0:0:
474,280,135963,6,0,P|420:306|335:299,1,135.000005149842,0|0,1:0|0:0,0:0:0:0:
356,27,136253,1,0,1:0:0:0:
181,53,136495,1,0,1:0:0:0:
119,228,136737,2,0,B|197:286|197:286|178:292|178:292|265:351,1,202.500007724762,8|0,1:2|0:0,0:0:0:0:
482,203,137512,1,0,1:0:0:0:
377,340,137770,1,0,1:0:0:0:
377,78,138092,1,0,1:0:0:0:
250,200,138286,6,0,B|244:140|267:101|267:101|230:79|197:29,1,202.500007724762,8|0,1:2|0:0,0:0:0:0:
83,240,139060,1,0,1:0:0:0:
217,346,139318,1,0,1:0:0:0:
368,331,139592,1,0,1:0:0:0:
381,308,139834,2,0,B|436:242|436:242|371:234|316:191|316:191|352:118|352:118|403:174|458:170|458:170|482:98|482:98|443:102|411:88,1,540.000020599366,8|0,1:2|0:0,0:0:0:0:
147,95,140801,5,0,1:0:0:0:
132,157,140898,1,0,0:0:0:0:
165,212,140995,1,0,1:0:0:0:
224,238,141092,1,0,0:0:0:0:
287,227,141189,1,0,0:0:0:0:
336,185,141286,1,0,0:0:0:0:
353,123,141383,1,0,1:0:0:0:
334,63,141480,1,0,0:0:0:0:
372,115,141576,1,0,1:0:0:0:
394,176,141673,1,0,0:0:0:0:
405,245,141770,5,0,1:0:0:0:
338,232,141866,1,0,0:0:0:0:
269,235,141963,1,0,1:0:0:0:
203,252,142060,1,0,0:0:0:0:
137,276,142157,2,0,P|118:246|112:213,1,45
96,80,142350,1,4,1:0:0:0:
