osu file format v14

[General]
AudioFilename: audio.mp3
AudioLeadIn: 0
PreviewTime: 52038
Countdown: 0
SampleSet: Soft
StackLeniency: 0.7
Mode: 0
LetterboxInBreaks: 0
WidescreenStoryboard: 1

[Editor]
DistanceSpacing: 1
BeatDivisor: 4
GridSize: 4
TimelineZoom: 3.5

[Metadata]
Title:Mirai e no Tobira (TV Size)
TitleUnicode:未来への扉 (TV Size)
Artist:eyelis
ArtistUnicode:eyelis
Creator:Darksonic
Version:Momoka's Hard
Source:神のみぞ知るセカイ 天理篇
Tags:Kami nomi zo Shiru Sekai Tenri-hen The World God Only Knows Tenri Arc TWGOK KamiNomi japanese anime pop jpop j-pop tenrihen kawasaki satomi masuda takeshi maeguchi wataru no dap shioi momoka moeka momochikun ozato fumika
BeatmapID:4447134
BeatmapSetID:2117555

[Difficulty]
HPDrainRate:5
CircleSize:4
OverallDifficulty:6.5
ApproachRate:8
SliderMultiplier:1.5
SliderTickRate:1

[Events]
//Background and Video events
0,0,"4e54118715923aa95c2ac5e501efd42c.jpg",0,0
//Break Periods
//Storyboard Layer 0 (Background)
//Storyboard Layer 1 (Fail)
//Storyboard Layer 2 (Pass)
//Storyboard Layer 3 (Foreground)
//Storyboard Layer 4 (Overlay)
//Storyboard Sound Samples

[TimingPoints]
1004,360.36036036036,4,2,1,45,1,0
1004,-142.857142857143,4,2,1,45,0,0
3886,359.281437125748,4,2,1,45,1,0
3886,-142.857142857143,4,2,1,45,0,0
9634,-142.857142857143,4,2,1,48,0,0
10891,-142.857142857143,4,2,1,54,0,0
11610,-142.857142857143,4,2,1,57,0,0
12508,-142.857142857143,4,2,1,60,0,0
13047,-142.857142857143,4,2,1,63,0,0
13766,-142.857142857143,4,2,1,66,0,0
13945,370.37037037037,4,2,1,66,1,0
13945,-142.857142857143,4,2,1,66,0,0
14685,352.941176470588,4,2,1,72,1,0
14685,-100,4,2,1,72,0,0
15390,352.941176470588,4,2,1,72,1,0
15390,-100,4,2,1,72,0,0
16801,367.197062423501,4,2,1,72,1,0
16801,-100,4,2,1,72,0,0
17351,-99.009900990099,4,2,1,72,0,0
17535,359.281437125748,4,2,1,72,1,0
17535,-100,4,2,1,72,0,0
18253,360.902255639098,4,2,1,72,1,0
18253,-100,4,2,1,72,0,0
19696,357.142857142857,4,2,1,72,1,0
19696,-100,4,2,1,72,0,0
21124,359.281437125748,4,2,1,72,1,0
21124,-100,4,2,1,72,0,0
25255,363.086232980333,4,2,1,72,1,0
25255,-100,4,2,1,72,0,0
25436,363.086232980333,4,2,1,72,1,0
25436,-100,4,2,1,72,0,0
26525,357.142857142857,4,2,1,72,1,0
26525,-100,4,2,1,72,0,0
26882,357.142857142857,4,2,2,55,1,0
26882,-111.111111111111,4,2,2,55,0,0
28310,359.281437125748,4,2,2,55,1,0
28310,-111.111111111111,4,2,2,55,0,0
32621,357.142857142857,4,2,2,55,1,0
32621,-111.111111111111,4,2,2,55,0,0
34049,360.902255639098,4,2,2,55,1,0
34049,-111.111111111111,4,2,2,55,0,0
35492,-100,4,2,2,65,0,0
36936,359.281437125748,4,2,2,65,1,0
36936,-100,4,2,2,65,0,0
37654,353.982300884956,4,2,1,65,1,0
37654,-100,4,2,1,65,0,0
38361,367.197062423501,4,2,1,72,1,0
38361,-100,4,2,1,72,0,0
39095,359.281437125748,4,2,1,72,1,0
39095,-100,4,2,1,72,0,0
39813,359.281437125748,4,2,1,72,1,0
39813,-100,4,2,1,72,0,0
41250,365.853658536585,4,2,1,72,1,0
41250,-100,4,2,1,72,0,0
41615,359.281437125748,4,2,1,72,1,0
41615,-100,4,2,1,72,0,0
42692,359.281437125748,4,2,1,72,1,0
42692,-100,4,2,1,72,0,0
44129,-111.111111111111,4,2,1,55,0,0
47003,365.853658536585,4,2,1,55,1,0
47003,-111.111111111111,4,2,1,55,0,0
48100,342.857142857143,4,2,1,60,1,0
48100,-100,4,2,1,60,0,0
48442,342.857142857143,4,2,1,60,1,0
48442,-100,4,2,1,60,0,0
48784,352.941176470588,4,2,1,60,1,0
48784,-100,4,2,1,60,0,0
49136,363.636363636364,4,2,1,50,1,0
49136,-100,4,2,1,50,0,0
49863,362.537764350453,4,2,1,50,1,0
49863,-100,4,2,1,50,0,0
52038,357.675111773472,4,2,1,72,1,0
52038,-100,4,2,1,72,0,0
52574,-90.9090909090909,4,2,1,72,0,1
52753,357.675111773472,4,2,1,72,1,1
52753,-90.9090909090909,4,2,1,72,0,1
55614,360.36036036036,4,2,1,72,1,1
55614,-90.9090909090909,4,2,1,72,0,1
58857,358.208955223881,4,2,1,72,1,1
58857,-90.9090909090909,4,2,1,72,0,1
59931,358.208955223881,4,2,1,72,1,1
59931,-90.9090909090909,4,2,1,72,0,1
61363,360.36036036036,4,2,1,72,1,1
61363,-90.9090909090909,4,2,1,72,0,1
64606,355.029585798817,4,2,1,72,1,1
64606,-90.9090909090909,4,2,1,72,0,1
65671,363.086232980333,4,2,1,72,1,1
65671,-90.9090909090909,4,2,1,72,0,1
67486,352.941176470588,4,2,1,72,1,1
67486,-90.9090909090909,4,2,1,72,0,1
68544,361.44578313253,4,2,1,72,1,1
68544,-90.9090909090909,4,2,1,72,0,1
69809,-92.5925925925926,4,2,1,72,0,1
69989,375,4,2,1,72,1,1
69989,-90.9090909090909,4,2,1,72,0,1
70364,352.941176470588,4,2,1,72,1,1
70364,-90.9090909090909,4,2,1,72,0,1
71069,358.208955223881,4,2,1,72,1,1
71069,-90.9090909090909,4,2,1,72,0,1
71427,358.208955223881,4,2,1,72,1,1
71427,-90.9090909090909,4,2,1,72,0,1
72501,352.941176470588,4,2,1,72,1,1
72501,-90.9090909090909,4,2,1,72,0,1
72853,362.537764350453,4,2,1,72,1,1
72853,-90.9090909090909,4,2,1,72,0,1
75028,357.142857142857,4,2,1,60,1,1
75028,-100,4,2,1,60,0,1
75742,359.281437125748,4,2,1,72,1,1
75742,-100,4,2,1,72,0,1
80053,360.576923076923,4,2,1,72,1,1
80053,-100,4,2,1,72,0,1
81495,359.281437125748,4,2,1,72,1,1
81495,-100,4,2,1,72,0,1
87243,360.902255639098,4,2,1,72,1,1
87243,-100,4,2,1,72,0,1
89047,352.941176470588,4,2,1,72,1,1
89047,-100,4,2,1,72,0,1
89223,-100,4,2,1,50,0,1
89752,371.517027863777,4,2,1,50,1,1
89752,-100,4,2,1,50,0,1
90123,358.744394618834,4,2,1,72,1,1
90123,-100,4,2,1,72,0,1
91557,359.281437125748,4,2,1,72,1,0
91557,-100,4,2,1,72,0,0
94431,-100,4,2,1,50,0,0
95149,-100,4,2,1,40,0,0
95868,-100,4,2,1,30,0,0
96586,-100,4,2,1,20,0,0
97305,-100,4,2,1,5,0,0

[Colours]
Combo1 : 255,255,170
Combo2 : 235,158,208
Combo3 : 155,255,155

[HitObjects]
105,121,1004,6,0,P|159:102|226:89,1,104.999996795654,2|2,0:0|0:0,0:0:0:0:
306,91,1724,2,0,P|357:103|407:121,1,104.999996795654,2|0,0:0|0:0,0:0:0:0:
458,217,2445,2,0,P|437:304|323:279,1,209.999993591309,2|2,0:0|0:0,0:0:0:0:
307,194,3526,1,2,0:0:0:0:
224,261,3886,6,0,L|119:252,1,104.999996795654,2|0,0:0|0:0,0:0:0:0:
44,353,4604,2,0,L|148:344,1,104.999996795654,2|2,0:0|0:0,0:0:0:0:
248,338,5323,1,2,0:0:0:0:
442,52,6760,6,0,P|450:111|429:160,1,104.999996795654,2|2,0:0|0:0,0:0:0:0:
331,116,7478,2,0,P|281:99|230:108,1,104.999996795654,2|0,0:0|0:0,0:0:0:0:
156,182,8197,1,2,0:0:0:0:
66,127,8556,1,0,0:0:0:0:
8,215,8915,1,2,0:0:0:0:
96,271,9275,1,2,0:0:0:0:
156,182,9634,5,2,0:0:0:0:
391,73,10712,1,2,0:0:0:0:
370,156,10891,1,2,0:0:0:0:
256,192,11071,12,2,13766,0:0:0:0:
194,200,14685,5,12,0:0:0:0:
333,144,14861,1,12,0:0:0:0:
346,165,15390,6,0,L|330:325,2,150,6|8|0,0:0|0:0|3:0,0:0:0:0:
356,71,16272,1,0,3:0:0:0:
273,114,16448,2,0,L|183:107,1,75,8|0,0:0|0:0,0:0:0:0:
126,40,16801,2,0,P|70:89|87:172,1,150,2|8,3:2|0:0,0:0:0:0:
48,251,17351,2,0,L|210:214,1,150,0|0,0:0|3:0,0:0:0:0:
300,180,17894,2,0,P|290:218|287:268,1,75,8|2,0:0|0:0,0:0:0:0:
387,239,18253,6,0,P|431:229|451:125,2,150,2|8|0,3:2|0:0|3:0,0:0:0:0:
349,336,19155,1,0,3:0:0:0:
241,294,19335,1,8,0:0:0:0:
241,294,19696,2,0,P|169:307|75:344,1,150,2|10,3:2|0:0,0:0:0:0:
40,250,20231,2,0,P|59:236|171:275,1,150,2|0,0:0|3:0,0:0:0:0:
243,195,20767,2,0,P|254:159|256:122,1,75,8|2,0:0|0:0,0:0:0:0:
171,43,21124,6,0,P|117:41|76:118,2,150,6|8|0,3:2|0:0|3:0,0:0:0:0:
243,115,22022,1,0,3:0:0:0:
317,55,22201,2,0,P|358:48|407:55,1,75,8|0,0:0|0:0,0:0:0:0:
463,133,22561,2,0,P|385:171|319:146,1,150,2|10,3:2|0:0,0:0:0:0:
243,226,23100,2,0,L|256:311,1,75,2|0,0:0|3:2,0:0:0:0:
360,352,23459,2,0,P|384:291|330:234,1,150,0|0,3:0|0:0,0:0:0:0:
236,323,23998,6,0,B|174:311|174:311|144:330|144:330|75:316,1,150,6|10,0:0|0:0,0:0:0:0:
75,173,24537,2,0,P|103:207|115:243,1,75,6|0,3:2|0:0,0:0:0:0:
78,74,24896,2,0,P|119:89|147:114,1,75,2|8,3:2|0:0,0:0:0:0:
256,40,25255,1,6,0:0:0:0:
256,192,25345,12,8,26525,0:0:0:0:
339,211,26882,6,0,L|322:60,1,134.999995880127,10|8,0:0|0:0,0:0:0:0:
188,76,27596,2,0,L|173:211,1,134.999995880127,8|8,0:0|0:0,0:0:0:0:
130,322,28310,2,0,P|254:366|379:321,1,269.999991760254,10|10,0:0|0:0,0:0:0:0:
434,218,29387,1,10,0:0:0:0:
339,154,29747,6,0,L|195:176,1,134.999995880127,10|8,0:0|0:0,0:0:0:0:
100,244,30465,2,0,P|71:208|111:109,1,134.999995880127,8|8,0:0|0:0,0:0:0:0:
62,16,31184,2,0,L|194:40,1,134.999995880127,10|8,0:0|0:0,0:0:0:0:
271,144,31902,2,0,L|262:218,2,67.4999979400635,10|2|10,0:0|0:0|0:0,0:0:0:0:
321,84,32441,1,2,0:0:0:0:
399,79,32621,6,0,P|447:117|450:214,1,134.999995880127,10|8,0:0|0:0,0:0:0:0:
500,304,33335,2,0,P|430:313|356:332,1,134.999995880127,8|8,0:0|0:0,0:0:0:0:
233,261,34049,2,0,P|209:186|252:123,2,134.999995880127,10|8|10,0:0|0:0|0:0,0:0:0:0:
357,230,35131,1,10,0:0:0:0:
247,350,35492,6,0,L|88:333,1,150,10|10,0:0|3:2,0:0:0:0:
31,227,36214,1,10,0:0:0:0:
105,114,36575,1,10,3:2:0:0:
224,177,36936,1,10,0:0:0:0:
359,163,37295,1,10,0:0:0:0:
236,64,37654,5,10,0:0:0:0:
224,177,37830,1,10,0:0:0:0:
5,99,38361,6,0,L|173:83,1,150,6|8,3:2|0:0,0:0:0:0:
303,160,39095,2,0,L|310:234,2,75,0|0|8,3:0|3:0|0:0,0:0:0:0:
420,46,39813,2,0,P|461:65|456:166,1,150,2|8,3:2|0:0,0:0:0:0:
368,179,40351,1,2,0:0:0:0:
409,255,40531,2,0,L|496:245,2,75,0|0|10,3:0|3:0|0:0,0:0:0:0:
279,336,41250,6,0,P|203:330|180:255,1,150,2|8,3:2|0:0,0:0:0:0:
150,178,41794,2,0,P|112:199|90:243,1,75,2|0,0:0|3:0,0:0:0:0:
92,320,42153,2,0,L|9:302,2,75,0|10|0,3:0|0:0|0:0,0:0:0:0:
177,268,42692,2,0,L|159:113,1,150,2|8,3:2|0:0,0:0:0:0:
99,44,43230,1,2,0:0:0:0:
11,148,43410,2,0,P|50:135|98:130,1,75,0|0,3:0|3:0,0:0:0:0:
205,184,43769,1,10,0:0:0:0:
205,184,44129,6,0,L|361:165,1,134.999995880127,6|0,3:2|0:0,0:0:0:0:
409,96,44668,1,0,3:2:0:0:
330,35,44847,2,0,P|284:58|266:140,1,134.999995880127,8|0,0:0|0:0,0:0:0:0:
310,232,45386,2,0,L|218:214,1,67.4999979400635,0|2,3:0|0:0,0:0:0:0:
368,308,45745,2,0,L|301:320,1,67.4999979400635
168,287,46105,1,0,3:0:0:0:
222,364,46284,6,0,P|255:317|241:225,1,134.999995880127,10|0,0:0|0:0,0:0:0:0:
178,177,46823,1,0,3:0:0:0:
259,125,47003,2,0,P|208:83|142:88,1,134.999995880127,6|0,3:2|0:0,0:0:0:0:
74,26,47551,1,0,3:0:0:0:
22,97,47734,2,0,L|34:184,1,67.4999979400635,8|0,0:0|0:0,0:0:0:0:
112,209,48100,6,0,L|119:163,3,37.5,10|8|10|8,0:0|0:0|0:0|0:0,0:0:0:0:
162,174,48442,2,8,L|167:136,3,37.5
213,133,48784,2,0,L|218:95,3,37.5,10|8|10|8,0:0|0:0|0:2|0:0,0:0:0:0:
264,72,49136,2,0,L|359:85,1,75,10|10,0:2|0:2,0:0:0:0:
426,155,49499,5,10,0:2:0:0:
426,155,49590,1,8,0:0:0:0:
426,155,49681,1,8,0:2:0:0:
426,155,49772,1,8,0:0:0:0:
426,155,49863,1,12,0:2:0:0:
133,80,52038,5,10,0:0:0:0:
88,193,52216,1,10,0:0:0:0:
73,215,52574,6,0,P|165:245|222:174,1,165.000005035401,6|0,0:0|0:0,0:0:0:0:
273,76,53110,2,0,P|235:90|206:119,1,82.5000025177003,8|0,0:0|0:0,0:0:0:0:
292,171,53468,1,0,3:0:0:0:
368,120,53647,2,0,P|361:69|350:33,2,82.5000025177003,0|8|0,3:0|0:0|0:0,0:0:0:0:
308,195,54183,5,0,3:0:0:0:
363,272,54362,2,0,P|320:287|255:264,1,82.5000025177003,0|8,3:0|0:0,0:0:0:0:
185,311,54720,2,0,P|170:231|218:161,1,165.000005035401,2|0,0:0|3:0,0:0:0:0:
308,151,55256,1,8,0:0:0:0:
351,39,55435,6,0,P|257:49|175:54,1,165.000005035401,2|0,0:0|3:0,0:0:0:0:
103,108,55974,2,0,P|80:63|78:22,1,82.5000025177003,8|0,0:0|0:0,0:0:0:0:
189,137,56334,1,0,3:0:0:0:
118,202,56514,2,0,L|30:190,2,82.5000025177003,0|8|0,3:0|0:0|0:0,0:0:0:0:
209,168,57055,5,0,3:0:0:0:
274,260,57235,2,0,P|275:300|260:339,1,82.5000025177003,0|8,3:0|0:0,0:0:0:0:
191,254,57595,2,0,L|364:224,1,165.000005035401,2|0,0:0|3:0,0:0:0:0:
396,142,58136,1,10,0:0:0:0:
483,238,58316,6,0,B|502:299|461:342|461:342|403:320,1,165.000005035401,6|0,0:0|3:0,0:0:0:0:
314,349,58857,2,0,P|323:309|325:264,1,82.5000025177003,8|0,0:0|0:0,0:0:0:0:
257,205,59215,1,0,3:0:0:0:
228,305,59394,1,0,3:0:0:0:
139,236,59573,1,10,0:0:0:0:
217,122,59752,6,0,P|299:126|344:216,1,165.000005035401,6|0,0:0|3:0,0:0:0:0:
418,104,60289,1,8,0:0:0:0:
308,50,60468,2,0,L|144:79,1,165.000005035401,2|0,0:0|3:0,0:0:0:0:
50,35,61005,1,8,0:0:0:0:
24,124,61184,1,0,0:0:0:0:
100,186,61363,6,2,P|107:244|109:353,2,165.000005035401,0|8|0,3:0|0:0|3:0,0:0:0:0:
185,119,62263,1,0,3:0:0:0:
101,97,62444,1,10,0:0:0:0:
184,204,62624,2,0,P|239:183|255:85,1,165.000005035401,6|0,0:0|3:0,0:0:0:0:
192,19,63164,1,8,0:0:0:0:
312,26,63344,5,4,0:0:0:0:
131,123,63705,1,4,0:0:0:0:
259,266,64065,6,0,P|196:241|114:312,1,165.000005035401,6|0,0:0|3:0,0:0:0:0:
214,359,64606,2,0,L|311:348,1,82.5000025177003,8|0,0:0|0:0,0:0:0:0:
404,353,64961,1,0,3:0:0:0:
434,257,65138,1,0,3:0:0:0:
323,199,65316,2,0,L|340:279,1,82.5000025177003,8|0,0:0|0:0,0:0:0:0:
418,171,65671,5,0,3:0:0:0:
418,171,65852,2,0,P|401:114|367:90,1,82.5000025177003,0|8,3:0|0:0,0:0:0:0:
282,46,66215,2,0,L|91:78,1,165.000005035401,2|0,0:0|3:0,0:0:0:0:
35,137,66760,1,8,0:0:0:0:
149,184,66941,6,0,P|166:241|95:307,1,165.000005035401,6|0,0:0|3:0,0:0:0:0:
11,316,67486,2,0,P|18:264|55:216,1,82.5000025177003,8|0,0:0|0:0,0:0:0:0:
82,130,67838,2,0,L|-15:147,2,82.5000025177003,0|0|8,3:0|3:0|0:0,0:0:0:0:
72,44,68368,1,0,0:0:0:0:
180,27,68544,6,0,P|169:69|167:115,1,82.5000025177003,0|0,3:0|3:0,0:0:0:0:
224,182,68905,1,8,0:0:0:0:
308,123,69086,2,0,P|358:154|334:251,1,165.000005035401,2|0,0:0|3:0,0:0:0:0:
236,282,69628,1,10,0:0:0:0:
325,368,69809,6,0,P|403:353|498:343,1,165.000005035401,6|0,0:0|3:0,0:0:0:0:
466,250,70364,2,0,P|425:274|408:312,1,82.5000025177003,8|0,0:0|0:0,0:0:0:0:
320,240,70716,2,0,L|213:234,1,82.5000025177003,0|0,3:0|3:0,0:0:0:0:
138,265,71069,1,10,0:0:0:0:
226,188,71248,6,0,P|241:138|134:77,1,165.000005035401,6|0,0:0|3:0,0:0:0:0:
71,49,71785,1,8,0:0:0:0:
22,130,71964,2,0,P|37:206|40:310,1,165.000005035401,2|0,0:0|3:0,0:0:0:0:
119,357,72501,1,8,0:0:0:0:
193,297,72677,1,2,0:0:0:0:
309,348,72853,6,0,P|317:271|337:158,2,165.000005035401,6|8|0,3:2|0:0|3:0,0:0:0:0:
225,281,73759,1,0,3:0:0:0:
169,359,73940,1,10,0:0:0:0:
92,249,74121,6,0,P|180:230|227:308,1,165.000005035401,6|0,0:0|3:0,0:0:0:0:
314,245,74665,2,0,L|302:160,1,82.5000025177003,8|0,0:0|0:0,0:0:0:0:
243,76,75028,6,0,L|236:23,3,37.5,8|8|8|8,0:0|0:0|0:0|0:0,0:0:0:0:
287,19,75385,2,0,L|327:24,3,37.5,8|8|8|8,0:0|0:0|0:0|0:0,0:0:0:0:
371,22,75742,6,0,L|356:154,1,112.5,6|0,0:0|0:0,0:0:0:0:
355,174,76101,2,0,P|313:147|254:139,1,75,8|0,0:0|0:0,0:0:0:0:
205,198,76460,2,0,L|68:179,1,112.5,2|0,0:0|0:0,0:0:0:0:
67,200,76819,2,0,P|65:158|52:119,1,75,8|0,0:0|0:0,0:0:0:0:
37,31,77179,2,0,P|104:33|177:48,2,112.5,2|2|0,0:0|0:0|0:0,0:0:0:0:
135,119,77897,2,0,P|206:119|234:30,1,150,2|10,0:0|0:0,0:0:0:0:
432,232,78616,6,0,L|248:213,1,150,6|8,0:0|0:0,0:0:0:0:
147,257,79155,1,6,0:0:0:0:
318,124,79514,1,6,0:0:0:0:
143,30,79873,6,0,P|76:56|61:127,1,150,6|0,0:0|3:0,0:0:0:0:
132,205,80413,2,0,L|231:198,1,75,10|2,0:0|0:0,0:0:0:0:
296,152,80774,1,0,3:0:0:0:
375,208,80954,1,2,3:2:0:0:
468,176,81134,1,10,0:0:0:0:
468,176,81495,5,14,0:0:0:0:
475,279,81674,2,0,L|493:323,2,37.5,8|8|8,0:0|0:0|0:0,0:0:0:0:
375,208,82033,2,0,P|300:213|231:289,1,150,14|0,0:0|0:0,0:0:0:0:
230,368,82572,1,14,0:0:0:0:
120,333,82752,2,0,P|96:265|98:159,1,150,8|14,0:0|0:0,0:0:0:0:
239,39,83650,5,10,0:0:0:0:
278,124,83830,1,0,3:0:0:0:
371,119,84009,1,10,0:0:0:0:
371,119,84369,5,14,0:0:0:0:
459,74,84548,1,8,0:0:0:0:
459,74,84638,1,8,0:0:0:0:
459,74,84728,1,8,0:0:0:0:
492,179,84908,2,0,P|472:237|369:238,1,150,14|0,0:0|0:0,0:0:0:0:
289,235,85447,1,14,0:0:0:0:
230,345,85626,2,0,L|396:328,1,150,8|14,0:0|0:0,0:0:0:0:
354,104,86524,5,10,0:0:0:0:
158,104,86884,1,10,0:0:0:0:
122,269,87243,5,14,0:0:0:0:
192,324,87423,1,10,0:0:0:0:
256,257,87603,1,10,0:0:0:0:
326,312,87784,1,10,0:0:0:0:
390,245,87964,1,10,0:0:0:0:
390,245,88325,5,10,0:0:0:0:
458,144,88506,2,0,P|446:94|339:76,1,150,14|8,0:0|0:0,0:0:0:0:
243,52,89047,1,8,0:0:0:0:
271,155,89223,1,10,0:2:0:0:
271,155,89311,1,8,0:0:0:0:
271,155,89399,2,0,L|182:149,1,75,8|10,0:0|0:2,0:0:0:0:
102,124,89752,2,8,P|89:168|96:206,1,75,10|8,0:0|0:0,0:0:0:0:
155,280,90123,5,10,0:0:0:0:
225,335,90302,1,10,0:0:0:0:
289,268,90481,1,10,0:0:0:0:
359,323,90661,1,10,0:0:0:0:
423,256,90840,1,10,0:0:0:0:
423,256,91199,5,10,0:0:0:0:
384,125,91378,1,14,0:0:0:0:
256,192,91468,12,0,97305,0:0:0:0:
