osu file format v14

[General]
AudioFilename: audio.mp3
AudioLeadIn: 0
PreviewTime: 212391
Countdown: 0
SampleSet: Soft
StackLeniency: 0.7
Mode: 0
LetterboxInBreaks: 0
WidescreenStoryboard: 1

[Editor]
Bookmarks: 11325,21913,36030,50148,64266,78383,103089,110148,124266,138383,152501,177207,177648,178089,178530,178972,179413,179854,180295,180736,181177,181619,182060,182501,182942,183383,183824,184266,184707,185148,185589,186030,186472,186913,187354,187795,201913,212501,212942,213383,213824,214266,214707,215148,215589,216030,216472,216913,217354,217795,218236,218677,219119,219560,220001,220442,220883,221324,221766,222207,222648,223089,226619,237207,246030,249559,253089
DistanceSpacing: 1
BeatDivisor: 4
GridSize: 4
TimelineZoom: 1

[Metadata]
Title:Kizuna ni Nosete
TitleUnicode:絆にのせて
Artist:eyelis
ArtistUnicode:eyelis
Creator:Kowari
Version:Hard
Source:赤髪の白雪姫
Tags:akagami no shirayukihime red haired princess snow white zen shirayuki anime japanese pop j-pop jpop ending ed season 1 one s1 crescendo snow white with the red hair
BeatmapID:3688574
BeatmapSetID:1799321

[Difficulty]
HPDrainRate:4
CircleSize:4
OverallDifficulty:6
ApproachRate:7
SliderMultiplier:1.6
SliderTickRate:1

[Events]
//Background and Video events
0,0,"Kizuna ni Nosote.jpg",0,0
//Break Periods
2,105054,109248
2,177407,186454
2,212700,222189
//Storyboard Layer 0 (Background)
//Storyboard Layer 1 (Fail)
//Storyboard Layer 2 (Pass)
//Storyboard Layer 3 (Foreground)
//Storyboard Layer 4 (Overlay)
//Storyboard Sound Samples

[TimingPoints]
737,441.176470588235,3,2,1,60,1,0
10001,-142.857142857143,3,2,1,60,0,0
11325,441.176470588235,4,2,1,65,1,0
11325,-100,4,2,1,65,0,0
21913,-100,4,2,1,70,0,0
36030,-125,4,2,1,60,0,0
50148,-111.111111111111,4,2,1,65,0,0
71324,-125,4,2,1,70,0,0
74854,-200,4,2,1,60,0,0
75736,-142.857142857143,4,2,1,65,0,0
76619,-100,4,2,1,65,0,0
77942,-83.3333333333334,4,2,1,70,0,0
78383,-100,4,2,1,80,0,1
101324,-100,4,2,1,60,0,0
111913,-125,4,2,1,60,0,0
124266,-111.111111111111,4,2,1,65,0,0
145442,-125,4,2,1,70,0,0
148972,-200,4,2,1,60,0,0
149854,-100,4,2,1,65,0,0
152060,-83.3333333333333,4,2,1,70,0,0
152501,-100,4,2,1,80,0,1
175442,-100,4,2,1,70,0,0
177207,441.176470588235,3,2,1,70,1,0
187795,441.176470588235,4,2,1,70,1,0
201030,-100,4,2,1,70,0,0
201912,-100,4,2,1,70,0,0
223089,-125,4,2,1,60,0,0
224853,-66.6666666666667,4,2,1,60,0,0
225294,-100,4,2,1,70,0,0
226618,-100,4,2,1,80,0,1
235442,-100,4,2,1,80,0,0
236765,-83.3333333333333,4,2,1,80,0,0
237206,-100,4,2,1,80,0,0
246030,-200,4,2,1,80,0,0
247353,-100,4,2,1,80,0,0
247794,-125,4,2,1,60,0,0
253089,-125,4,2,1,5,0,0

[Colours]
Combo1 : 128,128,128
Combo2 : 255,0,0
Combo3 : 121,255,121
Combo4 : 4,173,255
Combo5 : 192,192,192

[HitObjects]
115,192,10001,54,0,B|242:152|270:235|398:176,1,279.999991455078,4|0,1:3|3:0,0:0:0:0:
449,103,11325,38,0,P|400:95|355:79,1,80,4|0,1:2|0:0,0:0:0:0:
371,85,11655,1,0,3:0:0:0:
371,85,11766,1,0,1:0:0:0:
305,27,11986,1,0,3:0:0:0:
232,95,12207,2,0,P|215:163|256:244,1,160,0|0,1:0|1:0,0:0:0:0:
329,298,12869,5,0,3:0:0:0:
329,298,12979,1,0,3:0:0:0:
329,298,13089,2,0,P|380:285|426:282,1,80,0|0,1:0|0:0,0:0:0:0:
405,369,13530,2,0,P|354:382|308:385,1,80,0|0,1:0|3:0,0:0:0:0:
250,323,13972,1,0,1:0:0:0:
172,383,14192,1,0,3:0:0:0:
91,331,14413,2,0,P|75:293|66:253,1,80,0|0,1:0|3:0,0:0:0:0:
0,181,14854,54,0,P|47:169|90:149,1,80,0|0,1:0|3:0,0:0:0:0:
75,156,15185,1,0,3:0:0:0:
75,156,15295,2,0,P|96:110|104:65,1,80,0|0,1:0|3:0,0:0:0:0:
189,8,15736,2,0,P|195:68|215:136,1,120,0|0,1:0|3:0,0:0:0:0:
210,125,16177,2,0,P|252:146|297:155,1,80,0|0,1:0|3:0,0:0:0:0:
392,137,16619,5,0,1:0:0:0:
326,66,16839,1,0,3:0:0:0:
433,39,17060,1,0,1:0:0:0:
432,139,17280,2,0,P|416:203|414:230,1,80,0|0,3:0|1:0,0:0:0:0:
403,330,17722,1,0,3:0:0:0:
403,330,17832,1,0,3:0:0:0:
403,330,17942,2,0,P|451:315|489:315,1,80,0|0,1:0|3:0,0:0:0:0:
507,218,18383,54,0,B|450:207|450:207|405:214|405:214|344:202,1,160,12|0,0:0|1:0,0:0:0:0:
275,143,19045,1,0,1:0:0:0:
216,218,19266,2,0,P|204:266|198:306,1,80,4|4,1:3|1:3,0:0:0:0:
287,365,19707,1,8,0:0:0:0:
359,299,19927,5,8,0:0:0:0:
359,299,20038,1,8,0:0:0:0:
359,299,20148,2,0,P|377:222|343:142,2,160,12|0|0,0:0|0:0|0:0,0:0:0:0:
187,347,21472,1,6,3:1:0:0:
91,203,21913,38,0,P|136:199|177:191,1,80,4|0,1:2|3:0,0:0:0:0:
286,198,22354,2,0,P|268:151|261:110,1,80,8|0,0:0|0:0,0:0:0:0:
279,27,22795,1,0,1:0:0:0:
279,27,22905,1,8,0:0:0:0:
279,27,23016,1,0,1:0:0:0:
179,2,23236,2,0,P|104:5|55:60,1,120,8|0,0:0|0:0,0:0:0:0:
42,41,23677,6,0,P|33:81|30:123,1,80,0|0,1:0|3:0,0:0:0:0:
121,145,24119,1,8,0:0:0:0:
116,244,24339,2,0,P|65:253|27:266,1,80,0|0,3:0|1:0,0:0:0:0:
38,261,24670,1,8,0:0:0:0:
38,261,24780,1,0,1:0:0:0:
105,355,25001,2,0,P|156:368|187:383,1,80,8|0,0:0|0:0,0:0:0:0:
246,288,25442,54,0,B|325:266|340:311|416:279,1,160,0|8,1:0|0:0,0:0:0:0:
477,217,26104,1,0,0:0:0:0:
400,154,26324,1,0,1:0:0:0:
400,154,26435,1,8,0:0:0:0:
400,154,26545,2,0,P|387:100|384:68,1,80,0|8,1:0|0:0,0:0:0:0:
448,5,26986,1,0,0:0:0:0:
512,86,27207,6,0,P|519:145|487:248,1,160,0|8,1:0|0:0,0:0:0:0:
495,343,27869,1,0,3:0:0:0:
495,343,27979,1,0,3:0:0:0:
495,343,28089,2,0,P|450:328|409:321,1,80,0|8,1:0|0:0,0:0:0:0:
334,255,28530,2,0,L|323:304,3,40,8|8|8|4,0:0|0:0|0:3|0:3,0:0:0:0:
326,344,28972,54,0,B|286:336|286:336|256:345|256:345|213:333|162:328,1,160,4|8,1:2|0:0,0:0:0:0:
73,361,29633,2,0,P|71:305|63:265,1,80,0|0,0:0|1:0,0:0:0:0:
66,281,29964,1,8,0:0:0:0:
66,281,30074,1,0,1:0:0:0:
0,220,30295,2,0,P|24:175|36:135,1,80,8|0,0:0|0:0,0:0:0:0:
0,55,30736,6,0,P|68:52|130:122,1,160,0|8,1:0|0:0,0:0:0:0:
124,218,31398,1,0,1:0:0:0:
217,262,31619,1,0,1:0:0:0:
217,262,31729,1,8,0:0:0:0:
217,262,31839,1,0,1:0:0:0:
281,192,32060,2,0,P|297:137|306:93,1,80,8|0,0:0|3:0,0:0:0:0:
244,29,32501,54,0,B|298:3|360:16|360:16|398:62,1,160,0|8,1:0|0:0,0:0:0:0:
495,41,33163,2,0,P|485:92|478:131,1,80,0|0,0:0|1:0,0:0:0:0:
479,119,33494,1,8,0:0:0:0:
479,119,33604,1,0,1:0:0:0:
407,176,33824,2,0,P|417:226|429:261,1,80,8|0,0:0|0:0,0:0:0:0:
476,336,34266,5,8,0:0:0:0:
476,336,34376,1,8,0:0:0:0:
476,336,34486,1,0,1:0:0:0:
381,368,34707,1,8,0:0:0:0:
311,304,34927,1,8,0:0:0:0:
311,304,35038,1,8,0:0:0:0:
311,304,35148,2,0,L|320:250,2,40,8|4|0,0:3|0:3|1:0,0:0:0:0:
232,363,35589,2,0,P|220:309|216:279,1,80,8|8,0:0|0:3,0:0:0:0:
271,198,36030,22,0,P|214:177|133:216,1,128,0|0,1:0|1:0,0:0:0:0:
89,270,36692,1,0,0:0:0:0:
15,207,36913,2,0,P|6:148|6:117,1,64,0|0,1:0|0:0,0:0:0:0:
34,55,37354,1,0,1:0:0:0:
117,103,37574,1,0,0:0:0:0:
181,37,37795,6,0,B|239:19|262:44|319:24,1,128,0|0,1:0|1:0,0:0:0:0:
394,0,38457,2,0,B|406:62|372:106|372:106|375:110|379:127,1,128
475,129,39119,2,0,B|469:175|460:205,1,64,0|0,1:0|0:0,0:0:0:0:
487,285,39560,54,0,P|422:285|368:245,1,128,0|0,1:0|1:0,0:0:0:0:
335,156,40222,1,0,0:0:0:0:
252,148,40442,2,0,P|214:155|188:166,1,64,0|0,1:0|0:0,0:0:0:0:
121,217,40883,1,0,1:0:0:0:
185,284,41104,1,0,3:0:0:0:
124,338,41324,6,0,B|165:328|165:328|208:348|258:331,1,128,0|0,1:0|1:0,0:0:0:0:
340,380,41986,2,0,P|350:320|309:249,1,128
233,237,42648,2,0,P|238:199|249:171,1,64,0|0,1:0|3:0,0:0:0:0:
330,127,43089,53,4,1:2:0:0:
330,127,43310,2,0,P|370:132|415:120,1,64,0|0,0:0|1:0,0:0:0:0:
437,45,43751,2,0,P|373:12|313:17,1,128
229,0,44413,2,0,P|224:42|217:73,1,64,0|0,1:0|0:0,0:0:0:0:
128,28,44854,6,0,P|96:60|97:140,1,128,0|0,1:0|1:0,0:0:0:0:
18,193,45516,2,0,P|32:242|32:269,1,64,0|0,0:0|1:0,0:0:0:0:
11,349,45957,1,0,0:0:0:0:
11,349,46177,2,0,P|50:343|84:328,1,64,0|0,1:0|0:0,0:0:0:0:
147,273,46619,54,0,B|201:267|234:307|234:307|288:294,1,128,0|0,1:0|1:0,0:0:0:0:
344,245,47280,2,0,P|356:280|365:314,1,64,0|0,0:0|1:0,0:0:0:0:
440,374,47722,1,0,0:0:0:0:
512,290,47942,2,0,P|473:281|442:277,1,64,0|4,1:0|0:3,0:0:0:0:
369,192,48383,5,0,1:0:0:0:
369,192,48604,1,0,1:0:0:0:
434,132,48824,2,0,P|445:87|448:60,1,64,4|0,0:3|3:0,0:0:0:0:
375,0,49266,1,0,1:0:0:0:
333,85,49486,1,0,1:0:0:0:
250,40,49707,2,0,B|207:33|179:34,1,64,8|8,0:2|0:2,0:0:0:0:
97,6,50148,22,0,P|111:51|117:82,1,71.9999978027344,4|0,1:2|0:0,0:0:0:0:
41,140,50589,2,0,P|27:95|21:64,1,71.9999978027344,8|0,0:0|0:0,0:0:0:0:
140,163,51030,1,0,1:0:0:0:
72,230,51251,2,0,P|24:239|-5:242,1,71.9999978027344,0|8,0:0|0:0,0:0:0:0:
35,330,51692,1,0,3:0:0:0:
146,362,51913,6,0,P|170:328|147:225,1,143.999995605469,0|8,1:0|0:0,0:0:0:0:
68,195,52574,2,0,P|55:149|54:119,1,71.9999978027344,0|0,0:0|1:0,0:0:0:0:
4,51,53016,1,0,3:0:0:0:
4,51,53236,2,0,P|43:42|74:32,1,71.9999978027344,8|0,0:0|3:0,0:0:0:0:
150,102,53677,54,0,B|201:92|201:92|248:100|248:100|299:88,1,143.999995605469,0|8,1:0|0:0,0:0:0:0:
364,24,54339,1,0,0:0:0:0:
433,98,54560,2,0,P|424:140|414:171,1,71.9999978027344,0|0,1:0|0:0,0:0:0:0:
324,214,55001,1,8,0:0:0:0:
400,286,55222,1,0,0:0:0:0:
349,355,55442,6,0,P|385:368|482:320,1,143.999995605469,0|8,1:0|0:0,0:0:0:0:
507,232,56104,2,0,P|465:223|426:206,1,71.9999978027344,0|8,3:0|0:0,0:0:0:0:
438,212,56435,1,8,0:0:0:0:
438,212,56545,1,0,1:0:0:0:
386,141,56766,1,8,0:0:0:0:
456,86,56986,53,8,0:0:0:0:
456,86,57097,1,8,0:0:0:0:
456,86,57207,2,0,P|467:37|470:2,2,71.9999978027344,4|0|8,1:2|0:0|0:0,0:0:0:0:
355,103,57869,2,0,B|293:83|284:114|208:81,1,143.999995605469
135,17,58530,2,0,P|89:27|59:39,1,71.9999978027344,8|0,0:0|0:0,0:0:0:0:
94,122,58972,6,0,P|67:157|111:248,1,143.999995605469,4|8,1:2|0:0,0:0:0:0:
100,343,59633,2,0,P|137:327|177:323,1,71.9999978027344,4|0,1:2|0:0,0:0:0:0:
266,333,60074,1,0,1:0:0:0:
228,237,60295,1,8,0:0:0:0:
228,237,60516,1,0,3:0:0:0:
304,174,60736,54,0,P|315:122|320:91,1,71.9999978027344,4|0,1:2|0:0,0:0:0:0:
262,24,61177,1,8,0:0:0:0:
352,2,61398,2,0,P|417:5|471:64,1,143.999995605469
501,156,62060,2,0,P|452:163|406:181,1,71.9999978027344,8|0,0:0|0:0,0:0:0:0:
344,222,62501,5,4,1:2:0:0:
440,273,62722,1,0,3:0:0:0:
440,273,62832,1,0,3:0:0:0:
440,273,62942,2,0,P|450:318|452:352,1,71.9999978027344,8|4,0:0|0:3,0:0:0:0:
354,371,63383,2,0,L|314:384,2,35.9999989013672,8|8|8,0:3|0:0|0:0,0:0:0:0:
391,283,63824,1,8,0:0:0:0:
295,251,64045,53,8,0:0:0:0:
295,251,64155,1,8,0:0:0:0:
295,251,64266,2,0,B|237:237|210:264|139:242,1,143.999995605469,12|8,0:2|0:2,0:0:0:0:
66,297,64927,2,0,P|59:255|53:210,1,71.9999978027344,0|8,0:0|0:0,0:0:0:0:
14,142,65369,1,0,1:0:0:0:
107,107,65589,1,8,0:0:0:0:
45,37,65810,1,0,1:0:0:0:
134,112,66030,6,0,P|189:123|272:80,1,143.999995605469,8|8,0:0|0:0,0:0:0:0:
341,18,66692,2,0,P|352:76|359:108,1,71.9999978027344,0|8,1:0|0:0,0:0:0:0:
433,140,67133,1,0,1:0:0:0:
380,224,67354,2,0,P|334:220|297:209,1,71.9999978027344,8|0,0:0|1:0,0:0:0:0:
234,137,67795,54,0,P|206:199|222:292,1,143.999995605469,4|8,1:2|0:0,0:0:0:0:
293,327,68457,1,4,1:2:0:0:
205,373,68677,2,0,P|252:365|285:354,1,71.9999978027344,0|0,0:0|1:0,0:0:0:0:
375,303,69119,2,0,P|388:342|396:383,1,71.9999978027344,8|8,0:0|0:3,0:0:0:0:
457,245,69560,6,0,P|469:193|475:163,1,71.9999978027344,4|0,1:0|0:0,0:0:0:0:
481,81,70001,1,8,0:0:0:0:
412,17,70222,2,0,P|337:9|276:66,1,143.999995605469,4|0,1:2|1:0,0:0:0:0:
254,144,70883,1,8,0:0:0:0:
254,144,70994,1,8,0:0:0:0:
254,144,71104,1,0,1:0:0:0:
177,86,71324,6,0,P|99:70|39:63,1,128,4|0,1:2|1:0,0:0:0:0:
0,142,71986,1,0,1:0:0:0:
34,235,72207,2,0,P|90:250|145:209,1,128,8|0,0:0|3:0,0:0:0:0:
199,136,72869,6,0,P|192:95|180:62,1,64,0|0,0:0|1:0,0:0:0:0:
270,33,73310,2,0,P|277:74|289:107,1,64,8|0,0:0|0:0,0:0:0:0:
372,131,73751,1,0,1:0:0:0:
372,131,73972,2,0,P|390:177|379:250,1,96,8|0,0:0|3:0,0:0:0:0:
374,263,74413,2,0,P|328:268|291:281,1,64,0|4,1:0|0:3,0:0:0:0:
256,356,74854,53,4,1:2:0:0:
220,186,75736,1,0,1:0:0:0:
180,20,76619,38,0,P|216:26|267:22,1,80,4|0,1:2|1:0,0:0:0:0:
141,109,77060,2,0,P|113:109|60:125,1,80,0|8,1:0|1:2,0:0:0:0:
210,196,77501,1,8,1:2:0:0:
114,266,77722,1,8,1:2:0:0:
245,312,77942,1,12,0:2:0:0:
245,312,78383,54,0,P|334:313|390:259,1,160,4|8,1:2|0:0,0:0:0:0:
387,181,79045,1,0,1:0:0:0:
316,95,79266,1,0,1:0:0:0:
316,95,79376,1,8,0:0:0:0:
316,95,79486,1,0,1:0:0:0:
423,31,79707,2,0,P|410:87|397:126,1,80,8|0,0:0|3:0,0:0:0:0:
403,108,80038,1,0,3:0:0:0:
403,108,80148,6,0,B|350:125|291:89|291:89|275:104|248:117,1,160,0|8,1:0|0:0,0:0:0:0:
166,149,80810,1,0,1:0:0:0:
117,53,81030,1,0,1:0:0:0:
117,53,81141,1,8,0:0:0:0:
117,53,81251,1,0,1:0:0:0:
35,123,81472,2,0,P|39:188|49:249,1,120,8|4,0:0|0:3,0:0:0:0:
44,282,81913,54,0,P|88:271|125:265,1,80,0|0,1:0|3:0,0:0:0:0:
122,265,82244,1,0,3:0:0:0:
122,265,82354,1,8,0:0:0:0:
218,306,82574,1,0,0:0:0:0:
290,360,82795,2,0,P|311:303|291:234,1,120,0|0,1:0|0:0,0:0:0:0:
298,246,83236,2,0,P|307:210|331:159,1,80,8|0,0:0|3:0,0:0:0:0:
400,120,83677,5,0,1:0:0:0:
471,187,83898,1,0,0:0:0:0:
390,233,84119,1,8,0:0:0:0:
471,305,84339,2,0,P|421:289|381:284,1,80,0|0,0:0|1:0,0:0:0:0:
393,284,84670,1,8,0:0:0:0:
393,284,84780,1,0,1:0:0:0:
322,348,85001,1,8,0:0:0:0:
238,280,85222,53,8,0:0:0:0:
238,280,85332,1,8,0:0:0:0:
238,280,85442,2,0,P|213:218|265:138,1,160,4|8,1:2|0:0,0:0:0:0:
347,115,86104,1,0,0:0:0:0:
410,186,86324,1,0,1:0:0:0:
410,186,86435,1,8,0:0:0:0:
410,186,86545,1,0,1:0:0:0:
491,132,86766,2,0,P|502:85|507:45,1,80,4|8,0:3|0:0,0:0:0:0:
401,56,87207,6,0,B|343:41|343:41|299:48|299:48|236:31,1,160,4|8,1:2|0:0,0:0:0:0:
162,0,87869,1,0,0:0:0:0:
96,70,88089,1,0,1:0:0:0:
96,70,88199,1,8,0:0:0:0:
96,70,88310,2,0,P|37:60|2:47,1,80,0|8,1:0|0:0,0:0:0:0:
22,170,88751,53,0,3:0:0:0:
22,170,88861,1,0,3:0:0:0:
22,170,88972,2,0,B|94:144|109:184|185:153,1,160,0|8,1:0|0:0,0:0:0:0:
237,85,89633,1,0,1:0:0:0:
315,144,89854,1,0,1:0:0:0:
315,144,89964,1,8,0:0:0:0:
315,144,90074,1,0,1:0:0:0:
383,81,90295,2,0,P|395:39|401:-2,1,80,8|0,0:0|3:0,0:0:0:0:
490,62,90736,5,0,1:0:0:0:
407,113,90957,1,0,1:0:0:0:
471,190,91177,2,0,P|483:252|476:314,1,120,8|0,0:0|3:0,0:0:0:0:
460,340,91619,2,0,L|416:332,3,40,8|8|8|4,0:0|0:0|0:3|0:3,0:0:0:0:
391,353,92060,2,0,L|347:345,3,40,8|8|8|4,0:0|0:0|0:3|0:3,0:0:0:0:
309,335,92501,54,0,P|266:325|158:373,1,160,4|8,1:2|0:0,0:2:0:0:
75,384,93163,1,0,0:0:0:0:
30,289,93383,1,0,1:0:0:0:
30,289,93494,1,8,0:0:0:0:
30,289,93604,1,0,1:0:0:0:
88,203,93824,2,0,P|131:214|173:232,1,80,8|0,0:0|3:0,0:0:0:0:
163,227,94155,1,0,3:0:0:0:
163,227,94266,6,0,B|211:179|191:107|191:107|155:92,1,160,0|8,1:0|0:0,0:0:0:0:
67,65,94927,1,0,0:0:0:0:
148,5,95148,1,0,1:0:0:0:
148,5,95258,1,8,0:0:0:0:
148,5,95369,1,0,1:0:0:0:
242,39,95589,2,0,P|301:32|377:12,1,120,8|4,0:0|0:3,0:0:0:0:
392,2,96030,54,0,P|411:47|426:96,1,80,4|0,1:2|3:0,0:0:0:0:
420,76,96361,1,0,3:0:0:0:
420,76,96472,1,8,0:0:0:0:
371,155,96692,1,0,0:0:0:0:
466,195,96913,1,0,1:0:0:0:
466,195,97023,1,8,0:0:0:0:
466,195,97133,1,0,1:0:0:0:
415,278,97354,2,0,P|366:289|327:293,1,80,8|8,0:0|0:3,0:0:0:0:
239,277,97795,5,0,1:0:0:0:
287,200,98016,1,0,3:0:0:0:
185,180,98236,1,8,0:0:0:0:
240,114,98457,2,0,P|254:64|261:29,1,80,0|0,3:0|1:0,0:0:0:0:
259,36,98788,1,8,0:0:0:0:
259,36,98898,1,0,1:0:0:0:
174,0,99119,1,8,0:0:0:0:
94,73,99339,53,8,0:0:0:0:
94,73,99449,1,8,0:0:0:0:
94,73,99560,2,0,P|41:77|-2:77,1,80,4|0,1:2|1:0,0:0:0:0:
90,162,100001,2,0,P|143:158|186:158,1,80,0|8,1:0|0:0,0:0:0:0:
228,235,100442,1,8,0:0:0:0:
159,312,100663,1,4,0:3:0:0:
159,312,100773,1,8,0:3:0:0:
159,312,100883,2,0,L|151:360,2,40,8|8|0,0:0|0:0|1:0,0:0:0:0:
102,197,101324,5,4,1:2:0:0:
312,333,102648,1,8,0:0:0:0:
403,283,102869,1,0,3:0:0:0:
403,283,102979,1,0,3:0:0:0:
403,283,103089,1,4,1:2:0:0:
256,192,103199,12,0,104854,3:0:0:0:
183,59,110148,21,4,1:2:0:0:
251,177,110810,1,0,1:0:0:0:
164,229,111251,1,0,1:0:0:0:
278,356,111913,6,0,B|319:344|319:344|368:359|416:343,1,128,4|0,1:2|1:0,0:0:0:0:
486,315,112574,2,0,B|498:269|498:269|493:235|493:235|506:178,1,128
397,248,113237,2,0,P|358:235|323:225,1,64,0|0,1:0|0:0,0:0:0:0:
359,123,113678,54,0,P|294:123|240:163,1,128,0|0,1:0|1:0,0:0:0:0:
220,245,114340,1,0,0:0:0:0:
122,202,114560,2,0,P|110:172|105:140,1,64,0|0,1:0|0:0,0:0:0:0:
149,64,115001,1,0,1:0:0:0:
70,15,115222,1,0,3:0:0:0:
3,85,115442,6,0,P|-2:145|10:219,1,128,0|0,1:0|1:0,0:0:0:0:
4,312,116104,2,0,B|63:303|88:267|88:267|116:271|144:272,1,128
203,232,116766,2,0,P|213:262|216:293,1,64,0|0,1:0|0:0,0:0:0:0:
288,372,117207,53,4,1:2:0:0:
288,372,117428,2,0,P|325:364|357:360,1,64,0|0,0:0|1:0,0:0:0:0:
451,376,117869,2,0,P|446:306|394:267,1,128
313,270,118531,2,0,P|318:228|325:197,1,64,0|0,1:0|0:0,0:0:0:0:
256,166,118972,6,0,B|308:144|321:174|386:152,1,128,0|0,1:0|1:0,0:0:0:0:
433,73,119634,2,0,P|386:62|357:59,1,64,0|0,0:0|1:0,0:0:0:0:
295,4,120075,1,0,0:0:0:0:
295,4,120295,2,0,P|286:42|272:83,1,64,0|0,1:0|0:0,0:0:0:0:
193,120,120736,2,0,B|171:178|203:237|203:237|177:260,1,128,0|0,1:0|1:0,0:0:0:0:
261,316,121398,2,0,P|226:328|192:337,1,64,0|0,0:0|1:0,0:0:0:0:
109,340,121839,1,0,0:0:0:0:
47,261,122060,2,0,P|51:229|59:198,1,64,0|4,1:0|0:3,0:0:0:0:
21,114,122501,53,0,1:0:0:0:
21,114,122722,1,0,1:0:0:0:
110,81,122942,2,0,P|141:85|172:94,1,64,4|0,0:3|3:0,0:0:0:0:
244,169,123384,1,0,1:0:0:0:
316,100,123604,1,0,1:0:0:0:
377,191,123825,2,0,B|384:234|383:262,1,64,8|8,0:0|0:0,0:0:0:0:
434,117,124266,38,0,P|469:109|503:98,1,71.9999978027344,4|0,1:2|0:0,0:0:0:0:
415,22,124707,2,0,P|379:29|345:40,1,71.9999978027344,8|0,0:0|0:0,0:0:0:0:
277,113,125148,1,0,1:0:0:0:
277,206,125369,2,0,P|281:241|288:277,1,71.9999978027344,0|8,0:0|0:0,0:0:0:0:
359,358,125810,1,0,3:0:0:0:
252,371,126030,6,0,B|203:360|203:360|162:366|162:366|99:352,1,143.999995605469,0|8,1:0|0:0,0:0:0:0:
28,286,126692,2,0,P|85:267|113:259,1,71.9999978027344,0|0,0:0|1:0,0:0:0:0:
177,223,127134,1,0,3:0:0:0:
124,143,127354,2,0,P|89:132|54:124,1,71.9999978027344,8|0,0:0|0:0,0:0:0:0:
167,0,127795,54,0,P|178:52|188:84,1,71.9999978027344,0|0,1:0|0:0,0:0:0:0:
256,127,128236,1,8,0:0:0:0:
327,66,128457,1,0,0:0:0:0:
413,115,128678,2,0,P|455:106|486:96,1,71.9999978027344,0|0,1:0|0:0,0:0:0:0:
438,212,129119,2,0,P|396:221|365:231,1,71.9999978027344,8|0,0:0|0:0,0:0:0:0:
413,329,129560,6,0,P|343:340|285:302,1,143.999995605469,0|8,1:0|0:0,0:0:0:0:
203,235,130222,2,0,P|194:277|177:316,1,71.9999978027344,0|8,3:0|0:0,0:0:0:0:
183,304,130553,1,8,0:0:0:0:
183,304,130663,1,0,1:0:0:0:
114,357,130884,1,8,0:0:0:0:
70,272,131104,53,8,0:0:0:0:
70,272,131215,1,8,0:0:0:0:
70,272,131325,2,0,P|21:261|-14:258,2,71.9999978027344,4|0|8,1:2|0:0|0:0,0:0:0:0:
137,194,131986,2,0,B|191:185|191:185|229:192|229:192|284:185,1,143.999995605469
229,101,132648,2,0,P|239:55|251:25,1,71.9999978027344,8|0,0:0|0:0,0:0:0:0:
136,0,133089,6,0,P|84:39|86:121,1,143.999995605469,4|8,1:2|0:0,0:0:0:0:
150,187,133751,2,0,P|166:224|170:264,1,71.9999978027344,4|0,1:2|0:0,0:0:0:0:
103,326,134192,1,0,1:0:0:0:
195,376,134413,1,8,0:0:0:0:
195,376,134634,1,0,3:0:0:0:
272,312,134854,54,0,P|307:318|342:326,1,71.9999978027344,4|0,1:2|0:0,0:0:0:0:
426,367,135295,1,8,0:0:0:0:
490,287,135516,2,0,B|500:233|500:233|491:200|491:200|504:129,1,143.999995605469
399,226,136178,2,0,P|392:177|374:131,1,71.9999978027344,8|0,0:0|0:0,0:0:0:0:
316,94,136619,5,4,1:2:0:0:
253,178,136840,1,0,3:0:0:0:
253,178,136950,1,0,3:0:0:0:
253,178,137060,2,0,P|208:188|174:190,1,71.9999978027344,8|4,0:0|0:3,0:0:0:0:
88,130,137501,2,0,L|48:117,2,35.9999989013672,8|8|8,0:3|0:0|0:0,0:0:0:0:
183,70,137942,1,8,0:0:0:0:
152,210,138163,53,8,0:0:0:0:
152,210,138273,1,8,0:0:0:0:
152,210,138384,2,0,P|131:271|173:350,1,143.999995605469,12|8,0:2|0:2,0:0:0:0:
226,267,139045,2,0,P|261:261|297:255,1,71.9999978027344,0|8,0:0|0:0,0:0:0:0:
273,143,139487,1,0,1:0:0:0:
380,199,139707,1,8,0:0:0:0:
357,74,139928,1,0,1:0:0:0:
454,142,140148,6,0,B|430:201|464:237|442:288,1,143.999995605469,8|8,0:0|0:0,0:0:0:0:
439,377,140810,2,0,P|403:369|368:363,1,71.9999978027344,0|8,1:0|0:0,0:0:0:0:
280,378,141251,1,0,1:0:0:0:
210,305,141472,2,0,P|214:259|225:222,1,71.9999978027344,8|0,0:0|1:0,0:0:0:0:
320,191,141913,54,0,P|341:154|280:64,1,143.999995605469,4|8,1:2|0:0,0:0:0:0:
214,34,142575,1,4,1:2:0:0:
139,94,142795,2,0,P|104:103|68:109,1,71.9999978027344,0|0,0:0|1:0,0:0:0:0:
145,189,143237,2,0,P|184:176|225:168,1,71.9999978027344,8|8,0:0|0:3,0:0:0:0:
87,267,143678,6,0,P|79:302|74:344,1,71.9999978027344,4|0,1:0|0:0,0:0:0:0:
179,372,144119,1,8,0:0:0:0:
253,305,144340,2,0,B|315:284|333:331|405:306,1,143.999995605469,4|0,1:2|1:0,0:0:0:0:
486,254,145001,1,8,0:0:0:0:
486,254,145112,1,8,0:0:0:0:
486,254,145222,1,0,1:0:0:0:
422,157,145442,6,0,P|413:109|405:78,2,64,4|0|0,1:2|0:0|1:0,0:0:0:0:
353,223,146104,1,0,1:0:0:0:
283,148,146325,2,0,P|223:121|153:146,1,128,8|0,0:0|3:0,0:0:0:0:
85,81,146987,6,0,P|78:122|66:155,1,64,0|0,0:0|1:0,0:0:0:0:
7,225,147428,2,0,P|14:266|26:299,1,64,8|0,0:0|0:0,0:0:0:0:
93,347,147869,1,0,1:0:0:0:
168,296,148090,2,0,B|201:284|201:284|250:299|287:289,1,96,8|0,0:0|3:0,0:0:0:0:
298,301,148531,2,0,P|337:286|376:258,1,64,0|4,1:0|0:3,0:0:0:0:
445,214,148972,53,4,1:2:0:0:
276,186,149854,1,0,1:0:0:0:
110,158,150737,38,0,P|112:118|106:78,1,80,4|0,1:2|1:0,0:0:0:0:
199,16,151178,2,0,P|199:44|208:102,1,80,0|8,1:0|1:2,0:0:0:0:
287,152,151619,1,8,1:2:0:0:
351,64,151840,1,8,1:2:0:0:
400,202,152060,1,12,0:2:0:0:
400,202,152501,54,0,B|337:237|263:207|263:207|252:224|235:245,1,160,4|8,1:2|0:0,0:0:0:0:
189,300,153163,1,0,1:0:0:0:
92,258,153384,1,0,1:0:0:0:
92,258,153494,1,8,0:0:0:0:
92,258,153604,1,0,1:0:0:0:
8,320,153825,2,0,P|47:311|85:300,1,80,8|0,0:0|3:0,0:0:0:0:
159,192,154266,6,0,P|169:135|102:45,1,160,0|8,1:0|0:0,0:0:0:0:
44,12,154928,1,0,1:0:0:0:
0,102,155148,1,0,1:0:0:0:
0,102,155259,1,8,0:0:0:0:
0,102,155369,1,0,1:0:0:0:
89,137,155590,2,0,P|148:127|212:110,1,120,8|4,0:0|0:3,0:0:0:0:
230,91,156031,54,0,P|269:97|308:107,1,80,0|0,1:0|3:0,0:0:0:0:
308,107,156362,1,0,3:0:0:0:
308,107,156472,1,8,0:0:0:0:
389,59,156692,1,0,0:0:0:0:
458,118,156913,2,0,B|478:164|472:206|472:206|459:244,1,120,0|0,1:0|0:0,0:0:0:0:
469,258,157354,2,0,P|432:274|393:284,1,80,8|0,0:0|3:0,0:0:0:0:
308,332,157795,5,0,1:0:0:0:
248,244,158016,1,0,0:0:0:0:
190,315,158237,1,8,0:0:0:0:
279,236,158457,2,0,P|295:186|300:146,1,80,0|0,0:0|1:0,0:0:0:0:
300,158,158788,1,8,0:0:0:0:
300,158,158898,1,0,1:0:0:0:
255,66,159119,1,8,0:0:0:0:
194,167,159340,53,8,0:0:0:0:
194,167,159450,1,8,0:0:0:0:
194,167,159560,2,0,P|132:192|52:140,1,160,4|8,1:2|0:0,0:0:0:0:
31,51,160222,1,0,0:0:0:0:
133,19,160442,1,8,0:0:0:0:
133,19,160553,1,8,0:0:0:0:
133,19,160663,1,0,1:0:0:0:
215,69,160884,2,0,P|226:116|231:156,1,80,4|8,0:3|0:0,0:0:0:0:
141,206,161324,6,0,B|140:274|113:324|113:324|79:290,1,160,4|8,1:2|0:0,0:0:0:0:
185,376,161987,1,0,0:0:0:0:
255,308,162207,1,0,1:0:0:0:
255,308,162317,1,8,0:0:0:0:
255,308,162428,2,0,P|293:296|332:291,1,80,0|8,1:0|0:0,0:0:0:0:
424,362,162869,53,0,3:0:0:0:
424,362,162979,1,0,3:0:0:0:
424,362,163090,2,0,P|435:276|392:204,1,160,0|8,1:0|0:0,0:0:0:0:
304,195,163751,1,0,1:0:0:0:
380,131,163972,1,0,1:0:0:0:
380,131,164082,1,8,0:0:0:0:
380,131,164192,1,0,1:0:0:0:
316,45,164413,2,0,P|274:33|233:27,1,80,8|0,0:0|3:0,0:0:0:0:
150,89,164854,5,0,1:0:0:0:
101,5,165075,1,0,1:0:0:0:
4,62,165295,2,0,B|-13:80|-10:106|-10:106|11:139|7:180,1,120,8|0,0:0|3:0,0:0:0:0:
3,217,165737,2,0,L|42:209,3,40,8|8|8|4,0:0|0:0|0:3|0:3,0:0:0:0:
80,238,166178,2,0,L|124:230,3,40,8|8|8|4,0:0|0:0|0:3|0:3,0:0:0:0:
157,263,166619,54,0,B|217:255|217:255|259:268|259:268|335:255,1,160,4|8,1:2|0:0,0:2:0:0:
402,325,167281,1,0,0:0:0:0:
469,244,167501,1,0,1:0:0:0:
469,244,167612,1,8,0:0:0:0:
469,244,167722,1,0,1:0:0:0:
368,180,167942,2,0,P|353:142|343:104,1,80,8|0,0:0|3:0,0:0:0:0:
343,104,168273,1,0,3:0:0:0:
343,104,168384,6,0,P|296:55|192:104,1,160,0|8,1:0|0:0,0:0:0:0:
144,147,169045,1,0,0:0:0:0:
79,80,169266,1,0,1:0:0:0:
79,80,169376,1,8,0:0:0:0:
79,80,169487,1,0,1:0:0:0:
110,178,169707,2,0,P|124:236|131:295,1,120,8|4,0:0|0:3,0:0:0:0:
131,295,170148,54,0,P|86:314|37:329,1,80,4|0,1:2|3:0,0:0:0:0:
57,323,170479,1,0,3:0:0:0:
57,323,170590,1,8,0:0:0:0:
0,254,170810,1,0,0:0:0:0:
93,195,171031,1,0,1:0:0:0:
93,195,171141,1,8,0:0:0:0:
93,195,171251,1,0,1:0:0:0:
26,123,171472,2,0,P|15:74|11:35,1,80,8|8,0:0|0:3,0:0:0:0:
104,1,171913,5,0,1:0:0:0:
137,98,172134,1,0,3:0:0:0:
212,21,172354,1,8,0:0:0:0:
288,82,172575,2,0,P|338:96|373:103,1,80,0|0,3:0|1:0,0:0:0:0:
366,101,172906,1,8,0:0:0:0:
366,101,173016,1,0,1:0:0:0:
476,74,173237,1,8,0:0:0:0:
487,176,173457,53,8,0:0:0:0:
487,176,173567,1,8,0:0:0:0:
487,176,173678,2,0,P|480:232|464:278,1,80,4|0,1:2|1:0,0:0:0:0:
498,356,174119,2,0,P|455:346|404:348,1,80,0|8,1:0|0:0,0:0:0:0:
337,375,174560,1,8,0:0:0:0:
271,297,174781,1,4,0:3:0:0:
271,297,174891,1,8,0:3:0:0:
271,297,175001,2,0,L|223:305,2,40,8|8|0,0:0|0:0|1:0,0:0:0:0:
351,228,175442,5,4,1:2:0:0:
175,41,176766,2,0,P|136:29|37:101,1,160,6|0,1:1|3:0,0:0:0:0:
234,356,187354,5,8,0:0:0:0:
234,356,187464,1,8,0:0:0:0:
234,356,187574,1,8,0:0:0:0:
234,356,187684,1,8,0:0:0:0:
234,356,187795,2,0,B|236:317|236:317|251:295|251:295|246:243|261:186,1,160,4|8,1:2|0:0,0:0:0:0:
332,134,188456,1,0,0:0:0:0:
293,45,188677,1,0,1:0:0:0:
293,45,188787,1,8,0:0:0:0:
293,45,188897,2,0,P|238:34|187:30,1,80,0|8,1:0|0:0,0:0:0:0:
123,0,189339,6,0,P|110:45|93:81,1,80,0|0,3:0|1:0,0:0:0:0:
15,148,189780,2,0,P|62:134|93:126,1,80,0|8,0:0|0:0,0:0:0:0:
190,151,190221,1,0,3:0:0:0:
199,257,190442,1,8,0:0:0:0:
199,257,190552,1,8,0:0:0:0:
199,257,190662,1,8,0:0:0:0:
118,306,190883,2,0,P|108:262|97:225,1,80,8|0,0:0|3:0,0:0:0:0:
36,355,191324,54,0,P|101:366|173:303,1,160,0|8,1:0|0:0,0:0:0:0:
211,213,191986,1,0,3:0:0:0:
290,294,192206,2,0,P|295:314|297:343,2,40,0|8|0,1:0|0:0|1:0,0:0:0:0:
373,223,192647,1,8,0:0:0:0:
455,273,192868,5,8,0:0:0:0:
455,273,192978,1,8,0:0:0:0:
455,273,193089,2,0,P|413:261|371:243,1,80,0|0,1:0|0:0,0:0:0:0:
299,185,193530,1,8,0:0:0:0:
402,148,193750,1,0,1:0:0:0:
325,72,193971,1,0,1:0:0:0:
325,72,194081,1,8,0:0:0:0:
325,72,194192,1,0,1:0:0:0:
391,10,194412,2,0,P|383:66|360:138,1,120,8|8,0:0|0:0,0:0:0:0:
339,154,194853,54,0,P|279:162|201:96,1,160,0|8,1:0|0:0,0:0:0:0:
171,13,195515,1,0,1:0:0:0:
87,68,195736,1,0,1:0:0:0:
87,68,195846,1,8,0:0:0:0:
87,68,195956,1,0,1:0:0:0:
23,11,196177,2,0,P|42:61|51:98,1,80,8|0,0:0|0:0,0:0:0:0:
115,169,196618,6,0,P|71:182|34:200,1,80,0|0,1:0|3:0,0:0:0:0:
10,285,197059,1,8,0:0:0:0:
67,349,197280,1,0,1:0:0:0:
115,253,197500,2,0,L|122:205,2,40,0|8|0,1:0|0:0|1:0,0:0:0:0:
185,337,197942,2,0,P|227:355|264:363,1,80,8|8,0:0|0:0,0:0:0:0:
270,263,198383,54,0,B|321:252|321:252|375:260|375:260|434:243,1,160,4|8,1:2|0:0,0:0:0:0:
512,197,199045,1,0,1:0:0:0:
417,138,199265,1,0,3:0:0:0:
417,138,199375,1,8,0:0:0:0:
417,138,199486,1,0,1:0:0:0:
496,79,199706,1,8,0:0:0:0:
428,9,199927,6,0,P|440:84|464:172,1,160,0|0,1:0|1:0,0:0:0:0:
512,251,200589,1,8,0:0:0:0:
455,331,200809,1,0,3:0:0:0:
455,331,200920,1,0,3:0:0:0:
455,331,201030,1,8,0:0:0:0:
367,257,201250,1,8,0:3:0:0:
308,346,201471,2,0,B|258:360|207:365,1,80,4|0,0:3|1:0,0:0:0:0:
229,362,201802,1,0,1:0:0:0:
229,362,201912,54,0,B|180:320|109:336|109:336|104:323|83:306,1,160,4|8,1:2|0:0,0:0:0:0:
5,264,202574,1,0,0:0:0:0:
82,197,202795,1,0,1:0:0:0:
82,197,202905,1,8,0:0:0:0:
82,197,203015,2,0,P|92:148|93:115,1,80,0|8,1:0|0:0,0:0:0:0:
64,12,203456,6,0,P|127:22|164:24,1,80,0|0,0:0|1:0,0:0:0:0:
195,122,203897,2,0,P|155:114|115:110,1,80,0|8,3:0|0:0,0:0:0:0:
50,189,204339,1,0,3:0:0:0:
137,234,204559,1,0,1:0:0:0:
137,234,204670,1,8,0:0:0:0:
137,234,204780,2,0,P|150:278|158:327,1,80,0|8,1:0|0:3,0:0:0:0:
232,382,205221,1,4,0:3:0:0:
300,303,205442,54,0,B|380:284|390:321|469:294,1,160,0|8,1:0|0:0,0:0:0:0:
512,225,206103,1,0,3:0:0:0:
441,160,206324,2,0,L|436:113,2,40,0|8|0,1:0|0:0|1:0,0:0:0:0:
371,222,206765,1,8,0:0:0:0:
313,138,206986,6,0,P|232:101|141:132,1,160,8|0,0:0|0:0,0:0:0:0:
90,180,207647,1,8,0:0:0:0:
25,83,207868,2,0,P|38:147|43:186,1,80,0|0,1:0|1:0,0:0:0:0:
40,161,208199,1,8,0:0:0:0:
40,161,208309,1,0,1:0:0:0:
33,264,208530,1,8,0:0:0:0:
114,332,208750,53,0,3:0:0:0:
114,332,208861,1,0,3:0:0:0:
114,332,208971,2,0,P|158:320|204:317,1,80,12|8,0:0|0:0,0:0:0:0:
316,255,209412,2,0,P|279:240|239:231,1,80,8|8,0:0|0:0,0:0:0:0:
156,167,209853,1,8,0:0:0:0:
255,126,210074,1,8,0:3:0:0:
255,126,210184,1,4,0:3:0:0:
255,126,210295,2,0,L|261:87,2,40,8|8|0,0:0|0:0|1:0,0:0:0:0:
278,3,210736,5,4,1:2:0:0:
250,163,211177,1,0,3:2:0:0:
230,361,212059,2,0,B|302:335|312:386|409:350,1,160,6|4,1:2|0:1,0:0:0:0:
187,193,223089,6,0,P|163:143|184:61,1,128,0|0,1:0|1:0,0:0:0:0:
266,132,223750,2,0,P|305:148|408:161,1,128,0|0,0:0|3:0,0:0:0:0:
309,250,224412,2,0,P|273:255|230:270,1,64,0|0,1:0|0:0,0:0:0:0:
196,347,224853,53,4,0:3:0:0:
137,240,225074,1,4,0:3:0:0:
62,305,225294,2,0,P|53:338|48:394,1,80,8|0,0:0|3:0,0:0:0:0:
43,202,225736,1,8,0:0:0:0:
41,182,225846,1,8,0:0:0:0:
37,162,225956,1,8,0:0:0:0:
31,143,226066,1,8,0:0:0:0:
24,122,226177,2,0,P|28:88|39:59,3,40,8|8|4|4,0:3|0:3|0:3|0:3,0:0:0:0:
52,45,226618,38,0,B|129:25|138:63|214:40,1,160,4|8,1:2|0:0,0:0:0:0:
300,0,227280,1,0,0:0:0:0:
381,73,227500,1,0,1:0:0:0:
381,73,227611,1,8,0:0:0:0:
381,73,227721,1,0,1:0:0:0:
291,148,227941,2,0,P|276:186|266:224,1,80,8|0,0:0|3:0,0:0:0:0:
266,223,228272,1,0,3:0:0:0:
266,223,228383,54,0,B|306:265|369:266|369:266|380:288|383:323,1,160,0|8,1:0|0:0,0:0:0:0:
315,384,229044,1,0,0:0:0:0:
219,342,229265,1,0,1:0:0:0:
219,342,229375,1,8,0:0:0:0:
219,342,229486,1,0,1:0:0:0:
126,384,229706,2,0,P|112:326|105:267,1,120,8|4,0:2|0:3,0:0:0:0:
104,266,230147,6,0,P|123:221|138:172,1,80,4|0,1:2|3:0,0:0:0:0:
132,191,230478,1,0,3:0:0:0:
132,191,230589,1,8,0:0:0:0:
78,126,230809,1,0,0:0:0:0:
174,79,231030,1,0,1:0:0:0:
174,79,231140,1,8,0:0:0:0:
174,79,231250,1,0,1:0:0:0:
265,142,231471,2,0,P|304:136|343:127,1,80,8|8,0:0|0:3,0:0:0:0:
411,33,231912,53,0,1:0:0:0:
478,112,232133,1,0,3:0:0:0:
422,193,232353,1,8,0:0:0:0:
491,279,232574,2,0,P|502:317|510:356,1,80,0|0,3:0|1:0,0:0:0:0:
510,355,232905,1,8,0:0:0:0:
510,355,233015,1,0,1:0:0:0:
418,384,233236,1,8,0:0:0:0:
340,320,233456,5,8,0:0:0:0:
340,320,233566,1,8,0:0:0:0:
340,320,233677,2,0,P|284:327|238:343,1,80,4|0,1:2|1:0,0:0:0:0:
181,260,234118,2,0,P|171:303|163:354,1,80,0|8,1:0|0:0,0:0:0:0:
81,374,234559,1,8,0:0:0:0:
33,280,234780,1,4,0:3:0:0:
33,280,234890,1,8,0:3:0:0:
33,280,235000,2,0,L|81:288,2,40,8|8|0,0:0|0:0|1:0,0:0:0:0:
101,188,235441,53,4,1:2:0:0:
326,120,236765,2,0,P|335:61|272:-2,1,143.999995605469,6|0,1:2|0:0,0:0:0:0:
243,0,237206,6,0,P|222:80|223:142,1,120,0|0,1:0|1:0,0:0:0:0:
231,166,237647,1,8,0:0:0:0:
301,230,237868,1,0,0:0:0:0:
377,139,238089,1,0,1:0:0:0:
377,139,238199,1,8,0:0:0:0:
377,139,238309,2,0,P|434:129|486:122,1,80,0|8,1:0|0:0,0:0:0:0:
505,215,238750,53,0,3:0:0:0:
505,215,238861,1,0,3:0:0:0:
505,215,238971,2,0,P|510:280|483:339,1,120,0|0,1:0|0:0,0:0:0:0:
468,353,239412,2,0,P|405:337|378:332,1,80,8|0,0:0|0:0,0:0:0:0:
311,283,239853,1,0,1:0:0:0:
311,283,239964,1,8,0:0:0:0:
311,283,240074,1,0,1:0:0:0:
253,371,240294,1,8,0:0:0:0:
168,321,240515,5,8,0:0:0:0:
168,321,240625,1,8,0:0:0:0:
168,321,240736,2,0,P|162:264|149:189,1,120,0|0,1:0|0:0,0:0:0:0:
151,202,241177,2,0,P|109:183|70:169,1,80,8|0,0:0|0:0,0:0:0:0:
8,90,241618,2,0,P|47:64|128:80,1,120,0|0,1:0|3:0,0:0:0:0:
116,72,242059,2,0,P|162:62|203:50,1,80,8|0,0:0|3:0,0:0:0:0:
273,0,242500,53,8,0:0:0:0:
308,78,242721,1,0,0:0:0:0:
236,140,242942,1,8,0:0:0:0:
294,221,243162,1,0,3:0:0:0:
294,221,243272,1,0,3:0:0:0:
294,221,243383,2,0,L|299:268,2,40,0|8|0,1:0|0:0|1:0,0:0:0:0:
374,165,243824,2,0,P|425:159|498:211,1,120,8|8,0:0|0:0,0:0:0:0:
502,222,244265,6,0,P|486:278|484:313,1,80,4|0,1:2|1:0,0:0:0:0:
411,367,244706,1,0,1:0:0:0:
361,276,244927,1,8,0:0:0:0:
299,346,245147,1,8,0:0:0:0:
226,298,245368,1,0,1:0:0:0:
226,298,245478,1,0,1:0:0:0:
226,298,245589,2,0,P|184:288|136:283,1,80,8|0,0:0|1:0,0:0:0:0:
68,335,246030,53,4,1:2:0:0:
316,37,247353,2,0,P|339:76|316:165,1,120,6|0,1:2|0:0,0:0:0:0:
287,178,247794,38,0,P|219:169|154:152,1,128,0|0,3:0|0:0,0:0:0:0:
45,115,248456,2,0,P|62:141|72:172,1,64,0|0,3:0|0:0,0:0:0:0:
107,271,248897,1,0,3:0:0:0:
107,271,249118,1,2,3:0:0:0:
20,318,249339,1,0,3:0:0:0:
256,192,249449,12,0,253089,0:0:0:0:
