osu file format v14

[General]
AudioFilename: audio.mp3
AudioLeadIn: 0
PreviewTime: 46323
Countdown: 0
SampleSet: Normal
StackLeniency: 0.7
Mode: 1
LetterboxInBreaks: 0
WidescreenStoryboard: 1

[Editor]
Bookmarks: 14355,30355,48355,62355,78355,94355,110355,128355,144355
DistanceSpacing: 0.7
BeatDivisor: 4
GridSize: 32
TimelineZoom: 3.599999

[Metadata]
Title:No Lag Train (2Gbps)
TitleUnicode:No Lag Train (2Gbps)
Artist:exnoiz
ArtistUnicode:exnoiz
Creator:woosungko
Version:Muzukashii
Source:
Tags:ラグトレイン 稲葉曇 michoup japanese vocaloid 視長p 因幡プカリ inaba pukari きゐな kiwina inaba cumori kaai yuki 歌愛ユキ ぬくぬくにぎりめし nukunuku nigirimeshi weather station ウェザーステーション uxcl-276 inabakumori lagtrain remix bootleg japanese hardcore breakcore electronic
BeatmapID:4510356
BeatmapSetID:1669274

[Difficulty]
HPDrainRate:6
CircleSize:2
OverallDifficulty:5
ApproachRate:10
SliderMultiplier:1.4
SliderTickRate:1

[Events]
//Background and Video events
0,0,"maxresdefault.jpg",0,0
//Break Periods
2,46555,47655
2,70555,71655
//Storyboard Layer 0 (Background)
//Storyboard Layer 1 (Fail)
//Storyboard Layer 2 (Pass)
//Storyboard Layer 3 (Foreground)
//Storyboard Layer 4 (Overlay)
//Storyboard Sound Samples

[TimingPoints]
355,250,16,1,0,5,1,8
2224,-105.263157894737,16,1,0,65,0,0
2287,-105.595993820181,16,1,0,65,0,0
2355,250,4,1,0,65,1,0
2355,-105.935276091335,4,1,0,65,0,0
2600,-107.292414558454,4,1,0,65,0,0
2975,-109.360791106939,4,1,0,65,0,0
3100,-110.059073195064,4,1,0,65,0,0
3350,-111.469041690918,4,1,0,65,0,0
3475,-112.180785218058,4,1,0,65,0,0
3600,-112.897073315069,4,1,0,65,0,0
3975,-115.073496129286,4,1,0,65,0,0
4100,-115.808254540886,4,1,0,65,0,0
4350,-117.291875888243,4,1,0,65,0,0
4475,-118.040798927171,4,1,0,65,0,0
4600,-118.794503931721,4,1,0,65,0,0
4975,-121.084617049526,4,1,0,65,0,0
5100,-121.857757206774,4,1,0,65,0,0
5350,-123.418878826729,4,1,0,65,0,0
5475,-124.206923532229,4,1,0,65,0,0
5600,-125,4,1,0,65,0,0
6095,-95.2380952380952,4,1,0,100,0,0
6114,-111.111111111111,4,1,0,75,0,0
6350,-111.111111111111,4,1,0,75,0,0
12350,-111.111111111111,4,1,0,75,0,0
12600,-113.383169965798,4,1,0,75,0,0
12850,-115.701689083437,4,1,0,75,0,0
13100,-118.067618508095,4,1,0,75,0,0
13350,-120.481927710843,4,1,0,75,0,0
14100,-95.2380952380952,4,1,0,100,0,0
14115,-105.263157894737,4,1,0,85,0,0
29350,-105.263157894737,4,1,0,85,0,0
29600,-106.96563746014,4,1,0,85,0,0
29850,-108.695652173913,4,1,0,85,0,0
30350,-100,4,1,0,85,0,0
37350,-100,4,1,0,85,0,0
37475,-100.735452613864,4,1,0,85,0,0
37600,-101.4763141332,4,1,0,85,0,0
37850,-102.974423300599,4,1,0,85,0,0
38350,-95.2380952380952,4,1,0,85,0,0
38600,-96.8833455744234,4,1,0,85,0,0
38725,-97.7165984693078,4,1,0,85,0,0
38850,-98.557017821778,4,1,0,85,0,0
39100,-100.259602972325,4,1,0,85,0,0
39225,-101.121893636642,4,1,0,85,0,0
39350,-101.991600500184,4,1,0,85,0,0
39475,-102.868787346559,4,1,0,85,0,0
39600,-103.753518507952,4,1,0,85,0,0
39850,-105.545873875767,4,1,0,85,0,0
40100,-107.369192412934,4,1,0,85,0,0
40225,-108.29262966491,4,1,0,85,0,0
40350,-109.224009012186,4,1,0,85,0,0
40600,-111.110867806591,4,1,0,85,0,0
40725,-112.066485634444,4,1,0,85,0,0
40850,-113.03032232919,4,1,0,85,0,0
41100,-114.982935675378,4,1,0,85,0,0
41225,-115.971855529928,4,1,0,85,0,0
41350,-116.969280668093,4,1,0,85,0,0
41475,-117.975284240238,4,1,0,85,0,0
41600,-118.989940025865,4,1,0,85,0,0
41850,-121.045506533761,4,1,0,85,0,0
42350,-125.263783519287,4,1,0,85,0,0
42600,-127.427731479918,4,1,0,85,0,0
42725,-128.523683787455,4,1,0,85,0,0
42850,-129.629061919704,4,1,0,85,0,0
43100,-131.868420625777,4,1,0,85,0,0
43225,-133.002565432388,4,1,0,85,0,0
43350,-134.146464541326,4,1,0,85,0,0
43475,-135.300201845244,4,1,0,85,0,0
43600,-136.463861958317,4,1,0,85,0,0
43850,-138.821292713544,4,1,0,85,0,0
44100,-141.219448388072,4,1,0,85,0,0
44225,-142.434017450336,4,1,0,85,0,0
44350,-143.659032510116,4,1,0,85,0,0
44600,-146.140760761431,4,1,0,85,0,0
44725,-147.397655960942,4,1,0,85,0,0
44850,-148.665361187268,4,1,0,85,0,0
45225,-125,4,1,0,85,0,0
45350,-153.846153846154,4,1,0,85,0,0
45475,-118.952741199332,4,1,0,85,0,0
45725,-113.198037110682,4,1,0,85,0,0
45975,-107.721734501594,4,1,0,85,0,0
46100,-105.083749007965,4,1,0,85,0,0
46323,-83.3333333333333,4,1,0,100,0,0
46355,-100,4,1,0,100,0,1
46386,-117.647058823529,4,1,0,30,0,1
47959,-125,4,1,0,80,0,1
48073,-83.3333333333333,4,1,0,100,0,1
48105,-90.9090909090909,4,1,0,100,0,0
48323,-100,4,1,0,100,0,0
48355,-100,4,1,0,100,0,1
61350,-100,4,1,0,100,0,1
61475,-100.64322605024,4,1,0,100,0,1
61600,-101.290589497996,4,1,0,100,0,1
61725,-101.942116956088,4,1,0,100,0,1
61850,-102.597835208515,4,1,0,100,0,1
62323,-105.263157894737,4,1,0,85,0,1
62355,-105.263157894737,4,1,0,85,0,0
69350,-105.263157894737,4,1,0,85,0,0
69475,-106.951871657754,4,1,0,85,0,0
69537,-107.797621715496,4,1,0,85,0,0
69600,-108.663863861101,4,1,0,85,0,0
69850,-112.170499158721,4,1,0,85,0,0
69975,-113.967162949283,4,1,0,85,0,0
70100,-115.792493381242,4,1,0,85,0,0
70323,-95.2380952380952,4,1,0,100,0,0
70355,-95.2380952380952,4,1,0,100,0,0
70386,-117.647058823529,4,1,0,30,0,0
71350,-117.647058823529,4,1,0,30,0,0
71970,-125,4,1,0,80,0,0
72073,-95.2380952380952,4,1,0,100,0,0
72105,-95.2380952380952,4,1,0,100,0,0
72136,-95.2380952380952,4,1,0,85,0,0
72350,-100,4,1,0,85,0,0
72600,-101.347042229025,4,1,0,85,0,0
72850,-102.712229685718,4,1,0,85,0,0
72975,-103.401704128806,4,1,0,85,0,0
73100,-104.095806793958,4,1,0,85,0,0
73225,-104.794568748953,4,1,0,85,0,0
73350,-105.498021270117,4,1,0,85,0,0
73600,-106.919124167411,4,1,0,85,0,0
73725,-107.636838151582,4,1,0,85,0,0
73975,-109.086751815471,4,1,0,85,0,0
74100,-109.81901639279,4,1,0,85,0,0
74350,-111.2983249191,4,1,0,85,0,0
74475,-112.045435081396,4,1,0,85,0,0
74600,-112.797560355958,4,1,0,85,0,0
74725,-113.554734407637,4,1,0,85,0,0
74850,-114.316991127263,4,1,0,85,0,0
75100,-115.856889272698,4,1,0,85,0,0
75225,-116.634599623779,4,1,0,85,0,0
75350,-117.417530496437,4,1,0,85,0,0
75600,-118.999194216502,4,1,0,85,0,0
75850,-120.602163614798,4,1,0,85,0,0
75975,-121.411727479276,4,1,0,85,0,0
76100,-122.226725687807,4,1,0,85,0,0
76350,-123.873171297977,4,1,0,85,0,0
76600,-125.541795225793,4,1,0,85,0,0
76850,-127.232896222561,4,1,0,85,0,0
76975,-128.086970080503,4,1,0,85,0,0
77100,-128.94677706389,4,1,0,85,0,0
77225,-129.812355657366,4,1,0,85,0,0
77350,-130.683744603908,4,1,0,85,0,0
77475,-131.560982906563,4,1,0,85,0,0
77725,-133.333164903235,4,1,0,85,0,0
78350,-105.263157894737,4,1,0,85,0,0
90350,-105.263157894737,4,1,0,85,0,0
90600,-104.620458227094,4,1,0,85,0,0
90666,-104.461676903305,4,1,0,85,0,0
90725,-104.300581430607,4,1,0,85,0,0
90850,-103.981682656648,4,1,0,85,0,0
90975,-103.663758914914,4,1,0,85,0,0
91100,-103.346807224246,4,1,0,85,0,0
91225,-103.030824612602,4,1,0,85,0,0
91350,-102.715808117024,4,1,0,85,0,0
91600,-102.088661667509,4,1,0,85,0,0
91662,-101.933722823634,4,1,0,85,0,0
91725,-101.776525832843,4,1,0,85,0,0
91850,-101.465344352733,4,1,0,85,0,0
91975,-101.15511430924,4,1,0,85,0,0
92100,-100.845832793351,4,1,0,85,0,0
92225,-100.537496904945,4,1,0,85,0,0
92350,-100.230103752767,4,1,0,85,0,0
92600,-99.6181341362544,4,1,0,85,0,0
92850,-99.009900990099,4,1,0,85,0,0
93100,-97.3339535184424,4,1,0,85,0,0
93225,-96.506648317103,4,1,0,85,0,0
93350,-98.0392156862745,4,1,0,85,0,0
93475,-94.8730735773275,4,1,0,85,0,0
93725,-93.2671504706464,4,1,0,85,0,0
93975,-91.6884109359455,4,1,0,85,0,0
94100,-90.9090909090909,4,1,0,85,0,0
94323,-100,4,1,0,100,0,0
94355,-100,4,1,0,100,0,1
101350,-100,4,1,0,100,0,1
101475,-100.64322605024,4,1,0,100,0,1
101600,-101.290589497996,4,1,0,100,0,1
101725,-101.942116956088,4,1,0,100,0,1
101850,-102.597835208515,4,1,0,100,0,1
102323,-100,4,1,0,85,0,1
102355,-105.263157894737,4,1,0,85,0,0
102600,-106.518910317498,4,1,0,85,0,0
102725,-107.152393165558,4,1,0,85,0,0
102850,-107.789643424658,4,1,0,85,0,0
102975,-108.430683500119,4,1,0,85,0,0
103100,-109.075535930509,4,1,0,85,0,0
103350,-110.376768681342,4,1,0,85,0,0
103600,-111.693524680879,4,1,0,85,0,0
103725,-112.357781683826,4,1,0,85,0,0
103850,-113.025989116014,4,1,0,85,0,0
104100,-114.374349382855,4,1,0,85,0,0
104225,-115.054549625009,4,1,0,85,0,0
104350,-115.738795113077,4,1,0,85,0,0
104475,-116.427109904702,4,1,0,85,0,0
104600,-117.119518200599,4,1,0,85,0,0
104725,-117.816044345412,4,1,0,85,0,0
104787,-118.163056621837,4,1,0,85,0,0
104850,-118.516712828563,4,1,0,85,0,0
105100,-119.930575496648,4,1,0,85,0,0
105225,-120.643819392108,4,1,0,85,0,0
105350,-121.361305048707,4,1,0,85,0,0
105475,-122.08305769279,4,1,0,85,0,0
105725,-123.53946559981,4,1,0,85,0,0
105975,-125.013247940529,4,1,0,85,0,0
106100,-125.75671919943,4,1,0,85,0,0
106350,-127.256952595156,4,1,0,85,0,0
106600,-128.775083247234,4,1,0,85,0,0
106725,-129.540926666505,4,1,0,85,0,0
106850,-130.311324663634,4,1,0,85,0,0
106975,-131.086304325333,4,1,0,85,0,0
107100,-131.8658928994,4,1,0,85,0,0
107350,-133.439006587036,4,1,0,85,0,0
107600,-135.030886967255,4,1,0,85,0,0
107725,-135.833934525637,4,1,0,85,0,0
107850,-136.641757920093,4,1,0,85,0,0
108100,-138.271845996399,4,1,0,85,0,0
108225,-139.094167991124,4,1,0,85,0,0
108350,-139.92138044969,4,1,0,85,0,0
108475,-140.753512456369,4,1,0,85,0,0
108600,-141.5905932684,4,1,0,85,0,0
108725,-142.432652317022,4,1,0,85,0,0
108791,-142.852169702726,4,1,0,85,0,0
108850,-143.279719208501,4,1,0,85,0,0
109100,-144.988995826523,4,1,0,85,0,0
109225,-145.851265650161,4,1,0,85,0,0
109350,-146.71866351296,4,1,0,85,0,0
109475,-147.591219912089,4,1,0,85,0,0
109725,-149.351931215926,4,1,0,85,0,0
109975,-151.133647185876,4,1,0,85,0,0
110100,-152.03246011,4,1,0,85,0,0
110323,-132.890365448505,4,1,0,100,0,0
110350,-132.890365448505,4,1,0,100,0,0
110386,-153.846153846154,4,1,0,75,0,0
111324,-132.890365448505,4,1,0,100,0,0
111386,-153.846153846154,4,1,0,75,0,0
112324,-132.890365448505,4,1,0,100,0,0
112386,-153.846153846154,4,1,0,75,0,0
113324,-132.890365448505,4,1,0,100,0,0
113386,-153.846153846154,4,1,0,75,0,0
114323,-132.890365448505,4,1,0,100,0,0
114386,-153.846153846154,4,1,0,75,0,0
115323,-132.890365448505,4,1,0,100,0,0
115386,-153.846153846154,4,1,0,75,0,0
116323,-132.890365448505,4,1,0,100,0,0
116386,-153.846153846154,4,1,0,75,0,0
117323,-132.890365448505,4,1,0,100,0,0
117386,-153.846153846154,4,1,0,75,0,0
118323,-132.890365448505,4,1,0,100,0,0
118386,-132.890365448505,4,1,0,75,0,0
118600,-150.738619234248,4,1,0,75,0,0
118725,-149.188163915498,4,1,0,75,0,0
118850,-147.653656146935,4,1,0,75,0,0
119100,-144.631828819379,4,1,0,75,0,0
119225,-143.144186240505,4,1,0,75,0,0
119350,-141.671845137527,4,1,0,75,0,0
119600,-138.772439431272,4,1,0,75,0,0
119725,-137.34506489444,4,1,0,75,0,0
119850,-135.932371933264,4,1,0,75,0,0
120100,-133.15042824879,4,1,0,75,0,0
120225,-131.780880148105,4,1,0,75,0,0
120350,-130.42541883651,4,1,0,75,0,0
120600,-127.756178499814,4,1,0,75,0,0
120725,-126.44211414481,4,1,0,75,0,0
120850,-125.141565888592,4,1,0,75,0,0
121100,-122.580463011201,4,1,0,75,0,0
121225,-121.319634619538,4,1,0,75,0,0
121350,-120.071774756417,4,1,0,75,0,0
121600,-117.614428425176,4,1,0,75,0,0
121725,-116.404679277678,4,1,0,75,0,0
121850,-115.207373271889,4,1,0,75,0,0
122350,-111.111111111111,4,1,0,75,0,0
122600,-107.971084961214,4,1,0,75,0,0
122850,-104.919796689315,4,1,0,75,0,0
123100,-101.954738542098,4,1,0,75,0,0
123350,-99.0734736359443,4,1,0,75,0,0
123600,-96.2736339541421,4,1,0,75,0,0
123850,-93.5529184006872,4,1,0,75,0,0
124100,-90.9090909090909,4,1,0,75,0,0
124350,-105.263157894737,4,1,0,75,0,0
124600,-103.954473454774,4,1,0,75,0,0
124725,-103.306245269884,4,1,0,75,0,0
124850,-102.662059236964,4,1,0,75,0,0
125100,-101.385712961733,4,1,0,75,0,0
125350,-100.125234864352,4,1,0,75,0,0
125412,-99.815068997868,4,1,0,75,0,0
125475,-99.5008846358254,4,1,0,75,0,0
125600,-98.8804276636632,4,1,0,75,0,0
125725,-98.2638396707138,4,1,0,75,0,0
125850,-97.6510965312105,4,1,0,75,0,0
126100,-96.4370490607415,4,1,0,75,0,0
126350,-95.2380952380952,4,1,0,70,0,0
126600,-97.7166341316885,4,1,0,70,0,0
126725,-98.9799883452773,4,1,0,70,0,0
126850,-100.259676153276,4,1,0,70,0,0
127100,-102.868899974728,4,1,0,70,0,0
127225,-104.198866560101,4,1,0,70,0,0
127350,-105.546027954777,4,1,0,70,0,0
127600,-108.292827275954,4,1,0,70,0,0
127850,-111.111111111111,4,1,0,70,0,0
128073,-90.9090909090909,4,1,0,100,0,0
128319,-100,4,1,0,100,0,0
128355,-100,4,1,0,100,0,1
140073,-90.9090909090909,4,1,0,100,0,1
140136,-100,4,1,0,100,0,1
140350,-100,4,1,0,100,0,1
140475,-100.160420080526,4,1,0,100,0,1
140600,-100.321097507074,4,1,0,100,0,1
140662,-100.400889115483,4,1,0,100,0,1
140725,-100.48203269248,4,1,0,100,0,1
140850,-100.64322605024,4,1,0,100,0,1
141100,-100.966388940126,4,1,0,100,0,1
141162,-101.046693788946,4,1,0,100,0,1
141225,-101.128359302568,4,1,0,100,0,1
141350,-101.290589497996,4,1,0,100,0,1
141600,-101.615831055775,4,1,0,100,0,1
141725,-101.778843253782,4,1,0,100,0,1
141850,-101.942116956088,4,1,0,100,0,1
142100,-102.269450552293,4,1,0,100,0,1
142162,-102.350791807058,4,1,0,100,0,1
142225,-102.433511287223,4,1,0,100,0,1
142350,-102.597835208515,4,1,0,100,0,1
142475,-102.762422738375,4,1,0,100,0,1
142600,-102.927274299682,4,1,0,100,0,1
142850,-103.257771211558,4,1,0,100,0,1
142975,-103.423417411285,4,1,0,100,0,1
143225,-103.755507426324,4,1,0,100,0,1
143350,-103.921952094888,4,1,0,100,0,1
143600,-104.255642892368,4,1,0,100,0,1
143850,-104.59040516268,4,1,0,100,0,1
144100,-104.926242346296,4,1,0,100,0,1
144225,-105.094565108761,4,1,0,100,0,1
144323,-105.263157894737,4,1,0,85,0,1
144355,-105.263157894737,4,1,0,85,0,0
146100,-102.040816326531,4,1,0,85,0,0
146162,-102.830639569409,4,1,0,85,0,0
146225,-103.63946430143,4,1,0,85,0,0
146350,-105.263157894737,4,1,0,85,0,0
148100,-102.040816326531,4,1,0,85,0,0
148162,-102.830639569409,4,1,0,85,0,0
148225,-103.63946430143,4,1,0,85,0,0
148350,-105.263157894737,4,1,0,85,0,0
150100,-102.040816326531,4,1,0,85,0,0
150162,-102.830639569409,4,1,0,85,0,0
150225,-103.63946430143,4,1,0,85,0,0
150350,-105.263157894737,4,1,0,100,0,0
150600,-102.797891263983,4,1,0,100,0,0
150725,-101.586994446437,4,1,0,100,0,0
150787,-100.991692064877,4,1,0,100,0,0
150850,-100.390361259056,4,1,0,100,0,0
150975,-99.2078236849274,4,1,0,100,0,0
151100,-98.0392156862745,4,1,0,100,0,0
151225,-90.9090909090909,4,1,0,100,0,0

[HitObjects]
256,192,2230,5,0,0:0:0:0:
256,192,2292,1,0,0:0:0:0:
256,192,2355,1,0,0:0:0:0:
256,192,2605,1,8,0:0:0:0:
256,192,2980,1,0,0:0:0:0:
256,192,3105,1,8,0:0:0:0:
256,192,3355,1,0,0:0:0:0:
256,192,3480,1,0,0:0:0:0:
256,192,3605,1,8,0:0:0:0:
256,192,3980,1,0,0:0:0:0:
256,192,4105,1,8,0:0:0:0:
256,192,4355,1,0,0:0:0:0:
256,192,4480,1,8,0:0:0:0:
256,192,4605,1,8,0:0:0:0:
256,192,4980,1,0,0:0:0:0:
256,192,5105,1,8,0:0:0:0:
256,192,5355,1,8,0:0:0:0:
256,192,5480,1,0,0:0:0:0:
256,192,5605,1,8,0:0:0:0:
256,192,6105,1,12,0:0:0:0:
256,192,6355,1,0,0:0:0:0:
256,192,6480,1,0,0:0:0:0:
256,192,6605,1,8,0:0:0:0:
256,192,6855,1,0,0:0:0:0:
256,192,7105,1,8,0:0:0:0:
256,192,7355,1,0,0:0:0:0:
256,192,7480,1,8,0:0:0:0:
256,192,7605,1,8,0:0:0:0:
256,192,7855,1,0,0:0:0:0:
256,192,8105,1,8,0:0:0:0:
256,192,8355,1,0,0:0:0:0:
256,192,8480,1,8,0:0:0:0:
256,192,8605,1,0,0:0:0:0:
256,192,8855,1,8,0:0:0:0:
256,192,9105,1,0,0:0:0:0:
256,192,9355,1,8,0:0:0:0:
256,192,9480,1,0,0:0:0:0:
256,192,9605,1,8,0:0:0:0:
256,192,9855,1,0,0:0:0:0:
256,192,10105,1,8,0:0:0:0:
256,192,10355,1,0,0:0:0:0:
256,192,10480,1,0,0:0:0:0:
256,192,10605,1,8,0:0:0:0:
256,192,10855,1,8,0:0:0:0:
256,192,11105,1,0,0:0:0:0:
256,192,11355,1,8,0:0:0:0:
256,192,11480,1,8,0:0:0:0:
256,192,11605,1,0,0:0:0:0:
256,192,11855,1,0,0:0:0:0:
256,192,12105,1,8,0:0:0:0:
256,192,12355,1,0,0:0:0:0:
256,192,12605,1,0,0:0:0:0:
256,192,12855,1,8,0:0:0:0:
256,192,13105,1,8,0:0:0:0:
256,192,13355,1,0,0:0:0:0:
256,192,14105,1,12,0:1:0:0:
256,192,14355,1,4,0:1:0:0:
256,192,14605,1,0,0:1:0:0:
256,192,14730,1,0,0:1:0:0:
256,192,14855,1,8,0:1:0:0:
256,192,15105,1,8,0:1:0:0:
256,192,15167,1,8,0:1:0:0:
256,192,15230,1,8,0:1:0:0:
256,192,15355,1,0,0:1:0:0:
256,192,15480,1,0,0:1:0:0:
256,192,15605,1,8,0:1:0:0:
256,192,15855,1,0,0:1:0:0:
256,192,16105,1,8,0:1:0:0:
256,192,16230,1,0,0:1:0:0:
256,192,16355,1,8,0:1:0:0:
256,192,16605,1,8,0:1:0:0:
256,192,16855,1,0,0:1:0:0:
256,192,17105,1,0,0:0:0:0:
256,192,17230,1,8,0:1:0:0:
256,192,17480,1,8,0:1:0:0:
256,192,17605,1,0,0:0:0:0:
256,192,17730,1,8,0:0:0:0:
256,192,17855,1,0,0:0:0:0:
256,192,17980,1,0,0:1:0:0:
256,192,18105,1,8,0:1:0:0:
256,192,18355,1,4,0:1:0:0:
256,192,18605,1,8,0:1:0:0:
256,192,18730,1,0,0:1:0:0:
256,192,18855,1,8,0:1:0:0:
256,192,19105,1,8,0:1:0:0:
256,192,19167,1,8,0:1:0:0:
256,192,19230,1,8,0:1:0:0:
256,192,19355,1,0,0:1:0:0:
256,192,19480,1,0,0:1:0:0:
256,192,19605,1,8,0:1:0:0:
256,192,19855,1,0,0:1:0:0:
256,192,20105,1,0,0:1:0:0:
256,192,20230,1,8,0:1:0:0:
256,192,20480,1,8,0:1:0:0:
256,192,20605,1,0,0:1:0:0:
256,192,20855,1,8,0:1:0:0:
256,192,21230,1,0,0:1:0:0:
256,192,21355,1,8,0:1:0:0:
256,192,21480,1,0,0:1:0:0:
256,192,21542,1,0,0:1:0:0:
256,192,21605,1,0,0:1:0:0:
256,192,21730,1,0,0:1:0:0:
256,192,21855,1,8,0:1:0:0:
256,192,22105,1,8,0:1:0:0:
256,192,22355,1,4,0:1:0:0:
256,192,22605,1,8,0:0:0:0:
256,192,22730,1,0,0:0:0:0:
256,192,22792,1,0,0:0:0:0:
256,192,22855,1,0,0:0:0:0:
256,192,23105,1,8,0:0:0:0:
256,192,23230,1,0,0:0:0:0:
256,192,23480,1,8,0:0:0:0:
256,192,23730,1,8,0:0:0:0:
256,192,23855,1,0,0:0:0:0:
256,192,23980,1,0,0:0:0:0:
256,192,24105,1,8,0:0:0:0:
256,192,24230,1,8,0:0:0:0:
256,192,24355,1,0,0:0:0:0:
256,192,24605,1,0,0:0:0:0:
256,192,24730,1,8,0:0:0:0:
256,192,24792,1,8,0:0:0:0:
256,192,24855,1,8,0:0:0:0:
256,192,25105,1,8,0:0:0:0:
256,192,25230,1,0,0:0:0:0:
256,192,25480,1,0,0:0:0:0:
256,192,25730,1,8,0:0:0:0:
256,192,25980,1,0,0:0:0:0:
256,192,26105,1,8,0:0:0:0:
256,192,26230,1,8,0:0:0:0:
256,192,26355,1,4,0:0:0:0:
256,192,26605,1,8,0:0:0:0:
256,192,26730,1,0,0:0:0:0:
256,192,26792,1,0,0:0:0:0:
256,192,26855,1,0,0:0:0:0:
256,192,27105,1,8,0:0:0:0:
256,192,27230,1,0,0:0:0:0:
256,192,27480,1,8,0:0:0:0:
256,192,27730,1,8,0:0:0:0:
256,192,27855,1,0,0:0:0:0:
256,192,27980,1,8,0:0:0:0:
256,192,28105,1,8,0:0:0:0:
256,192,28230,1,0,0:0:0:0:
256,192,28355,1,0,0:0:0:0:
256,192,28605,1,0,0:0:0:0:
256,192,28730,1,8,0:0:0:0:
256,192,28792,1,8,0:0:0:0:
256,192,28855,1,8,0:0:0:0:
256,192,29105,1,8,0:0:0:0:
256,192,29230,1,8,0:1:0:0:
256,192,29355,1,0,0:1:0:0:
256,192,29605,1,8,0:1:0:0:
256,192,29855,1,0,0:1:0:0:
256,192,30355,1,4,0:1:0:0:
256,192,30605,1,8,0:1:0:0:
256,192,30730,1,0,0:1:0:0:
256,192,30792,1,0,0:1:0:0:
256,192,30855,1,0,0:1:0:0:
256,192,31105,1,8,0:1:0:0:
256,192,31230,1,0,0:1:0:0:
256,192,31480,1,0,0:1:0:0:
256,192,31605,1,8,0:1:0:0:
256,192,31730,1,8,0:1:0:0:
256,192,31855,1,0,0:1:0:0:
256,192,31980,1,0,0:1:0:0:
256,192,32105,1,8,0:1:0:0:
256,192,32355,1,0,0:1:0:0:
256,192,32605,1,8,0:1:0:0:
256,192,32667,1,8,0:1:0:0:
256,192,32730,1,8,0:1:0:0:
256,192,32855,1,0,0:1:0:0:
256,192,32980,1,0,0:1:0:0:
256,192,33105,1,8,0:1:0:0:
256,192,33355,1,0,0:1:0:0:
256,192,33480,1,0,0:1:0:0:
256,192,33605,1,8,0:1:0:0:
256,192,33730,1,0,0:1:0:0:
256,192,34105,1,8,0:1:0:0:
256,192,34355,1,0,0:1:0:0:
256,192,34605,1,0,0:1:0:0:
256,192,34730,1,8,0:1:0:0:
256,192,34792,1,8,0:1:0:0:
256,192,34855,1,8,0:1:0:0:
256,192,35105,1,8,0:1:0:0:
256,192,35230,1,0,0:1:0:0:
256,192,35480,1,0,0:1:0:0:
256,192,35605,1,8,0:1:0:0:
256,192,35730,1,8,0:1:0:0:
256,192,35855,1,0,0:1:0:0:
256,192,35980,1,0,0:1:0:0:
256,192,36105,1,8,0:1:0:0:
256,192,36355,1,0,0:1:0:0:
256,192,36605,1,8,0:1:0:0:
256,192,36730,1,0,0:1:0:0:
256,192,36792,1,0,0:1:0:0:
256,192,36855,1,0,0:1:0:0:
256,192,37105,1,8,0:1:0:0:
256,192,37230,1,8,0:1:0:0:
256,192,37480,1,8,0:1:0:0:
256,192,37605,1,0,0:1:0:0:
256,192,37855,1,8,0:1:0:0:
256,192,38355,1,4,0:0:0:0:
256,192,38605,1,0,0:0:0:0:
256,192,38730,1,0,0:0:0:0:
256,192,38855,1,8,0:0:0:0:
256,192,39105,1,0,0:0:0:0:
256,192,39230,1,8,0:0:0:0:
256,192,39480,1,8,0:0:0:0:
256,192,39605,1,0,0:0:0:0:
256,192,39855,1,8,0:0:0:0:
256,192,40105,1,8,0:0:0:0:
256,192,40230,1,8,0:0:0:0:
256,192,40355,1,0,0:0:0:0:
256,192,40605,1,8,0:1:0:0:
256,192,40730,1,0,0:0:0:0:
256,192,40855,1,8,0:0:0:0:
256,192,41105,1,0,0:0:0:0:
256,192,41230,1,8,0:0:0:0:
256,192,41480,1,8,0:0:0:0:
256,192,41605,1,0,0:0:0:0:
256,192,41855,1,8,0:0:0:0:
256,192,42355,1,0,0:0:0:0:
256,192,42605,1,0,0:1:0:0:
256,192,42730,1,8,0:1:0:0:
256,192,42855,1,8,0:0:0:0:
256,192,43105,1,0,0:0:0:0:
256,192,43230,1,8,0:0:0:0:
256,192,43480,1,8,0:1:0:0:
256,192,43605,1,0,0:0:0:0:
256,192,43855,1,8,0:0:0:0:
256,192,44105,1,0,0:0:0:0:
256,192,44230,1,8,0:0:0:0:
256,192,44355,1,0,0:0:0:0:
256,192,44605,1,0,0:0:0:0:
256,192,44730,1,0,0:0:0:0:
256,192,44855,1,8,0:0:0:0:
256,192,45230,1,4,0:1:0:0:
256,192,45480,1,4,0:0:0:0:
256,192,45730,1,4,0:0:0:0:
256,192,45980,1,12,0:0:0:0:
256,192,46105,1,4,0:0:0:0:
256,192,46355,1,4,0:0:0:0:
256,192,48105,5,12,0:0:0:0:
256,192,48355,1,0,0:0:0:0:
256,192,48417,1,0,0:0:0:0:
256,192,48480,1,0,0:0:0:0:
256,192,48605,1,8,0:0:0:0:
256,192,48855,1,8,0:0:0:0:
256,192,48980,1,8,0:0:0:0:
256,192,49105,1,0,0:0:0:0:
256,192,49230,1,8,0:0:0:0:
256,192,49480,1,8,0:0:0:0:
256,192,49605,1,0,0:0:0:0:
256,192,49730,1,8,0:0:0:0:
256,192,49855,1,0,0:0:0:0:
256,192,49980,1,0,0:0:0:0:
256,192,50105,1,8,0:0:0:0:
256,192,50355,1,0,0:0:0:0:
256,192,50480,1,8,0:0:0:0:
256,192,50542,1,8,0:0:0:0:
256,192,50605,1,8,0:0:0:0:
256,192,50730,1,0,0:0:0:0:
256,192,50855,1,8,0:0:0:0:
256,192,51105,1,0,0:0:0:0:
256,192,51355,1,8,0:0:0:0:
256,192,51605,1,8,0:0:0:0:
256,192,51730,1,8,0:0:0:0:
256,192,51855,1,0,0:0:0:0:
256,192,51917,1,0,0:0:0:0:
256,192,51980,1,0,0:0:0:0:
256,192,52105,1,8,0:0:0:0:
256,192,52230,1,0,0:0:0:0:
256,192,52480,1,8,0:0:0:0:
256,192,52605,1,0,0:0:0:0:
256,192,52855,1,8,0:0:0:0:
256,192,52980,1,8,0:0:0:0:
256,192,53230,1,0,0:0:0:0:
256,192,53355,1,8,0:0:0:0:
256,192,53605,1,0,0:0:0:0:
256,192,53730,1,0,0:0:0:0:
256,192,53855,1,8,0:0:0:0:
256,192,54355,1,0,0:0:0:0:
256,192,54417,1,0,0:0:0:0:
256,192,54480,1,0,0:0:0:0:
256,192,54605,1,8,0:0:0:0:
256,192,54730,1,8,0:0:0:0:
256,192,54855,1,0,0:0:0:0:
256,192,55105,1,8,0:0:0:0:
256,192,55230,1,8,0:0:0:0:
256,192,55355,1,0,0:0:0:0:
256,192,55480,1,8,0:0:0:0:
256,192,55542,1,8,0:0:0:0:
256,192,55605,1,8,0:0:0:0:
256,192,55855,1,0,0:0:0:0:
256,192,56105,1,8,0:0:0:0:
256,192,56230,1,0,0:0:0:0:
256,192,56355,1,8,0:0:0:0:
256,192,56605,1,0,0:0:0:0:
256,192,56855,1,8,0:0:0:0:
256,192,57105,1,0,0:0:0:0:
256,192,57230,1,8,0:0:0:0:
256,192,57480,1,0,0:0:0:0:
256,192,57605,1,8,0:0:0:0:
256,192,57730,1,0,0:0:0:0:
256,192,57792,1,0,0:0:0:0:
256,192,57855,1,0,0:0:0:0:
256,192,57980,1,0,0:0:0:0:
256,192,58105,1,8,0:0:0:0:
256,192,58355,1,0,0:0:0:0:
256,192,58480,1,0,0:0:0:0:
256,192,58605,1,8,0:0:0:0:
256,192,58730,1,0,0:0:0:0:
256,192,58855,1,8,0:0:0:0:
256,192,59105,1,8,0:0:0:0:
256,192,59230,1,8,0:0:0:0:
256,192,59355,1,0,0:0:0:0:
256,192,59417,1,0,0:0:0:0:
256,192,59480,1,0,0:0:0:0:
256,192,59605,1,8,0:0:0:0:
256,192,59855,1,0,0:0:0:0:
256,192,60105,1,0,0:0:0:0:
256,192,60230,1,8,0:0:0:0:
256,192,60480,1,8,0:0:0:0:
256,192,60605,1,0,0:0:0:0:
256,192,60855,1,8,0:0:0:0:
256,192,61105,1,0,0:0:0:0:
256,192,61355,1,8,0:0:0:0:
256,192,61480,1,8,0:0:0:0:
256,192,61605,1,0,0:0:0:0:
256,192,61730,1,0,0:0:0:0:
256,192,61855,1,8,0:0:0:0:
256,192,62355,1,0,0:0:0:0:
256,192,62605,1,8,0:1:0:0:
256,192,62855,1,0,0:1:0:0:
256,192,62980,1,8,0:0:0:0:
256,192,63105,1,0,0:0:0:0:
256,192,63167,1,0,0:0:0:0:
256,192,63230,1,0,0:0:0:0:
256,192,63355,1,0,0:1:0:0:
256,192,63480,1,8,0:0:0:0:
256,192,63730,1,8,0:1:0:0:
256,192,63855,1,0,0:1:0:0:
256,192,63980,1,0,0:1:0:0:
256,192,64105,1,8,0:1:0:0:
256,192,64355,1,0,0:1:0:0:
256,192,64605,1,8,0:1:0:0:
256,192,64855,1,0,0:1:0:0:
256,192,64980,1,0,0:0:0:0:
256,192,65105,1,8,0:0:0:0:
256,192,65167,1,8,0:0:0:0:
256,192,65230,1,8,0:0:0:0:
256,192,65355,1,8,0:0:0:0:
256,192,65480,1,0,0:0:0:0:
256,192,65730,1,8,0:0:0:0:
256,192,65855,1,8,0:0:0:0:
256,192,65980,1,0,0:0:0:0:
256,192,66105,1,8,0:0:0:0:
256,192,66355,1,0,0:1:0:0:
256,192,66605,1,8,0:1:0:0:
256,192,66855,1,0,0:1:0:0:
256,192,66980,1,0,0:0:0:0:
256,192,67105,1,8,0:1:0:0:
256,192,67230,1,0,0:1:0:0:
256,192,67292,1,0,0:0:0:0:
256,192,67355,1,0,0:1:0:0:
256,192,67480,1,8,0:0:0:0:
256,192,67730,1,8,0:0:0:0:
256,192,67855,1,0,0:1:0:0:
256,192,67980,1,8,0:0:0:0:
256,192,68105,1,8,0:1:0:0:
256,192,68355,1,0,0:1:0:0:
256,192,68605,1,8,0:1:0:0:
256,192,68855,1,8,0:0:0:0:
256,192,68980,1,8,0:0:0:0:
256,192,69105,1,0,0:0:0:0:
256,192,69355,1,8,0:0:0:0:
256,192,69480,1,8,0:0:0:0:
256,192,69542,1,8,0:0:0:0:
256,192,69605,1,8,0:0:0:0:
256,192,69855,1,0,0:1:0:0:
256,192,69980,1,0,0:1:0:0:
256,192,70105,1,8,0:1:0:0:
256,192,70355,1,4,0:1:0:0:
256,192,72105,5,12,0:1:0:0:
256,192,72355,1,0,0:0:0:0:
256,192,72605,1,8,0:0:0:0:
256,192,72855,1,0,0:0:0:0:
256,192,72980,1,0,0:0:0:0:
256,192,73105,1,8,0:0:0:0:
256,192,73230,1,8,0:0:0:0:
256,192,73355,1,0,0:0:0:0:
256,192,73605,1,8,0:0:0:0:
256,192,73730,1,0,0:0:0:0:
256,192,73980,1,0,0:0:0:0:
256,192,74105,1,8,0:0:0:0:
256,192,74355,1,0,0:0:0:0:
256,192,74480,1,0,0:0:0:0:
256,192,74605,1,0,0:0:0:0:
256,192,74730,1,8,0:0:0:0:
256,192,74855,1,0,0:0:0:0:
256,192,75105,1,8,0:0:0:0:
256,192,75230,1,0,0:1:0:0:
256,192,75355,1,8,0:1:0:0:
256,192,75605,1,0,0:0:0:0:
256,192,75855,1,8,0:1:0:0:
256,192,75980,1,8,0:0:0:0:
256,192,76105,1,0,0:0:0:0:
256,192,76355,1,0,0:0:0:0:
256,192,76605,1,8,0:0:0:0:
256,192,76855,1,0,0:0:0:0:
256,192,76980,1,0,0:0:0:0:
256,192,77105,1,8,0:0:0:0:
256,192,77230,1,0,0:1:0:0:
256,192,77480,1,8,0:1:0:0:
256,192,77730,1,0,0:1:0:0:
256,192,78355,1,4,0:1:0:0:
256,192,78605,1,8,0:1:0:0:
256,192,78667,1,8,0:1:0:0:
256,192,78730,1,8,0:1:0:0:
256,192,78855,1,0,0:1:0:0:
256,192,79105,1,8,0:1:0:0:
256,192,79230,1,0,0:1:0:0:
256,192,79480,1,0,0:1:0:0:
256,192,79605,1,8,0:1:0:0:
256,192,79855,1,0,0:1:0:0:
256,192,79980,1,0,0:1:0:0:
256,192,80105,1,8,0:1:0:0:
256,192,80230,1,8,0:1:0:0:
256,192,80355,1,0,0:1:0:0:
256,192,80605,1,0,0:1:0:0:
256,192,80667,1,0,0:1:0:0:
256,192,80730,1,0,0:1:0:0:
256,192,80855,1,8,0:1:0:0:
256,192,81105,1,0,0:0:0:0:
256,192,81230,1,0,0:1:0:0:
256,192,81480,1,0,0:1:0:0:
256,192,81605,1,8,0:1:0:0:
256,192,81730,1,8,0:1:0:0:
256,192,81855,1,0,0:1:0:0:
256,192,82105,1,8,0:1:0:0:
256,192,82355,1,0,0:1:0:0:
256,192,82605,1,8,0:1:0:0:
256,192,82667,1,8,0:1:0:0:
256,192,82730,1,8,0:0:0:0:
256,192,82855,1,0,0:0:0:0:
256,192,83105,1,8,0:0:0:0:
256,192,83230,1,8,0:0:0:0:
256,192,83480,1,0,0:0:0:0:
256,192,83605,1,8,0:0:0:0:
256,192,83855,1,8,0:0:0:0:
256,192,83980,1,8,0:1:0:0:
256,192,84105,1,0,0:1:0:0:
256,192,84230,1,8,0:0:0:0:
256,192,84355,1,0,0:0:0:0:
256,192,84605,1,0,0:0:0:0:
256,192,84667,1,0,0:0:0:0:
256,192,84730,1,0,0:1:0:0:
256,192,84855,1,8,0:1:0:0:
256,192,85105,1,8,0:1:0:0:
256,192,85230,1,0,0:0:0:0:
256,192,85480,1,0,0:0:0:0:
256,192,85605,1,8,0:1:0:0:
256,192,85855,1,0,0:0:0:0:
256,192,86105,1,8,0:0:0:0:
256,192,86355,1,0,0:0:0:0:
256,192,86605,1,8,0:1:0:0:
256,192,86667,1,8,0:1:0:0:
256,192,86730,1,8,0:1:0:0:
256,192,86855,1,0,0:1:0:0:
256,192,86980,1,0,0:1:0:0:
256,192,87105,1,8,0:1:0:0:
256,192,87230,1,8,0:1:0:0:
256,192,87480,1,0,0:1:0:0:
256,192,87605,1,8,0:1:0:0:
256,192,87855,1,0,0:1:0:0:
256,192,87980,1,8,0:1:0:0:
256,192,88105,1,0,0:1:0:0:
256,192,88230,1,0,0:1:0:0:
256,192,88355,1,8,0:1:0:0:
256,192,88605,1,8,0:0:0:0:
256,192,88855,1,0,0:1:0:0:
256,192,89105,1,8,0:1:0:0:
256,192,89230,1,0,0:1:0:0:
256,192,89480,1,0,0:1:0:0:
256,192,89605,1,8,0:1:0:0:
256,192,89855,1,0,0:1:0:0:
256,192,90105,1,8,0:1:0:0:
256,192,90355,1,0,0:1:0:0:
256,192,90605,1,8,0:0:0:0:
256,192,90667,1,8,0:1:0:0:
256,192,90730,1,8,0:1:0:0:
256,192,90855,1,0,0:0:0:0:
256,192,90980,1,0,0:1:0:0:
256,192,91105,1,8,0:1:0:0:
256,192,91230,1,0,0:1:0:0:
256,192,91355,1,8,0:1:0:0:
256,192,91605,1,0,0:1:0:0:
256,192,91667,1,0,0:0:0:0:
256,192,91730,1,0,0:1:0:0:
256,192,91855,1,8,0:1:0:0:
256,192,92105,1,0,0:1:0:0:
256,192,92230,1,8,0:0:0:0:
256,192,92355,1,0,0:0:0:0:
256,192,92605,1,8,0:1:0:0:
256,192,92855,1,8,0:1:0:0:
256,192,93105,1,4,0:0:0:0:
256,192,93230,1,4,0:0:0:0:
256,192,93480,1,4,0:0:0:0:
256,192,93730,1,4,0:0:0:0:
256,192,93980,1,12,0:0:0:0:
256,192,94105,1,4,0:0:0:0:
256,192,94355,1,4,0:0:0:0:
256,192,94605,1,8,0:0:0:0:
256,192,94730,1,8,0:0:0:0:
256,192,94855,1,0,0:0:0:0:
256,192,94917,1,0,0:0:0:0:
256,192,94980,1,0,0:0:0:0:
256,192,95105,1,8,0:0:0:0:
256,192,95355,1,0,0:0:0:0:
256,192,95480,1,8,0:0:0:0:
256,192,95605,1,8,0:0:0:0:
256,192,95855,1,0,0:0:0:0:
256,192,95917,1,0,0:0:0:0:
256,192,95980,1,0,0:0:0:0:
256,192,96105,1,8,0:0:0:0:
256,192,96355,1,0,0:0:0:0:
256,192,96605,1,8,0:0:0:0:
256,192,96855,1,0,0:0:0:0:
256,192,96980,1,8,0:0:0:0:
256,192,97042,1,8,0:0:0:0:
256,192,97105,1,8,0:0:0:0:
256,192,97230,1,0,0:0:0:0:
256,192,97480,1,8,0:0:0:0:
256,192,97605,1,0,0:0:0:0:
256,192,97730,1,8,0:0:0:0:
256,192,97980,1,0,0:0:0:0:
256,192,98105,1,8,0:0:0:0:
256,192,98355,1,0,0:0:0:0:
256,192,98605,1,8,0:0:0:0:
256,192,98730,1,8,0:0:0:0:
256,192,98855,1,0,0:0:0:0:
256,192,98917,1,0,0:0:0:0:
256,192,98980,1,0,0:0:0:0:
256,192,99105,1,8,0:0:0:0:
256,192,99355,1,8,0:0:0:0:
256,192,99605,1,0,0:0:0:0:
256,192,99730,1,0,0:0:0:0:
256,192,99855,1,8,0:0:0:0:
256,192,100105,1,0,0:0:0:0:
256,192,100230,1,8,0:0:0:0:
256,192,100480,1,8,0:0:0:0:
256,192,100605,1,0,0:0:0:0:
256,192,100855,1,8,0:0:0:0:
256,192,101105,1,0,0:0:0:0:
256,192,101355,1,8,0:0:0:0:
256,192,101480,1,8,0:0:0:0:
256,192,101605,1,0,0:0:0:0:
256,192,101730,1,0,0:0:0:0:
256,192,101855,1,8,0:0:0:0:
256,192,102355,1,0,0:0:0:0:
256,192,102605,1,8,0:0:0:0:
256,192,102730,1,0,0:0:0:0:
256,192,102855,1,8,0:0:0:0:
256,192,102980,1,8,0:0:0:0:
256,192,103105,1,0,0:0:0:0:
256,192,103355,1,8,0:0:0:0:
256,192,103605,1,0,0:0:0:0:
256,192,103730,1,8,0:0:0:0:
256,192,103855,1,0,0:0:0:0:
256,192,104105,1,8,0:0:0:0:
256,192,104230,1,0,0:0:0:0:
256,192,104480,1,8,0:0:0:0:
256,192,104605,1,8,0:0:0:0:
256,192,104730,1,0,0:0:0:0:
256,192,104792,1,0,0:0:0:0:
256,192,104855,1,0,0:0:0:0:
256,192,105105,1,8,0:0:0:0:
256,192,105230,1,0,0:0:0:0:
256,192,105480,1,8,0:0:0:0:
256,192,105730,1,8,0:0:0:0:
256,192,105980,1,0,0:0:0:0:
256,192,106105,1,8,0:0:0:0:
256,192,106355,1,0,0:0:0:0:
256,192,106605,1,8,0:0:0:0:
256,192,106730,1,0,0:0:0:0:
256,192,106855,1,0,0:0:0:0:
256,192,106980,1,8,0:0:0:0:
256,192,107105,1,8,0:0:0:0:
256,192,107355,1,8,0:0:0:0:
256,192,107605,1,0,0:0:0:0:
256,192,107730,1,8,0:0:0:0:
256,192,107855,1,0,0:0:0:0:
256,192,108105,1,8,0:0:0:0:
256,192,108230,1,8,0:0:0:0:
256,192,108480,1,0,0:0:0:0:
256,192,108605,1,0,0:0:0:0:
256,192,108730,1,8,0:0:0:0:
256,192,108792,1,8,0:0:0:0:
256,192,108855,1,8,0:0:0:0:
256,192,109105,1,0,0:1:0:0:
256,192,109230,1,8,0:0:0:0:
256,192,109480,1,0,0:0:0:0:
256,192,109730,1,0,0:1:0:0:
256,192,109980,1,8,0:0:0:0:
256,192,110105,1,8,0:0:0:0:
256,192,110355,1,4,0:0:0:0:
256,192,110855,1,8,0:0:0:0:
256,192,111355,1,4,0:0:0:0:
256,192,111855,1,8,0:0:0:0:
256,192,112355,1,4,0:0:0:0:
256,192,112855,1,8,0:0:0:0:
256,192,113355,1,4,0:0:0:0:
256,192,113855,1,8,0:0:0:0:
256,192,114355,1,4,0:0:0:0:
256,192,114855,1,8,0:0:0:0:
256,192,115355,1,4,0:0:0:0:
256,192,115855,1,8,0:0:0:0:
256,192,116355,1,4,0:0:0:0:
256,192,116855,1,8,0:0:0:0:
256,192,117355,1,4,0:0:0:0:
256,192,117855,1,8,0:0:0:0:
256,192,118105,1,8,0:0:0:0:
256,192,118355,1,4,0:0:0:0:
256,192,118605,1,8,0:0:0:0:
256,192,118730,1,0,0:0:0:0:
256,192,118855,1,8,0:0:0:0:
256,192,119105,1,0,0:0:0:0:
256,192,119230,1,8,0:0:0:0:
256,192,119605,1,0,0:0:0:0:
256,192,119730,1,0,0:0:0:0:
256,192,119855,1,8,0:0:0:0:
256,192,120105,1,8,0:0:0:0:
256,192,120230,1,0,0:0:0:0:
256,192,120605,1,8,0:0:0:0:
256,192,120730,1,8,0:0:0:0:
256,192,120855,1,0,0:0:0:0:
256,192,121105,1,0,0:0:0:0:
256,192,121230,1,8,0:0:0:0:
256,192,121605,1,0,0:0:0:0:
256,192,121730,1,0,0:0:0:0:
256,192,121855,1,8,0:0:0:0:
256,192,122355,1,4,0:0:0:0:
256,192,122605,1,12,0:0:0:0:
256,192,122855,1,4,0:0:0:0:
256,192,123105,1,12,0:0:0:0:
256,192,123355,1,4,0:0:0:0:
256,192,123605,1,12,0:0:0:0:
256,192,123855,1,4,0:0:0:0:
256,192,124105,1,12,0:0:0:0:
256,192,124355,1,0,0:0:0:0:
256,192,124605,1,8,0:0:0:0:
256,192,124730,1,0,0:0:0:0:
256,192,124855,1,8,0:0:0:0:
256,192,125105,1,0,0:0:0:0:
256,192,125355,1,0,0:0:0:0:
256,192,125417,1,0,0:0:0:0:
256,192,125480,1,0,0:0:0:0:
256,192,125605,1,8,0:0:0:0:
256,192,125730,1,0,0:0:0:0:
256,192,125855,1,8,0:0:0:0:
256,192,126105,1,8,0:0:0:0:
256,192,126355,1,0,0:0:0:0:
256,192,126605,1,8,0:0:0:0:
256,192,126730,1,0,0:0:0:0:
256,192,126855,1,8,0:0:0:0:
256,192,127105,1,8,0:0:0:0:
256,192,127230,1,8,0:0:0:0:
256,192,127355,1,0,0:0:0:0:
256,192,127605,1,0,0:0:0:0:
256,192,127855,1,8,0:0:0:0:
256,192,128105,1,12,0:0:0:0:
256,192,128355,1,8,0:0:0:0:
256,192,128417,1,8,0:0:0:0:
256,192,128480,1,8,0:0:0:0:
256,192,128605,1,0,0:0:0:0:
256,192,128730,1,8,0:0:0:0:
256,192,128855,1,0,0:0:0:0:
256,192,129105,1,8,0:0:0:0:
256,192,129230,1,8,0:0:0:0:
256,192,129355,1,0,0:0:0:0:
256,192,129417,1,0,0:0:0:0:
256,192,129480,1,0,0:0:0:0:
256,192,129605,1,8,0:0:0:0:
256,192,129855,1,0,0:0:0:0:
256,192,130105,1,0,0:0:0:0:
256,192,130230,1,0,0:0:0:0:
256,192,130355,1,8,0:0:0:0:
256,192,130417,1,8,0:0:0:0:
256,192,130480,1,8,0:0:0:0:
256,192,130605,1,0,0:0:0:0:
256,192,130855,1,8,0:0:0:0:
256,192,131105,1,0,0:0:0:0:
256,192,131230,1,8,0:0:0:0:
256,192,131480,1,0,0:0:0:0:
256,192,131605,1,8,0:0:0:0:
256,192,131730,1,0,0:0:0:0:
256,192,131792,1,0,0:0:0:0:
256,192,131855,1,0,0:0:0:0:
256,192,132105,1,8,0:0:0:0:
256,192,132355,1,0,0:0:0:0:
256,192,132605,1,8,0:0:0:0:
256,192,132730,1,8,0:0:0:0:
256,192,132855,1,0,0:0:0:0:
256,192,132980,1,8,0:0:0:0:
256,192,133042,1,8,0:0:0:0:
256,192,133105,1,8,0:0:0:0:
256,192,133355,1,8,0:0:0:0:
256,192,133605,1,0,0:0:0:0:
256,192,133730,1,0,0:0:0:0:
256,192,133855,1,8,0:0:0:0:
256,192,134105,1,8,0:0:0:0:
256,192,134230,1,0,0:0:0:0:
256,192,134292,1,0,0:0:0:0:
256,192,134355,1,0,0:0:0:0:
256,192,134480,1,8,0:0:0:0:
256,192,134605,1,0,0:0:0:0:
256,192,134855,1,8,0:0:0:0:
256,192,134980,1,0,0:0:0:0:
256,192,135230,1,0,0:0:0:0:
256,192,135355,1,8,0:0:0:0:
256,192,135417,1,8,0:0:0:0:
256,192,135480,1,8,0:0:0:0:
256,192,135605,1,0,0:0:0:0:
256,192,135855,1,8,0:0:0:0:
256,192,136105,1,8,0:0:0:0:
256,192,136355,1,0,0:0:0:0:
256,192,136480,1,0,0:0:0:0:
256,192,136605,1,8,0:0:0:0:
256,192,136730,1,0,0:1:0:0:
256,192,136792,1,0,0:1:0:0:
256,192,136855,1,0,0:0:0:0:
256,192,137105,1,8,0:0:0:0:
256,192,137230,1,8,0:1:0:0:
256,192,137355,1,0,0:1:0:0:
256,192,137605,1,8,0:0:0:0:
256,192,137730,1,8,0:0:0:0:
256,192,137792,1,8,0:0:0:0:
256,192,137855,1,8,0:0:0:0:
256,192,137980,1,0,0:0:0:0:
256,192,138105,1,8,0:0:0:0:
256,192,138355,1,0,0:0:0:0:
256,192,138417,1,0,0:0:0:0:
256,192,138480,1,0,0:0:0:0:
256,192,138605,1,8,0:0:0:0:
256,192,138855,1,0,0:0:0:0:
256,192,139105,1,8,0:0:0:0:
256,192,139230,1,0,0:0:0:0:
256,192,139480,1,8,0:0:0:0:
256,192,139542,1,8,0:0:0:0:
256,192,139605,1,8,0:0:0:0:
256,192,139730,1,0,0:0:0:0:
256,192,140105,1,12,0:0:0:0:
256,192,140355,1,0,0:0:0:0:
256,192,140480,1,0,0:0:0:0:
256,192,140605,1,8,0:0:0:0:
256,192,140667,1,8,0:0:0:0:
256,192,140730,1,8,0:0:0:0:
256,192,140855,1,0,0:0:0:0:
256,192,141105,1,0,0:0:0:0:
256,192,141167,1,0,0:0:0:0:
256,192,141230,1,0,0:0:0:0:
256,192,141355,1,8,0:0:0:0:
256,192,141605,1,8,0:0:0:0:
256,192,141730,1,0,0:0:0:0:
256,192,141855,1,8,0:0:0:0:
256,192,142105,1,0,0:0:0:0:
256,192,142167,1,0,0:0:0:0:
256,192,142230,1,0,0:0:0:0:
256,192,142355,1,8,0:0:0:0:
256,192,142480,1,8,0:0:0:0:
256,192,142605,1,0,0:0:0:0:
256,192,142855,1,0,0:0:0:0:
256,192,142980,1,8,0:0:0:0:
256,192,143230,1,8,0:0:0:0:
256,192,143355,1,0,0:0:0:0:
256,192,143605,1,8,0:0:0:0:
256,192,143855,1,0,0:0:0:0:
256,192,144105,1,8,0:0:0:0:
256,192,144230,1,8,0:0:0:0:
256,192,144355,1,0,0:0:0:0:
256,192,144605,1,0,0:0:0:0:
256,192,144730,1,0,0:0:0:0:
256,192,144855,1,8,0:0:0:0:
256,192,145105,1,0,0:0:0:0:
256,192,145167,1,0,0:0:0:0:
256,192,145230,1,0,0:0:0:0:
256,192,145355,1,8,0:0:0:0:
256,192,145605,1,8,0:0:0:0:
256,192,145855,1,0,0:0:0:0:
256,192,146105,1,8,0:0:0:0:
256,192,146167,1,8,0:0:0:0:
256,192,146230,1,8,0:0:0:0:
256,192,146355,1,0,0:0:0:0:
256,192,146605,1,8,0:0:0:0:
256,192,146730,1,0,0:0:0:0:
256,192,146855,1,0,0:0:0:0:
256,192,147105,1,8,0:0:0:0:
256,192,147167,1,8,0:0:0:0:
256,192,147230,1,8,0:0:0:0:
256,192,147355,1,0,0:0:0:0:
256,192,147605,1,0,0:0:0:0:
256,192,147855,1,8,0:0:0:0:
256,192,148105,1,0,0:0:0:0:
256,192,148167,1,0,0:0:0:0:
256,192,148230,1,0,0:0:0:0:
256,192,148355,1,8,0:0:0:0:
256,192,148605,1,0,0:0:0:0:
256,192,148730,1,8,0:0:0:0:
256,192,148855,1,8,0:0:0:0:
256,192,149105,1,0,0:0:0:0:
256,192,149167,1,0,0:0:0:0:
256,192,149230,1,0,0:0:0:0:
256,192,149355,1,0,0:0:0:0:
256,192,149605,1,8,0:0:0:0:
256,192,149855,1,0,0:0:0:0:
256,192,150105,1,8,0:0:0:0:
256,192,150167,1,8,0:0:0:0:
256,192,150230,1,8,0:0:0:0:
256,192,150355,1,0,0:0:0:0:
256,192,150605,1,8,0:0:0:0:
256,192,150730,1,0,0:0:0:0:
256,192,150792,1,0,0:0:0:0:
256,192,150855,1,0,0:0:0:0:
256,192,150980,1,8,0:0:0:0:
256,192,151105,1,8,0:0:0:0:
256,192,151230,1,4,0:0:0:0:
