osu file format v14

[General]
AudioFilename: audio.mp3
AudioLeadIn: 0
PreviewTime: 46323
Countdown: 0
SampleSet: Normal
StackLeniency: 0.7
Mode: 1
LetterboxInBreaks: 0
WidescreenStoryboard: 1

[Editor]
Bookmarks: 14355,30355,48355,62355,78355,94355,110355,128355,144355
DistanceSpacing: 0.7
BeatDivisor: 6
GridSize: 32
TimelineZoom: 3.599999

[Metadata]
Title:No Lag Train (2Gbps)
TitleUnicode:No Lag Train (2Gbps)
Artist:exnoiz
ArtistUnicode:exnoiz
Creator:woosungko
Version:Kantan
Source:
Tags:ラグトレイン 稲葉曇 michoup japanese vocaloid 視長p 因幡プカリ inaba pukari きゐな kiwina inaba cumori kaai yuki 歌愛ユキ ぬくぬくにぎりめし nukunuku nigirimeshi weather station ウェザーステーション uxcl-276 inabakumori lagtrain remix bootleg japanese hardcore breakcore electronic
BeatmapID:4510355
BeatmapSetID:1669274

[Difficulty]
HPDrainRate:8
CircleSize:2
OverallDifficulty:3
ApproachRate:10
SliderMultiplier:1.4
SliderTickRate:1

[Events]
//Background and Video events
0,0,"maxresdefault.jpg",0,0
//Break Periods
2,46555,47655
2,70555,71655
//Storyboard Layer 0 (Background)
//Storyboard Layer 1 (Fail)
//Storyboard Layer 2 (Pass)
//Storyboard Layer 3 (Foreground)
//Storyboard Layer 4 (Overlay)
//Storyboard Sound Samples

[TimingPoints]
355,250,16,1,0,5,1,8
2287,-117.647058823529,16,1,0,65,0,0
2355,250,4,1,0,65,1,0
2355,-117.647058823529,4,1,0,65,0,0
6095,-117.647058823529,4,1,0,100,0,0
6114,-117.647058823529,4,1,0,75,0,0
14100,-117.647058823529,4,1,0,100,0,0
14115,-117.647058823529,4,1,0,85,0,0
46323,-117.647058823529,4,1,0,100,0,0
46355,-117.647058823529,4,1,0,100,0,1
46386,-117.647058823529,4,1,0,30,0,1
47959,-117.647058823529,4,1,0,80,0,1
48073,-117.647058823529,4,1,0,100,0,1
48105,-117.647058823529,4,1,0,100,0,0
48355,-117.647058823529,4,1,0,100,0,1
62323,-117.647058823529,4,1,0,85,0,1
62355,-117.647058823529,4,1,0,85,0,0
70323,-117.647058823529,4,1,0,100,0,0
70386,-117.647058823529,4,1,0,30,0,0
71970,-117.647058823529,4,1,0,80,0,0
72073,-117.647058823529,4,1,0,100,0,0
72136,-117.647058823529,4,1,0,85,0,0
94323,-117.647058823529,4,1,0,100,0,0
94355,-117.647058823529,4,1,0,100,0,1
102323,-117.647058823529,4,1,0,85,0,1
102355,-117.647058823529,4,1,0,85,0,0
110323,-117.647058823529,4,1,0,100,0,0
110386,-117.647058823529,4,1,0,75,0,0
111324,-117.647058823529,4,1,0,100,0,0
111386,-117.647058823529,4,1,0,75,0,0
112324,-117.647058823529,4,1,0,100,0,0
112386,-117.647058823529,4,1,0,75,0,0
113324,-117.647058823529,4,1,0,100,0,0
113386,-117.647058823529,4,1,0,75,0,0
114323,-117.647058823529,4,1,0,100,0,0
114386,-117.647058823529,4,1,0,75,0,0
115323,-117.647058823529,4,1,0,100,0,0
115386,-117.647058823529,4,1,0,75,0,0
116323,-117.647058823529,4,1,0,100,0,0
116386,-117.647058823529,4,1,0,75,0,0
117323,-117.647058823529,4,1,0,100,0,0
117386,-117.647058823529,4,1,0,75,0,0
118323,-117.647058823529,4,1,0,100,0,0
118386,-117.647058823529,4,1,0,75,0,0
126350,-117.647058823529,4,1,0,70,0,0
128073,-117.647058823529,4,1,0,100,0,0
128355,-117.647058823529,4,1,0,100,0,1
144323,-117.647058823529,4,1,0,85,0,1
144355,-117.647058823529,4,1,0,85,0,0
150600,-117.647058823529,4,1,0,100,0,0

[HitObjects]
256,192,2355,5,0,0:0:0:0:
256,192,2605,1,8,0:0:0:0:
256,192,3105,1,8,0:0:0:0:
256,192,3355,1,0,0:0:0:0:
256,192,3605,1,8,0:0:0:0:
256,192,4355,1,0,0:0:0:0:
256,192,4605,1,8,0:0:0:0:
256,192,5105,1,8,0:0:0:0:
256,192,5355,1,0,0:0:0:0:
256,192,6105,1,12,0:0:0:0:
256,192,6355,1,0,0:0:0:0:
256,192,6855,1,8,0:0:0:0:
256,192,7355,1,0,0:0:0:0:
256,192,7855,1,0,0:0:0:0:
256,192,8355,1,8,0:0:0:0:
256,192,8855,1,0,0:0:0:0:
256,192,9355,1,8,0:0:0:0:
256,192,10355,1,0,0:0:0:0:
256,192,10855,1,0,0:0:0:0:
256,192,11355,1,8,0:0:0:0:
256,192,11855,1,8,0:0:0:0:
256,192,12355,1,0,0:0:0:0:
256,192,12605,1,0,0:0:0:0:
256,192,12855,1,8,0:0:0:0:
256,192,13355,1,0,0:0:0:0:
256,192,14105,1,12,0:1:0:0:
256,192,14355,1,4,0:1:0:0:
256,192,14605,1,0,0:1:0:0:
256,192,14855,1,8,0:1:0:0:
256,192,15355,1,0,0:0:0:0:
256,192,15855,1,8,0:0:0:0:
256,192,16355,1,8,0:1:0:0:
256,192,16605,1,8,0:1:0:0:
256,192,16855,1,0,0:1:0:0:
256,192,17355,1,8,0:1:0:0:
256,192,18355,1,4,0:1:0:0:
256,192,18605,1,8,0:1:0:0:
256,192,18855,1,8,0:1:0:0:
256,192,19355,1,0,0:0:0:0:
256,192,19855,1,8,0:1:0:0:
256,192,20355,1,0,0:0:0:0:
256,192,20605,1,8,0:1:0:0:
256,192,20855,1,0,0:0:0:0:
256,192,21355,1,8,0:0:0:0:
256,192,22355,1,4,0:1:0:0:
256,192,22605,1,8,0:0:0:0:
256,192,22855,1,0,0:0:0:0:
256,192,23230,1,0,0:0:0:0:
256,192,23480,1,8,0:0:0:0:
256,192,24355,1,0,0:0:0:0:
256,192,24605,1,0,0:0:0:0:
256,192,24855,1,8,0:0:0:0:
256,192,25230,1,8,0:0:0:0:
256,192,25480,1,0,0:0:0:0:
256,192,26355,1,4,0:0:0:0:
256,192,26605,1,8,0:0:0:0:
256,192,26855,1,0,0:0:0:0:
256,192,27230,1,8,0:0:0:0:
256,192,27480,1,8,0:0:0:0:
256,192,28355,1,0,0:0:0:0:
256,192,28605,1,8,0:0:0:0:
256,192,28855,1,8,0:0:0:0:
256,192,29230,1,0,0:0:0:0:
256,192,30355,1,4,0:1:0:0:
256,192,30605,1,0,0:0:0:0:
256,192,30855,1,8,0:0:0:0:
256,192,31230,1,0,0:1:0:0:
256,192,31605,1,0,0:0:0:0:
256,192,31855,1,8,0:0:0:0:
256,192,32355,1,8,0:0:0:0:
256,192,32605,1,8,0:1:0:0:
256,192,32855,1,0,0:1:0:0:
256,192,33355,1,8,0:0:0:0:
256,192,34355,1,0,0:1:0:0:
256,192,34605,1,8,0:0:0:0:
256,192,34855,1,8,0:1:0:0:
256,192,35230,1,0,0:1:0:0:
256,192,35605,1,0,0:0:0:0:
256,192,35855,1,8,0:1:0:0:
256,192,36355,1,8,0:0:0:0:
256,192,36605,1,0,0:0:0:0:
256,192,36855,1,8,0:0:0:0:
256,192,37230,1,8,0:1:0:0:
256,192,38355,1,4,0:0:0:0:
256,192,38605,1,0,0:0:0:0:
256,192,38855,1,8,0:0:0:0:
256,192,39355,1,0,0:0:0:0:
256,192,39855,1,8,0:0:0:0:
256,192,40355,1,8,0:0:0:0:
256,192,40605,1,0,0:0:0:0:
256,192,40855,1,8,0:0:0:0:
256,192,41355,1,0,0:0:0:0:
256,192,42355,1,0,0:0:0:0:
256,192,42605,1,8,0:1:0:0:
256,192,42855,1,8,0:0:0:0:
256,192,43355,1,0,0:0:0:0:
256,192,43855,1,8,0:0:0:0:
256,192,44355,1,0,0:0:0:0:
256,192,44605,1,0,0:0:0:0:
256,192,44855,1,8,0:0:0:0:
256,192,45230,1,4,0:1:0:0:
256,192,45480,1,4,0:0:0:0:
256,192,45730,1,4,0:0:0:0:
256,192,46355,1,4,0:0:0:0:
256,192,48105,5,12,0:0:0:0:
256,192,48355,1,4,0:0:0:0:
256,192,48605,1,0,0:0:0:0:
256,192,48855,1,8,0:0:0:0:
256,192,49230,1,0,0:0:0:0:
256,192,49730,1,8,0:0:0:0:
256,192,50105,1,0,0:0:0:0:
256,192,50355,1,8,0:0:0:0:
256,192,50855,1,0,0:0:0:0:
256,192,51355,1,8,0:0:0:0:
256,192,51605,1,0,0:0:0:0:
256,192,51855,1,8,0:0:0:0:
256,192,52105,1,8,0:0:0:0:
256,192,52605,1,0,0:0:0:0:
256,192,53105,1,8,0:0:0:0:
256,192,53355,1,0,0:0:0:0:
256,192,54355,1,0,0:0:0:0:
256,192,54605,1,0,0:0:0:0:
256,192,54855,1,8,0:0:0:0:
256,192,55355,1,0,0:0:0:0:
256,192,55855,1,8,0:0:0:0:
256,192,56105,1,8,0:0:0:0:
256,192,56355,1,0,0:0:0:0:
256,192,56855,1,8,0:0:0:0:
256,192,57355,1,0,0:0:0:0:
256,192,58355,1,0,0:0:0:0:
256,192,58855,1,8,0:0:0:0:
256,192,59105,1,0,0:0:0:0:
256,192,59355,1,8,0:0:0:0:
256,192,59855,1,8,0:0:0:0:
256,192,60105,1,8,0:0:0:0:
256,192,60605,1,0,0:0:0:0:
256,192,61105,1,8,0:0:0:0:
256,192,61355,1,0,0:0:0:0:
256,192,62355,1,0,0:0:0:0:
256,192,62605,1,8,0:1:0:0:
256,192,62855,1,0,0:1:0:0:
256,192,63230,1,0,0:0:0:0:
256,192,63480,1,8,0:0:0:0:
256,192,64355,1,8,0:0:0:0:
256,192,64605,1,8,0:1:0:0:
256,192,64855,1,0,0:1:0:0:
256,192,65230,1,8,0:0:0:0:
256,192,65480,1,0,0:0:0:0:
256,192,66355,1,8,0:0:0:0:
256,192,66605,1,0,0:0:0:0:
256,192,66855,1,8,0:0:0:0:
256,192,67230,1,0,0:1:0:0:
256,192,67480,1,8,0:0:0:0:
256,192,68355,1,0,0:1:0:0:
256,192,68605,1,8,0:1:0:0:
256,192,68855,1,8,0:0:0:0:
256,192,69230,1,0,0:0:0:0:
256,192,70105,1,8,0:1:0:0:
256,192,70355,1,4,0:1:0:0:
256,192,72105,5,12,0:1:0:0:
256,192,72355,1,0,0:0:0:0:
256,192,72605,1,8,0:0:0:0:
256,192,72855,1,0,0:0:0:0:
256,192,73355,1,0,0:0:0:0:
256,192,73855,1,8,0:0:0:0:
256,192,74355,1,0,0:0:0:0:
256,192,74605,1,0,0:0:0:0:
256,192,74855,1,8,0:0:0:0:
256,192,75355,1,8,0:1:0:0:
256,192,75855,1,0,0:1:0:0:
256,192,76355,1,8,0:0:0:0:
256,192,76605,1,0,0:0:0:0:
256,192,76855,1,8,0:0:0:0:
256,192,77230,1,0,0:1:0:0:
256,192,78355,1,4,0:1:0:0:
256,192,78605,1,8,0:1:0:0:
256,192,79105,1,0,0:0:0:0:
256,192,79605,1,8,0:0:0:0:
256,192,79980,1,8,0:0:0:0:
256,192,80230,1,0,0:1:0:0:
256,192,80605,1,8,0:1:0:0:
256,192,81105,1,0,0:0:0:0:
256,192,81605,1,0,0:0:0:0:
256,192,82355,1,0,0:1:0:0:
256,192,82605,1,8,0:0:0:0:
256,192,83105,1,0,0:0:0:0:
256,192,83605,1,8,0:0:0:0:
256,192,83980,1,0,0:1:0:0:
256,192,84230,1,0,0:1:0:0:
256,192,84605,1,8,0:0:0:0:
256,192,85105,1,0,0:0:0:0:
256,192,85605,1,8,0:1:0:0:
256,192,86355,1,0,0:0:0:0:
256,192,86605,1,8,0:1:0:0:
256,192,87105,1,8,0:0:0:0:
256,192,87605,1,0,0:1:0:0:
256,192,87980,1,0,0:1:0:0:
256,192,88230,1,8,0:0:0:0:
256,192,88605,1,0,0:1:0:0:
256,192,89105,1,8,0:1:0:0:
256,192,89605,1,8,0:0:0:0:
256,192,90355,1,0,0:1:0:0:
256,192,90605,1,8,0:0:0:0:
256,192,91105,1,0,0:1:0:0:
256,192,91605,1,0,0:1:0:0:
256,192,91980,1,0,0:0:0:0:
256,192,92230,1,8,0:0:0:0:
256,192,93230,1,4,0:0:0:0:
256,192,93480,1,4,0:0:0:0:
256,192,93730,1,4,0:0:0:0:
256,192,94355,1,4,0:0:0:0:
256,192,94605,1,8,0:0:0:0:
256,192,94855,1,0,0:0:0:0:
256,192,95355,1,8,0:0:0:0:
256,192,95855,1,0,0:0:0:0:
256,192,96355,1,8,0:0:0:0:
256,192,96605,1,0,0:0:0:0:
256,192,96855,1,8,0:0:0:0:
256,192,97355,1,8,0:0:0:0:
256,192,98355,1,0,0:0:0:0:
256,192,98605,1,8,0:0:0:0:
256,192,98855,1,8,0:0:0:0:
256,192,99355,1,0,0:0:0:0:
256,192,99855,1,8,0:0:0:0:
256,192,100105,1,8,0:0:0:0:
256,192,100605,1,0,0:0:0:0:
256,192,101105,1,8,0:0:0:0:
256,192,101355,1,0,0:0:0:0:
256,192,102355,1,0,0:0:0:0:
256,192,102855,1,8,0:0:0:0:
256,192,103355,1,0,0:0:0:0:
256,192,103855,1,8,0:0:0:0:
256,192,104230,1,8,0:0:0:0:
256,192,104855,1,0,0:0:0:0:
256,192,105355,1,8,0:0:0:0:
256,192,106355,1,0,0:0:0:0:
256,192,106855,1,0,0:0:0:0:
256,192,107355,1,8,0:0:0:0:
256,192,107855,1,8,0:0:0:0:
256,192,108230,1,0,0:0:0:0:
256,192,108855,1,8,0:0:0:0:
256,192,109230,1,0,0:0:0:0:
256,192,110355,1,4,0:0:0:0:
256,192,110855,1,8,0:0:0:0:
256,192,111355,1,4,0:0:0:0:
256,192,112355,1,4,0:0:0:0:
256,192,112855,1,8,0:0:0:0:
256,192,113355,1,4,0:0:0:0:
256,192,114355,1,4,0:0:0:0:
256,192,114855,1,8,0:0:0:0:
256,192,115355,1,4,0:0:0:0:
256,192,116355,1,4,0:0:0:0:
256,192,116855,1,8,0:0:0:0:
256,192,117355,1,4,0:0:0:0:
256,192,118355,1,4,0:0:0:0:
256,192,118605,1,8,0:0:0:0:
256,192,119105,1,0,0:0:0:0:
256,192,119605,1,0,0:0:0:0:
256,192,120105,1,8,0:0:0:0:
256,192,120605,1,8,0:0:0:0:
256,192,121105,1,0,0:0:0:0:
256,192,121605,1,8,0:0:0:0:
256,192,122355,1,4,0:0:0:0:
256,192,122855,1,0,0:0:0:0:
256,192,123105,1,8,0:0:0:0:
256,192,123355,1,0,0:0:0:0:
256,192,123855,1,0,0:0:0:0:
256,192,124355,1,8,0:0:0:0:
256,192,124605,1,8,0:0:0:0:
256,192,124855,1,0,0:0:0:0:
256,192,125355,1,8,0:0:0:0:
256,192,125855,1,0,0:0:0:0:
256,192,126105,1,0,0:0:0:0:
256,192,126355,1,8,0:0:0:0:
256,192,128105,1,12,0:0:0:0:
256,192,128355,1,4,0:0:0:0:
256,192,128605,1,0,0:0:0:0:
256,192,128855,1,8,0:0:0:0:
256,192,129355,1,0,0:0:0:0:
256,192,129605,1,8,0:0:0:0:
256,192,129855,1,8,0:0:0:0:
256,192,130355,1,0,0:0:0:0:
256,192,130855,1,8,0:0:0:0:
256,192,131230,1,0,0:0:0:0:
256,192,131605,1,0,0:0:0:0:
256,192,131855,1,8,0:0:0:0:
256,192,132355,1,0,0:0:0:0:
256,192,132855,1,8,0:0:0:0:
256,192,133355,1,8,0:0:0:0:
256,192,133605,1,0,0:0:0:0:
256,192,133855,1,0,0:0:0:0:
256,192,134105,1,8,0:0:0:0:
256,192,134605,1,0,0:0:0:0:
256,192,135105,1,8,0:0:0:0:
256,192,135355,1,0,0:0:0:0:
256,192,136355,1,0,0:0:0:0:
256,192,136605,1,8,0:0:0:0:
256,192,136855,1,0,0:0:0:0:
256,192,137355,1,8,0:0:0:0:
256,192,137855,1,0,0:0:0:0:
256,192,138355,1,8,0:0:0:0:
256,192,138605,1,0,0:0:0:0:
256,192,138855,1,8,0:0:0:0:
256,192,139230,1,0,0:0:0:0:
256,192,139730,1,0,0:0:0:0:
256,192,140105,1,12,0:0:0:0:
256,192,140355,1,0,0:0:0:0:
256,192,140605,1,0,0:0:0:0:
256,192,140855,1,8,0:0:0:0:
256,192,141355,1,0,0:0:0:0:
256,192,141855,1,8,0:0:0:0:
256,192,142105,1,8,0:0:0:0:
256,192,142605,1,0,0:0:0:0:
256,192,143105,1,8,0:0:0:0:
256,192,143355,1,0,0:0:0:0:
256,192,144355,1,0,0:0:0:0:
256,192,144855,1,0,0:0:0:0:
256,192,145355,1,8,0:0:0:0:
256,192,145855,1,8,0:0:0:0:
256,192,146105,1,8,0:0:0:0:
256,192,146355,1,0,0:0:0:0:
256,192,146855,1,8,0:0:0:0:
256,192,147355,1,0,0:0:0:0:
256,192,148355,1,0,0:0:0:0:
256,192,148855,1,8,0:0:0:0:
256,192,149355,1,8,0:0:0:0:
256,192,149855,1,0,0:0:0:0:
256,192,150105,1,8,0:0:0:0:
256,192,150355,1,0,0:0:0:0:
256,192,150855,1,8,0:0:0:0:
256,192,151230,1,4,0:0:0:0:
