osu file format v14

[General]
AudioFilename: audio.mp3
AudioLeadIn: 0
PreviewTime: 46323
Countdown: 0
SampleSet: Normal
StackLeniency: 0.7
Mode: 1
LetterboxInBreaks: 0
WidescreenStoryboard: 0

[Editor]
Bookmarks: 14355,30355,48355,62355,78355,94355,110355,128355,144355
DistanceSpacing: 0.7
BeatDivisor: 6
GridSize: 32
TimelineZoom: 3.599999

[Metadata]
Title:No Lag Train (2Gbps)
TitleUnicode:No Lag Train (2Gbps)
Artist:exnoiz
ArtistUnicode:exnoiz
Creator:woosungko
Version:250,000 kB/s
Source:
Tags:ラグトレイン 稲葉曇 michoup japanese vocaloid 視長p 因幡プカリ inaba pukari きゐな kiwina inaba cumori kaai yuki 歌愛ユキ ぬくぬくにぎりめし nukunuku nigirimeshi weather station ウェザーステーション uxcl-276 inabakumori lagtrain remix bootleg japanese hardcore breakcore electronic
BeatmapID:3408920
BeatmapSetID:1669274

[Difficulty]
HPDrainRate:6
CircleSize:2
OverallDifficulty:7
ApproachRate:10
SliderMultiplier:1.4
SliderTickRate:1

[Events]
//Background and Video events
0,0,"maxresdefault.jpg",0,0
//Break Periods
2,46555,47530
2,70555,71530
//Storyboard Layer 0 (Background)
//Storyboard Layer 1 (Fail)
//Storyboard Layer 2 (Pass)
//Storyboard Layer 3 (Foreground)
//Storyboard Layer 4 (Overlay)
//Storyboard Sound Samples

[TimingPoints]
355,250,16,1,0,5,1,8
2224,-100.243708076116,16,1,0,65,0,0
2287,-100.717583927034,16,1,0,65,0,0
2355,250,4,1,0,65,1,0
2355,-101.201397606869,4,1,0,65,0,0
2475,-102.168236532182,4,1,0,65,0,0
2600,-103.144312261824,4,1,0,65,0,0
2975,-106.128846948544,4,1,0,65,0,0
3100,-107.142760814903,4,1,0,65,0,0
3350,-109.199740709274,4,1,0,65,0,0
3475,-110.24299270429,4,1,0,65,0,0
3600,-111.296211524484,4,1,0,65,0,0
3975,-114.516625685104,4,1,0,65,0,0
4100,-115.610673138262,4,1,0,65,0,0
4350,-117.830224215828,4,1,0,65,0,0
4475,-118.955928504941,4,1,0,65,0,0
4600,-120.092387336489,4,1,0,65,0,0
4975,-123.567323450338,4,1,0,65,0,0
5100,-124.747837761738,4,1,0,65,0,0
5350,-127.142808660289,4,1,0,65,0,0
5475,-128.357481771464,4,1,0,65,0,0
5600,-129.583759398715,4,1,0,65,0,0
5975,-133.333333333333,4,1,0,65,0,0
6095,-66.6666666666667,4,1,0,100,0,0
6114,-111.111111111111,4,1,0,75,0,0
6350,-111.111111111111,4,1,0,75,0,0
6475,-114.332390095006,4,1,0,75,0,0
6600,-117.647058823529,4,1,0,75,0,0
6850,-111.111111111111,4,1,0,75,0,0
6975,-114.332390095006,4,1,0,75,0,0
7100,-117.647058823529,4,1,0,75,0,0
7350,-111.111111111111,4,1,0,75,0,0
7475,-114.332390095006,4,1,0,75,0,0
7600,-117.647058823529,4,1,0,75,0,0
7850,-111.111111111111,4,1,0,75,0,0
7975,-114.332390095006,4,1,0,75,0,0
8100,-117.647058823529,4,1,0,75,0,0
8350,-111.111111111111,4,1,0,75,0,0
8475,-114.332390095006,4,1,0,75,0,0
8600,-117.647058823529,4,1,0,75,0,0
8850,-111.111111111111,4,1,0,75,0,0
8975,-114.332390095006,4,1,0,75,0,0
9100,-117.647058823529,4,1,0,75,0,0
9350,-111.111111111111,4,1,0,75,0,0
9475,-114.332390095006,4,1,0,75,0,0
9600,-117.647058823529,4,1,0,75,0,0
9850,-111.111111111111,4,1,0,75,0,0
9975,-114.332390095006,4,1,0,75,0,0
10100,-117.647058823529,4,1,0,75,0,0
10350,-111.111111111111,4,1,0,75,0,0
10475,-114.332390095006,4,1,0,75,0,0
10600,-117.647058823529,4,1,0,75,0,0
10850,-111.111111111111,4,1,0,75,0,0
10975,-114.332390095006,4,1,0,75,0,0
11100,-117.647058823529,4,1,0,75,0,0
11350,-111.111111111111,4,1,0,75,0,0
11475,-114.332390095006,4,1,0,75,0,0
11600,-117.647058823529,4,1,0,75,0,0
11850,-111.111111111111,4,1,0,75,0,0
11975,-114.332390095006,4,1,0,75,0,0
12100,-117.647058823529,4,1,0,75,0,0
12350,-111.111111111111,4,1,0,75,0,0
12475,-113.279994426515,4,1,0,75,0,0
12600,-115.491214235442,4,1,0,75,0,0
12725,-117.745596944121,4,1,0,75,0,0
12850,-120.043985090191,4,1,0,75,0,0
12975,-122.387237657582,4,1,0,75,0,0
13100,-124.776230397547,4,1,0,75,0,0
13225,-127.211856155961,4,1,0,75,0,0
13350,-129.695025207006,4,1,0,75,0,0
13600,-134.80772347308,4,1,0,75,0,0
13850,-140.121969049996,4,1,0,75,0,0
13975,-142.857142857143,4,1,0,75,0,0
14100,-66.6666666666667,4,1,0,100,0,0
14115,-100,4,1,0,85,0,0
29350,-95.2380952380952,4,1,0,85,0,0
29412,-95.9158888629036,4,1,0,85,0,0
29475,-96.60955590668,4,1,0,85,0,0
29537,-97.2971099881157,4,1,0,85,0,0
29600,-98.0007660711023,4,1,0,85,0,0
29662,-98.6982211630303,4,1,0,85,0,0
29725,-99.412010130758,4,1,0,85,0,0
29787,-100.119508811066,4,1,0,85,0,0
29850,-100.843576580491,4,1,0,85,0,0
29975,-102.295758069566,4,1,0,85,0,0
30037,-103.023779902543,4,1,0,85,0,0
30100,-103.768851461498,4,1,0,85,0,0
30162,-104.507357054229,4,1,0,85,0,0
30225,-105.263157894737,4,1,0,85,0,0
30350,-100,4,1,0,85,0,0
37350,-95.2380952380952,4,1,0,85,0,0
37475,-96.60955590668,4,1,0,85,0,0
37537,-97.2971099881157,4,1,0,85,0,0
37600,-98.0007660711023,4,1,0,85,0,0
37725,-99.412010130758,4,1,0,85,0,0
37850,-100.843576580491,4,1,0,85,0,0
37912,-101.561263480237,4,1,0,85,0,0
37975,-102.295758069566,4,1,0,85,0,0
38037,-103.023779902543,4,1,0,85,0,0
38100,-103.768851461498,4,1,0,85,0,0
38162,-104.507357054229,4,1,0,85,0,0
38225,-105.263157894737,4,1,0,85,0,0
38350,-95.2380952380952,4,1,0,85,0,0
38475,-96.0571980270205,4,1,0,85,0,0
38600,-96.8833455744234,4,1,0,85,0,0
38725,-97.7165984693078,4,1,0,85,0,0
38850,-98.557017821778,4,1,0,85,0,0
38975,-99.4046652675207,4,1,0,85,0,0
39100,-100.259602972325,4,1,0,85,0,0
39225,-101.121893636642,4,1,0,85,0,0
39350,-101.991600500184,4,1,0,85,0,0
39475,-102.868787346559,4,1,0,85,0,0
39600,-103.753518507952,4,1,0,85,0,0
39725,-104.645858869844,4,1,0,85,0,0
39850,-105.545873875767,4,1,0,85,0,0
39912,-105.995149025776,4,1,0,85,0,0
39975,-106.453629532104,4,1,0,85,0,0
40037,-106.906768708662,4,1,0,85,0,0
40100,-107.369192412934,4,1,0,85,0,0
40225,-108.29262966491,4,1,0,85,0,0
40287,-108.753596878985,4,1,0,85,0,0
40350,-109.224009012186,4,1,0,85,0,0
40475,-110.16339876138,4,1,0,85,0,0
40600,-111.110867806591,4,1,0,85,0,0
40725,-112.066485634444,4,1,0,85,0,0
40850,-113.03032232919,4,1,0,85,0,0
40975,-114.002448577846,4,1,0,85,0,0
41100,-114.982935675378,4,1,0,85,0,0
41225,-115.971855529928,4,1,0,85,0,0
41350,-116.969280668093,4,1,0,85,0,0
41475,-117.975284240238,4,1,0,85,0,0
41537,-118.477467429197,4,1,0,85,0,0
41600,-118.989940025865,4,1,0,85,0,0
41725,-120.013322439022,4,1,0,85,0,0
41850,-121.045506533761,4,1,0,85,0,0
41912,-121.560758680613,4,1,0,85,0,0
41975,-122.086568009641,4,1,0,85,0,0
42037,-122.606251623434,4,1,0,85,0,0
42100,-123.136583217285,4,1,0,85,0,0
42162,-123.660736411201,4,1,0,85,0,0
42225,-124.195629163971,4,1,0,85,0,0
42287,-124.724290378988,4,1,0,85,0,0
42350,-125.263783519287,4,1,0,85,0,0
42475,-126.341124620822,4,1,0,85,0,0
42600,-127.427731479918,4,1,0,85,0,0
42725,-128.523683787455,4,1,0,85,0,0
42850,-129.629061919704,4,1,0,85,0,0
42975,-130.743946944218,4,1,0,85,0,0
43100,-131.868420625777,4,1,0,85,0,0
43225,-133.002565432388,4,1,0,85,0,0
43350,-134.146464541326,4,1,0,85,0,0
43475,-135.300201845244,4,1,0,85,0,0
43600,-136.463861958317,4,1,0,85,0,0
43725,-137.637530222451,4,1,0,85,0,0
43850,-138.821292713544,4,1,0,85,0,0
43912,-139.412210717424,4,1,0,85,0,0
43975,-140.015236247795,4,1,0,85,0,0
44037,-140.611236488817,4,1,0,85,0,0
44100,-141.219448388072,4,1,0,85,0,0
44225,-142.434017450336,4,1,0,85,0,0
44287,-143.040313672127,4,1,0,85,0,0
44350,-143.659032510116,4,1,0,85,0,0
44475,-144.894583409041,4,1,0,85,0,0
44600,-146.140760761431,4,1,0,85,0,0
44725,-147.397655960942,4,1,0,85,0,0
44850,-148.665361187268,4,1,0,85,0,0
44975,-149.943969412901,4,1,0,85,0,0
45037,-150.582233106945,4,1,0,85,0,0
45100,-151.233574409952,4,1,0,85,0,0
45225,-100,4,1,0,85,0,0
45350,-153.846153846154,4,1,0,85,0,0
45475,-92.777946638513,4,1,0,85,0,0
45725,-86.0774738245876,4,1,0,85,0,0
45975,-79.8609127327558,4,1,0,85,0,0
46100,-76.9230769230769,4,1,0,85,0,0
46323,-62.5,4,1,0,100,0,0
46355,-62.5,4,1,0,100,0,1
46386,-119.367301598826,4,1,0,30,0,1
47959,-133.333333333333,4,1,0,80,0,1
48073,-66.6666666666667,4,1,0,100,0,1
48105,-66.6666666666667,4,1,0,100,0,0
48323,-90.9090909090909,4,1,0,100,0,0
48355,-90.9090909090909,4,1,0,100,0,1
61350,-90.9090909090909,4,1,0,100,0,1
61475,-91.9986385582181,4,1,0,100,0,1
61537,-92.5438891981467,4,1,0,100,0,1
61600,-93.1012444622223,4,1,0,100,0,1
61725,-94.2170651246033,4,1,0,100,0,1
61850,-95.3462589245592,4,1,0,100,0,1
61975,-96.4889861394669,4,1,0,100,0,1
62100,-97.6454089676311,4,1,0,100,0,1
62225,-98.8156915513073,4,1,0,100,0,1
62323,-100,4,1,0,85,0,1
62355,-100,4,1,0,85,0,0
69350,-95.2380952380952,4,1,0,85,0,0
69475,-96.518201178009,4,1,0,85,0,0
69537,-97.1595029631369,4,1,0,85,0,0
69600,-97.8155131657055,4,1,0,85,0,0
69725,-99.1302624696064,4,1,0,85,0,0
69850,-100.462683466638,4,1,0,85,0,0
69912,-101.130193816599,4,1,0,85,0,0
69975,-101.813013684014,4,1,0,85,0,0
70037,-102.489496115596,4,1,0,85,0,0
70100,-103.181493841577,4,1,0,85,0,0
70162,-103.867068949538,4,1,0,85,0,0
70225,-104.568367894713,4,1,0,85,0,0
70287,-105.263157894737,4,1,0,85,0,0
70323,-66.6666666666667,4,1,0,100,0,0
70348,-66.6666666666667,4,1,0,100,0,0
70386,-119.367301598826,4,1,0,30,0,0
71350,-119.367301598826,4,1,0,30,0,0
71970,-133.333333333333,4,1,0,80,0,0
72073,-66.6666666666667,4,1,0,100,0,0
72105,-66.6666666666667,4,1,0,100,0,0
72136,-95.2380952380952,4,1,0,85,0,0
72350,-95.2380952380952,4,1,0,85,0,0
72475,-95.9223495754882,4,1,0,85,0,0
72600,-96.6115200548628,4,1,0,85,0,0
72725,-97.3056419970793,4,1,0,85,0,0
72850,-98.0047509767671,4,1,0,85,0,0
72975,-98.7088828241473,4,1,0,85,0,0
73100,-99.4180736268695,4,1,0,85,0,0
73225,-100.132359731861,4,1,0,85,0,0
73350,-100.85177774719,4,1,0,85,0,0
73475,-101.576364543942,4,1,0,85,0,0
73600,-102.306157258108,4,1,0,85,0,0
73725,-103.04119329249,4,1,0,85,0,0
73850,-103.781510318615,4,1,0,85,0,0
73912,-104.150678555122,4,1,0,85,0,0
73975,-104.527146278671,4,1,0,85,0,0
74037,-104.898966867331,4,1,0,85,0,0
74100,-105.278139387444,4,1,0,85,0,0
74225,-106.034528134283,4,1,0,85,0,0
74287,-106.411710732994,4,1,0,85,0,0
74350,-106.796351285071,4,1,0,85,0,0
74475,-107.563647884209,4,1,0,85,0,0
74600,-108.33645725662,4,1,0,85,0,0
74725,-109.114819009764,4,1,0,85,0,0
74850,-109.898773035668,4,1,0,85,0,0
74975,-110.688359512968,4,1,0,85,0,0
75100,-111.483618908972,4,1,0,85,0,0
75225,-112.284591981733,4,1,0,85,0,0
75350,-113.091319782135,4,1,0,85,0,0
75475,-113.903843656,4,1,0,85,0,0
75537,-114.309018729717,4,1,0,85,0,0
75600,-114.722205246208,4,1,0,85,0,0
75725,-115.546446494825,4,1,0,85,0,0
75850,-116.376609645262,4,1,0,85,0,0
75912,-116.790580762289,4,1,0,85,0,0
75975,-117.212737244431,4,1,0,85,0,0
76100,-118.054872144931,4,1,0,85,0,0
76162,-118.474813123117,4,1,0,85,0,0
76225,-118.903057507245,4,1,0,85,0,0
76287,-119.326015623006,4,1,0,85,0,0
76350,-119.757336801945,4,1,0,85,0,0
76475,-120.617753811929,4,1,0,85,0,0
76600,-121.48435263466,4,1,0,85,0,0
76725,-122.357177684424,4,1,0,85,0,0
76850,-123.236273694612,4,1,0,85,0,0
76975,-124.121685720009,4,1,0,85,0,0
77100,-125.013459139103,4,1,0,85,0,0
77225,-125.911639656411,4,1,0,85,0,0
77350,-126.816273304824,4,1,0,85,0,0
77475,-127.727406447963,4,1,0,85,0,0
77600,-128.645085782556,4,1,0,85,0,0
77725,-129.569358340832,4,1,0,85,0,0
77850,-130.50027149293,4,1,0,85,0,0
77912,-130.964482843707,4,1,0,85,0,0
77975,-131.43787294933,4,1,0,85,0,0
78037,-131.905419505724,4,1,0,85,0,0
78100,-132.382210763294,4,1,0,85,0,0
78225,-133.333333333333,4,1,0,85,0,0
78350,-100,4,1,0,85,0,0
90350,-100,4,1,0,85,0,0
90475,-99.7679355717141,4,1,0,85,0,0
90600,-99.5364096824169,4,1,0,85,0,0
90662,-99.4217722577123,4,1,0,85,0,0
90725,-99.305421082351,4,1,0,85,0,0
90850,-99.0749685246593,4,1,0,85,0,0
90975,-98.8450507653781,4,1,0,85,0,0
91100,-98.6156665634305,4,1,0,85,0,0
91162,-98.5020895709869,4,1,0,85,0,0
91225,-98.3868146806197,4,1,0,85,0,0
91350,-98.1584938816224,4,1,0,85,0,0
91475,-97.9307029339819,4,1,0,85,0,0
91600,-97.7034406081018,4,1,0,85,0,0
91662,-97.5909142385871,4,1,0,85,0,0
91725,-97.4767056772389,4,1,0,85,0,0
91850,-97.250496917497,4,1,0,85,0,0
91912,-97.1384922093361,4,1,0,85,0,0
91975,-97.0248131078202,4,1,0,85,0,0
92037,-96.9130683227449,4,1,0,85,0,0
92100,-96.799653029986,4,1,0,85,0,0
92225,-96.5750154685992,4,1,0,85,0,0
92287,-96.463788721528,4,1,0,85,0,0
92350,-96.350899211085,4,1,0,85,0,0
92475,-96.1273030476824,4,1,0,85,0,0
92600,-95.9042257714381,4,1,0,85,0,0
92662,-95.7937715819028,4,1,0,85,0,0
92725,-95.6816661781996,4,1,0,85,0,0
92850,-95.4596230666087,4,1,0,85,0,0
92975,-95.2380952380952,4,1,0,85,0,0
93100,-83.3333333333333,4,1,0,85,0,0
93225,-81.0410393721727,4,1,0,85,0,0
93350,-100,4,1,0,85,0,0
93475,-76.6438829711284,4,1,0,85,0,0
93725,-72.4853092013661,4,1,0,85,0,0
93975,-68.5523729531926,4,1,0,85,0,0
94100,-66.6666666666667,4,1,0,85,0,0
94323,-90.9090909090909,4,1,0,100,0,0
94355,-90.9090909090909,4,1,0,100,0,1
101350,-86.9565217391304,4,1,0,100,0,1
101412,-87.6129289037941,4,1,0,100,0,1
101475,-88.2849990193707,4,1,0,100,0,1
101537,-88.9514344370901,4,1,0,100,0,1
101600,-89.6337720962784,4,1,0,100,0,1
101662,-90.3103889735764,4,1,0,100,0,1
101725,-91.003151038658,4,1,0,100,0,1
101787,-91.6901049226685,4,1,0,100,0,1
101850,-92.3934506523871,4,1,0,100,0,1
101912,-93.0908994666136,4,1,0,100,0,1
101975,-93.8049905527861,4,1,0,100,0,1
102037,-94.5130946334067,4,1,0,100,0,1
102100,-95.2380952380952,4,1,0,100,0,1
102323,-100,4,1,0,85,0,1
102355,-100,4,1,0,85,0,0
102475,-100.697230567898,4,1,0,85,0,0
102600,-101.399322440443,4,1,0,85,0,0
102725,-102.106309512139,4,1,0,85,0,0
102850,-102.81822591381,4,1,0,85,0,0
102975,-103.535106014251,4,1,0,85,0,0
103100,-104.256984421888,4,1,0,85,0,0
103225,-104.983895986445,4,1,0,85,0,0
103287,-105.346322286822,4,1,0,85,0,0
103350,-105.715875800633,4,1,0,85,0,0
103475,-106.452959201835,4,1,0,85,0,0
103600,-107.195181773822,4,1,0,85,0,0
103725,-107.942579348463,4,1,0,85,0,0
103850,-108.695188007457,4,1,0,85,0,0
103912,-109.070426461776,4,1,0,85,0,0
103975,-109.453044084079,4,1,0,85,0,0
104037,-109.830898815604,4,1,0,85,0,0
104100,-110.216184164928,4,1,0,85,0,0
104225,-110.984645091696,4,1,0,85,0,0
104350,-111.758463962948,4,1,0,85,0,0
104475,-112.53767813591,4,1,0,85,0,0
104600,-113.322325228276,4,1,0,85,0,0
104725,-114.11244312002,4,1,0,85,0,0
104787,-114.506383068604,4,1,0,85,0,0
104850,-114.908069955228,4,1,0,85,0,0
104975,-115.709244143937,4,1,0,85,0,0
105100,-116.516004363991,4,1,0,85,0,0
105225,-117.32838956291,4,1,0,85,0,0
105350,-118.146438959765,4,1,0,85,0,0
105475,-118.970192047075,4,1,0,85,0,0
105537,-119.380901957901,4,1,0,85,0,0
105600,-119.799688592713,4,1,0,85,0,0
105725,-120.634968641828,4,1,0,85,0,0
105787,-121.051425708602,4,1,0,85,0,0
105850,-121.476072518772,4,1,0,85,0,0
105975,-122.323040829055,4,1,0,85,0,0
106037,-122.745325473019,4,1,0,85,0,0
106100,-123.175914461297,4,1,0,85,0,0
106225,-124.034734589208,4,1,0,85,0,0
106350,-124.899542673575,4,1,0,85,0,0
106475,-125.77038046426,4,1,0,85,0,0
106600,-126.647290002218,4,1,0,85,0,0
106725,-127.530313621527,4,1,0,85,0,0
106850,-128.419493951432,4,1,0,85,0,0
106975,-129.314873918401,4,1,0,85,0,0
107100,-130.216496748198,4,1,0,85,0,0
107225,-131.124405967972,4,1,0,85,0,0
107350,-132.038645408355,4,1,0,85,0,0
107475,-132.95925920558,4,1,0,85,0,0
107537,-133.418262293263,4,1,0,85,0,0
107600,-133.886291803611,4,1,0,85,0,0
107725,-134.819787956291,4,1,0,85,0,0
107850,-135.759792729497,4,1,0,85,0,0
107912,-136.228463842877,4,1,0,85,0,0
107975,-136.706351503321,4,1,0,85,0,0
108037,-137.178290334967,4,1,0,85,0,0
108100,-137.65950997426,4,1,0,85,0,0
108225,-138.619314157419,4,1,0,85,0,0
108350,-139.585810388734,4,1,0,85,0,0
108475,-140.559045327212,4,1,0,85,0,0
108537,-141.044284461308,4,1,0,85,0,0
108600,-141.539065957178,4,1,0,85,0,0
108725,-142.525919590549,4,1,0,85,0,0
108787,-143.017948784738,4,1,0,85,0,0
108850,-143.519653869111,4,1,0,85,0,0
108975,-144.520316766827,4,1,0,85,0,0
109100,-145.527956592148,4,1,0,85,0,0
109225,-146.542621990345,4,1,0,85,0,0
109350,-147.564361945861,4,1,0,85,0,0
109475,-148.59322578467,4,1,0,85,0,0
109600,-149.629263176666,4,1,0,85,0,0
109725,-150.672524138054,4,1,0,85,0,0
109850,-151.723059033767,4,1,0,85,0,0
109975,-152.7809185799,4,1,0,85,0,0
110100,-153.846153846154,4,1,0,85,0,0
110323,-40,4,1,0,100,0,0
110355,-153.846153846154,4,1,0,100,0,0
110356,-66.6666666666667,4,1,0,100,0,0
110386,-153.846153846154,4,1,0,75,0,0
111323,-66.6666666666667,4,1,0,100,0,0
111355,-153.846153846154,4,1,0,100,0,0
111356,-66.6666666666667,4,1,0,100,0,0
111386,-153.846153846154,4,1,0,75,0,0
112323,-66.6666666666667,4,1,0,100,0,0
112355,-153.846153846154,4,1,0,100,0,0
112356,-66.6666666666667,4,1,0,100,0,0
112386,-153.846153846154,4,1,0,75,0,0
113323,-66.6666666666667,4,1,0,100,0,0
113355,-153.846153846154,4,1,0,100,0,0
113356,-66.6666666666667,4,1,0,100,0,0
113386,-153.846153846154,4,1,0,75,0,0
114323,-66.6666666666667,4,1,0,100,0,0
114355,-153.846153846154,4,1,0,100,0,0
114356,-66.6666666666667,4,1,0,100,0,0
114386,-153.846153846154,4,1,0,75,0,0
115323,-66.6666666666667,4,1,0,100,0,0
115355,-153.846153846154,4,1,0,100,0,0
115356,-66.6666666666667,4,1,0,100,0,0
115386,-153.846153846154,4,1,0,75,0,0
116323,-66.6666666666667,4,1,0,100,0,0
116355,-153.846153846154,4,1,0,100,0,0
116356,-66.6666666666667,4,1,0,100,0,0
116386,-153.846153846154,4,1,0,75,0,0
117323,-66.6666666666667,4,1,0,100,0,0
117355,-153.846153846154,4,1,0,100,0,0
117356,-66.6666666666667,4,1,0,100,0,0
117386,-153.846153846154,4,1,0,75,0,0
118323,-100,4,1,0,100,0,0
118355,-153.846153846154,4,1,0,75,0,0
118356,-100.250626566416,4,1,0,75,0,0
118386,-100,4,1,0,75,0,0
118600,-150.748698497366,4,1,0,75,0,0
118725,-149.223435829522,4,1,0,75,0,0
118823,-100,4,1,0,100,0,0
118855,-97.6099511692218,4,1,0,75,0,0
118886,-100,4,1,0,75,0,0
119100,-144.739619704989,4,1,0,75,0,0
119225,-143.275156391578,4,1,0,75,0,0
119323,-100,4,1,0,100,0,0
119355,-141.82551039495,4,1,0,75,0,0
119356,-95.0035929923554,4,1,0,75,0,0
119386,-100,4,1,0,75,0,0
119600,-138.970072187462,4,1,0,75,0,0
119725,-137.563984671166,4,1,0,75,0,0
119823,-100,4,1,0,100,0,0
119855,-92.4330007136102,4,1,0,75,0,0
119886,-100,4,1,0,75,0,0
120100,-133.430507853702,4,1,0,75,0,0
120225,-132.080469183987,4,1,0,75,0,0
120323,-100,4,1,0,100,0,0
120355,-130.744090092123,4,1,0,75,0,0
120356,-89.8995252039296,4,1,0,75,0,0
120386,-100,4,1,0,75,0,0
120600,-128.111759214464,4,1,0,75,0,0
120725,-126.815535196682,4,1,0,75,0,0
120823,-100,4,1,0,100,0,0
120855,-87.4044181245022,4,1,0,75,0,0
120886,-100,4,1,0,75,0,0
121100,-123.005024210956,4,1,0,75,0,0
121225,-121.760469708952,4,1,0,75,0,0
121323,-100,4,1,0,100,0,0
121355,-120.528507504851,4,1,0,75,0,0
121356,-84.9488310343433,4,1,0,75,0,0
121386,-100,4,1,0,75,0,0
121600,-118.101851648211,4,1,0,75,0,0
121725,-116.906907034309,4,1,0,75,0,0
121823,-100,4,1,0,100,0,0
121855,-82.533814993226,4,1,0,75,0,0
121886,-100,4,1,0,75,0,0
122350,-111.111111111111,4,1,0,75,0,0
122600,-106.637289976522,4,1,0,75,0,0
122850,-102.343604521833,4,1,0,75,0,0
123100,-98.2228016937348,4,1,0,75,0,0
123350,-94.2679204786914,4,1,0,75,0,0
123600,-90.4722801441298,4,1,0,75,0,0
123850,-86.8294689531007,4,1,0,75,0,0
124100,-83.3333333333333,4,1,0,75,0,0
124350,-95.2380952380952,4,1,0,75,0,0
124475,-94.4465730225155,4,1,0,75,0,0
124600,-93.6616291348222,4,1,0,75,0,0
124725,-92.8832089026424,4,1,0,75,0,0
124850,-92.1112581079842,4,1,0,75,0,0
124975,-91.3457229834608,4,1,0,75,0,0
125100,-90.586550208545,4,1,0,75,0,0
125225,-89.8336869058557,4,1,0,75,0,0
125350,-89.0870806374748,4,1,0,75,0,0
125412,-88.7190692693504,4,1,0,75,0,0
125475,-88.3466794012949,4,1,0,75,0,0
125537,-87.9817265694918,4,1,0,75,0,0
125600,-87.6124316273972,4,1,0,75,0,0
125662,-87.2505119124713,4,1,0,75,0,0
125725,-86.8842861744597,4,1,0,75,0,0
125787,-86.5253743682273,4,1,0,75,0,0
125850,-86.1621923261951,4,1,0,75,0,0
125912,-85.8062634299774,4,1,0,75,0,0
125975,-85.4460997878181,4,1,0,75,0,0
126037,-85.0931290106999,4,1,0,75,0,0
126100,-84.7359586825427,4,1,0,75,0,0
126162,-84.3859214396457,4,1,0,75,0,0
126225,-84.0317195481081,4,1,0,75,0,0
126287,-83.6845914588784,4,1,0,75,0,0
126350,-83.3333333333333,4,1,0,70,0,0
126475,-85.3552650617491,4,1,0,70,0,0
126537,-86.3762707703216,4,1,0,70,0,0
126600,-87.4262552851374,4,1,0,70,0,0
126725,-89.5474943186285,4,1,0,70,0,0
126850,-91.7202013581841,4,1,0,70,0,0
126912,-92.8173433928362,4,1,0,70,0,0
126975,-93.9456251813376,4,1,0,70,0,0
127037,-95.0693873714751,4,1,0,70,0,0
127100,-96.2250448649376,4,1,0,70,0,0
127162,-97.3760731002043,4,1,0,70,0,0
127225,-98.5597705203054,4,1,0,70,0,0
127287,-99.7387263616823,4,1,0,70,0,0
127350,-100.95114404623,4,1,0,70,0,0
127475,-103.400539900233,4,1,0,70,0,0
127537,-104.637400232531,4,1,0,70,0,0
127600,-105.909365888549,4,1,0,70,0,0
127725,-108.479063975266,4,1,0,70,0,0
127850,-111.111111111111,4,1,0,70,0,0
128073,-66.6666666666667,4,1,0,100,0,0
128323,-90.9090909090909,4,1,0,100,0,0
128355,-90.9090909090909,4,1,0,100,0,1
140073,-66.6666666666667,4,1,0,100,0,1
140136,-90.9090909090909,4,1,0,100,0,1
140350,-90.9090909090909,4,1,0,100,0,1
140475,-91.1802620988692,4,1,0,100,0,1
140600,-91.4522421606034,4,1,0,100,0,1
140662,-91.5874451136812,4,1,0,100,0,1
140725,-91.7250335070639,4,1,0,100,0,1
140787,-91.8606397547438,4,1,0,100,0,1
140850,-91.9986385582181,4,1,0,100,0,1
140912,-92.1346493034808,4,1,0,100,0,1
140975,-92.2730597412522,4,1,0,100,0,1
141037,-92.4094761906666,4,1,0,100,0,1
141100,-92.5482994905919,4,1,0,100,0,1
141162,-92.6851228543262,4,1,0,100,0,1
141225,-92.824360247925,4,1,0,100,0,1
141350,-93.1012444622223,4,1,0,100,0,1
141475,-93.3789545897596,4,1,0,100,0,1
141600,-93.6574930941396,4,1,0,100,0,1
141662,-93.7959562891912,4,1,0,100,0,1
141725,-93.9368624463135,4,1,0,100,0,1
141787,-94.0757386608879,4,1,0,100,0,1
141850,-94.2170651246033,4,1,0,100,0,1
141912,-94.3563555906894,4,1,0,100,0,1
141975,-94.4981036147231,4,1,0,100,0,1
142037,-94.6378095679848,4,1,0,100,0,1
142100,-94.7799804098022,4,1,0,100,0,1
142162,-94.920103089589,4,1,0,100,0,1
142225,-95.062698010406,4,1,0,100,0,1
142287,-95.2032386597646,4,1,0,100,0,1
142350,-95.3462589245592,4,1,0,100,0,1
142475,-95.6306656677676,4,1,0,100,0,1
142600,-95.9159207630402,4,1,0,100,0,1
142725,-96.2020267409122,4,1,0,100,0,1
142787,-96.3442517733461,4,1,0,100,0,1
142850,-96.4889861394669,4,1,0,100,0,1
142912,-96.6316354125446,4,1,0,100,0,1
142975,-96.7768015043583,4,1,0,100,0,1
143100,-97.0654753888339,4,1,0,100,0,1
143162,-97.2089769433549,4,1,0,100,0,1
143225,-97.3550103537574,4,1,0,100,0,1
143350,-97.6454089676311,4,1,0,100,0,1
143412,-97.7897678956902,4,1,0,100,0,1
143475,-97.9366738066186,4,1,0,100,0,1
143537,-98.0814633404829,4,1,0,100,0,1
143600,-98.2288074545685,4,1,0,100,0,1
143725,-98.521812503036,4,1,0,100,0,1
143850,-98.8156915513073,4,1,0,100,0,1
143912,-98.9617806246042,4,1,0,100,0,1
143975,-99.1104472064214,4,1,0,100,0,1
144100,-99.4060820831941,4,1,0,100,0,1
144225,-99.7025988042409,4,1,0,100,0,1
144287,-99.8499990808157,4,1,0,100,0,1
144323,-100,4,1,0,85,0,1
144355,-100,4,1,0,85,0,0
146084,-90.9090909090909,4,1,0,85,0,0
146125,-92.3412427748252,4,1,0,85,0,0
146167,-93.8317219442554,4,1,0,85,0,0
146209,-95.3462589245592,4,1,0,85,0,0
146334,-100,4,1,0,85,0,0
148084,-90.9090909090909,4,1,0,85,0,0
148125,-92.3412427748252,4,1,0,85,0,0
148167,-93.8317219442554,4,1,0,85,0,0
148209,-95.3462589245592,4,1,0,85,0,0
148334,-100,4,1,0,85,0,0
150084,-90.9090909090909,4,1,0,85,0,0
150125,-92.3412427748252,4,1,0,85,0,0
150167,-93.8317219442554,4,1,0,85,0,0
150209,-95.3462589245592,4,1,0,85,0,0
150350,-100,4,1,0,100,0,0
150475,-96.3213095002933,4,1,0,100,0,0
150537,-94.5472013147138,4,1,0,100,0,0
150600,-92.777946638513,4,1,0,100,0,0
150725,-89.3649331296991,4,1,0,100,0,0
150787,-87.7189519839726,4,1,0,100,0,0
150850,-86.0774738245876,4,1,0,100,0,0
150912,-84.492043230896,4,1,0,100,0,0
150975,-82.910949972615,4,1,0,100,0,0
151037,-81.383842463553,4,1,0,100,0,0
151100,-79.8609127327558,4,1,0,100,0,0
151162,-78.38998278255,4,1,0,100,0,0
151225,-58.8235294117647,4,1,0,100,0,0

[HitObjects]
256,192,2230,5,0,0:0:0:0:
256,192,2292,1,0,0:0:0:0:
256,192,2355,1,8,0:0:0:0:
256,192,2480,1,0,0:0:0:0:
256,192,2605,1,8,0:0:0:0:
256,192,2980,1,0,0:0:0:0:
256,192,3105,1,8,0:0:0:0:
256,192,3355,1,0,0:0:0:0:
256,192,3480,1,0,0:0:0:0:
256,192,3605,1,8,0:0:0:0:
256,192,3980,1,0,0:0:0:0:
256,192,4105,1,8,0:0:0:0:
256,192,4355,1,0,0:0:0:0:
256,192,4480,1,8,0:0:0:0:
256,192,4605,1,8,0:0:0:0:
256,192,4980,1,0,0:0:0:0:
256,192,5105,1,8,0:0:0:0:
256,192,5355,1,8,0:0:0:0:
256,192,5480,1,0,0:0:0:0:
256,192,5605,1,8,0:0:0:0:
256,192,5980,1,0,0:0:0:0:
256,192,6105,1,12,0:0:0:0:
256,192,6355,1,0,0:0:0:0:
256,192,6480,1,0,0:0:0:0:
256,192,6605,1,8,0:0:0:0:
256,192,6855,1,8,0:0:0:0:
256,192,6980,1,0,0:0:0:0:
256,192,7105,1,8,0:0:0:0:
256,192,7355,1,0,0:0:0:0:
256,192,7480,1,0,0:0:0:0:
256,192,7605,1,8,0:0:0:0:
256,192,7855,1,8,0:0:0:0:
256,192,7980,1,8,0:0:0:0:
256,192,8105,1,0,0:0:0:0:
256,192,8355,1,0,0:0:0:0:
256,192,8480,1,0,0:0:0:0:
256,192,8605,1,8,0:0:0:0:
256,192,8855,1,0,0:0:0:0:
256,192,8980,1,8,0:0:0:0:
256,192,9105,1,8,0:0:0:0:
256,192,9355,1,8,0:0:0:0:
256,192,9480,1,0,0:0:0:0:
256,192,9605,1,8,0:0:0:0:
256,192,9855,1,8,0:0:0:0:
256,192,9980,1,0,0:0:0:0:
256,192,10105,1,0,0:0:0:0:
256,192,10355,1,0,0:0:0:0:
256,192,10480,1,0,0:0:0:0:
256,192,10605,1,8,0:0:0:0:
256,192,10855,1,8,0:0:0:0:
256,192,10980,1,0,0:0:0:0:
256,192,11105,1,8,0:0:0:0:
256,192,11355,1,0,0:0:0:0:
256,192,11480,1,8,0:0:0:0:
256,192,11605,1,8,0:0:0:0:
256,192,11855,1,0,0:0:0:0:
256,192,11980,1,8,0:0:0:0:
256,192,12105,1,0,0:0:0:0:
256,192,12355,1,8,0:0:0:0:
256,192,12480,1,8,0:0:0:0:
256,192,12605,1,0,0:0:0:0:
256,192,12730,1,8,0:0:0:0:
256,192,12855,1,0,0:0:0:0:
256,192,12980,1,0,0:0:0:0:
256,192,13105,1,8,0:0:0:0:
256,192,13230,1,8,0:0:0:0:
256,192,13355,1,0,0:0:0:0:
256,192,13605,1,8,0:1:0:0:
256,192,13855,1,8,0:1:0:0:
256,192,13980,1,0,0:1:0:0:
256,192,14105,1,12,0:1:0:0:
256,192,14355,1,4,0:1:0:0:
256,192,14480,1,8,0:1:0:0:
256,192,14605,1,0,0:1:0:0:
256,192,14667,1,0,0:1:0:0:
256,192,14730,1,8,0:1:0:0:
256,192,14855,1,0,0:1:0:0:
256,192,14980,1,8,0:1:0:0:
256,192,15105,1,8,0:1:0:0:
256,192,15167,1,0,0:1:0:0:
256,192,15230,1,8,0:1:0:0:
256,192,15292,1,8,0:1:0:0:
256,192,15355,1,0,0:1:0:0:
256,192,15480,1,8,0:1:0:0:
256,192,15605,1,0,0:1:0:0:
256,192,15667,1,0,0:1:0:0:
256,192,15730,1,8,0:1:0:0:
256,192,15792,1,0,0:1:0:0:
256,192,15855,1,8,0:1:0:0:
256,192,15980,1,0,0:1:0:0:
256,192,16105,1,8,0:1:0:0:
256,192,16167,1,0,0:1:0:0:
256,192,16230,1,8,0:1:0:0:
256,192,16355,1,0,0:1:0:0:
256,192,16480,1,8,0:1:0:0:
256,192,16605,1,0,0:1:0:0:
256,192,16667,1,0,0:1:0:0:
256,192,16730,1,8,0:1:0:0:
256,192,16855,1,0,0:1:0:0:
256,192,16980,1,8,0:1:0:0:
256,192,17042,1,8,0:1:0:0:
256,192,17105,1,0,0:1:0:0:
256,192,17230,1,8,0:1:0:0:
256,192,17355,1,0,0:1:0:0:
256,192,17480,1,8,0:1:0:0:
256,192,17542,1,0,0:1:0:0:
256,192,17605,1,8,0:1:0:0:
256,192,17667,1,0,0:1:0:0:
256,192,17730,1,8,0:1:0:0:
256,192,17855,1,0,0:1:0:0:
256,192,17980,1,0,0:1:0:0:
256,192,18042,1,0,0:1:0:0:
256,192,18105,1,8,0:1:0:0:
256,192,18355,1,4,0:1:0:0:
256,192,18480,1,8,0:1:0:0:
256,192,18605,1,0,0:1:0:0:
256,192,18667,1,0,0:1:0:0:
256,192,18730,1,8,0:1:0:0:
256,192,18792,1,8,0:1:0:0:
256,192,18855,1,0,0:1:0:0:
256,192,18980,1,8,0:1:0:0:
256,192,19105,1,0,0:1:0:0:
256,192,19167,1,0,0:1:0:0:
256,192,19230,1,8,0:1:0:0:
256,192,19292,1,0,0:1:0:0:
256,192,19355,1,8,0:1:0:0:
256,192,19480,1,0,0:1:0:0:
256,192,19605,1,8,0:1:0:0:
256,192,19667,1,8,0:1:0:0:
256,192,19730,1,0,0:1:0:0:
256,192,19792,1,0,0:1:0:0:
256,192,19855,1,8,0:1:0:0:
256,192,19980,1,0,0:1:0:0:
256,192,20105,1,8,0:1:0:0:
256,192,20167,1,8,0:1:0:0:
256,192,20230,1,0,0:1:0:0:
256,192,20355,1,8,0:1:0:0:
256,192,20480,1,0,0:1:0:0:
256,192,20542,1,0,0:1:0:0:
256,192,20605,1,8,0:1:0:0:
256,192,20730,1,0,0:1:0:0:
256,192,20855,1,8,0:1:0:0:
256,192,20917,1,0,0:1:0:0:
256,192,20980,1,8,0:1:0:0:
256,192,21105,1,0,0:1:0:0:
256,192,21167,1,0,0:1:0:0:
256,192,21230,1,8,0:1:0:0:
256,192,21292,1,0,0:1:0:0:
256,192,21355,1,8,0:1:0:0:
256,192,21480,1,0,0:1:0:0:
256,192,21542,1,0,0:1:0:0:
256,192,21605,1,0,0:1:0:0:
256,192,21730,1,0,0:1:0:0:
256,192,21855,1,8,0:1:0:0:
256,192,21980,1,0,0:1:0:0:
256,192,22105,1,8,0:1:0:0:
256,192,22355,1,4,0:1:0:0:
256,192,22480,1,8,0:1:0:0:
256,192,22605,1,0,0:1:0:0:
256,192,22667,1,0,0:1:0:0:
256,192,22730,1,8,0:1:0:0:
256,192,22855,1,0,0:1:0:0:
256,192,22980,1,8,0:1:0:0:
256,192,23105,1,8,0:1:0:0:
256,192,23167,1,8,0:1:0:0:
256,192,23230,1,0,0:1:0:0:
256,192,23355,1,0,0:1:0:0:
256,192,23480,1,8,0:1:0:0:
256,192,23542,1,0,0:1:0:0:
256,192,23605,1,0,0:1:0:0:
256,192,23730,1,8,0:1:0:0:
256,192,23792,1,8,0:1:0:0:
256,192,23855,1,0,0:1:0:0:
256,192,23917,1,0,0:1:0:0:
256,192,23980,1,8,0:1:0:0:
256,192,24042,1,0,0:1:0:0:
256,192,24105,1,8,0:1:0:0:
256,192,24230,1,8,0:1:0:0:
256,192,24355,1,0,0:1:0:0:
256,192,24480,1,8,0:1:0:0:
256,192,24605,1,0,0:1:0:0:
256,192,24667,1,0,0:1:0:0:
256,192,24730,1,8,0:1:0:0:
256,192,24855,1,0,0:1:0:0:
256,192,24980,1,8,0:1:0:0:
256,192,25105,1,8,0:1:0:0:
256,192,25167,1,0,0:1:0:0:
256,192,25230,1,0,0:1:0:0:
256,192,25355,1,0,0:1:0:0:
256,192,25480,1,8,0:1:0:0:
256,192,25542,1,8,0:1:0:0:
256,192,25605,1,0,0:1:0:0:
256,192,25730,1,8,0:1:0:0:
256,192,25792,1,0,0:1:0:0:
256,192,25855,1,8,0:1:0:0:
256,192,25917,1,8,0:1:0:0:
256,192,25980,1,0,0:1:0:0:
256,192,26042,1,0,0:1:0:0:
256,192,26105,1,8,0:1:0:0:
256,192,26230,1,8,0:1:0:0:
256,192,26355,1,4,0:0:0:0:
256,192,26480,1,8,0:1:0:0:
256,192,26605,1,0,0:1:0:0:
256,192,26667,1,0,0:1:0:0:
256,192,26730,1,8,0:1:0:0:
256,192,26855,1,0,0:1:0:0:
256,192,26980,1,8,0:1:0:0:
256,192,27105,1,8,0:1:0:0:
256,192,27167,1,8,0:1:0:0:
256,192,27230,1,0,0:1:0:0:
256,192,27355,1,0,0:1:0:0:
256,192,27480,1,8,0:1:0:0:
256,192,27542,1,0,0:1:0:0:
256,192,27605,1,8,0:1:0:0:
256,192,27730,1,0,0:1:0:0:
256,192,27792,1,8,0:1:0:0:
256,192,27855,1,0,0:1:0:0:
256,192,27917,1,0,0:1:0:0:
256,192,27980,1,8,0:1:0:0:
256,192,28042,1,8,0:1:0:0:
256,192,28105,1,0,0:1:0:0:
256,192,28230,1,8,0:1:0:0:
256,192,28355,1,0,0:1:0:0:
256,192,28480,1,8,0:1:0:0:
256,192,28605,1,0,0:1:0:0:
256,192,28667,1,0,0:1:0:0:
256,192,28730,1,8,0:1:0:0:
256,192,28855,1,0,0:1:0:0:
256,192,28980,1,8,0:1:0:0:
256,192,29105,1,8,0:1:0:0:
256,192,29167,1,0,0:1:0:0:
256,192,29230,1,0,0:1:0:0:
256,192,29355,1,0,0:1:0:0:
256,192,29417,1,0,0:1:0:0:
256,192,29480,1,8,0:1:0:0:
256,192,29542,1,8,0:1:0:0:
256,192,29605,1,0,0:1:0:0:
256,192,29667,1,0,0:1:0:0:
256,192,29730,1,8,0:1:0:0:
256,192,29792,1,8,0:1:0:0:
256,192,29855,1,0,0:1:0:0:
256,192,29980,1,8,0:1:0:0:
256,192,30042,1,8,0:1:0:0:
256,192,30105,1,8,0:1:0:0:
256,192,30167,1,8,0:1:0:0:
256,192,30230,1,0,0:1:0:0:
256,192,30355,1,4,0:1:0:0:
256,192,30480,1,8,0:1:0:0:
256,192,30605,1,8,0:1:0:0:
256,192,30667,1,8,0:1:0:0:
256,192,30730,1,0,0:1:0:0:
256,192,30855,1,0,0:1:0:0:
256,192,30980,1,8,0:1:0:0:
256,192,31105,1,0,0:1:0:0:
256,192,31167,1,0,0:1:0:0:
256,192,31230,1,8,0:1:0:0:
256,192,31355,1,0,0:1:0:0:
256,192,31480,1,8,0:1:0:0:
256,192,31605,1,0,0:1:0:0:
256,192,31667,1,8,0:1:0:0:
256,192,31730,1,8,0:1:0:0:
256,192,31855,1,0,0:1:0:0:
256,192,31917,1,8,0:1:0:0:
256,192,31980,1,0,0:1:0:0:
256,192,32042,1,0,0:1:0:0:
256,192,32105,1,8,0:1:0:0:
256,192,32230,1,8,0:1:0:0:
256,192,32292,1,8,0:1:0:0:
256,192,32355,1,0,0:1:0:0:
256,192,32480,1,8,0:1:0:0:
256,192,32605,1,0,0:1:0:0:
256,192,32667,1,0,0:1:0:0:
256,192,32730,1,8,0:1:0:0:
256,192,32855,1,0,0:1:0:0:
256,192,32980,1,8,0:1:0:0:
256,192,33105,1,8,0:1:0:0:
256,192,33167,1,0,0:1:0:0:
256,192,33230,1,0,0:1:0:0:
256,192,33355,1,0,0:1:0:0:
256,192,33480,1,8,0:1:0:0:
256,192,33605,1,0,0:1:0:0:
256,192,33667,1,0,0:1:0:0:
256,192,33730,1,8,0:1:0:0:
256,192,33855,1,8,0:1:0:0:
256,192,33917,1,8,0:1:0:0:
256,192,33980,1,0,0:1:0:0:
256,192,34042,1,0,0:1:0:0:
256,192,34105,1,8,0:1:0:0:
256,192,34230,1,8,0:1:0:0:
256,192,34355,1,0,0:1:0:0:
256,192,34480,1,8,0:1:0:0:
256,192,34605,1,0,0:1:0:0:
256,192,34667,1,0,0:1:0:0:
256,192,34730,1,8,0:1:0:0:
256,192,34855,1,0,0:1:0:0:
256,192,34980,1,8,0:1:0:0:
256,192,35105,1,8,0:1:0:0:
256,192,35167,1,8,0:1:0:0:
256,192,35230,1,0,0:1:0:0:
256,192,35355,1,0,0:1:0:0:
256,192,35480,1,8,0:1:0:0:
256,192,35605,1,0,0:1:0:0:
256,192,35667,1,8,0:1:0:0:
256,192,35730,1,8,0:1:0:0:
256,192,35855,1,0,0:1:0:0:
256,192,35917,1,0,0:1:0:0:
256,192,35980,1,8,0:1:0:0:
256,192,36042,1,0,0:1:0:0:
256,192,36105,1,8,0:1:0:0:
256,192,36230,1,8,0:1:0:0:
256,192,36292,1,8,0:1:0:0:
256,192,36355,1,0,0:1:0:0:
256,192,36480,1,8,0:1:0:0:
256,192,36605,1,0,0:1:0:0:
256,192,36667,1,0,0:1:0:0:
256,192,36730,1,8,0:1:0:0:
256,192,36855,1,0,0:1:0:0:
256,192,36980,1,0,0:1:0:0:
256,192,37105,1,8,0:1:0:0:
256,192,37230,1,8,0:1:0:0:
256,192,37480,1,8,0:1:0:0:
256,192,37542,1,8,0:1:0:0:
256,192,37605,1,8,0:1:0:0:
256,192,37730,1,0,0:0:0:0:
256,192,37855,1,8,0:0:0:0:
256,192,37917,1,0,0:0:0:0:
256,192,37980,1,8,0:0:0:0:
256,192,38042,1,8,0:0:0:0:
256,192,38105,1,0,0:0:0:0:
256,192,38167,1,0,0:0:0:0:
256,192,38230,1,8,0:0:0:0:
256,192,38355,1,4,0:0:0:0:
256,192,38480,1,8,0:0:0:0:
256,192,38605,1,0,0:0:0:0:
256,192,38730,1,0,0:0:0:0:
256,192,38855,1,8,0:0:0:0:
256,192,38980,1,0,0:0:0:0:
256,192,39105,1,8,0:0:0:0:
256,192,39230,1,8,0:0:0:0:
256,192,39355,1,0,0:0:0:0:
256,192,39480,1,0,0:0:0:0:
256,192,39605,1,8,0:0:0:0:
256,192,39730,1,0,0:0:0:0:
256,192,39855,1,8,0:0:0:0:
256,192,39917,1,8,0:0:0:0:
256,192,39980,1,0,0:0:0:0:
256,192,40042,1,0,0:0:0:0:
256,192,40105,1,8,0:0:0:0:
256,192,40230,1,8,0:0:0:0:
256,192,40292,1,8,0:0:0:0:
256,192,40355,1,0,0:0:0:0:
256,192,40480,1,8,0:0:0:0:
256,192,40605,1,0,0:0:0:0:
256,192,40730,1,0,0:0:0:0:
256,192,40855,1,8,0:0:0:0:
256,192,40980,1,0,0:0:0:0:
256,192,41105,1,8,0:0:0:0:
256,192,41230,1,8,0:0:0:0:
256,192,41355,1,0,0:0:0:0:
256,192,41480,1,0,0:0:0:0:
256,192,41542,1,0,0:0:0:0:
256,192,41605,1,8,0:0:0:0:
256,192,41730,1,0,0:0:0:0:
256,192,41855,1,8,0:0:0:0:
256,192,41917,1,8,0:0:0:0:
256,192,41980,1,0,0:0:0:0:
256,192,42042,1,0,0:0:0:0:
256,192,42105,1,8,0:0:0:0:
256,192,42167,1,0,0:0:0:0:
256,192,42230,1,8,0:0:0:0:
256,192,42292,1,8,0:0:0:0:
256,192,42355,1,0,0:0:0:0:
256,192,42480,1,8,0:0:0:0:
256,192,42605,1,0,0:0:0:0:
256,192,42730,1,0,0:0:0:0:
256,192,42855,1,8,0:0:0:0:
256,192,42980,1,0,0:0:0:0:
256,192,43105,1,8,0:0:0:0:
256,192,43230,1,8,0:0:0:0:
256,192,43355,1,0,0:0:0:0:
256,192,43480,1,0,0:0:0:0:
256,192,43605,1,8,0:0:0:0:
256,192,43730,1,0,0:0:0:0:
256,192,43855,1,8,0:0:0:0:
256,192,43917,1,8,0:0:0:0:
256,192,43980,1,0,0:0:0:0:
256,192,44042,1,0,0:0:0:0:
256,192,44105,1,8,0:0:0:0:
256,192,44230,1,8,0:0:0:0:
256,192,44292,1,8,0:0:0:0:
256,192,44355,1,0,0:0:0:0:
256,192,44480,1,8,0:0:0:0:
256,192,44605,1,0,0:0:0:0:
256,192,44730,1,0,0:0:0:0:
256,192,44855,1,8,0:0:0:0:
256,192,44980,1,0,0:0:0:0:
256,192,45042,1,0,0:0:0:0:
256,192,45105,1,8,0:0:0:0:
256,192,45230,1,4,0:0:0:0:
256,192,45480,1,4,0:0:0:0:
256,192,45730,1,4,0:0:0:0:
256,192,45980,1,12,0:0:0:0:
256,192,46105,1,4,0:0:0:0:
256,192,46355,1,4,0:0:0:0:
256,192,47980,5,0,0:0:0:0:
256,192,48105,1,12,0:0:0:0:
256,192,48355,1,0,0:0:0:0:
256,192,48417,1,0,0:0:0:0:
256,192,48480,1,0,0:0:0:0:
256,192,48542,1,0,0:0:0:0:
256,192,48605,1,8,0:0:0:0:
256,192,48667,1,8,0:0:0:0:
256,192,48730,1,0,0:0:0:0:
256,192,48792,1,0,0:0:0:0:
256,192,48855,1,8,0:0:0:0:
256,192,48980,1,0,0:0:0:0:
256,192,49042,1,0,0:0:0:0:
256,192,49105,1,8,0:0:0:0:
256,192,49230,1,8,0:0:0:0:
256,192,49355,1,0,0:0:0:0:
256,192,49417,1,8,0:0:0:0:
256,192,49480,1,8,0:0:0:0:
256,192,49605,1,0,0:0:0:0:
256,192,49667,1,0,0:0:0:0:
256,192,49730,1,8,0:0:0:0:
256,192,49792,1,0,0:0:0:0:
256,192,49855,1,8,0:0:0:0:
256,192,49980,1,0,0:0:0:0:
256,192,50105,1,8,0:0:0:0:
256,192,50230,1,8,0:0:0:0:
256,192,50355,1,0,0:0:0:0:
256,192,50480,1,8,0:0:0:0:
256,192,50542,1,8,0:0:0:0:
256,192,50605,1,0,0:0:0:0:
256,192,50730,1,8,0:0:0:0:
256,192,50855,1,0,0:0:0:0:
256,192,50917,1,0,0:0:0:0:
256,192,50980,1,8,0:0:0:0:
256,192,51021,1,8,0:0:0:0:
256,192,51063,1,8,0:0:0:0:
256,192,51105,1,0,0:0:0:0:
256,192,51230,1,8,0:0:0:0:
256,192,51292,1,8,0:0:0:0:
256,192,51355,1,0,0:0:0:0:
256,192,51417,1,8,0:0:0:0:
256,192,51480,1,0,0:0:0:0:
256,192,51542,1,0,0:0:0:0:
256,192,51605,1,8,0:0:0:0:
256,192,51730,1,8,0:0:0:0:
256,192,51761,1,8,0:0:0:0:
256,192,51855,1,0,0:0:0:0:
256,192,51917,1,0,0:0:0:0:
256,192,51980,1,0,0:0:0:0:
256,192,52042,1,0,0:0:0:0:
256,192,52105,1,8,0:0:0:0:
256,192,52230,1,0,0:0:0:0:
256,192,52355,1,0,0:0:0:0:
256,192,52417,1,0,0:0:0:0:
256,192,52480,1,8,0:0:0:0:
256,192,52605,1,0,0:0:0:0:
256,192,52730,1,8,0:0:0:0:
256,192,52792,1,8,0:0:0:0:
256,192,52855,1,0,0:0:0:0:
256,192,52980,1,8,0:0:0:0:
256,192,53105,1,0,0:0:0:0:
256,192,53167,1,0,0:0:0:0:
256,192,53230,1,8,0:0:0:0:
256,192,53355,1,0,0:0:0:0:
256,192,53480,1,8,0:0:0:0:
256,192,53542,1,0,0:0:0:0:
256,192,53605,1,8,0:0:0:0:
256,192,53730,1,0,0:0:0:0:
256,192,53855,1,8,0:0:0:0:
256,192,53886,1,8,0:0:0:0:
256,192,53980,1,0,0:0:0:0:
256,192,54105,1,8,0:0:0:0:
256,192,54355,1,0,0:0:0:0:
256,192,54417,1,0,0:0:0:0:
256,192,54480,1,0,0:0:0:0:
256,192,54542,1,0,0:0:0:0:
256,192,54605,1,8,0:0:0:0:
256,192,54730,1,8,0:0:0:0:
256,192,54855,1,0,0:0:0:0:
256,192,54917,1,0,0:0:0:0:
256,192,54980,1,0,0:0:0:0:
256,192,55105,1,8,0:0:0:0:
256,192,55230,1,8,0:0:0:0:
256,192,55292,1,8,0:0:0:0:
256,192,55355,1,0,0:0:0:0:
256,192,55417,1,0,0:0:0:0:
256,192,55480,1,8,0:0:0:0:
256,192,55542,1,0,0:0:0:0:
256,192,55605,1,8,0:0:0:0:
256,192,55730,1,0,0:0:0:0:
256,192,55792,1,0,0:0:0:0:
256,192,55855,1,8,0:0:0:0:
256,192,55917,1,8,0:0:0:0:
256,192,55980,1,0,0:0:0:0:
256,192,56042,1,0,0:0:0:0:
256,192,56105,1,8,0:0:0:0:
256,192,56230,1,8,0:0:0:0:
256,192,56292,1,8,0:0:0:0:
256,192,56355,1,0,0:0:0:0:
256,192,56480,1,0,0:0:0:0:
256,192,56605,1,8,0:0:0:0:
256,192,56730,1,0,0:0:0:0:
256,192,56761,1,0,0:0:0:0:
256,192,56855,1,8,0:0:0:0:
256,192,56886,1,8,0:0:0:0:
256,192,56980,1,8,0:0:0:0:
256,192,57011,1,8,0:0:0:0:
256,192,57105,1,0,0:0:0:0:
256,192,57230,1,8,0:0:0:0:
256,192,57292,1,8,0:0:0:0:
256,192,57355,1,0,0:0:0:0:
256,192,57480,1,0,0:0:0:0:
256,192,57542,1,0,0:0:0:0:
256,192,57605,1,8,0:0:0:0:
256,192,57667,1,0,0:0:0:0:
256,192,57730,1,8,0:0:0:0:
256,192,57771,1,8,0:0:0:0:
256,192,57813,1,8,0:0:0:0:
256,192,57855,1,0,0:0:0:0:
256,192,57980,1,0,0:0:0:0:
256,192,58105,1,8,0:0:0:0:
256,192,58167,1,8,0:0:0:0:
256,192,58230,1,8,0:0:0:0:
256,192,58292,1,8,0:0:0:0:
256,192,58355,1,0,0:0:0:0:
256,192,58480,1,0,0:0:0:0:
256,192,58605,1,8,0:0:0:0:
256,192,58730,1,0,0:0:0:0:
256,192,58761,1,0,0:0:0:0:
256,192,58855,1,8,0:0:0:0:
256,192,58886,1,8,0:0:0:0:
256,192,58980,1,8,0:0:0:0:
256,192,59011,1,8,0:0:0:0:
256,192,59105,1,0,0:0:0:0:
256,192,59230,1,8,0:0:0:0:
256,192,59292,1,8,0:0:0:0:
256,192,59355,1,0,0:0:0:0:
256,192,59417,1,0,0:0:0:0:
256,192,59480,1,0,0:0:0:0:
256,192,59542,1,0,0:0:0:0:
256,192,59605,1,8,0:0:0:0:
256,192,59730,1,0,0:0:0:0:
256,192,59792,1,0,0:0:0:0:
256,192,59855,1,8,0:0:0:0:
256,192,59917,1,0,0:0:0:0:
256,192,59980,1,8,0:0:0:0:
256,192,60042,1,8,0:0:0:0:
256,192,60105,1,0,0:0:0:0:
256,192,60230,1,8,0:0:0:0:
256,192,60355,1,0,0:0:0:0:
256,192,60480,1,0,0:0:0:0:
256,192,60542,1,0,0:0:0:0:
256,192,60605,1,8,0:0:0:0:
256,192,60646,1,8,0:0:0:0:
256,192,60688,1,8,0:0:0:0:
256,192,60730,1,8,0:0:0:0:
256,192,60855,1,0,0:0:0:0:
256,192,60980,1,0,0:0:0:0:
256,192,61105,1,8,0:0:0:0:
256,192,61230,1,0,0:0:0:0:
256,192,61292,1,0,0:0:0:0:
256,192,61355,1,8,0:0:0:0:
256,192,61480,1,8,0:0:0:0:
256,192,61542,1,8,0:0:0:0:
256,192,61605,1,0,0:0:0:0:
256,192,61730,1,0,0:0:0:0:
256,192,61855,1,8,0:0:0:0:
256,192,61980,1,0,0:0:0:0:
256,192,62105,1,8,0:0:0:0:
256,192,62230,1,8,0:0:0:0:
256,192,62355,1,0,0:0:0:0:
256,192,62480,1,8,0:1:0:0:
256,192,62605,1,0,0:1:0:0:
256,192,62667,1,0,0:1:0:0:
256,192,62730,1,8,0:1:0:0:
256,192,62855,1,0,0:1:0:0:
256,192,62980,1,8,0:1:0:0:
256,192,63105,1,8,0:1:0:0:
256,192,63167,1,8,0:1:0:0:
256,192,63230,1,0,0:1:0:0:
256,192,63355,1,0,0:1:0:0:
256,192,63417,1,0,0:0:0:0:
256,192,63480,1,0,0:0:0:0:
256,192,63542,1,0,0:0:0:0:
256,192,63605,1,8,0:0:0:0:
256,192,63730,1,8,0:1:0:0:
256,192,63792,1,8,0:1:0:0:
256,192,63855,1,0,0:1:0:0:
256,192,63917,1,0,0:1:0:0:
256,192,63980,1,8,0:1:0:0:
256,192,64042,1,0,0:1:0:0:
256,192,64105,1,8,0:1:0:0:
256,192,64230,1,8,0:1:0:0:
256,192,64355,1,0,0:1:0:0:
256,192,64480,1,8,0:1:0:0:
256,192,64605,1,0,0:1:0:0:
256,192,64667,1,0,0:1:0:0:
256,192,64730,1,8,0:1:0:0:
256,192,64855,1,0,0:1:0:0:
256,192,64980,1,8,0:1:0:0:
256,192,65105,1,8,0:1:0:0:
256,192,65167,1,0,0:1:0:0:
256,192,65230,1,0,0:1:0:0:
256,192,65355,1,0,0:1:0:0:
256,192,65480,1,8,0:1:0:0:
256,192,65542,1,8,0:1:0:0:
256,192,65605,1,0,0:1:0:0:
256,192,65730,1,8,0:1:0:0:
256,192,65792,1,0,0:1:0:0:
256,192,65855,1,8,0:1:0:0:
256,192,65917,1,0,0:0:0:0:
256,192,65980,1,8,0:0:0:0:
256,192,66042,1,8,0:0:0:0:
256,192,66105,1,0,0:0:0:0:
256,192,66230,1,8,0:1:0:0:
256,192,66292,1,8,0:0:0:0:
256,192,66355,1,0,0:1:0:0:
256,192,66480,1,8,0:1:0:0:
256,192,66605,1,0,0:1:0:0:
256,192,66667,1,0,0:1:0:0:
256,192,66730,1,8,0:1:0:0:
256,192,66855,1,0,0:1:0:0:
256,192,66980,1,8,0:1:0:0:
256,192,67105,1,8,0:1:0:0:
256,192,67167,1,8,0:1:0:0:
256,192,67230,1,0,0:1:0:0:
256,192,67355,1,0,0:1:0:0:
256,192,67417,1,0,0:0:0:0:
256,192,67480,1,0,0:0:0:0:
256,192,67542,1,0,0:1:0:0:
256,192,67605,1,8,0:1:0:0:
256,192,67730,1,0,0:1:0:0:
256,192,67792,1,8,0:1:0:0:
256,192,67855,1,0,0:1:0:0:
256,192,67917,1,0,0:1:0:0:
256,192,67980,1,8,0:1:0:0:
256,192,68042,1,8,0:1:0:0:
256,192,68105,1,0,0:1:0:0:
256,192,68230,1,8,0:1:0:0:
256,192,68355,1,0,0:1:0:0:
256,192,68480,1,8,0:1:0:0:
256,192,68605,1,0,0:1:0:0:
256,192,68667,1,0,0:1:0:0:
256,192,68730,1,8,0:1:0:0:
256,192,68855,1,0,0:1:0:0:
256,192,68980,1,8,0:1:0:0:
256,192,69105,1,8,0:1:0:0:
256,192,69167,1,0,0:1:0:0:
256,192,69230,1,0,0:1:0:0:
256,192,69355,1,0,0:1:0:0:
256,192,69480,1,8,0:1:0:0:
256,192,69542,1,8,0:1:0:0:
256,192,69605,1,8,0:1:0:0:
256,192,69730,1,0,0:1:0:0:
256,192,69855,1,0,0:1:0:0:
256,192,69917,1,0,0:1:0:0:
256,192,69980,1,8,0:1:0:0:
256,192,70042,1,8,0:1:0:0:
256,192,70105,1,0,0:1:0:0:
256,192,70167,1,0,0:1:0:0:
256,192,70230,1,8,0:1:0:0:
256,192,70292,1,8,0:1:0:0:
256,192,70355,1,4,0:1:0:0:
256,192,71980,5,0,0:1:0:0:
256,192,72105,1,12,0:1:0:0:
256,192,72355,1,0,0:0:0:0:
256,192,72480,1,8,0:0:0:0:
256,192,72605,1,0,0:0:0:0:
256,192,72730,1,8,0:0:0:0:
256,192,72855,1,0,0:0:0:0:
256,192,72980,1,0,0:0:0:0:
256,192,73105,1,8,0:0:0:0:
256,192,73230,1,8,0:0:0:0:
256,192,73355,1,0,0:0:0:0:
256,192,73480,1,0,0:0:0:0:
256,192,73605,1,8,0:0:0:0:
256,192,73730,1,0,0:0:0:0:
256,192,73855,1,0,0:0:0:0:
256,192,73917,1,0,0:0:0:0:
256,192,73980,1,0,0:0:0:0:
256,192,74042,1,0,0:0:0:0:
256,192,74105,1,8,0:0:0:0:
256,192,74230,1,8,0:0:0:0:
256,192,74292,1,8,0:0:0:0:
256,192,74355,1,0,0:0:0:0:
256,192,74480,1,0,0:0:0:0:
256,192,74605,1,0,0:0:0:0:
256,192,74730,1,8,0:0:0:0:
256,192,74855,1,0,0:0:0:0:
256,192,74980,1,0,0:0:0:0:
256,192,75105,1,8,0:0:0:0:
256,192,75230,1,8,0:0:0:0:
256,192,75355,1,0,0:0:0:0:
256,192,75480,1,8,0:0:0:0:
256,192,75542,1,8,0:0:0:0:
256,192,75605,1,0,0:0:0:0:
256,192,75730,1,8,0:0:0:0:
256,192,75855,1,0,0:0:0:0:
256,192,75917,1,0,0:0:0:0:
256,192,75980,1,8,0:0:0:0:
256,192,76105,1,8,0:0:0:0:
256,192,76167,1,0,0:0:0:0:
256,192,76230,1,8,0:0:0:0:
256,192,76292,1,8,0:0:0:0:
256,192,76355,1,0,0:0:0:0:
256,192,76480,1,8,0:0:0:0:
256,192,76605,1,0,0:0:0:0:
256,192,76730,1,0,0:0:0:0:
256,192,76855,1,8,0:0:0:0:
256,192,76980,1,8,0:0:0:0:
256,192,77105,1,0,0:0:0:0:
256,192,77230,1,8,0:0:0:0:
256,192,77355,1,0,0:0:0:0:
256,192,77480,1,0,0:0:0:0:
256,192,77605,1,8,0:0:0:0:
256,192,77730,1,8,0:0:0:0:
256,192,77855,1,0,0:0:0:0:
256,192,77917,1,0,0:0:0:0:
256,192,77980,1,8,0:0:0:0:
256,192,78042,1,8,0:0:0:0:
256,192,78105,1,0,0:0:0:0:
256,192,78230,1,8,0:0:0:0:
256,192,78355,1,4,0:1:0:0:
256,192,78480,1,8,0:1:0:0:
256,192,78605,1,0,0:1:0:0:
256,192,78667,1,0,0:1:0:0:
256,192,78730,1,8,0:1:0:0:
256,192,78855,1,0,0:1:0:0:
256,192,78980,1,8,0:1:0:0:
256,192,79105,1,8,0:1:0:0:
256,192,79167,1,8,0:1:0:0:
256,192,79230,1,0,0:1:0:0:
256,192,79355,1,0,0:1:0:0:
256,192,79480,1,8,0:1:0:0:
256,192,79542,1,0,0:1:0:0:
256,192,79605,1,8,0:1:0:0:
256,192,79667,1,8,0:1:0:0:
256,192,79730,1,0,0:1:0:0:
256,192,79855,1,0,0:1:0:0:
256,192,79917,1,0,0:1:0:0:
256,192,79980,1,0,0:1:0:0:
256,192,80042,1,0,0:1:0:0:
256,192,80105,1,8,0:1:0:0:
256,192,80230,1,8,0:1:0:0:
256,192,80292,1,8,0:1:0:0:
256,192,80355,1,0,0:1:0:0:
256,192,80480,1,8,0:1:0:0:
256,192,80605,1,0,0:1:0:0:
256,192,80667,1,0,0:1:0:0:
256,192,80730,1,8,0:1:0:0:
256,192,80855,1,0,0:1:0:0:
256,192,80980,1,8,0:1:0:0:
256,192,81105,1,8,0:1:0:0:
256,192,81167,1,0,0:1:0:0:
256,192,81230,1,0,0:1:0:0:
256,192,81355,1,8,0:1:0:0:
256,192,81480,1,0,0:1:0:0:
256,192,81605,1,8,0:1:0:0:
256,192,81667,1,0,0:1:0:0:
256,192,81730,1,8,0:1:0:0:
256,192,81855,1,0,0:1:0:0:
256,192,81917,1,0,0:1:0:0:
256,192,81980,1,0,0:1:0:0:
256,192,82042,1,0,0:1:0:0:
256,192,82105,1,8,0:1:0:0:
256,192,82230,1,8,0:1:0:0:
256,192,82292,1,8,0:1:0:0:
256,192,82355,1,0,0:1:0:0:
256,192,82480,1,8,0:0:0:0:
256,192,82605,1,0,0:0:0:0:
256,192,82667,1,0,0:0:0:0:
256,192,82730,1,8,0:0:0:0:
256,192,82855,1,0,0:0:0:0:
256,192,82980,1,8,0:0:0:0:
256,192,83105,1,8,0:0:0:0:
256,192,83167,1,8,0:0:0:0:
256,192,83230,1,0,0:0:0:0:
256,192,83355,1,8,0:0:0:0:
256,192,83480,1,0,0:0:0:0:
256,192,83605,1,8,0:0:0:0:
256,192,83667,1,0,0:0:0:0:
256,192,83730,1,0,0:0:0:0:
256,192,83855,1,0,0:0:0:0:
256,192,83917,1,0,0:0:0:0:
256,192,83980,1,0,0:0:0:0:
256,192,84042,1,0,0:0:0:0:
256,192,84105,1,8,0:0:0:0:
256,192,84230,1,8,0:0:0:0:
256,192,84292,1,8,0:0:0:0:
256,192,84355,1,0,0:0:0:0:
256,192,84480,1,8,0:0:0:0:
256,192,84605,1,0,0:0:0:0:
256,192,84667,1,0,0:0:0:0:
256,192,84730,1,8,0:0:0:0:
256,192,84855,1,0,0:0:0:0:
256,192,84980,1,8,0:0:0:0:
256,192,85105,1,8,0:0:0:0:
256,192,85167,1,0,0:0:0:0:
256,192,85230,1,0,0:0:0:0:
256,192,85355,1,8,0:0:0:0:
256,192,85480,1,0,0:0:0:0:
256,192,85605,1,0,0:0:0:0:
256,192,85667,1,8,0:0:0:0:
256,192,85730,1,8,0:0:0:0:
256,192,85855,1,0,0:0:0:0:
256,192,85917,1,0,0:0:0:0:
256,192,85980,1,0,0:0:0:0:
256,192,86042,1,0,0:0:0:0:
256,192,86105,1,8,0:0:0:0:
256,192,86230,1,8,0:0:0:0:
256,192,86292,1,8,0:0:0:0:
256,192,86355,1,0,0:0:0:0:
256,192,86480,1,8,0:1:0:0:
256,192,86605,1,0,0:1:0:0:
256,192,86667,1,0,0:1:0:0:
256,192,86730,1,8,0:1:0:0:
256,192,86855,1,0,0:1:0:0:
256,192,86980,1,8,0:1:0:0:
256,192,87105,1,8,0:1:0:0:
256,192,87167,1,8,0:1:0:0:
256,192,87230,1,0,0:1:0:0:
256,192,87355,1,0,0:1:0:0:
256,192,87480,1,8,0:1:0:0:
256,192,87542,1,8,0:1:0:0:
256,192,87605,1,0,0:1:0:0:
256,192,87667,1,8,0:1:0:0:
256,192,87730,1,0,0:1:0:0:
256,192,87855,1,0,0:1:0:0:
256,192,87917,1,0,0:1:0:0:
256,192,87980,1,0,0:1:0:0:
256,192,88042,1,0,0:1:0:0:
256,192,88105,1,8,0:1:0:0:
256,192,88230,1,8,0:1:0:0:
256,192,88292,1,8,0:1:0:0:
256,192,88355,1,0,0:1:0:0:
256,192,88480,1,8,0:1:0:0:
256,192,88605,1,0,0:1:0:0:
256,192,88667,1,0,0:1:0:0:
256,192,88730,1,8,0:1:0:0:
256,192,88855,1,0,0:1:0:0:
256,192,88980,1,8,0:1:0:0:
256,192,89105,1,8,0:1:0:0:
256,192,89167,1,0,0:1:0:0:
256,192,89230,1,0,0:1:0:0:
256,192,89355,1,8,0:1:0:0:
256,192,89480,1,0,0:1:0:0:
256,192,89605,1,8,0:1:0:0:
256,192,89667,1,8,0:1:0:0:
256,192,89730,1,8,0:1:0:0:
256,192,89855,1,0,0:1:0:0:
256,192,89917,1,0,0:1:0:0:
256,192,89980,1,0,0:1:0:0:
256,192,90042,1,0,0:1:0:0:
256,192,90105,1,8,0:1:0:0:
256,192,90230,1,8,0:1:0:0:
256,192,90292,1,8,0:1:0:0:
256,192,90355,1,0,0:1:0:0:
256,192,90480,1,8,0:0:0:0:
256,192,90605,1,0,0:0:0:0:
256,192,90667,1,0,0:0:0:0:
256,192,90730,1,8,0:0:0:0:
256,192,90855,1,0,0:0:0:0:
256,192,90980,1,8,0:0:0:0:
256,192,91105,1,8,0:0:0:0:
256,192,91167,1,8,0:0:0:0:
256,192,91230,1,0,0:0:0:0:
256,192,91355,1,8,0:0:0:0:
256,192,91480,1,0,0:0:0:0:
256,192,91605,1,8,0:0:0:0:
256,192,91667,1,0,0:0:0:0:
256,192,91730,1,8,0:0:0:0:
256,192,91855,1,0,0:0:0:0:
256,192,91917,1,0,0:0:0:0:
256,192,91980,1,0,0:0:0:0:
256,192,92042,1,0,0:0:0:0:
256,192,92105,1,8,0:0:0:0:
256,192,92230,1,8,0:0:0:0:
256,192,92292,1,8,0:0:0:0:
256,192,92355,1,0,0:0:0:0:
256,192,92480,1,8,0:0:0:0:
256,192,92605,1,0,0:0:0:0:
256,192,92667,1,0,0:0:0:0:
256,192,92730,1,8,0:0:0:0:
256,192,92855,1,0,0:0:0:0:
256,192,92980,1,8,0:0:0:0:
256,192,93105,1,4,0:0:0:0:
256,192,93230,1,4,0:0:0:0:
256,192,93480,1,4,0:0:0:0:
256,192,93730,1,4,0:0:0:0:
256,192,93980,1,12,0:0:0:0:
256,192,94105,1,4,0:0:0:0:
256,192,94355,1,0,0:0:0:0:
256,192,94480,1,0,0:0:0:0:
256,192,94542,1,0,0:0:0:0:
256,192,94605,1,8,0:0:0:0:
256,192,94667,1,0,0:0:0:0:
256,192,94730,1,8,0:0:0:0:
256,192,94792,1,8,0:0:0:0:
256,192,94855,1,0,0:0:0:0:
256,192,94917,1,0,0:0:0:0:
256,192,94980,1,0,0:0:0:0:
256,192,95042,1,0,0:0:0:0:
256,192,95105,1,8,0:0:0:0:
256,192,95230,1,8,0:0:0:0:
256,192,95355,1,0,0:0:0:0:
256,192,95417,1,0,0:0:0:0:
256,192,95480,1,0,0:0:0:0:
256,192,95542,1,0,0:0:0:0:
256,192,95605,1,8,0:0:0:0:
256,192,95730,1,8,0:0:0:0:
256,192,95792,1,8,0:0:0:0:
256,192,95855,1,0,0:0:0:0:
256,192,95980,1,0,0:0:0:0:
256,192,96042,1,0,0:0:0:0:
256,192,96105,1,8,0:0:0:0:
256,192,96230,1,8,0:0:0:0:
256,192,96355,1,0,0:0:0:0:
256,192,96417,1,0,0:0:0:0:
256,192,96480,1,8,0:0:0:0:
256,192,96542,1,8,0:0:0:0:
256,192,96605,1,0,0:0:0:0:
256,192,96730,1,8,0:0:0:0:
256,192,96792,1,8,0:0:0:0:
256,192,96855,1,0,0:0:0:0:
256,192,96917,1,8,0:0:0:0:
256,192,96980,1,0,0:0:0:0:
256,192,97105,1,8,0:0:0:0:
256,192,97167,1,0,0:0:0:0:
256,192,97230,1,8,0:0:0:0:
256,192,97292,1,8,0:0:0:0:
256,192,97355,1,0,0:0:0:0:
256,192,97417,1,0,0:0:0:0:
256,192,97480,1,0,0:0:0:0:
256,192,97542,1,0,0:0:0:0:
256,192,97605,1,8,0:0:0:0:
256,192,97646,1,0,0:0:0:0:
256,192,97688,1,0,0:0:0:0:
256,192,97730,1,8,0:0:0:0:
256,192,97792,1,8,0:0:0:0:
256,192,97855,1,0,0:0:0:0:
256,192,97917,1,8,0:0:0:0:
256,192,97980,1,0,0:0:0:0:
256,192,98105,1,8,0:0:0:0:
256,192,98146,1,8,0:0:0:0:
256,192,98188,1,8,0:0:0:0:
256,192,98230,1,0,0:0:0:0:
256,192,98292,1,0,0:0:0:0:
256,192,98355,1,8,0:0:0:0:
256,192,98417,1,0,0:0:0:0:
256,192,98480,1,0,0:0:0:0:
256,192,98605,1,8,0:0:0:0:
256,192,98730,1,8,0:0:0:0:
256,192,98855,1,0,0:0:0:0:
256,192,98886,1,0,0:0:0:0:
256,192,98980,1,0,0:0:0:0:
256,192,99105,1,8,0:0:0:0:
256,192,99230,1,0,0:0:0:0:
256,192,99355,1,0,0:0:0:0:
256,192,99417,1,0,0:0:0:0:
256,192,99480,1,0,0:0:0:0:
256,192,99542,1,0,0:0:0:0:
256,192,99605,1,8,0:0:0:0:
256,192,99730,1,0,0:0:0:0:
256,192,99855,1,8,0:0:0:0:
256,192,99980,1,0,0:0:0:0:
256,192,100105,1,8,0:0:0:0:
256,192,100230,1,8,0:0:0:0:
256,192,100355,1,0,0:0:0:0:
256,192,100480,1,0,0:0:0:0:
256,192,100542,1,0,0:0:0:0:
256,192,100605,1,8,0:0:0:0:
256,192,100730,1,0,0:0:0:0:
256,192,100855,1,8,0:0:0:0:
256,192,100917,1,0,0:0:0:0:
256,192,100980,1,8,0:0:0:0:
256,192,101105,1,0,0:0:0:0:
256,192,101230,1,0,0:0:0:0:
256,192,101355,1,8,0:0:0:0:
256,192,101417,1,8,0:0:0:0:
256,192,101480,1,0,0:0:0:0:
256,192,101542,1,0,0:0:0:0:
256,192,101605,1,8,0:0:0:0:
256,192,101667,1,0,0:0:0:0:
256,192,101730,1,8,0:0:0:0:
256,192,101792,1,8,0:0:0:0:
256,192,101855,1,0,0:0:0:0:
256,192,101917,1,0,0:0:0:0:
256,192,101980,1,8,0:0:0:0:
256,192,102042,1,8,0:0:0:0:
256,192,102105,1,0,0:0:0:0:
256,192,102355,1,0,0:0:0:0:
256,192,102480,1,0,0:0:0:0:
256,192,102605,1,8,0:0:0:0:
256,192,102730,1,0,0:0:0:0:
256,192,102855,1,8,0:0:0:0:
256,192,102980,1,8,0:0:0:0:
256,192,103105,1,0,0:0:0:0:
256,192,103230,1,8,0:0:0:0:
256,192,103292,1,8,0:0:0:0:
256,192,103355,1,0,0:0:0:0:
256,192,103480,1,0,0:0:0:0:
256,192,103605,1,8,0:0:0:0:
256,192,103730,1,8,0:0:0:0:
256,192,103855,1,0,0:0:0:0:
256,192,103917,1,0,0:0:0:0:
256,192,103980,1,0,0:0:0:0:
256,192,104042,1,0,0:0:0:0:
256,192,104105,1,8,0:0:0:0:
256,192,104230,1,0,0:0:0:0:
256,192,104355,1,0,0:0:0:0:
256,192,104480,1,8,0:0:0:0:
256,192,104605,1,8,0:0:0:0:
256,192,104730,1,0,0:0:0:0:
256,192,104792,1,0,0:0:0:0:
256,192,104855,1,8,0:0:0:0:
256,192,104980,1,0,0:0:0:0:
256,192,105105,1,8,0:0:0:0:
256,192,105230,1,8,0:0:0:0:
256,192,105355,1,0,0:0:0:0:
256,192,105480,1,0,0:0:0:0:
256,192,105542,1,0,0:0:0:0:
256,192,105605,1,8,0:0:0:0:
256,192,105730,1,8,0:0:0:0:
256,192,105792,1,8,0:0:0:0:
256,192,105855,1,0,0:0:0:0:
256,192,105980,1,8,0:0:0:0:
256,192,106042,1,8,0:0:0:0:
256,192,106105,1,8,0:0:0:0:
256,192,106230,1,8,0:0:0:0:
256,192,106355,1,0,0:0:0:0:
256,192,106480,1,0,0:0:0:0:
256,192,106605,1,8,0:0:0:0:
256,192,106730,1,0,0:0:0:0:
256,192,106855,1,0,0:0:0:0:
256,192,106980,1,8,0:0:0:0:
256,192,107105,1,8,0:0:0:0:
256,192,107230,1,0,0:0:0:0:
256,192,107355,1,8,0:0:0:0:
256,192,107480,1,0,0:0:0:0:
256,192,107542,1,0,0:0:0:0:
256,192,107605,1,8,0:0:0:0:
256,192,107730,1,8,0:0:0:0:
256,192,107855,1,0,0:0:0:0:
256,192,107917,1,0,0:0:0:0:
256,192,107980,1,0,0:0:0:0:
256,192,108042,1,0,0:0:0:0:
256,192,108105,1,8,0:0:0:0:
256,192,108230,1,8,0:0:0:0:
256,192,108355,1,0,0:0:0:0:
256,192,108480,1,0,0:0:0:0:
256,192,108542,1,0,0:0:0:0:
256,192,108605,1,8,0:0:0:0:
256,192,108730,1,8,0:0:0:0:
256,192,108792,1,8,0:0:0:0:
256,192,108855,1,0,0:0:0:0:
256,192,108980,1,8,0:0:0:0:
256,192,109105,1,8,0:0:0:0:
256,192,109230,1,8,0:0:0:0:
256,192,109355,1,0,0:0:0:0:
256,192,109480,1,0,0:0:0:0:
256,192,109605,1,8,0:0:0:0:
256,192,109730,1,0,0:0:0:0:
256,192,109855,1,8,0:0:0:0:
256,192,109980,1,0,0:0:0:0:
256,192,110105,1,8,0:0:0:0:
256,192,110356,1,4,0:0:0:0:
256,192,110855,1,8,0:0:0:0:
256,192,111356,1,4,0:0:0:0:
256,192,111855,1,8,0:0:0:0:
256,192,112356,1,4,0:0:0:0:
256,192,112855,1,8,0:0:0:0:
256,192,113356,1,4,0:0:0:0:
256,192,113855,1,8,0:0:0:0:
256,192,114356,1,4,0:0:0:0:
256,192,114855,1,8,0:0:0:0:
256,192,115356,1,4,0:0:0:0:
256,192,115855,1,8,0:0:0:0:
256,192,116356,1,4,0:0:0:0:
256,192,116855,1,8,0:0:0:0:
256,192,117356,1,4,0:0:0:0:
256,192,117855,1,8,0:0:0:0:
256,192,117980,1,0,0:0:0:0:
256,192,118105,1,8,0:0:0:0:
256,192,118356,1,4,0:0:0:0:
256,192,118605,1,8,0:0:0:0:
256,192,118730,1,0,0:0:0:0:
256,192,118855,1,12,0:0:0:0:
256,192,119105,1,8,0:0:0:0:
256,192,119230,1,8,0:0:0:0:
256,192,119356,1,4,0:0:0:0:
256,192,119605,1,0,0:0:0:0:
256,192,119730,1,0,0:0:0:0:
256,192,119855,1,12,0:0:0:0:
256,192,120105,1,8,0:0:0:0:
256,192,120230,1,8,0:0:0:0:
256,192,120356,1,4,0:0:0:0:
256,192,120605,1,8,0:0:0:0:
256,192,120730,1,0,0:0:0:0:
256,192,120855,1,12,0:0:0:0:
256,192,121105,1,0,0:0:0:0:
256,192,121230,1,8,0:0:0:0:
256,192,121356,1,4,0:0:0:0:
256,192,121605,1,0,0:0:0:0:
256,192,121730,1,0,0:0:0:0:
256,192,121855,1,12,0:0:0:0:
256,192,122355,1,4,0:0:0:0:
256,192,122605,1,12,0:0:0:0:
256,192,122855,1,4,0:0:0:0:
256,192,123105,1,12,0:0:0:0:
256,192,123355,1,4,0:0:0:0:
256,192,123605,1,12,0:0:0:0:
256,192,123855,1,4,0:0:0:0:
256,192,124105,1,12,0:0:0:0:
256,192,124355,1,0,0:0:0:0:
256,192,124480,1,0,0:0:0:0:
256,192,124605,1,8,0:0:0:0:
256,192,124730,1,0,0:0:0:0:
256,192,124855,1,8,0:0:0:0:
256,192,124980,1,8,0:0:0:0:
256,192,125105,1,0,0:0:0:0:
256,192,125230,1,8,0:0:0:0:
256,192,125355,1,0,0:0:0:0:
256,192,125417,1,0,0:0:0:0:
256,192,125480,1,0,0:0:0:0:
256,192,125542,1,0,0:0:0:0:
256,192,125605,1,8,0:0:0:0:
256,192,125667,1,8,0:0:0:0:
256,192,125730,1,0,0:0:0:0:
256,192,125792,1,0,0:0:0:0:
256,192,125855,1,8,0:0:0:0:
256,192,125917,1,8,0:0:0:0:
256,192,125980,1,8,0:0:0:0:
256,192,126042,1,8,0:0:0:0:
256,192,126105,1,0,0:0:0:0:
256,192,126167,1,0,0:0:0:0:
256,192,126230,1,8,0:0:0:0:
256,192,126292,1,8,0:0:0:0:
256,192,126355,1,0,0:0:0:0:
256,192,126480,1,8,0:0:0:0:
256,192,126542,1,8,0:0:0:0:
256,192,126605,1,0,0:0:0:0:
256,192,126730,1,8,0:0:0:0:
256,192,126855,1,0,0:0:0:0:
256,192,126917,1,0,0:0:0:0:
256,192,126980,1,8,0:0:0:0:
256,192,127042,1,8,0:0:0:0:
256,192,127105,1,0,0:0:0:0:
256,192,127167,1,8,0:0:0:0:
256,192,127230,1,8,0:0:0:0:
256,192,127292,1,8,0:0:0:0:
256,192,127355,1,0,0:0:0:0:
256,192,127480,1,0,0:0:0:0:
256,192,127542,1,0,0:0:0:0:
256,192,127605,1,8,0:0:0:0:
256,192,127730,1,8,0:0:0:0:
256,192,127855,1,0,0:0:0:0:
256,192,128105,1,12,0:0:0:0:
256,192,128355,1,8,0:0:0:0:
256,192,128417,1,8,0:0:0:0:
256,192,128480,1,8,0:0:0:0:
256,192,128542,1,8,0:0:0:0:
256,192,128605,1,0,0:0:0:0:
256,192,128730,1,8,0:0:0:0:
256,192,128792,1,0,0:0:0:0:
256,192,128855,1,0,0:0:0:0:
256,192,128980,1,0,0:0:0:0:
256,192,129042,1,0,0:0:0:0:
256,192,129105,1,8,0:0:0:0:
256,192,129167,1,8,0:0:0:0:
256,192,129230,1,0,0:0:0:0:
256,192,129355,1,8,0:0:0:0:
256,192,129417,1,0,0:0:0:0:
256,192,129480,1,8,0:0:0:0:
256,192,129542,1,0,0:0:0:0:
256,192,129605,1,8,0:0:0:0:
256,192,129730,1,0,0:0:0:0:
256,192,129855,1,8,0:0:0:0:
256,192,129980,1,8,0:0:0:0:
256,192,130042,1,8,0:0:0:0:
256,192,130105,1,0,0:0:0:0:
256,192,130230,1,0,0:0:0:0:
256,192,130292,1,0,0:0:0:0:
256,192,130355,1,8,0:0:0:0:
256,192,130417,1,8,0:0:0:0:
256,192,130480,1,8,0:0:0:0:
256,192,130542,1,8,0:0:0:0:
256,192,130605,1,0,0:0:0:0:
256,192,130730,1,8,0:0:0:0:
256,192,130792,1,8,0:0:0:0:
256,192,130855,1,0,0:0:0:0:
256,192,130917,1,0,0:0:0:0:
256,192,130980,1,8,0:0:0:0:
256,192,131042,1,0,0:0:0:0:
256,192,131105,1,8,0:0:0:0:
256,192,131167,1,8,0:0:0:0:
256,192,131230,1,0,0:0:0:0:
256,192,131271,1,8,0:0:0:0:
256,192,131313,1,8,0:0:0:0:
256,192,131355,1,0,0:0:0:0:
256,192,131480,1,0,0:0:0:0:
256,192,131605,1,8,0:0:0:0:
256,192,131730,1,8,0:0:0:0:
256,192,131792,1,8,0:0:0:0:
256,192,131855,1,0,0:0:0:0:
256,192,131980,1,0,0:0:0:0:
256,192,132042,1,0,0:0:0:0:
256,192,132105,1,8,0:0:0:0:
256,192,132167,1,8,0:0:0:0:
256,192,132230,1,0,0:0:0:0:
256,192,132292,1,8,0:0:0:0:
256,192,132355,1,0,0:0:0:0:
256,192,132417,1,0,0:0:0:0:
256,192,132480,1,0,0:0:0:0:
256,192,132605,1,8,0:0:0:0:
256,192,132730,1,8,0:0:0:0:
256,192,132792,1,8,0:0:0:0:
256,192,132855,1,0,0:0:0:0:
256,192,132917,1,8,0:0:0:0:
256,192,132980,1,8,0:0:0:0:
256,192,133042,1,8,0:0:0:0:
256,192,133105,1,0,0:0:0:0:
256,192,133167,1,0,0:0:0:0:
256,192,133230,1,8,0:0:0:0:
256,192,133292,1,8,0:0:0:0:
256,192,133355,1,0,0:0:0:0:
256,192,133480,1,8,0:0:0:0:
256,192,133521,1,8,0:0:0:0:
256,192,133563,1,8,0:0:0:0:
256,192,133605,1,0,0:0:0:0:
256,192,133730,1,0,0:0:0:0:
256,192,133792,1,0,0:0:0:0:
256,192,133855,1,8,0:0:0:0:
256,192,133917,1,8,0:0:0:0:
256,192,133980,1,0,0:0:0:0:
256,192,134105,1,8,0:0:0:0:
256,192,134167,1,8,0:0:0:0:
256,192,134230,1,0,0:0:0:0:
256,192,134292,1,0,0:0:0:0:
256,192,134355,1,8,0:0:0:0:
256,192,134417,1,0,0:0:0:0:
256,192,134480,1,0,0:0:0:0:
256,192,134521,1,0,0:0:0:0:
256,192,134563,1,0,0:0:0:0:
256,192,134605,1,8,0:0:0:0:
256,192,134730,1,8,0:0:0:0:
256,192,134855,1,0,0:0:0:0:
256,192,134980,1,0,0:0:0:0:
256,192,135042,1,0,0:0:0:0:
256,192,135105,1,8,0:0:0:0:
256,192,135230,1,0,0:0:0:0:
256,192,135355,1,8,0:0:0:0:
256,192,135417,1,8,0:0:0:0:
256,192,135480,1,0,0:0:0:0:
256,192,135542,1,0,0:0:0:0:
256,192,135605,1,8,0:0:0:0:
256,192,135636,1,8,0:0:0:0:
256,192,135730,1,0,0:0:0:0:
256,192,135761,1,0,0:0:0:0:
256,192,135855,1,8,0:0:0:0:
256,192,135896,1,0,0:0:0:0:
256,192,135938,1,0,0:0:0:0:
256,192,135980,1,8,0:0:0:0:
256,192,136105,1,8,0:0:0:0:
256,192,136230,1,0,0:0:0:0:
256,192,136355,1,8,0:0:0:0:
256,192,136417,1,8,0:0:0:0:
256,192,136480,1,8,0:0:0:0:
256,192,136605,1,0,0:0:0:0:
256,192,136730,1,8,0:0:0:0:
256,192,136792,1,8,0:0:0:0:
256,192,136855,1,0,0:0:0:0:
256,192,136917,1,0,0:0:0:0:
256,192,136980,1,8,0:0:0:0:
256,192,137105,1,0,0:0:0:0:
256,192,137230,1,0,0:0:0:0:
256,192,137355,1,8,0:0:0:0:
256,192,137480,1,0,0:0:0:0:
256,192,137605,1,8,0:0:0:0:
256,192,137730,1,0,0:0:0:0:
256,192,137792,1,8,0:0:0:0:
256,192,137855,1,0,0:0:0:0:
256,192,137917,1,8,0:0:0:0:
256,192,137980,1,0,0:0:0:0:
256,192,138105,1,8,0:0:0:0:
256,192,138136,1,0,0:0:0:0:
256,192,138230,1,8,0:0:0:0:
256,192,138355,1,0,0:0:0:0:
256,192,138417,1,0,0:0:0:0:
256,192,138480,1,0,0:0:0:0:
256,192,138542,1,0,0:0:0:0:
256,192,138605,1,8,0:0:0:0:
256,192,138730,1,0,0:0:0:0:
256,192,138855,1,8,0:0:0:0:
256,192,138980,1,0,0:0:0:0:
256,192,139042,1,0,0:0:0:0:
256,192,139105,1,8,0:0:0:0:
256,192,139167,1,0,0:0:0:0:
256,192,139230,1,8,0:0:0:0:
256,192,139292,1,8,0:0:0:0:
256,192,139355,1,0,0:0:0:0:
256,192,139480,1,8,0:0:0:0:
256,192,139521,1,0,0:0:0:0:
256,192,139563,1,0,0:0:0:0:
256,192,139605,1,8,0:0:0:0:
256,192,139730,1,0,0:0:0:0:
256,192,139855,1,8,0:0:0:0:
256,192,139980,1,0,0:0:0:0:
256,192,140105,1,12,0:0:0:0:
256,192,140355,1,0,0:0:0:0:
256,192,140480,1,0,0:0:0:0:
256,192,140605,1,8,0:0:0:0:
256,192,140667,1,8,0:0:0:0:
256,192,140730,1,8,0:0:0:0:
256,192,140792,1,8,0:0:0:0:
256,192,140855,1,0,0:0:0:0:
256,192,140917,1,0,0:0:0:0:
256,192,140980,1,8,0:0:0:0:
256,192,141042,1,8,0:0:0:0:
256,192,141105,1,0,0:0:0:0:
256,192,141167,1,8,0:0:0:0:
256,192,141230,1,0,0:0:0:0:
256,192,141355,1,8,0:0:0:0:
256,192,141480,1,0,0:0:0:0:
256,192,141605,1,8,0:0:0:0:
256,192,141667,1,8,0:0:0:0:
256,192,141730,1,0,0:0:0:0:
256,192,141792,1,0,0:0:0:0:
256,192,141855,1,8,0:0:0:0:
256,192,141917,1,8,0:0:0:0:
256,192,141980,1,8,0:0:0:0:
256,192,142042,1,8,0:0:0:0:
256,192,142105,1,0,0:0:0:0:
256,192,142146,1,0,0:0:0:0:
256,192,142188,1,0,0:0:0:0:
256,192,142230,1,0,0:0:0:0:
256,192,142292,1,0,0:0:0:0:
256,192,142355,1,8,0:0:0:0:
256,192,142480,1,0,0:0:0:0:
256,192,142605,1,8,0:0:0:0:
256,192,142730,1,8,0:0:0:0:
256,192,142792,1,8,0:0:0:0:
256,192,142855,1,0,0:0:0:0:
256,192,142917,1,0,0:0:0:0:
256,192,142980,1,8,0:0:0:0:
256,192,143105,1,0,0:0:0:0:
256,192,143167,1,0,0:0:0:0:
256,192,143230,1,8,0:0:0:0:
256,192,143355,1,0,0:0:0:0:
256,192,143417,1,8,0:0:0:0:
256,192,143480,1,0,0:0:0:0:
256,192,143542,1,0,0:0:0:0:
256,192,143605,1,8,0:0:0:0:
256,192,143730,1,0,0:0:0:0:
256,192,143855,1,8,0:0:0:0:
256,192,143917,1,8,0:0:0:0:
256,192,143980,1,0,0:0:0:0:
256,192,144105,1,8,0:0:0:0:
256,192,144230,1,0,0:0:0:0:
256,192,144292,1,0,0:0:0:0:
256,192,144355,1,8,0:0:0:0:
256,192,144605,1,0,0:0:0:0:
256,192,144730,1,0,0:0:0:0:
256,192,144855,1,8,0:0:0:0:
256,192,145105,1,0,0:0:0:0:
256,192,145167,1,0,0:0:0:0:
256,192,145230,1,8,0:0:0:0:
256,192,145292,1,0,0:0:0:0:
256,192,145355,1,8,0:0:0:0:
256,192,145480,1,0,0:0:0:0:
256,192,145542,1,0,0:0:0:0:
256,192,145605,1,8,0:0:0:0:
256,192,145730,1,8,0:0:0:0:
256,192,145855,1,0,0:0:0:0:
256,192,145980,1,0,0:0:0:0:
256,192,146105,1,8,0:0:0:0:
256,192,146146,1,8,0:0:0:0:
256,192,146188,1,8,0:0:0:0:
256,192,146230,1,8,0:0:0:0:
256,192,146355,1,0,0:0:0:0:
256,192,146605,1,0,0:0:0:0:
256,192,146730,1,0,0:0:0:0:
256,192,146855,1,0,0:0:0:0:
256,192,146980,1,8,0:0:0:0:
256,192,147105,1,0,0:0:0:0:
256,192,147167,1,0,0:0:0:0:
256,192,147230,1,8,0:0:0:0:
256,192,147355,1,8,0:0:0:0:
256,192,147480,1,0,0:0:0:0:
256,192,147542,1,8,0:0:0:0:
256,192,147605,1,8,0:0:0:0:
256,192,147730,1,0,0:0:0:0:
256,192,147855,1,0,0:0:0:0:
256,192,147980,1,8,0:0:0:0:
256,192,148105,1,0,0:0:0:0:
256,192,148146,1,0,0:0:0:0:
256,192,148188,1,0,0:0:0:0:
256,192,148230,1,0,0:0:0:0:
256,192,148355,1,8,0:0:0:0:
256,192,148605,1,0,0:0:0:0:
256,192,148730,1,8,0:0:0:0:
256,192,148855,1,0,0:0:0:0:
256,192,148980,1,8,0:0:0:0:
256,192,149042,1,8,0:0:0:0:
256,192,149105,1,0,0:0:0:0:
256,192,149167,1,8,0:0:0:0:
256,192,149230,1,0,0:0:0:0:
256,192,149292,1,0,0:0:0:0:
256,192,149355,1,8,0:0:0:0:
256,192,149480,1,0,0:0:0:0:
256,192,149542,1,0,0:0:0:0:
256,192,149605,1,8,0:0:0:0:
256,192,149730,1,8,0:0:0:0:
256,192,149855,1,0,0:0:0:0:
256,192,149980,1,0,0:0:0:0:
256,192,150105,1,8,0:0:0:0:
256,192,150146,1,8,0:0:0:0:
256,192,150188,1,8,0:0:0:0:
256,192,150230,1,8,0:0:0:0:
256,192,150355,1,0,0:0:0:0:
256,192,150480,1,8,0:0:0:0:
256,192,150542,1,8,0:0:0:0:
256,192,150605,1,0,0:0:0:0:
256,192,150730,1,8,0:0:0:0:
256,192,150792,1,8,0:0:0:0:
256,192,150855,1,0,0:0:0:0:
256,192,150917,1,0,0:0:0:0:
256,192,150980,1,8,0:0:0:0:
256,192,151042,1,0,0:0:0:0:
256,192,151105,1,8,0:0:0:0:
256,192,151167,1,8,0:0:0:0:
256,192,151230,1,4,0:0:0:0:
