osu file format v14

[General]
AudioFilename: audio.mp3
AudioLeadIn: 0
PreviewTime: 99644
Countdown: 0
SampleSet: Normal
StackLeniency: 0.7
Mode: 1
LetterboxInBreaks: 0
WidescreenStoryboard: 1

[Editor]
Bookmarks: 7956,15636,23316,30996,38676,46356,61716,77076,84756,92436,100116,115476,130836
DistanceSpacing: 1.6
BeatDivisor: 8
GridSize: 32
TimelineZoom: 3.199999

[Metadata]
Title:Newborn space
TitleUnicode:Newborn space
Artist:exnoiz
ArtistUnicode:exnoiz
Creator:WTHBRO
Version:void
Source:
Tags:instrumental electronic breakcore psytrance メトロミュー metro mew baby galaxy
BeatmapID:4326040
BeatmapSetID:2067863

[Difficulty]
HPDrainRate:5
CircleSize:4
OverallDifficulty:7.5
ApproachRate:9.8
SliderMultiplier:1.4
SliderTickRate:1

[Events]
//Background and Video events
0,0,"cliff.jpg",0,0
//Break Periods
//Storyboard Layer 0 (Background)
//Storyboard Layer 1 (Fail)
//Storyboard Layer 2 (Pass)
//Storyboard Layer 3 (Foreground)
//Storyboard Layer 4 (Overlay)
//Storyboard Sound Samples

[TimingPoints]
284,240,4,1,0,50,1,0
284,-166.666666666667,4,1,0,50,0,0
7961,-117.647058823529,4,1,0,85,0,0
15641,-100,4,1,0,90,0,0
15701,-105.263157894737,4,1,0,90,0,0
21401,-105.263157894737,4,1,0,90,0,0
21521,-103.896103896104,4,1,0,90,0,0
21641,-102.564102564103,4,1,0,90,0,0
21761,-101.26582278481,4,1,0,90,0,0
21821,-100.623867981485,4,1,0,90,0,0
21881,-100,4,1,0,90,0,0
21941,-99.3739441518434,4,1,0,90,0,0
22001,-98.7654320987654,4,1,0,90,0,0
22061,-98.1546917942678,4,1,0,90,0,0
22121,-97.5609756097561,4,1,0,90,0,0
22181,-96.9649956365752,4,1,0,90,0,0
22241,-96.3855421686747,4,1,0,90,0,0
22301,-95.8037938302357,4,1,0,90,0,0
22361,-95.2380952380952,4,1,0,90,0,0
22601,-111.111111111111,4,1,0,90,0,0
22841,-111.111111111111,4,1,0,90,0,0
22901,-109.58904109589,4,1,0,90,0,0
22961,-108.108108108108,4,1,0,90,0,0
23021,-106.666666666667,4,1,0,90,0,0
23081,-105.263157894737,4,1,0,90,0,0
23141,-103.896103896104,4,1,0,90,0,0
23201,-102.564102564103,4,1,0,90,0,0
23261,-101.26582278481,4,1,0,90,0,0
23324,-90.9090909090909,4,1,0,100,0,1
23381,-100,4,1,0,100,0,1
31001,-90.9090909090909,4,1,0,100,0,1
31121,-100,4,1,0,100,0,1
37721,-100,4,1,0,100,0,1
37751,-100.210441928049,4,1,0,100,0,1
37841,-100.836946657255,4,1,0,100,0,1
37871,-101.050929668553,4,1,0,100,0,1
37961,-101.698362656361,4,1,0,100,0,1
38021,-102.124183006536,4,1,0,100,0,1
38081,-102.564102564103,4,1,0,100,0,1
38141,-103.007828594973,4,1,0,100,0,1
38201,-103.444708803145,4,1,0,100,0,1
38261,-103.896103896104,4,1,0,100,0,1
38321,-104.351455702807,4,1,0,100,0,1
38381,-104.799832320268,4,1,0,100,0,1
38441,-105.263157894737,4,1,0,100,0,1
38684,-100,4,1,0,95,0,0
38741,-105.263157894737,4,1,0,95,0,0
42521,-100,4,1,0,95,0,0
42581,-105.263157894737,4,1,0,95,0,0
46361,-100,4,1,0,90,0,0
46421,-105.263157894737,4,1,0,90,0,0
57881,-105.263157894737,4,1,0,90,0,0
57941,-105.030984140321,4,1,0,90,0,0
58001,-104.799832320268,4,1,0,90,0,0
58061,-104.580631667015,4,1,0,90,0,0
58121,-104.351455702807,4,1,0,90,0,0
58241,-103.896103896104,4,1,0,90,0,0
58301,-103.66991499067,4,1,0,90,0,0
58361,-103.444708803145,4,1,0,90,0,0
58421,-103.231134510168,4,1,0,90,0,0
58481,-103.007828594973,4,1,0,90,0,0
58541,-102.785486689279,4,1,0,90,0,0
58601,-102.564102564103,4,1,0,90,0,0
58721,-102.124183006536,4,1,0,90,0,0
58841,-101.698362656361,4,1,0,90,0,0
58961,-101.26582278481,4,1,0,90,0,0
59081,-100.836946657255,4,1,0,90,0,0
59201,-100.421771440048,4,1,0,90,0,0
59261,-100.210441928049,4,1,0,90,0,0
59321,-100,4,1,0,90,0,0
59381,-99.7904400758407,4,1,0,90,0,0
59441,-99.5817566221868,4,1,0,90,0,0
59561,-99.1768322919766,4,1,0,90,0,0
59681,-98.7654320987654,4,1,0,90,0,0
59741,-98.5610092647349,4,1,0,90,0,0
59801,-98.3574309039048,4,1,0,90,0,0
59861,-98.1546917942678,4,1,0,90,0,0
59921,-97.9623824451411,4,1,0,90,0,0
59981,-97.7612669860201,4,1,0,90,0,0
60041,-97.5609756097561,4,1,0,90,0,0
60161,-97.1628449280995,4,1,0,90,0,0
60221,-96.9649956365752,4,1,0,90,0,0
60281,-96.7773153972709,4,1,0,90,0,0
60341,-96.5810314854163,4,1,0,90,0,0
60401,-96.3855421686747,4,1,0,90,0,0
60521,-95.9969280983008,4,1,0,90,0,0
60641,-95.6205775482884,4,1,0,90,0,0
60761,-95.2380952380952,4,1,0,90,0,0
60881,-105.263157894737,4,1,0,90,0,0
61001,-111.111111111111,4,1,0,90,0,0
61121,-109.086942293008,4,1,0,90,0,0
61181,-108.108108108108,4,1,0,90,0,0
61241,-107.146683810136,4,1,0,90,0,0
61361,-105.263157894737,4,1,0,90,0,0
61481,-103.444708803145,4,1,0,90,0,0
61541,-102.564102564103,4,1,0,90,0,0
61601,-101.698362656361,4,1,0,90,0,0
61661,-100.836946657255,4,1,0,90,0,0
61724,-95.2380952380952,4,1,0,100,0,1
61781,-100,4,1,0,100,0,1
62201,-95.2380952380952,4,1,0,100,0,1
62261,-100,4,1,0,100,0,1
62681,-95.2380952380952,4,1,0,100,0,1
62741,-100,4,1,0,100,0,1
63164,-95.2380952380952,4,1,0,100,0,1
63344,-100,4,1,0,100,0,1
63641,-95.2380952380952,4,1,0,100,0,1
63701,-100,4,1,0,100,0,1
64121,-95.2380952380952,4,1,0,100,0,1
64181,-100,4,1,0,100,0,1
64601,-95.2380952380952,4,1,0,100,0,1
64661,-100,4,1,0,100,0,1
65081,-95.2380952380952,4,1,0,100,0,1
65141,-100,4,1,0,100,0,1
65561,-95.2380952380952,4,1,0,100,0,1
65621,-100,4,1,0,100,0,1
66041,-95.2380952380952,4,1,0,100,0,1
66101,-100,4,1,0,100,0,1
67001,-95.2380952380952,4,1,0,100,0,1
67061,-100,4,1,0,100,0,1
67481,-95.2380952380952,4,1,0,100,0,1
67541,-100,4,1,0,100,0,1
67961,-95.2380952380952,4,1,0,100,0,1
68021,-100,4,1,0,100,0,1
68441,-95.2380952380952,4,1,0,100,0,1
68501,-100,4,1,0,100,0,1
68921,-95.2380952380952,4,1,0,100,0,1
68981,-100,4,1,0,100,0,1
69401,-95.2380952380952,4,1,0,100,0,1
69461,-100,4,1,0,100,0,1
69881,-95.2380952380952,4,1,0,100,0,1
70061,-100,4,1,0,100,0,1
70361,-95.2380952380952,4,1,0,100,0,1
70421,-100,4,1,0,100,0,1
70841,-95.2380952380952,4,1,0,100,0,1
71021,-100,4,1,0,100,0,1
71321,-95.2380952380952,4,1,0,100,0,1
71381,-100,4,1,0,100,0,1
71801,-95.2380952380952,4,1,0,100,0,1
71861,-100,4,1,0,100,0,1
72281,-95.2380952380952,4,1,0,100,0,1
72341,-100,4,1,0,100,0,1
72761,-95.2380952380952,4,1,0,100,0,1
72821,-100,4,1,0,100,0,1
73241,-95.2380952380952,4,1,0,100,0,1
73301,-100,4,1,0,100,0,1
73721,-95.2380952380952,4,1,0,100,0,1
73781,-100,4,1,0,100,0,1
74201,-95.2380952380952,4,1,0,100,0,1
74261,-100,4,1,0,100,0,1
74681,-95.2380952380952,4,1,0,100,0,1
74741,-100,4,1,0,100,0,1
75161,-95.2380952380952,4,1,0,100,0,1
75221,-100,4,1,0,100,0,1
75641,-95.2380952380952,4,1,0,100,0,1
75701,-100,4,1,0,100,0,1
76121,-95.2380952380952,4,1,0,100,0,1
76241,-100.836946657255,4,1,0,100,0,1
76301,-101.26582278481,4,1,0,100,0,1
76361,-101.698362656361,4,1,0,100,0,1
76481,-102.564102564103,4,1,0,100,0,1
76601,-98.0392156862745,4,1,0,100,0,1
76721,-104.351455702807,4,1,0,100,0,1
76841,-105.263157894737,4,1,0,100,0,1
77084,-100,4,1,0,95,0,0
77201,-105.263157894737,4,1,0,95,0,0
83801,-105.263157894737,4,1,0,95,0,0
83861,-104.482290251802,4,1,0,95,0,0
83921,-103.702167375298,4,1,0,95,0,0
83981,-102.944204241301,4,1,0,95,0,0
84041,-102.186797465767,4,1,0,95,0,0
84101,-101.450745662981,4,1,0,95,0,0
84161,-100.715077047034,4,1,0,95,0,0
84221,-100,4,1,0,95,0,0
84281,-99.2950054612253,4,1,0,95,0,0
84341,-98.5901607019619,4,1,0,95,0,0
84401,-97.9048364989231,4,1,0,95,0,0
84461,-97.2195216799533,4,1,0,95,0,0
84521,-96.5530559042194,4,1,0,95,0,0
84581,-95.8864704190239,4,1,0,95,0,0
84641,-95.2380952380952,4,1,0,95,0,0
84761,-95.2380952380952,4,1,0,75,0,0
84821,-125,4,1,0,75,0,0
92441,-117.647058823529,4,1,0,80,0,0
96281,-117.647058823529,4,1,0,80,0,0
96401,-116.781501810113,4,1,0,80,0,0
96521,-115.942028985507,4,1,0,80,0,0
96641,-115.114538966271,4,1,0,80,0,0
96761,-114.285714285714,4,1,0,80,0,0
97001,-112.676056338028,4,1,0,80,0,0
97121,-111.894371713103,4,1,0,80,0,0
97241,-111.111111111111,4,1,0,80,0,0
97361,-110.350915912602,4,1,0,80,0,0
97481,-109.58904109589,4,1,0,80,0,0
97601,-108.837614279495,4,1,0,80,0,0
97721,-108.108108108108,4,1,0,80,0,0
97841,-107.376785139053,4,1,0,80,0,0
97961,-106.666666666667,4,1,0,80,0,0
98081,-105.954651409197,4,1,0,80,0,0
98201,-105.263157894737,4,1,0,80,0,0
98321,-104.580631667015,4,1,0,80,0,0
98441,-103.896103896104,4,1,0,80,0,0
98561,-103.231134510168,4,1,0,80,0,0
98681,-102.564102564103,4,1,0,80,0,0
98741,-102.239034863511,4,1,0,80,0,0
98801,-101.916021198532,4,1,0,80,0,0
98861,-101.584721657863,4,1,0,80,0,0
98921,-101.26582278481,4,1,0,80,0,0
98981,-100.948919846558,4,1,0,80,0,0
99041,-100.623867981485,4,1,0,80,0,0
99101,-100.310963988364,4,1,0,80,0,0
99161,-100,4,1,0,80,0,0
99281,-102.186797465767,4,1,0,80,0,0
99401,-104.482290251802,4,1,0,80,0,0
99521,-106.871860639094,4,1,0,80,0,0
99641,-109.373291042327,4,1,0,80,0,0
99701,-110.668437361664,4,1,0,80,0,0
99761,-111.994624258036,4,1,0,80,0,0
99821,-113.365831538374,4,1,0,80,0,0
99881,-114.757860913473,4,1,0,80,0,0
100001,-117.647058823529,4,1,0,80,0,0
100124,-97.0873786407767,4,1,0,90,0,1
107321,-97.0873786407767,4,1,0,90,0,1
107441,-99.3344591238701,4,1,0,90,0,1
107561,-101.698362656361,4,1,0,90,0,1
107681,-104.166666666667,4,1,0,90,0,1
107801,-97.0873786407767,4,1,0,90,0,1
115001,-97.0873786407767,4,1,0,90,0,1
115121,-99.3344591238701,4,1,0,90,0,1
115241,-101.698362656361,4,1,0,90,0,1
115361,-104.166666666667,4,1,0,90,0,1
115481,-97.0873786407767,4,1,0,90,0,1
122681,-97.0873786407767,4,1,0,90,0,1
122801,-99.3344591238701,4,1,0,90,0,1
122921,-101.698362656361,4,1,0,90,0,1
123041,-104.166666666667,4,1,0,90,0,1
123161,-97.0873786407767,4,1,0,90,0,1
128921,-97.0873786407767,4,1,0,90,0,1
128981,-97.0026190707149,4,1,0,90,0,1
129041,-96.9086151758891,4,1,0,90,0,1
129101,-96.8241673121611,4,1,0,90,0,1
129161,-96.7305088024763,4,1,0,90,0,1
129221,-96.6463709287716,4,1,0,90,0,1
129281,-96.5623792970259,4,1,0,90,0,1
129341,-96.4692263168049,4,1,0,90,0,1
129401,-96.3855421686747,4,1,0,90,0,1
129461,-96.3020030816641,4,1,0,90,0,1
129521,-96.2093515489706,4,1,0,90,0,1
129581,-96.1261174661155,4,1,0,90,0,1
129641,-96.0338038989725,4,1,0,90,0,1
129701,-95.9508731529457,4,1,0,90,0,1
129761,-95.8680855143323,4,1,0,90,0,1
129821,-95.7762666411263,4,1,0,90,0,1
129881,-95.6937799043062,4,1,0,90,0,1
129941,-95.6114351276413,4,1,0,90,0,1
130001,-95.5201069825198,4,1,0,90,0,1
130061,-95.4380606986066,4,1,0,90,0,1
130121,-95.34706331045,4,1,0,90,0,1
130181,-95.2653138992093,4,1,0,90,0,1
130241,-95.1837045497811,4,1,0,90,0,1
130301,-95.0931913275009,4,1,0,90,0,1
130361,-95.0118764845606,4,1,0,90,0,1
130421,-94.9307005885704,4,1,0,90,0,1
130481,-94.8406676783004,4,1,0,90,0,1
130541,-94.7597839476926,4,1,0,90,0,1
130601,-94.6700747893591,4,1,0,90,0,1
130721,-94.5090256119459,4,1,0,90,0,1
130844,-94.3396226415094,4,1,0,90,0,0
130961,-95.8037938302357,4,1,0,90,0,0
131021,-96.0984047664809,4,1,0,90,0,0
131081,-96.3855421686747,4,1,0,90,0,0
131201,-96.9649956365752,4,1,0,90,0,0
131321,-97.5609756097561,4,1,0,90,0,0
131381,-97.8569331637146,4,1,0,90,0,0
131441,-98.1546917942678,4,1,0,90,0,0
131561,-98.7654320987654,4,1,0,90,0,0
131681,-99.3739441518434,4,1,0,90,0,0
131801,-100,4,1,0,90,0,0
131861,-100.310963988364,4,1,0,90,0,0
131921,-100.623867981485,4,1,0,90,0,0
131981,-100.948919846558,4,1,0,90,0,0
132041,-101.26582278481,4,1,0,90,0,0
132161,-101.916021198532,4,1,0,90,0,0
132221,-102.239034863511,4,1,0,90,0,0
132281,-102.564102564103,4,1,0,90,0,0
132341,-102.891243955139,4,1,0,90,0,0
132401,-103.231134510168,4,1,0,90,0,0
132461,-103.562551781276,4,1,0,90,0,0
132521,-103.896103896104,4,1,0,90,0,0
132641,-104.580631667015,4,1,0,90,0,0
132761,-105.263157894737,4,1,0,90,0,0

[HitObjects]
221,218,7964,5,0,0:0:0:0:
221,218,8084,1,0,0:0:0:0:
221,218,8204,1,8,0:0:0:0:
216,194,8324,1,8,0:0:0:0:
216,194,8384,1,0,0:0:0:0:
216,194,8444,1,8,0:0:0:0:
216,222,8564,1,0,0:0:0:0:
216,222,8684,1,8,0:0:0:0:
225,203,8804,1,8,0:0:0:0:
226,211,8924,1,0,0:0:0:0:
226,211,9044,1,0,0:0:0:0:
226,211,9164,1,8,0:0:0:0:
226,211,9284,1,0,0:0:0:0:
220,176,9404,1,0,0:0:0:0:
220,176,9464,1,8,0:0:0:0:
220,176,9524,1,0,0:0:0:0:
235,192,9584,1,0,0:0:0:0:
220,176,9644,1,8,0:0:0:0:
232,161,9764,1,8,0:0:0:0:
232,161,9824,1,8,0:0:0:0:
232,161,9884,1,0,0:0:0:0:
221,186,10004,1,0,0:0:0:0:
221,186,10124,1,8,0:0:0:0:
221,186,10244,1,8,0:0:0:0:
221,186,10304,1,8,0:0:0:0:
221,186,10364,1,8,0:0:0:0:
226,181,10484,1,0,0:0:0:0:
226,181,10604,1,8,0:0:0:0:
226,181,10724,1,8,0:0:0:0:
226,181,10844,1,0,0:0:0:0:
226,181,10964,1,0,0:0:0:0:
246,181,11084,1,8,0:0:0:0:
246,181,11204,1,0,0:0:0:0:
246,181,11264,1,8,0:0:0:0:
246,181,11324,1,0,0:0:0:0:
246,181,11384,1,8,0:0:0:0:
246,181,11444,1,0,0:0:0:0:
246,181,11564,1,8,0:0:0:0:
246,181,11684,1,0,0:0:0:0:
246,190,11744,1,8,0:0:0:0:
246,190,11804,1,0,0:0:0:0:
246,190,11924,1,0,0:0:0:0:
239,186,12044,1,8,0:0:0:0:
239,186,12164,1,8,0:0:0:0:
239,186,12284,1,0,0:0:0:0:
249,190,12404,1,0,0:0:0:0:
249,190,12464,1,0,0:0:0:0:
249,190,12524,1,8,0:0:0:0:
249,190,12644,1,8,0:0:0:0:
253,169,12764,1,0,0:0:0:0:
253,169,12884,1,0,0:0:0:0:
253,169,13004,1,8,0:0:0:0:
251,172,13124,1,8,0:0:0:0:
251,172,13244,1,0,0:0:0:0:
251,172,13304,1,8,0:0:0:0:
251,172,13364,1,0,0:0:0:0:
251,172,13424,1,0,0:0:0:0:
261,153,13484,1,8,0:0:0:0:
261,153,13604,1,0,0:0:0:0:
261,153,13664,1,8,0:0:0:0:
261,153,13724,1,0,0:0:0:0:
261,153,13844,1,0,0:0:0:0:
260,162,13904,1,0,0:0:0:0:
261,153,13964,1,8,0:0:0:0:
260,162,14084,1,8,0:0:0:0:
260,162,14204,1,0,0:0:0:0:
263,148,14324,1,0,0:0:0:0:
263,148,14384,1,0,0:0:0:0:
263,148,14444,1,8,0:0:0:0:
263,148,14564,1,8,0:0:0:0:
263,148,14684,1,0,0:0:0:0:
263,148,14804,1,0,0:0:0:0:
263,148,14924,1,8,0:0:0:0:
241,146,15044,1,0,0:0:0:0:
253,154,15164,1,8,0:0:0:0:
263,148,15284,1,8,0:0:0:0:
263,148,15344,1,8,0:0:0:0:
263,148,15404,1,8,0:0:0:0:
276,153,15524,1,8,0:0:0:0:
275,153,15644,5,4,0:0:0:0:
249,153,15764,1,0,0:0:0:0:
249,153,15884,1,8,0:0:0:0:
251,150,16004,1,8,0:0:0:0:
251,150,16064,1,8,0:0:0:0:
253,154,16124,1,0,0:0:0:0:
253,154,16184,1,8,0:0:0:0:
251,150,16244,1,0,0:0:0:0:
251,150,16304,1,0,0:0:0:0:
254,165,16364,1,8,0:0:0:0:
254,165,16484,1,8,0:0:0:0:
254,165,16544,1,8,0:0:0:0:
254,165,16604,1,0,0:0:0:0:
249,153,16724,1,0,0:0:0:0:
249,153,16844,1,8,0:0:0:0:
248,166,16964,1,8,0:0:0:0:
248,166,17024,1,0,0:0:0:0:
248,166,17084,1,8,0:0:0:0:
248,165,17144,1,8,0:0:0:0:
253,136,17204,1,0,0:0:0:0:
248,165,17264,1,0,0:0:0:0:
253,136,17324,1,8,0:0:0:0:
253,136,17444,1,0,0:0:0:0:
253,136,17504,1,0,0:0:0:0:
253,136,17564,1,8,0:0:0:0:
242,142,17684,1,0,0:0:0:0:
242,142,17804,1,8,0:0:0:0:
242,142,17864,1,0,0:0:0:0:
242,142,17924,1,8,0:0:0:0:
242,142,17984,1,8,0:0:0:0:
242,142,18044,1,0,0:0:0:0:
247,106,18104,1,8,0:0:0:0:
247,106,18164,1,0,0:0:0:0:
249,117,18224,1,0,0:0:0:0:
247,106,18284,1,8,0:0:0:0:
248,117,18404,1,0,0:0:0:0:
248,117,18464,1,8,0:0:0:0:
248,117,18524,1,0,0:0:0:0:
241,122,18644,1,0,0:0:0:0:
241,122,18764,1,8,0:0:0:0:
247,106,18884,1,0,0:0:0:0:
247,106,18944,1,0,0:0:0:0:
254,124,19004,1,8,0:0:0:0:
254,124,19064,1,8,0:0:0:0:
244,113,19124,1,0,0:0:0:0:
248,113,19184,1,0,0:0:0:0:
244,113,19244,1,8,0:0:0:0:
240,117,19364,1,8,0:0:0:0:
240,117,19424,1,0,0:0:0:0:
240,117,19484,1,8,0:0:0:0:
241,122,19604,1,0,0:0:0:0:
242,105,19724,1,8,0:0:0:0:
242,100,19844,1,0,0:0:0:0:
242,100,19904,1,8,0:0:0:0:
242,100,19964,1,0,0:0:0:0:
240,97,20024,1,8,0:0:0:0:
240,97,20084,1,0,0:0:0:0:
240,97,20144,1,0,0:0:0:0:
240,97,20204,1,8,0:0:0:0:
236,91,20324,1,8,0:0:0:0:
242,86,20384,1,8,0:0:0:0:
236,91,20444,1,0,0:0:0:0:
242,86,20564,1,0,0:0:0:0:
242,86,20684,1,8,0:0:0:0:
242,89,20804,1,8,0:0:0:0:
242,89,20864,1,8,0:0:0:0:
242,89,20924,1,8,0:0:0:0:
242,89,20984,1,8,0:0:0:0:
242,89,21044,1,0,0:0:0:0:
235,91,21104,1,0,0:0:0:0:
235,91,21164,1,8,0:0:0:0:
235,76,21284,1,8,0:0:0:0:
236,91,21344,1,8,0:0:0:0:
234,88,21404,1,0,0:0:0:0:
234,88,21524,1,0,0:0:0:0:
234,88,21644,1,8,0:0:0:0:
228,83,21764,1,0,0:0:0:0:
231,84,21824,1,8,0:0:0:0:
234,88,21884,1,0,0:0:0:0:
227,90,21944,1,8,0:0:0:0:
227,90,22004,1,0,0:0:0:0:
230,94,22064,1,0,0:0:0:0:
235,91,22124,1,8,0:0:0:0:
236,102,22184,1,0,0:0:0:0:
236,102,22244,1,8,0:0:0:0:
236,102,22304,1,8,0:0:0:0:
236,102,22364,1,0,0:0:0:0:
236,103,22604,1,0,0:0:0:0:
236,103,22844,1,0,0:0:0:0:
236,103,22904,1,0,0:0:0:0:
236,103,22964,1,0,0:0:0:0:
236,103,23024,1,0,0:0:0:0:
236,103,23084,1,8,0:0:0:0:
236,103,23144,1,8,0:0:0:0:
236,102,23204,1,8,0:0:0:0:
244,83,23264,1,8,0:0:0:0:
231,105,23324,5,4,0:0:0:0:
219,129,23444,1,0,0:0:0:0:
219,129,23564,1,8,0:0:0:0:
223,107,23624,1,8,0:0:0:0:
223,107,23684,1,0,0:0:0:0:
223,107,23804,1,0,0:0:0:0:
223,107,23924,1,8,0:0:0:0:
223,107,24044,1,8,0:0:0:0:
236,103,24104,1,8,0:0:0:0:
236,103,24164,1,8,0:0:0:0:
236,102,24224,1,8,0:0:0:0:
226,128,24284,1,0,0:0:0:0:
226,131,24404,1,0,0:0:0:0:
226,131,24464,1,0,0:0:0:0:
206,116,24524,1,8,0:0:0:0:
226,131,24644,1,8,0:0:0:0:
238,116,24704,1,8,0:0:0:0:
231,91,24764,1,0,0:0:0:0:
231,91,24884,1,8,0:0:0:0:
231,91,24944,1,0,0:0:0:0:
231,91,25004,1,8,0:0:0:0:
231,91,25064,1,8,0:0:0:0:
231,91,25124,1,0,0:0:0:0:
241,100,25244,1,4,0:0:0:0:
240,129,25364,1,8,0:0:0:0:
240,129,25484,1,4,0:0:0:0:
233,116,25604,1,0,0:0:0:0:
183,76,25664,1,0,0:0:0:0:
233,116,25724,1,8,0:0:0:0:
235,138,25844,1,8,0:0:0:0:
235,138,25964,1,0,0:0:0:0:
235,138,26024,1,8,0:0:0:0:
235,138,26084,1,8,0:0:0:0:
240,114,26204,1,0,0:0:0:0:
240,114,26324,1,0,0:0:0:0:
233,96,26384,1,0,0:0:0:0:
240,114,26444,1,8,0:0:0:0:
245,136,26564,1,0,0:0:0:0:
245,123,26684,1,8,0:0:0:0:
245,123,26744,1,0,0:0:0:0:
246,108,26864,1,0,0:0:0:0:
246,108,26924,1,8,0:0:0:0:
246,108,27044,1,8,0:0:0:0:
249,144,27164,1,8,0:0:0:0:
249,144,27284,1,0,0:0:0:0:
242,128,27344,1,8,0:0:0:0:
242,128,27404,1,0,0:0:0:0:
241,120,27524,1,8,0:0:0:0:
241,120,27584,1,8,0:0:0:0:
245,123,27644,1,0,0:0:0:0:
245,123,27764,1,0,0:0:0:0:
241,122,27884,1,8,0:0:0:0:
241,122,27944,1,0,0:0:0:0:
241,122,28004,1,8,0:0:0:0:
241,122,28064,1,8,0:0:0:0:
241,122,28124,1,0,0:0:0:0:
232,121,28244,1,0,0:0:0:0:
246,124,28304,1,0,0:0:0:0:
247,107,28364,1,8,0:0:0:0:
245,97,28484,1,8,0:0:0:0:
245,97,28604,1,0,0:0:0:0:
245,97,28664,1,8,0:0:0:0:
245,97,28724,1,0,0:0:0:0:
245,97,28784,1,0,0:0:0:0:
246,91,28844,1,8,0:0:0:0:
246,91,28964,1,8,0:0:0:0:
245,93,29084,1,0,0:0:0:0:
245,62,29204,1,0,0:0:0:0:
245,62,29244,1,8,0:0:0:0:
228,83,29284,1,8,0:0:0:0:
241,75,29324,1,0,0:0:0:0:
241,75,29444,1,0,0:0:0:0:
241,75,29564,1,8,0:0:0:0:
252,110,29594,1,8,0:0:0:0:
241,75,29684,1,8,0:0:0:0:
241,75,29714,1,8,0:0:0:0:
242,54,29804,1,0,0:0:0:0:
242,54,29924,1,0,0:0:0:0:
242,54,30044,1,0,0:0:0:0:
233,94,30074,1,0,0:0:0:0:
242,54,30164,1,8,0:0:0:0:
230,89,30194,1,8,0:0:0:0:
242,54,30284,1,0,0:0:0:0:
242,54,30344,1,0,0:0:0:0:
242,54,30404,1,0,0:0:0:0:
242,54,30464,1,0,0:0:0:0:
242,54,30524,1,8,0:0:0:0:
247,90,30554,1,8,0:0:0:0:
242,54,30644,1,8,0:0:0:0:
247,90,30674,1,8,0:0:0:0:
241,54,30764,1,0,0:0:0:0:
242,54,30884,1,8,0:0:0:0:
240,68,31004,1,4,0:0:0:0:
230,126,31124,1,0,0:0:0:0:
230,126,31184,1,0,0:0:0:0:
230,126,31244,1,8,0:0:0:0:
225,105,31364,1,0,0:0:0:0:
225,105,31484,1,8,0:0:0:0:
225,105,31544,1,0,0:0:0:0:
225,105,31604,1,8,0:0:0:0:
225,105,31724,1,8,0:0:0:0:
225,105,31784,1,8,0:0:0:0:
225,105,31844,1,8,0:0:0:0:
225,105,31904,1,8,0:0:0:0:
225,105,31964,1,0,0:0:0:0:
222,105,32084,1,0,0:0:0:0:
225,105,32144,1,0,0:0:0:0:
229,117,32204,1,8,0:0:0:0:
229,117,32324,1,8,0:0:0:0:
230,108,32444,1,0,0:0:0:0:
230,108,32564,1,8,0:0:0:0:
230,108,32624,1,0,0:0:0:0:
230,108,32684,1,8,0:0:0:0:
230,108,32744,1,8,0:0:0:0:
232,107,32804,1,0,0:0:0:0:
237,96,32924,1,4,0:0:0:0:
237,96,33044,1,4,0:0:0:0:
237,96,33164,1,4,0:0:0:0:
237,92,33284,1,0,0:0:0:0:
238,92,33344,1,0,0:0:0:0:
238,92,33404,1,8,0:0:0:0:
239,96,33524,1,8,0:0:0:0:
239,96,33644,1,8,0:0:0:0:
239,96,33704,1,0,0:0:0:0:
243,112,33764,1,8,0:0:0:0:
232,91,33884,1,0,0:0:0:0:
241,88,34004,1,0,0:0:0:0:
241,88,34064,1,0,0:0:0:0:
241,88,34124,1,8,0:0:0:0:
237,92,34244,1,8,0:0:0:0:
237,92,34304,1,8,0:0:0:0:
236,104,34364,1,0,0:0:0:0:
236,104,34424,1,8,0:0:0:0:
236,104,34484,1,0,0:0:0:0:
244,94,34544,1,0,0:0:0:0:
235,89,34604,1,8,0:0:0:0:
232,108,34724,1,8,0:0:0:0:
230,99,34844,1,0,0:0:0:0:
230,99,34964,1,0,0:0:0:0:
230,99,35024,1,8,0:0:0:0:
230,99,35084,1,0,0:0:0:0:
230,90,35204,1,8,0:0:0:0:
230,90,35264,1,8,0:0:0:0:
230,90,35324,1,0,0:0:0:0:
231,92,35444,1,0,0:0:0:0:
231,92,35564,1,8,0:0:0:0:
229,100,35624,1,0,0:0:0:0:
218,96,35684,1,8,0:0:0:0:
218,96,35744,1,8,0:0:0:0:
231,92,35804,1,0,0:0:0:0:
231,92,35924,1,0,0:0:0:0:
231,92,36044,1,8,0:0:0:0:
223,102,36164,1,0,0:0:0:0:
219,72,36224,1,0,0:0:0:0:
219,72,36284,1,8,0:0:0:0:
219,72,36344,1,8,0:0:0:0:
214,80,36404,1,0,0:0:0:0:
219,72,36464,1,0,0:0:0:0:
214,80,36524,1,8,0:0:0:0:
213,69,36644,1,8,0:0:0:0:
213,69,36764,1,0,0:0:0:0:
222,126,36884,1,0,0:0:0:0:
227,73,36924,1,8,0:0:0:0:
227,73,36964,1,8,0:0:0:0:
227,73,37004,1,0,0:0:0:0:
227,73,37124,1,0,0:0:0:0:
227,127,37244,1,8,0:0:0:0:
239,137,37274,1,8,0:0:0:0:
227,127,37364,1,8,0:0:0:0:
227,127,37394,1,8,0:0:0:0:
227,127,37484,1,0,0:0:0:0:
227,127,37604,1,8,0:0:0:0:
227,127,37724,1,0,0:0:0:0:
227,127,37754,1,0,0:0:0:0:
227,127,37844,1,8,0:0:0:0:
230,118,37874,1,8,0:0:0:0:
226,135,37964,1,0,0:0:0:0:
226,135,38024,1,0,0:0:0:0:
214,105,38084,1,8,0:0:0:0:
226,135,38144,1,0,0:0:0:0:
240,153,38204,1,8,0:0:0:0:
227,116,38264,1,8,0:0:0:0:
227,116,38324,1,0,0:0:0:0:
231,106,38384,1,0,0:0:0:0:
227,116,38444,1,8,0:0:0:0:
230,153,38684,5,4,0:0:0:0:
240,124,38804,1,0,0:0:0:0:
252,168,38924,1,8,0:0:0:0:
252,168,39044,1,0,0:0:0:0:
252,168,39104,1,0,0:0:0:0:
251,167,39164,1,0,0:0:0:0:
249,143,39284,1,8,0:0:0:0:
243,153,39404,1,0,0:0:0:0:
243,153,39464,1,8,0:0:0:0:
243,153,39524,1,0,0:0:0:0:
248,140,39584,1,0,0:0:0:0:
248,140,39644,1,0,0:0:0:0:
240,145,39764,1,8,0:0:0:0:
240,145,39824,1,0,0:0:0:0:
240,145,39884,1,8,0:0:0:0:
240,154,39924,1,8,0:0:0:0:
240,153,39964,1,8,0:0:0:0:
240,153,40004,1,0,0:0:0:0:
252,145,40124,1,8,0:0:0:0:
240,123,40244,1,0,0:0:0:0:
240,123,40304,1,0,0:0:0:0:
240,123,40364,1,0,0:0:0:0:
240,123,40484,1,8,0:0:0:0:
240,123,40604,1,0,0:0:0:0:
240,123,40724,1,0,0:0:0:0:
240,123,40784,1,0,0:0:0:0:
240,123,40844,1,0,0:0:0:0:
240,123,40964,1,0,0:0:0:0:
240,123,41084,1,0,0:0:0:0:
227,118,41144,1,8,0:0:0:0:
227,118,41204,1,0,0:0:0:0:
227,118,41264,1,8,0:0:0:0:
235,115,41324,1,0,0:0:0:0:
248,141,41444,1,8,0:0:0:0:
230,113,41564,1,0,0:0:0:0:
230,113,41684,1,0,0:0:0:0:
230,113,41744,1,0,0:0:0:0:
223,97,41804,1,8,0:0:0:0:
223,97,41864,1,8,0:0:0:0:
222,97,41924,1,0,0:0:0:0:
219,97,41984,1,0,0:0:0:0:
232,76,42044,1,8,0:0:0:0:
224,101,42164,1,0,0:0:0:0:
224,101,42224,1,0,0:0:0:0:
224,101,42284,1,0,0:0:0:0:
224,101,42404,1,8,0:0:0:0:
224,101,42524,1,4,0:0:0:0:
222,129,42644,1,0,0:0:0:0:
222,129,42764,1,8,0:0:0:0:
230,101,42884,1,0,0:0:0:0:
230,101,42944,1,0,0:0:0:0:
230,101,43004,1,0,0:0:0:0:
230,101,43124,1,8,0:0:0:0:
230,101,43244,1,0,0:0:0:0:
230,101,43304,1,8,0:0:0:0:
230,101,43364,1,0,0:0:0:0:
230,101,43424,1,8,0:0:0:0:
229,116,43484,1,0,0:0:0:0:
221,110,43604,1,8,0:0:0:0:
221,110,43724,1,0,0:0:0:0:
221,116,43844,1,0,0:0:0:0:
221,116,43964,1,8,0:0:0:0:
222,115,44084,1,0,0:0:0:0:
222,115,44144,1,0,0:0:0:0:
222,115,44204,1,0,0:0:0:0:
222,115,44324,1,8,0:0:0:0:
222,115,44444,1,0,0:0:0:0:
222,115,44564,1,0,0:0:0:0:
221,116,44624,1,0,0:0:0:0:
227,110,44684,1,0,0:0:0:0:
227,110,44804,1,8,0:0:0:0:
227,110,44864,1,8,0:0:0:0:
227,103,44924,1,0,0:0:0:0:
227,103,45044,1,8,0:0:0:0:
217,103,45164,1,0,0:0:0:0:
217,103,45224,1,8,0:0:0:0:
217,102,45284,1,0,0:0:0:0:
217,102,45344,1,0,0:0:0:0:
217,102,45404,1,0,0:0:0:0:
221,94,45524,1,0,0:0:0:0:
224,100,45644,1,8,0:0:0:0:
224,100,45704,1,8,0:0:0:0:
227,103,45764,1,8,0:0:0:0:
227,103,45824,1,8,0:0:0:0:
227,103,45884,1,0,0:0:0:0:
230,104,46004,1,8,0:0:0:0:
230,104,46124,1,0,0:0:0:0:
219,126,46244,1,8,0:0:0:0:
229,89,46364,5,4,0:0:0:0:
237,104,46604,1,8,0:0:0:0:
216,107,46724,1,8,0:0:0:0:
216,106,46784,1,0,0:0:0:0:
216,105,46844,1,0,0:0:0:0:
217,104,46904,1,0,0:0:0:0:
222,115,46964,1,8,0:0:0:0:
226,67,47084,1,0,0:0:0:0:
222,93,47204,1,8,0:0:0:0:
222,93,47264,1,8,0:0:0:0:
222,93,47324,1,0,0:0:0:0:
229,118,47444,1,0,0:0:0:0:
229,117,47564,1,8,0:0:0:0:
222,99,47684,1,8,0:0:0:0:
241,90,47744,1,0,0:0:0:0:
241,90,47804,1,8,0:0:0:0:
241,90,47864,1,8,0:0:0:0:
241,90,47924,1,0,0:0:0:0:
241,90,47984,1,0,0:0:0:0:
222,99,48044,1,8,0:0:0:0:
230,86,48164,1,8,0:0:0:0:
230,86,48284,1,0,0:0:0:0:
222,99,48404,1,0,0:0:0:0:
222,99,48524,1,8,0:0:0:0:
222,99,48644,1,8,0:0:0:0:
237,82,48704,1,0,0:0:0:0:
222,99,48764,1,8,0:0:0:0:
237,82,48824,1,0,0:0:0:0:
237,82,48884,1,0,0:0:0:0:
230,79,49004,1,8,0:0:0:0:
227,62,49124,1,8,0:0:0:0:
227,62,49184,1,8,0:0:0:0:
227,62,49244,1,0,0:0:0:0:
232,60,49364,1,0,0:0:0:0:
232,60,49484,1,8,0:0:0:0:
232,60,49604,1,0,0:0:0:0:
232,60,49664,1,0,0:0:0:0:
232,60,49724,1,8,0:0:0:0:
232,60,49784,1,8,0:0:0:0:
227,62,49844,1,0,0:0:0:0:
242,90,49964,1,8,0:0:0:0:
242,90,50084,1,8,0:0:0:0:
242,90,50204,1,0,0:0:0:0:
231,86,50324,1,0,0:0:0:0:
231,86,50384,1,0,0:0:0:0:
231,86,50444,1,8,0:0:0:0:
231,86,50564,1,0,0:0:0:0:
231,86,50624,1,8,0:0:0:0:
231,86,50684,1,0,0:0:0:0:
231,86,50744,1,0,0:0:0:0:
231,86,50804,1,8,0:0:0:0:
233,91,50864,1,0,0:0:0:0:
233,91,50924,1,8,0:0:0:0:
233,91,51044,1,8,0:0:0:0:
231,86,51164,1,0,0:0:0:0:
231,86,51284,1,8,0:0:0:0:
232,95,51344,1,0,0:0:0:0:
232,95,51404,1,8,0:0:0:0:
224,74,51524,1,8,0:0:0:0:
224,74,51584,1,8,0:0:0:0:
224,74,51644,1,0,0:0:0:0:
224,74,51704,1,8,0:0:0:0:
224,74,51764,1,0,0:0:0:0:
224,74,51824,1,0,0:0:0:0:
233,91,51884,1,8,0:0:0:0:
235,86,52004,1,8,0:0:0:0:
235,86,52124,1,0,0:0:0:0:
227,101,52184,1,0,0:0:0:0:
235,86,52244,1,0,0:0:0:0:
235,86,52364,1,8,0:0:0:0:
235,86,52484,1,0,0:0:0:0:
235,86,52544,1,8,0:0:0:0:
235,86,52604,1,0,0:0:0:0:
233,91,52664,1,8,0:0:0:0:
233,91,52724,1,0,0:0:0:0:
232,122,52844,1,8,0:0:0:0:
235,86,52964,1,8,0:0:0:0:
235,86,53024,1,8,0:0:0:0:
235,86,53084,1,0,0:0:0:0:
235,86,53204,1,0,0:0:0:0:
235,86,53324,1,8,0:0:0:0:
235,73,53444,1,0,0:0:0:0:
235,73,53504,1,0,0:0:0:0:
235,73,53564,1,8,0:0:0:0:
235,73,53624,1,8,0:0:0:0:
235,73,53684,1,0,0:0:0:0:
246,84,53804,1,8,0:0:0:0:
229,89,54044,1,0,0:0:0:0:
243,97,54164,1,0,0:0:0:0:
237,104,54284,1,8,0:0:0:0:
216,107,54404,1,8,0:0:0:0:
216,106,54464,1,0,0:0:0:0:
216,105,54524,1,0,0:0:0:0:
217,104,54584,1,0,0:0:0:0:
222,115,54644,1,8,0:0:0:0:
235,90,54764,1,8,0:0:0:0:
222,93,54884,1,8,0:0:0:0:
222,93,54944,1,8,0:0:0:0:
222,93,55004,1,0,0:0:0:0:
229,118,55124,1,0,0:0:0:0:
229,117,55244,1,8,0:0:0:0:
222,99,55364,1,0,0:0:0:0:
241,90,55424,1,0,0:0:0:0:
241,90,55484,1,8,0:0:0:0:
241,90,55544,1,8,0:0:0:0:
241,90,55604,1,0,0:0:0:0:
241,90,55664,1,0,0:0:0:0:
222,99,55724,1,8,0:0:0:0:
228,93,55844,1,0,0:0:0:0:
228,93,55964,1,8,0:0:0:0:
228,93,56024,1,8,0:0:0:0:
222,99,56084,1,0,0:0:0:0:
222,99,56204,1,8,0:0:0:0:
221,104,56264,1,0,0:0:0:0:
221,103,56324,1,8,0:0:0:0:
224,100,56384,1,8,0:0:0:0:
236,102,56444,1,0,0:0:0:0:
236,102,56504,1,0,0:0:0:0:
237,82,56564,1,8,0:0:0:0:
220,94,56684,1,0,0:0:0:0:
227,62,56804,1,8,0:0:0:0:
227,62,56864,1,8,0:0:0:0:
227,62,56924,1,0,0:0:0:0:
232,60,57044,1,0,0:0:0:0:
232,60,57164,1,8,0:0:0:0:
232,60,57284,1,0,0:0:0:0:
232,60,57344,1,0,0:0:0:0:
232,60,57404,1,8,0:0:0:0:
232,60,57464,1,8,0:0:0:0:
227,62,57524,1,0,0:0:0:0:
221,82,57644,1,8,0:0:0:0:
221,82,57764,1,0,0:0:0:0:
230,69,57884,1,8,0:0:0:0:
217,82,57944,1,8,0:0:0:0:
231,86,58004,1,0,0:0:0:0:
231,86,58064,1,0,0:0:0:0:
231,86,58124,1,8,0:0:0:0:
217,82,58244,1,8,0:0:0:0:
217,82,58304,1,8,0:0:0:0:
231,86,58364,1,0,0:0:0:0:
231,86,58424,1,0,0:0:0:0:
231,86,58484,1,8,0:0:0:0:
233,91,58544,1,0,0:0:0:0:
233,91,58604,1,8,0:0:0:0:
233,91,58724,1,8,0:0:0:0:
233,91,58844,1,0,0:0:0:0:
231,86,58964,1,0,0:0:0:0:
232,95,59084,1,8,0:0:0:0:
224,74,59204,1,8,0:0:0:0:
224,74,59264,1,0,0:0:0:0:
224,74,59324,1,8,0:0:0:0:
224,74,59384,1,8,0:0:0:0:
224,74,59444,1,0,0:0:0:0:
233,91,59564,1,8,0:0:0:0:
235,86,59684,1,8,0:0:0:0:
222,81,59744,1,8,0:0:0:0:
235,86,59804,1,0,0:0:0:0:
237,84,59864,1,0,0:0:0:0:
235,86,59924,1,0,0:0:0:0:
235,86,60044,1,8,0:0:0:0:
235,86,60164,1,8,0:0:0:0:
235,86,60224,1,8,0:0:0:0:
235,86,60284,1,8,0:0:0:0:
233,91,60344,1,8,0:0:0:0:
233,91,60404,1,0,0:0:0:0:
232,122,60524,1,8,0:0:0:0:
238,101,60644,1,8,0:0:0:0:
235,86,60764,1,0,0:0:0:0:
235,86,61004,1,8,0:0:0:0:
235,73,61124,1,0,0:0:0:0:
235,73,61184,1,0,0:0:0:0:
235,73,61244,1,8,0:0:0:0:
235,73,61364,1,0,0:0:0:0:
246,84,61484,1,8,0:0:0:0:
221,181,61544,1,8,0:0:0:0:
246,84,61604,1,8,0:0:0:0:
221,181,61664,1,8,0:0:0:0:
260,163,61724,5,4,0:0:0:0:
226,174,61844,1,8,0:0:0:0:
230,171,62084,1,0,0:0:0:0:
217,176,62204,1,12,0:0:0:0:
229,156,62324,1,0,0:0:0:0:
233,140,62444,1,8,0:0:0:0:
233,140,62484,1,0,0:0:0:0:
233,140,62524,1,0,0:0:0:0:
233,140,62564,1,8,0:0:0:0:
201,116,62684,1,4,0:0:0:0:
201,116,62804,1,8,0:0:0:0:
201,116,62864,1,8,0:0:0:0:
201,116,62924,1,0,0:0:0:0:
201,116,63044,1,0,0:0:0:0:
211,127,63164,1,8,0:0:0:0:
211,127,63194,1,8,0:0:0:0:
215,121,63284,1,8,0:0:0:0:
204,108,63314,1,8,0:0:0:0:
215,110,63404,1,8,0:0:0:0:
215,110,63464,1,8,0:0:0:0:
215,110,63524,1,0,0:0:0:0:
212,110,63644,1,4,0:0:0:0:
221,124,63824,1,8,0:0:0:0:
221,123,63884,1,0,0:0:0:0:
221,123,64004,1,0,0:0:0:0:
219,94,64124,1,12,0:0:0:0:
219,94,64244,1,0,0:0:0:0:
219,115,64304,1,0,0:0:0:0:
213,76,64364,1,8,0:0:0:0:
212,76,64484,1,0,0:0:0:0:
212,76,64604,1,4,0:0:0:0:
210,50,64724,1,8,0:0:0:0:
215,74,64784,1,8,0:0:0:0:
210,50,64844,1,0,0:0:0:0:
210,50,64964,1,0,0:0:0:0:
210,50,65084,1,12,0:0:0:0:
204,60,65204,1,0,0:0:0:0:
223,91,65264,1,8,0:0:0:0:
204,60,65324,1,0,0:0:0:0:
221,119,65444,1,8,0:0:0:0:
221,119,65474,1,8,0:0:0:0:
211,94,65564,1,4,0:0:0:0:
214,96,65804,1,8,0:0:0:0:
214,96,65924,1,0,0:0:0:0:
198,94,66044,1,12,0:0:0:0:
202,85,66164,1,0,0:0:0:0:
202,85,66224,1,0,0:0:0:0:
202,85,66284,1,8,0:0:0:0:
206,86,66404,1,0,0:0:0:0:
206,86,66524,1,8,0:0:0:0:
208,76,66584,1,0,0:0:0:0:
206,86,66644,1,0,0:0:0:0:
208,76,66764,1,8,0:0:0:0:
208,76,66824,1,0,0:0:0:0:
208,76,66884,1,0,0:0:0:0:
213,93,67004,1,12,0:0:0:0:
200,52,67124,1,0,0:0:0:0:
199,69,67244,1,8,0:0:0:0:
199,69,67304,1,0,0:0:0:0:
199,69,67364,1,8,0:0:0:0:
199,69,67484,1,4,0:0:0:0:
204,70,67604,1,0,0:0:0:0:
200,71,67664,1,0,0:0:0:0:
204,70,67724,1,8,0:0:0:0:
204,70,67844,1,0,0:0:0:0:
196,81,67964,1,12,0:0:0:0:
193,83,68084,1,0,0:0:0:0:
196,64,68144,1,0,0:0:0:0:
196,64,68204,1,8,0:0:0:0:
196,64,68264,1,8,0:0:0:0:
196,64,68324,1,0,0:0:0:0:
196,62,68444,1,4,0:0:0:0:
204,70,68564,1,8,0:0:0:0:
204,70,68624,1,0,0:0:0:0:
200,71,68684,1,0,0:0:0:0:
204,70,68804,1,0,0:0:0:0:
200,71,68924,1,12,0:0:0:0:
185,95,69044,1,0,0:0:0:0:
185,95,69164,1,8,0:0:0:0:
185,95,69284,1,8,0:0:0:0:
185,95,69404,1,4,0:0:0:0:
224,121,69644,1,8,0:0:0:0:
202,110,69764,1,0,0:0:0:0:
189,127,69884,1,8,0:0:0:0:
190,127,69924,1,8,0:0:0:0:
190,127,69964,1,8,0:0:0:0:
190,127,70004,1,8,0:0:0:0:
183,129,70124,1,0,0:0:0:0:
190,121,70244,1,8,0:0:0:0:
190,121,70364,1,4,0:0:0:0:
204,129,70484,1,0,0:0:0:0:
200,123,70544,1,8,0:0:0:0:
204,129,70604,1,0,0:0:0:0:
200,123,70724,1,0,0:0:0:0:
200,123,70844,1,8,0:0:0:0:
185,110,70874,1,8,0:0:0:0:
185,110,70964,1,8,0:0:0:0:
190,113,70994,1,8,0:0:0:0:
188,115,71084,1,0,0:0:0:0:
188,115,71144,1,0,0:0:0:0:
188,115,71204,1,8,0:0:0:0:
189,114,71324,1,4,0:0:0:0:
196,83,71504,1,8,0:0:0:0:
199,89,71564,1,8,0:0:0:0:
196,83,71684,1,0,0:0:0:0:
191,105,71804,1,12,0:0:0:0:
203,79,72044,1,8,0:0:0:0:
203,79,72164,1,0,0:0:0:0:
203,79,72284,1,4,0:0:0:0:
196,102,72404,1,8,0:0:0:0:
196,102,72524,1,0,0:0:0:0:
196,102,72644,1,0,0:0:0:0:
187,79,72764,1,12,0:0:0:0:
187,79,72884,1,8,0:0:0:0:
220,127,72944,1,8,0:0:0:0:
187,78,73004,1,0,0:0:0:0:
208,86,73124,1,8,0:0:0:0:
209,84,73154,1,8,0:0:0:0:
217,74,73244,1,4,0:0:0:0:
220,96,73484,1,8,0:0:0:0:
220,96,73604,1,0,0:0:0:0:
215,88,73724,1,12,0:0:0:0:
219,81,73844,1,0,0:0:0:0:
217,92,73904,1,0,0:0:0:0:
219,81,73964,1,8,0:0:0:0:
212,79,74084,1,8,0:0:0:0:
212,79,74204,1,4,0:0:0:0:
213,68,74324,1,8,0:0:0:0:
213,68,74384,1,8,0:0:0:0:
213,68,74444,1,0,0:0:0:0:
213,68,74564,1,0,0:0:0:0:
213,68,74684,1,12,0:0:0:0:
213,68,74804,1,0,0:0:0:0:
213,68,74864,1,0,0:0:0:0:
217,68,74924,1,8,0:0:0:0:
222,72,75044,1,8,0:0:0:0:
221,70,75164,1,4,0:0:0:0:
221,70,75284,1,8,0:0:0:0:
221,70,75404,1,0,0:0:0:0:
221,70,75524,1,0,0:0:0:0:
222,73,75644,1,12,0:0:0:0:
215,81,75764,1,0,0:0:0:0:
215,81,75824,1,0,0:0:0:0:
222,72,75884,1,8,0:0:0:0:
221,70,75944,1,0,0:0:0:0:
221,70,76004,1,8,0:0:0:0:
221,70,76124,1,4,0:0:0:0:
221,70,76244,1,8,0:0:0:0:
221,70,76304,1,8,0:0:0:0:
221,70,76364,1,0,0:0:0:0:
219,66,76484,1,0,0:0:0:0:
219,66,76604,1,12,0:0:0:0:
219,66,76724,1,8,0:0:0:0:
221,70,76844,1,0,0:0:0:0:
221,70,77084,5,4,0:0:0:0:
239,84,77324,1,8,0:0:0:0:
239,84,77444,1,0,0:0:0:0:
235,84,77564,1,8,0:0:0:0:
235,84,77624,1,8,0:0:0:0:
235,83,77684,1,0,0:0:0:0:
244,103,77804,1,0,0:0:0:0:
244,103,77924,1,8,0:0:0:0:
224,92,78044,1,0,0:0:0:0:
224,92,78164,1,8,0:0:0:0:
235,84,78284,1,0,0:0:0:0:
251,88,78404,1,0,0:0:0:0:
238,102,78524,1,8,0:0:0:0:
238,102,78584,1,8,0:0:0:0:
238,102,78644,1,8,0:0:0:0:
230,115,78704,1,8,0:0:0:0:
230,115,78764,1,0,0:0:0:0:
248,102,78884,1,8,0:0:0:0:
248,102,79004,1,0,0:0:0:0:
248,102,79244,1,8,0:0:0:0:
248,102,79364,1,0,0:0:0:0:
246,120,79484,1,8,0:0:0:0:
246,120,79544,1,8,0:0:0:0:
244,95,79604,1,0,0:0:0:0:
239,107,79724,1,8,0:0:0:0:
239,107,79844,1,0,0:0:0:0:
239,107,79964,1,0,0:0:0:0:
239,107,80084,1,8,0:0:0:0:
239,107,80204,1,0,0:0:0:0:
235,113,80324,1,8,0:0:0:0:
235,113,80444,1,8,0:0:0:0:
235,113,80504,1,8,0:0:0:0:
235,113,80564,1,0,0:0:0:0:
235,113,80684,1,8,0:0:0:0:
235,113,80744,1,0,0:0:0:0:
235,113,80804,1,8,0:0:0:0:
235,113,80864,1,8,0:0:0:0:
247,122,80924,1,0,0:0:0:0:
249,100,81164,1,8,0:0:0:0:
249,100,81284,1,0,0:0:0:0:
241,112,81404,1,8,0:0:0:0:
241,112,81464,1,8,0:0:0:0:
241,112,81524,1,0,0:0:0:0:
230,97,81644,1,0,0:0:0:0:
230,97,81764,1,8,0:0:0:0:
230,97,81884,1,0,0:0:0:0:
230,97,82004,1,8,0:0:0:0:
244,86,82124,1,0,0:0:0:0:
243,86,82244,1,0,0:0:0:0:
246,90,82304,1,0,0:0:0:0:
246,90,82364,1,8,0:0:0:0:
246,90,82424,1,8,0:0:0:0:
246,90,82484,1,0,0:0:0:0:
225,114,82604,1,0,0:0:0:0:
241,126,82724,1,8,0:0:0:0:
241,126,82844,1,0,0:0:0:0:
241,126,83084,1,0,0:0:0:0:
241,126,83204,1,0,0:0:0:0:
241,126,83324,1,8,0:0:0:0:
241,126,83384,1,8,0:0:0:0:
241,126,83444,1,0,0:0:0:0:
237,120,83564,1,8,0:0:0:0:
241,117,83684,1,0,0:0:0:0:
219,171,83804,1,0,0:0:0:0:
219,171,83864,1,0,0:0:0:0:
219,171,83924,1,8,0:0:0:0:
219,171,83984,1,8,0:0:0:0:
228,145,84044,1,0,0:0:0:0:
228,145,84104,1,0,0:0:0:0:
228,145,84164,1,8,0:0:0:0:
228,145,84224,1,0,0:0:0:0:
237,146,84284,1,8,0:0:0:0:
237,146,84344,1,8,0:0:0:0:
221,133,84404,1,8,0:0:0:0:
221,133,84464,1,8,0:0:0:0:
221,133,84524,1,0,0:0:0:0:
221,133,84584,1,0,0:0:0:0:
221,129,84644,1,8,0:0:0:0:
219,171,84764,5,4,0:0:0:0:
238,133,85004,1,8,0:0:0:0:
231,166,85244,1,0,0:0:0:0:
231,166,85484,1,0,0:0:0:0:
236,143,85724,1,0,0:0:0:0:
251,153,85964,1,8,0:0:0:0:
259,174,86204,1,0,0:0:0:0:
259,174,86444,1,0,0:0:0:0:
238,133,86684,1,0,0:0:0:0:
238,133,86924,1,8,0:0:0:0:
238,133,87164,1,0,0:0:0:0:
238,133,87404,1,0,0:0:0:0:
238,133,87644,1,0,0:0:0:0:
238,133,87884,1,8,0:0:0:0:
238,133,88124,1,0,0:0:0:0:
238,133,88364,1,0,0:0:0:0:
238,133,88604,1,0,0:0:0:0:
238,133,88844,1,8,0:0:0:0:
238,133,89084,1,0,0:0:0:0:
238,133,89324,1,0,0:0:0:0:
238,133,89564,1,0,0:0:0:0:
238,133,89804,1,8,0:0:0:0:
238,133,90044,1,0,0:0:0:0:
238,133,90284,1,0,0:0:0:0:
238,133,90524,1,0,0:0:0:0:
238,133,90764,1,8,0:0:0:0:
238,133,91004,1,0,0:0:0:0:
238,133,91244,1,0,0:0:0:0:
238,133,91484,1,0,0:0:0:0:
238,133,91724,1,8,0:0:0:0:
238,133,91964,1,0,0:0:0:0:
238,122,92084,1,8,0:0:0:0:
238,122,92324,1,8,0:0:0:0:
238,122,92444,1,4,0:0:0:0:
241,108,92684,1,8,0:0:0:0:
240,117,92924,1,0,0:0:0:0:
238,122,93164,1,8,0:0:0:0:
238,122,93284,1,8,0:0:0:0:
240,118,93404,1,0,0:0:0:0:
230,121,93644,1,8,0:0:0:0:
230,121,93764,1,0,0:0:0:0:
206,172,93884,1,0,0:0:0:0:
206,172,94004,1,8,0:0:0:0:
230,121,94124,1,8,0:0:0:0:
230,121,94244,1,8,0:0:0:0:
221,110,94304,1,8,0:0:0:0:
230,121,94364,1,0,0:0:0:0:
221,110,94604,1,8,0:0:0:0:
221,110,94844,1,0,0:0:0:0:
221,110,94964,1,8,0:0:0:0:
221,142,95084,1,8,0:0:0:0:
221,110,95204,1,8,0:0:0:0:
221,110,95324,1,0,0:0:0:0:
221,110,95564,1,8,0:0:0:0:
221,110,95684,1,8,0:0:0:0:
221,110,95804,1,0,0:0:0:0:
221,110,95924,1,8,0:0:0:0:
230,169,96044,1,0,0:0:0:0:
221,110,96164,1,8,0:0:0:0:
221,110,96284,1,0,0:0:0:0:
221,121,96404,1,0,0:0:0:0:
221,121,96524,1,8,0:0:0:0:
219,129,96644,1,8,0:0:0:0:
219,129,96764,1,0,0:0:0:0:
219,129,97004,1,8,0:0:0:0:
226,96,97124,1,8,0:0:0:0:
226,96,97244,1,0,0:0:0:0:
211,128,97364,1,8,0:0:0:0:
212,117,97484,1,8,0:0:0:0:
212,117,97604,1,8,0:0:0:0:
226,118,97724,1,0,0:0:0:0:
226,118,97844,1,0,0:0:0:0:
226,118,97964,1,8,0:0:0:0:
230,113,98084,1,8,0:0:0:0:
226,197,98204,1,0,0:0:0:0:
226,197,98324,1,0,0:0:0:0:
226,197,98444,1,8,0:0:0:0:
226,197,98564,1,0,0:0:0:0:
223,180,98684,1,0,0:0:0:0:
223,180,98744,1,0,0:0:0:0:
223,180,98804,1,0,0:0:0:0:
219,179,98864,1,0,0:0:0:0:
223,180,98924,1,8,0:0:0:0:
223,180,98984,1,0,0:0:0:0:
219,179,99044,1,8,0:0:0:0:
219,179,99104,1,8,0:0:0:0:
233,174,99164,1,0,0:0:0:0:
233,174,99284,1,0,0:0:0:0:
233,174,99404,1,8,0:0:0:0:
233,174,99524,1,0,0:0:0:0:
231,149,99644,1,8,0:0:0:0:
231,149,99704,1,0,0:0:0:0:
231,149,99764,1,0,0:0:0:0:
231,149,99824,1,0,0:0:0:0:
237,132,99884,1,8,0:0:0:0:
237,132,100004,1,8,0:0:0:0:
221,140,100124,5,0,0:0:0:0:
219,140,100184,1,0,0:0:0:0:
219,139,100244,1,0,0:0:0:0:
219,139,100304,1,0,0:0:0:0:
223,130,100364,1,8,0:0:0:0:
223,130,100424,1,8,0:0:0:0:
223,130,100484,1,0,0:0:0:0:
223,130,100544,1,0,0:0:0:0:
223,130,100604,1,8,0:0:0:0:
223,130,100664,1,0,0:0:0:0:
221,131,100724,1,0,0:0:0:0:
223,123,100784,1,0,0:0:0:0:
240,116,100844,1,8,0:0:0:0:
240,116,100904,1,0,0:0:0:0:
240,116,100964,1,8,0:0:0:0:
240,116,101024,1,0,0:0:0:0:
241,97,101084,1,8,0:0:0:0:
241,97,101144,1,8,0:0:0:0:
241,97,101204,1,8,0:0:0:0:
241,97,101264,1,8,0:0:0:0:
242,94,101324,1,0,0:0:0:0:
242,94,101384,1,0,0:0:0:0:
242,94,101444,1,8,0:0:0:0:
242,94,101504,1,8,0:0:0:0:
242,94,101564,1,0,0:0:0:0:
241,94,101624,1,0,0:0:0:0:
248,90,101684,1,8,0:0:0:0:
246,84,101744,1,0,0:0:0:0:
253,94,101804,1,8,0:0:0:0:
253,94,101864,1,8,0:0:0:0:
256,81,101924,1,0,0:0:0:0:
256,81,101984,1,0,0:0:0:0:
249,91,102044,1,8,0:0:0:0:
249,91,102104,1,0,0:0:0:0:
256,88,102164,1,0,0:0:0:0:
256,88,102224,1,0,0:0:0:0:
254,95,102284,1,8,0:0:0:0:
254,95,102344,1,0,0:0:0:0:
254,95,102404,1,8,0:0:0:0:
254,95,102464,1,0,0:0:0:0:
248,90,102524,1,8,0:0:0:0:
253,94,102584,1,8,0:0:0:0:
253,94,102644,1,0,0:0:0:0:
251,96,102704,1,0,0:0:0:0:
248,100,102764,1,8,0:0:0:0:
248,100,102824,1,8,0:0:0:0:
249,91,102884,1,8,0:0:0:0:
249,91,102944,1,8,0:0:0:0:
253,92,103004,1,0,0:0:0:0:
253,92,103064,1,0,0:0:0:0:
254,95,103124,1,8,0:0:0:0:
254,95,103184,1,0,0:0:0:0:
254,95,103244,1,8,0:0:0:0:
254,95,103304,1,8,0:0:0:0:
246,105,103364,1,0,0:0:0:0:
246,105,103424,1,0,0:0:0:0:
257,82,103484,1,8,0:0:0:0:
253,121,103544,1,0,0:0:0:0:
253,121,103604,1,0,0:0:0:0:
257,81,103664,1,8,0:0:0:0:
257,81,103724,1,0,0:0:0:0:
257,81,103784,1,0,0:0:0:0:
258,79,103844,1,8,0:0:0:0:
253,121,103904,1,0,0:0:0:0:
256,66,103964,1,8,0:0:0:0:
256,66,104024,1,8,0:0:0:0:
256,66,104084,1,0,0:0:0:0:
256,66,104144,1,0,0:0:0:0:
241,74,104204,1,8,0:0:0:0:
224,96,104264,1,8,0:0:0:0:
224,96,104324,1,8,0:0:0:0:
224,96,104384,1,8,0:0:0:0:
237,124,104444,1,0,0:0:0:0:
237,124,104504,1,0,0:0:0:0:
252,70,104564,1,0,0:0:0:0:
260,89,104624,1,0,0:0:0:0:
253,88,104684,1,8,0:0:0:0:
253,88,104744,1,0,0:0:0:0:
253,88,104804,1,8,0:0:0:0:
240,107,104864,1,8,0:0:0:0:
253,87,104924,1,0,0:0:0:0:
251,89,104984,1,0,0:0:0:0:
251,89,105044,1,0,0:0:0:0:
251,89,105104,1,0,0:0:0:0:
251,89,105164,1,8,0:0:0:0:
238,89,105224,1,8,0:0:0:0:
251,89,105284,1,0,0:0:0:0:
252,87,105344,1,0,0:0:0:0:
238,89,105404,1,8,0:0:0:0:
251,86,105464,1,0,0:0:0:0:
253,88,105524,1,0,0:0:0:0:
248,93,105584,1,0,0:0:0:0:
248,93,105644,1,8,0:0:0:0:
248,93,105704,1,0,0:0:0:0:
248,93,105764,1,8,0:0:0:0:
248,93,105824,1,8,0:0:0:0:
250,102,105884,1,0,0:0:0:0:
250,102,105944,1,0,0:0:0:0:
250,102,106004,1,0,0:0:0:0:
250,102,106064,1,0,0:0:0:0:
251,102,106124,1,8,0:0:0:0:
251,102,106184,1,8,0:0:0:0:
258,111,106244,1,0,0:0:0:0:
258,111,106304,1,0,0:0:0:0:
258,111,106364,1,8,0:0:0:0:
258,111,106424,1,0,0:0:0:0:
258,111,106484,1,0,0:0:0:0:
258,111,106544,1,0,0:0:0:0:
262,113,106604,1,8,0:0:0:0:
262,113,106664,1,0,0:0:0:0:
268,112,106724,1,8,0:0:0:0:
255,120,106784,1,8,0:0:0:0:
259,121,106844,1,0,0:0:0:0:
259,121,106904,1,0,0:0:0:0:
259,121,106964,1,0,0:0:0:0:
259,121,107024,1,0,0:0:0:0:
267,116,107084,1,8,0:0:0:0:
252,118,107144,1,0,0:0:0:0:
267,116,107204,1,8,0:0:0:0:
267,116,107264,1,8,0:0:0:0:
259,105,107324,1,0,0:0:0:0:
259,105,107444,1,0,0:0:0:0:
259,105,107564,1,8,0:0:0:0:
259,105,107684,1,0,0:0:0:0:
221,140,107804,1,8,0:0:0:0:
219,140,107864,1,0,0:0:0:0:
219,139,107924,1,0,0:0:0:0:
219,139,107984,1,0,0:0:0:0:
223,130,108044,1,8,0:0:0:0:
223,130,108104,1,8,0:0:0:0:
223,130,108164,1,0,0:0:0:0:
223,130,108224,1,0,0:0:0:0:
223,130,108284,1,8,0:0:0:0:
223,130,108344,1,0,0:0:0:0:
221,131,108404,1,0,0:0:0:0:
223,123,108464,1,0,0:0:0:0:
240,116,108524,1,8,0:0:0:0:
240,116,108584,1,8,0:0:0:0:
240,116,108644,1,0,0:0:0:0:
240,116,108704,1,0,0:0:0:0:
241,97,108764,1,8,0:0:0:0:
241,97,108824,1,0,0:0:0:0:
241,97,108884,1,8,0:0:0:0:
241,97,108944,1,0,0:0:0:0:
242,94,109004,1,0,0:0:0:0:
242,94,109064,1,0,0:0:0:0:
242,94,109124,1,8,0:0:0:0:
242,94,109184,1,8,0:0:0:0:
242,94,109244,1,0,0:0:0:0:
241,94,109304,1,0,0:0:0:0:
248,90,109364,1,8,0:0:0:0:
246,84,109424,1,0,0:0:0:0:
253,94,109484,1,8,0:0:0:0:
253,94,109544,1,8,0:0:0:0:
219,81,109604,1,0,0:0:0:0:
256,81,109664,1,0,0:0:0:0:
249,91,109724,1,8,0:0:0:0:
249,91,109784,1,0,0:0:0:0:
256,88,109844,1,0,0:0:0:0:
256,88,109904,1,0,0:0:0:0:
254,95,109964,1,8,0:0:0:0:
254,95,110024,1,0,0:0:0:0:
254,95,110084,1,8,0:0:0:0:
254,95,110144,1,0,0:0:0:0:
248,90,110204,1,8,0:0:0:0:
253,94,110264,1,8,0:0:0:0:
253,94,110324,1,0,0:0:0:0:
251,96,110384,1,0,0:0:0:0:
248,100,110444,1,8,0:0:0:0:
248,100,110504,1,8,0:0:0:0:
249,91,110564,1,8,0:0:0:0:
249,91,110624,1,8,0:0:0:0:
253,92,110684,1,0,0:0:0:0:
253,92,110744,1,0,0:0:0:0:
254,95,110804,1,8,0:0:0:0:
254,95,110864,1,0,0:0:0:0:
254,95,110924,1,8,0:0:0:0:
254,95,110984,1,8,0:0:0:0:
246,105,111044,1,0,0:0:0:0:
246,105,111104,1,0,0:0:0:0:
257,82,111164,1,8,0:0:0:0:
260,104,111224,1,0,0:0:0:0:
257,81,111284,1,0,0:0:0:0:
257,81,111344,1,8,0:0:0:0:
257,81,111404,1,0,0:0:0:0:
257,81,111464,1,0,0:0:0:0:
258,79,111524,1,8,0:0:0:0:
258,128,111584,1,0,0:0:0:0:
256,66,111644,1,8,0:0:0:0:
256,66,111704,1,8,0:0:0:0:
244,118,111764,1,8,0:0:0:0:
244,118,111824,1,8,0:0:0:0:
244,118,111884,1,0,0:0:0:0:
244,118,111944,1,0,0:0:0:0:
244,118,112004,1,8,0:0:0:0:
244,118,112064,1,0,0:0:0:0:
244,118,112124,1,8,0:0:0:0:
237,124,112184,1,8,0:0:0:0:
252,70,112244,1,0,0:0:0:0:
244,118,112304,1,8,0:0:0:0:
253,88,112364,1,8,0:0:0:0:
253,88,112424,1,8,0:0:0:0:
253,88,112484,1,0,0:0:0:0:
240,107,112544,1,0,0:0:0:0:
231,105,112604,1,8,0:0:0:0:
243,92,112664,1,0,0:0:0:0:
251,89,112724,1,0,0:0:0:0:
251,89,112784,1,0,0:0:0:0:
251,89,112844,1,8,0:0:0:0:
238,89,112904,1,8,0:0:0:0:
251,89,112964,1,0,0:0:0:0:
252,87,113024,1,0,0:0:0:0:
238,89,113084,1,8,0:0:0:0:
251,86,113144,1,0,0:0:0:0:
253,88,113204,1,0,0:0:0:0:
241,109,113264,1,8,0:0:0:0:
248,93,113324,1,0,0:0:0:0:
248,93,113384,1,0,0:0:0:0:
248,93,113444,1,8,0:0:0:0:
238,106,113504,1,0,0:0:0:0:
238,106,113564,1,8,0:0:0:0:
247,94,113624,1,0,0:0:0:0:
250,102,113684,1,0,0:0:0:0:
250,102,113744,1,0,0:0:0:0:
251,102,113804,1,8,0:0:0:0:
251,102,113864,1,8,0:0:0:0:
258,111,113924,1,0,0:0:0:0:
258,111,113984,1,0,0:0:0:0:
258,111,114044,1,8,0:0:0:0:
258,111,114104,1,0,0:0:0:0:
258,111,114164,1,0,0:0:0:0:
258,111,114224,1,0,0:0:0:0:
262,113,114284,1,8,0:0:0:0:
262,113,114344,1,8,0:0:0:0:
268,112,114404,1,0,0:0:0:0:
255,120,114464,1,0,0:0:0:0:
259,121,114524,1,8,0:0:0:0:
259,121,114584,1,0,0:0:0:0:
259,121,114644,1,0,0:0:0:0:
259,121,114704,1,0,0:0:0:0:
267,116,114764,1,8,0:0:0:0:
252,118,114824,1,0,0:0:0:0:
267,116,114884,1,8,0:0:0:0:
267,116,114944,1,8,0:0:0:0:
259,105,115004,1,0,0:0:0:0:
259,105,115124,1,0,0:0:0:0:
259,105,115244,1,8,0:0:0:0:
257,110,115364,1,0,0:0:0:0:
221,140,115484,5,8,0:0:0:0:
219,140,115544,1,0,0:0:0:0:
219,139,115604,1,0,0:0:0:0:
219,139,115664,1,0,0:0:0:0:
223,130,115724,1,8,0:0:0:0:
223,130,115784,1,8,0:0:0:0:
223,130,115844,1,0,0:0:0:0:
223,130,115904,1,0,0:0:0:0:
223,130,115964,1,8,0:0:0:0:
223,130,116024,1,0,0:0:0:0:
221,131,116084,1,0,0:0:0:0:
223,123,116144,1,0,0:0:0:0:
240,116,116204,1,8,0:0:0:0:
240,116,116264,1,8,0:0:0:0:
240,116,116324,1,0,0:0:0:0:
240,116,116384,1,0,0:0:0:0:
241,97,116444,1,8,0:0:0:0:
241,97,116504,1,0,0:0:0:0:
241,97,116564,1,8,0:0:0:0:
241,97,116624,1,0,0:0:0:0:
242,94,116684,1,0,0:0:0:0:
242,94,116744,1,0,0:0:0:0:
242,94,116804,1,8,0:0:0:0:
242,94,116864,1,8,0:0:0:0:
242,94,116924,1,0,0:0:0:0:
241,94,116984,1,0,0:0:0:0:
248,90,117044,1,8,0:0:0:0:
246,84,117104,1,0,0:0:0:0:
253,94,117164,1,8,0:0:0:0:
253,94,117224,1,8,0:0:0:0:
256,81,117284,1,0,0:0:0:0:
256,81,117344,1,0,0:0:0:0:
249,91,117404,1,8,0:0:0:0:
249,91,117464,1,0,0:0:0:0:
256,88,117524,1,0,0:0:0:0:
256,88,117584,1,0,0:0:0:0:
254,95,117644,1,8,0:0:0:0:
254,95,117704,1,0,0:0:0:0:
254,95,117764,1,8,0:0:0:0:
254,95,117824,1,0,0:0:0:0:
248,90,117884,1,8,0:0:0:0:
253,94,117944,1,8,0:0:0:0:
253,94,118004,1,0,0:0:0:0:
251,96,118064,1,0,0:0:0:0:
248,100,118124,1,8,0:0:0:0:
248,100,118184,1,8,0:0:0:0:
249,91,118244,1,0,0:0:0:0:
249,91,118304,1,0,0:0:0:0:
253,92,118364,1,8,0:0:0:0:
253,92,118424,1,0,0:0:0:0:
254,95,118484,1,0,0:0:0:0:
254,95,118544,1,0,0:0:0:0:
254,95,118604,1,8,0:0:0:0:
254,95,118664,1,8,0:0:0:0:
246,105,118724,1,0,0:0:0:0:
246,105,118784,1,0,0:0:0:0:
257,82,118844,1,8,0:0:0:0:
251,117,118904,1,0,0:0:0:0:
257,81,118964,1,0,0:0:0:0:
257,81,119024,1,8,0:0:0:0:
257,81,119084,1,0,0:0:0:0:
257,81,119144,1,0,0:0:0:0:
258,79,119204,1,8,0:0:0:0:
251,117,119264,1,0,0:0:0:0:
256,66,119324,1,8,0:0:0:0:
256,66,119384,1,8,0:0:0:0:
256,66,119444,1,0,0:0:0:0:
256,66,119504,1,0,0:0:0:0:
241,74,119564,1,8,0:0:0:0:
224,96,119624,1,8,0:0:0:0:
224,96,119684,1,8,0:0:0:0:
224,96,119744,1,8,0:0:0:0:
237,124,119804,1,0,0:0:0:0:
237,124,119864,1,0,0:0:0:0:
252,70,119924,1,0,0:0:0:0:
260,89,119984,1,0,0:0:0:0:
253,88,120044,1,8,0:0:0:0:
253,88,120104,1,0,0:0:0:0:
253,88,120164,1,8,0:0:0:0:
240,107,120224,1,8,0:0:0:0:
253,87,120284,1,0,0:0:0:0:
251,89,120344,1,0,0:0:0:0:
251,89,120404,1,0,0:0:0:0:
251,89,120464,1,0,0:0:0:0:
251,89,120524,1,8,0:0:0:0:
238,89,120584,1,8,0:0:0:0:
251,89,120644,1,0,0:0:0:0:
252,87,120704,1,0,0:0:0:0:
238,89,120764,1,8,0:0:0:0:
251,86,120824,1,0,0:0:0:0:
253,88,120884,1,0,0:0:0:0:
248,93,120944,1,0,0:0:0:0:
248,93,121004,1,8,0:0:0:0:
248,93,121064,1,0,0:0:0:0:
248,93,121124,1,8,0:0:0:0:
248,93,121184,1,8,0:0:0:0:
250,102,121244,1,0,0:0:0:0:
250,102,121304,1,0,0:0:0:0:
250,102,121364,1,0,0:0:0:0:
250,102,121424,1,0,0:0:0:0:
251,102,121484,1,8,0:0:0:0:
251,102,121544,1,8,0:0:0:0:
258,111,121604,1,0,0:0:0:0:
258,111,121664,1,0,0:0:0:0:
258,111,121724,1,8,0:0:0:0:
258,111,121784,1,0,0:0:0:0:
258,111,121844,1,0,0:0:0:0:
258,111,121904,1,0,0:0:0:0:
262,113,121964,1,8,0:0:0:0:
262,113,122024,1,8,0:0:0:0:
256,125,122084,1,0,0:0:0:0:
241,138,122144,1,0,0:0:0:0:
241,138,122204,1,8,0:0:0:0:
241,138,122264,1,0,0:0:0:0:
259,121,122324,1,0,0:0:0:0:
259,121,122384,1,0,0:0:0:0:
267,116,122444,1,8,0:0:0:0:
252,118,122504,1,0,0:0:0:0:
267,116,122564,1,8,0:0:0:0:
267,116,122624,1,8,0:0:0:0:
259,105,122684,1,0,0:0:0:0:
259,105,122804,1,0,0:0:0:0:
259,105,122924,1,8,0:0:0:0:
259,105,123044,1,0,0:0:0:0:
221,140,123164,1,8,0:0:0:0:
219,140,123224,1,0,0:0:0:0:
219,139,123284,1,0,0:0:0:0:
219,139,123344,1,0,0:0:0:0:
223,130,123404,1,8,0:0:0:0:
223,130,123464,1,8,0:0:0:0:
223,130,123524,1,0,0:0:0:0:
223,130,123584,1,0,0:0:0:0:
223,130,123644,1,8,0:0:0:0:
223,130,123704,1,0,0:0:0:0:
221,131,123764,1,0,0:0:0:0:
223,123,123824,1,0,0:0:0:0:
240,116,123884,1,8,0:0:0:0:
240,116,123944,1,0,0:0:0:0:
240,116,124004,1,8,0:0:0:0:
240,116,124064,1,0,0:0:0:0:
241,97,124124,1,8,0:0:0:0:
241,97,124184,1,8,0:0:0:0:
241,97,124244,1,8,0:0:0:0:
241,97,124304,1,8,0:0:0:0:
242,94,124364,1,0,0:0:0:0:
242,94,124424,1,0,0:0:0:0:
242,94,124484,1,8,0:0:0:0:
242,94,124544,1,8,0:0:0:0:
242,94,124604,1,0,0:0:0:0:
241,94,124664,1,0,0:0:0:0:
248,90,124724,1,8,0:0:0:0:
246,84,124784,1,0,0:0:0:0:
253,94,124844,1,8,0:0:0:0:
253,94,124904,1,8,0:0:0:0:
219,81,124964,1,0,0:0:0:0:
256,81,125024,1,0,0:0:0:0:
249,91,125084,1,8,0:0:0:0:
249,91,125144,1,0,0:0:0:0:
244,108,125204,1,0,0:0:0:0:
256,88,125264,1,0,0:0:0:0:
254,95,125324,1,8,0:0:0:0:
254,95,125384,1,0,0:0:0:0:
254,95,125444,1,8,0:0:0:0:
254,95,125504,1,0,0:0:0:0:
248,90,125564,1,8,0:0:0:0:
253,94,125624,1,8,0:0:0:0:
253,94,125684,1,0,0:0:0:0:
251,96,125744,1,0,0:0:0:0:
248,100,125804,1,8,0:0:0:0:
248,100,125864,1,8,0:0:0:0:
249,91,125924,1,8,0:0:0:0:
249,91,125984,1,8,0:0:0:0:
253,92,126044,1,0,0:0:0:0:
253,92,126104,1,0,0:0:0:0:
254,95,126164,1,0,0:0:0:0:
254,95,126224,1,0,0:0:0:0:
254,95,126284,1,8,0:0:0:0:
254,95,126344,1,8,0:0:0:0:
246,105,126404,1,0,0:0:0:0:
246,105,126464,1,0,0:0:0:0:
257,82,126524,1,8,0:0:0:0:
251,90,126584,1,0,0:0:0:0:
257,81,126644,1,0,0:0:0:0:
257,81,126704,1,0,0:0:0:0:
247,98,126764,1,8,0:0:0:0:
232,96,126824,1,8,0:0:0:0:
253,92,126884,1,0,0:0:0:0:
232,96,126944,1,0,0:0:0:0:
232,96,127004,1,8,0:0:0:0:
256,66,127064,1,8,0:0:0:0:
244,118,127124,1,8,0:0:0:0:
244,118,127184,1,8,0:0:0:0:
244,118,127244,1,0,0:0:0:0:
244,118,127304,1,0,0:0:0:0:
244,118,127364,1,8,0:0:0:0:
244,118,127424,1,8,0:0:0:0:
244,118,127484,1,0,0:0:0:0:
237,124,127544,1,0,0:0:0:0:
252,70,127604,1,0,0:0:0:0:
244,118,127664,1,0,0:0:0:0:
253,88,127724,1,8,0:0:0:0:
253,88,127784,1,8,0:0:0:0:
253,88,127844,1,0,0:0:0:0:
240,107,127904,1,0,0:0:0:0:
231,105,127964,1,8,0:0:0:0:
243,92,128024,1,0,0:0:0:0:
251,89,128084,1,0,0:0:0:0:
251,89,128144,1,0,0:0:0:0:
251,89,128204,1,8,0:0:0:0:
238,89,128264,1,8,0:0:0:0:
251,89,128324,1,0,0:0:0:0:
252,87,128384,1,0,0:0:0:0:
238,89,128444,1,8,0:0:0:0:
251,86,128504,1,0,0:0:0:0:
253,88,128564,1,0,0:0:0:0:
241,109,128624,1,0,0:0:0:0:
231,95,128684,1,8,0:0:0:0:
233,85,128744,1,8,0:0:0:0:
231,95,128804,1,0,0:0:0:0:
238,106,128864,1,0,0:0:0:0:
238,106,128924,1,8,0:0:0:0:
247,94,128984,1,0,0:0:0:0:
250,102,129044,1,8,0:0:0:0:
250,102,129104,1,0,0:0:0:0:
251,102,129164,1,8,0:0:0:0:
251,102,129224,1,8,0:0:0:0:
237,117,129284,1,0,0:0:0:0:
237,117,129344,1,0,0:0:0:0:
258,111,129404,1,8,0:0:0:0:
258,111,129464,1,0,0:0:0:0:
258,111,129524,1,0,0:0:0:0:
258,111,129584,1,0,0:0:0:0:
262,113,129644,1,8,0:0:0:0:
262,113,129704,1,8,0:0:0:0:
268,112,129764,1,8,0:0:0:0:
255,120,129824,1,8,0:0:0:0:
259,121,129884,1,0,0:0:0:0:
250,102,129944,1,0,0:0:0:0:
251,102,130004,1,8,0:0:0:0:
251,102,130064,1,8,0:0:0:0:
258,110,130124,1,0,0:0:0:0:
252,118,130184,1,0,0:0:0:0:
267,116,130244,1,8,0:0:0:0:
267,116,130304,1,8,0:0:0:0:
259,105,130364,1,0,0:0:0:0:
252,107,130424,1,0,0:0:0:0:
252,107,130484,1,8,0:0:0:0:
252,107,130544,1,0,0:0:0:0:
259,105,130604,1,8,0:0:0:0:
257,110,130724,1,0,0:0:0:0:
262,107,130844,5,4,0:0:0:0:
243,102,130964,1,0,0:0:0:0:
243,102,131024,1,0,0:0:0:0:
243,102,131084,1,8,0:0:0:0:
243,102,131204,1,0,0:0:0:0:
263,102,131324,1,8,0:0:0:0:
244,129,131384,1,0,0:0:0:0:
244,129,131444,1,0,0:0:0:0:
244,128,131564,1,8,0:0:0:0:
224,111,131684,1,0,0:0:0:0:
238,105,131804,1,8,0:0:0:0:
238,105,131864,1,8,0:0:0:0:
237,105,131924,1,0,0:0:0:0:
237,105,131984,1,0,0:0:0:0:
237,105,132044,1,8,0:0:0:0:
249,106,132164,1,8,0:0:0:0:
249,106,132224,1,0,0:0:0:0:
249,106,132284,1,8,0:0:0:0:
248,106,132344,1,8,0:0:0:0:
241,118,132404,1,0,0:0:0:0:
236,104,132464,1,0,0:0:0:0:
241,118,132524,1,8,0:0:0:0:
247,113,132644,1,0,0:0:0:0:
239,114,132764,1,8,0:0:0:0:
239,113,132824,1,0,0:0:0:0:
239,113,132884,1,0,0:0:0:0:
239,113,133004,1,8,0:0:0:0:
244,124,133064,1,0,0:0:0:0:
244,124,133124,1,8,0:0:0:0:
244,124,133184,1,8,0:0:0:0:
244,123,133244,1,0,0:0:0:0:
244,123,133364,1,0,0:0:0:0:
244,123,133484,1,8,0:0:0:0:
244,123,133604,1,0,0:0:0:0:
244,123,133664,1,0,0:0:0:0:
244,123,133724,1,8,0:0:0:0:
244,123,133784,1,8,0:0:0:0:
244,123,133844,1,0,0:0:0:0:
244,124,133964,1,8,0:0:0:0:
244,123,134084,1,0,0:0:0:0:
244,123,134204,1,8,0:0:0:0:
244,123,134264,1,0,0:0:0:0:
244,123,134324,1,0,0:0:0:0:
244,123,134384,1,0,0:0:0:0:
244,123,134444,1,8,0:0:0:0:
235,137,134564,1,0,0:0:0:0:
238,105,134684,1,8,0:0:0:0:
235,137,134744,1,8,0:0:0:0:
235,137,134804,1,0,0:0:0:0:
254,119,134924,1,8,0:0:0:0:
239,127,135044,1,0,0:0:0:0:
239,127,135104,1,0,0:0:0:0:
236,99,135164,1,8,0:0:0:0:
236,99,135224,1,0,0:0:0:0:
236,99,135284,1,8,0:0:0:0:
236,99,135344,1,8,0:0:0:0:
244,110,135404,1,0,0:0:0:0:
241,111,135524,1,0,0:0:0:0:
241,111,135644,1,8,0:0:0:0:
241,111,135764,1,0,0:0:0:0:
241,111,135824,1,0,0:0:0:0:
241,111,135884,1,8,0:0:0:0:
241,125,136004,1,0,0:0:0:0:
241,125,136124,1,8,0:0:0:0:
236,99,136184,1,0,0:0:0:0:
234,101,136244,1,8,0:0:0:0:
234,101,136364,1,8,0:0:0:0:
234,101,136484,1,0,0:0:0:0:
226,104,136604,1,8,0:0:0:0:
226,104,136664,1,0,0:0:0:0:
226,106,136724,1,0,0:0:0:0:
230,105,136784,1,0,0:0:0:0:
247,95,136844,1,8,0:0:0:0:
230,105,136964,1,0,0:0:0:0:
230,105,137084,1,8,0:0:0:0:
240,115,137204,1,8,0:0:0:0:
240,115,137264,1,0,0:0:0:0:
240,115,137324,1,8,0:0:0:0:
240,115,137384,1,8,0:0:0:0:
240,115,137444,1,0,0:0:0:0:
240,115,137564,1,8,0:0:0:0:
233,93,137684,1,0,0:0:0:0:
226,92,137804,1,8,0:0:0:0:
230,105,137864,1,8,0:0:0:0:
226,92,137924,1,0,0:0:0:0:
212,151,137984,1,0,0:0:0:0:
236,109,138044,1,8,0:0:0:0:
236,109,138164,1,0,0:0:0:0:
236,109,138224,1,0,0:0:0:0:
230,111,138284,1,8,0:0:0:0:
233,101,138404,1,0,0:0:0:0:
230,111,138524,1,8,0:0:0:0:
230,111,138584,1,8,0:0:0:0:
230,111,138644,1,0,0:0:0:0:
230,111,138764,1,8,0:0:0:0:
230,111,138824,1,8,0:0:0:0:
230,111,138884,1,8,0:0:0:0:
230,111,138944,1,8,0:0:0:0:
230,111,139004,1,0,0:0:0:0:
230,111,139124,1,0,0:0:0:0:
230,111,139244,1,8,0:0:0:0:
237,107,139304,1,8,0:0:0:0:
236,84,139364,1,8,0:0:0:0:
236,84,139484,1,0,0:0:0:0:
236,84,139544,1,0,0:0:0:0:
236,84,139604,1,0,0:0:0:0:
228,99,139664,1,0,0:0:0:0:
230,111,139724,1,8,0:0:0:0:
230,111,139844,1,8,0:0:0:0:
230,111,139904,1,0,0:0:0:0:
230,111,139964,1,8,0:0:0:0:
230,111,140024,1,8,0:0:0:0:
228,106,140084,1,0,0:0:0:0:
228,126,140144,1,0,0:0:0:0:
228,126,140204,1,8,0:0:0:0:
235,127,140324,1,8,0:0:0:0:
230,131,140444,1,0,0:0:0:0:
227,139,140564,1,0,0:0:0:0:
227,139,140624,1,0,0:0:0:0:
227,139,140684,1,8,0:0:0:0:
224,132,140804,1,0,0:0:0:0:
224,132,140924,1,8,0:0:0:0:
224,132,140984,1,0,0:0:0:0:
224,132,141044,1,0,0:0:0:0:
225,123,141104,1,0,0:0:0:0:
224,132,141164,1,8,0:0:0:0:
219,104,141284,1,0,0:0:0:0:
219,104,141404,1,8,0:0:0:0:
219,104,141524,1,0,0:0:0:0:
219,104,141584,1,0,0:0:0:0:
219,104,141644,1,8,0:0:0:0:
232,112,141764,1,0,0:0:0:0:
232,112,141884,1,8,0:0:0:0:
229,119,141944,1,8,0:0:0:0:
222,80,142004,1,0,0:0:0:0:
222,80,142124,1,8,0:0:0:0:
225,123,142244,1,0,0:0:0:0:
225,123,142364,1,8,0:0:0:0:
225,123,142424,1,0,0:0:0:0:
225,123,142484,1,0,0:0:0:0:
225,123,142604,1,8,0:0:0:0:
221,101,142724,1,0,0:0:0:0:
221,101,142784,1,0,0:0:0:0:
221,101,142844,1,8,0:0:0:0:
221,101,142904,1,8,0:0:0:0:
221,101,142964,1,0,0:0:0:0:
221,101,143084,1,8,0:0:0:0:
221,101,143204,1,0,0:0:0:0:
247,95,143324,1,8,0:0:0:0:
247,95,143384,1,8,0:0:0:0:
247,95,143444,1,0,0:0:0:0:
246,89,143564,1,8,0:0:0:0:
246,89,143684,1,0,0:0:0:0:
236,95,143744,1,0,0:0:0:0:
222,125,143804,1,8,0:0:0:0:
237,76,143864,1,0,0:0:0:0:
222,125,143924,1,8,0:0:0:0:
241,84,144044,1,8,0:0:0:0:
241,84,144164,1,0,0:0:0:0:
241,113,144284,1,0,0:0:0:0:
235,133,144404,1,0,0:0:0:0:
235,133,144464,1,0,0:0:0:0:
235,132,144524,1,8,0:0:0:0:
235,132,144644,1,8,0:0:0:0:
235,132,144704,1,8,0:0:0:0:
235,132,144764,1,0,0:0:0:0:
238,107,144884,1,0,0:0:0:0:
238,107,145004,1,8,0:0:0:0:
238,107,145124,1,0,0:0:0:0:
238,107,145244,1,0,0:0:0:0:
238,107,145484,1,8,0:0:0:0:
230,101,145604,1,8,0:0:0:0:
238,107,145724,1,0,0:0:0:0:
238,107,145844,1,0,0:0:0:0:
238,107,145964,1,8,0:0:0:0:
238,107,146204,1,4,0:0:0:0:
