osu file format v14

[General]
AudioFilename: audio.mp3
AudioLeadIn: 0
PreviewTime: 99644
Countdown: 0
SampleSet: Normal
StackLeniency: 0.7
Mode: 1
LetterboxInBreaks: 0
WidescreenStoryboard: 1

[Editor]
Bookmarks: 7956,15636,23316,30996,38676,46356,61716,77076,84756,92436,100116,115476,130836
DistanceSpacing: 1.6
BeatDivisor: 4
GridSize: 32
TimelineZoom: 2.1

[Metadata]
Title:Newborn space
TitleUnicode:Newborn space
Artist:exnoiz
ArtistUnicode:exnoiz
Creator:WTHBRO
Version:muzukashii
Source:
Tags:instrumental electronic breakcore psytrance メトロミュー metro mew baby galaxy
BeatmapID:4326038
BeatmapSetID:2067863

[Difficulty]
HPDrainRate:6
CircleSize:4
OverallDifficulty:5
ApproachRate:9.8
SliderMultiplier:1.3
SliderTickRate:1

[Events]
//Background and Video events
0,0,"cliff.jpg",0,0
//Break Periods
//Storyboard Layer 0 (Background)
//Storyboard Layer 1 (Fail)
//Storyboard Layer 2 (Pass)
//Storyboard Layer 3 (Foreground)
//Storyboard Layer 4 (Overlay)
//Storyboard Sound Samples

[TimingPoints]
284,240,4,1,0,50,1,0
284,-166.666666666667,4,1,0,50,0,0
7964,-111.111111111111,4,1,0,85,0,0
15644,-105.263157894737,4,1,0,90,0,0
23324,-100,4,1,0,100,0,1
38684,-105.263157894737,4,1,0,95,0,0
46364,-105.263157894737,4,1,0,90,0,0
61724,-100,4,1,0,100,0,1
77084,-105.263157894737,4,1,0,95,0,0
84764,-105.263157894737,4,1,0,75,0,0
84884,-125,4,1,0,75,0,0
92444,-111.111111111111,4,1,0,80,0,0
100124,-100,4,1,0,90,0,1
130844,-105.263157894737,4,1,0,90,0,0

[HitObjects]
226,272,7964,5,0,0:0:0:0:
226,272,8204,1,8,0:0:0:0:
221,248,8324,1,8,0:0:0:0:
221,248,8444,1,8,0:0:0:0:
221,276,8564,1,0,0:0:0:0:
221,276,8684,1,8,0:0:0:0:
230,257,8804,1,8,0:0:0:0:
231,265,8924,1,0,0:0:0:0:
231,265,9164,1,8,0:0:0:0:
231,265,9284,1,0,0:0:0:0:
225,230,9404,1,0,0:0:0:0:
225,230,9464,1,0,0:0:0:0:
225,230,9524,1,0,0:0:0:0:
225,230,9644,1,8,0:0:0:0:
237,215,9884,1,0,0:0:0:0:
226,240,10124,1,8,0:0:0:0:
226,240,10244,1,8,0:0:0:0:
232,214,10364,1,0,0:0:0:0:
232,214,10484,1,8,0:0:0:0:
231,235,10604,1,8,0:0:0:0:
236,223,10724,1,8,0:0:0:0:
231,235,10844,1,0,0:0:0:0:
251,235,11084,1,8,0:0:0:0:
235,213,11204,1,8,0:0:0:0:
251,235,11264,1,8,0:0:0:0:
251,165,11324,1,8,0:0:0:0:
251,244,11804,1,0,0:0:0:0:
244,240,12044,1,8,0:0:0:0:
244,240,12164,1,8,0:0:0:0:
244,240,12284,1,0,0:0:0:0:
254,244,12404,1,0,0:0:0:0:
254,244,12524,1,8,0:0:0:0:
254,244,12644,1,8,0:0:0:0:
258,223,12764,1,0,0:0:0:0:
258,223,13004,1,8,0:0:0:0:
256,226,13124,1,8,0:0:0:0:
256,226,13244,1,0,0:0:0:0:
256,226,13304,1,0,0:0:0:0:
256,226,13364,1,0,0:0:0:0:
266,207,13484,1,8,0:0:0:0:
266,207,13724,1,0,0:0:0:0:
266,207,13844,1,8,0:0:0:0:
265,216,13904,1,8,0:0:0:0:
266,207,13964,1,8,0:0:0:0:
265,216,14084,1,8,0:0:0:0:
265,216,14204,1,0,0:0:0:0:
266,207,14324,1,0,0:0:0:0:
268,202,14444,1,8,0:0:0:0:
268,202,14684,1,0,0:0:0:0:
268,202,14804,1,0,0:0:0:0:
268,202,14924,1,8,0:0:0:0:
246,200,15044,1,0,0:0:0:0:
258,208,15164,1,8,0:0:0:0:
280,207,15644,5,4,0:0:0:0:
254,207,15884,1,8,0:0:0:0:
255,198,16004,1,0,0:0:0:0:
255,198,16064,1,0,0:0:0:0:
258,208,16124,1,0,0:0:0:0:
256,204,16244,1,0,0:0:0:0:
259,219,16364,1,8,0:0:0:0:
259,219,16604,1,0,0:0:0:0:
254,207,16724,1,0,0:0:0:0:
254,207,16844,1,8,0:0:0:0:
253,220,16964,1,0,0:0:0:0:
253,220,17084,1,8,0:0:0:0:
258,190,17324,1,8,0:0:0:0:
251,195,17444,1,0,0:0:0:0:
258,190,17564,1,8,0:0:0:0:
267,150,17804,1,8,0:0:0:0:
247,196,17924,1,8,0:0:0:0:
258,175,17984,1,8,0:0:0:0:
258,175,18044,1,8,0:0:0:0:
258,175,18164,1,0,0:0:0:0:
254,155,18284,1,8,0:0:0:0:
253,174,18404,1,8,0:0:0:0:
247,177,18524,1,0,0:0:0:0:
246,176,18764,1,8,0:0:0:0:
252,160,18884,1,0,0:0:0:0:
248,156,19004,1,8,0:0:0:0:
245,171,19484,1,8,0:0:0:0:
263,141,19604,1,8,0:0:0:0:
247,159,19724,1,0,0:0:0:0:
247,154,19844,1,8,0:0:0:0:
245,151,20084,1,0,0:0:0:0:
245,151,20204,1,8,0:0:0:0:
241,145,20444,1,0,0:0:0:0:
247,140,20564,1,0,0:0:0:0:
247,140,20684,1,8,0:0:0:0:
247,143,20804,1,8,0:0:0:0:
247,143,20864,1,8,0:0:0:0:
247,143,20924,1,8,0:0:0:0:
247,143,21044,1,0,0:0:0:0:
240,145,21164,1,8,0:0:0:0:
247,140,21404,1,0,0:0:0:0:
239,142,21524,1,0,0:0:0:0:
239,142,21644,1,8,0:0:0:0:
247,143,21764,1,8,0:0:0:0:
239,142,21884,1,0,0:0:0:0:
239,142,22004,1,0,0:0:0:0:
251,148,22124,1,8,0:0:0:0:
241,156,22364,1,4,0:0:0:0:
241,157,22844,1,0,0:0:0:0:
241,157,22964,1,0,0:0:0:0:
241,157,23084,1,8,0:0:0:0:
236,159,23324,5,4,0:0:0:0:
224,183,23564,1,8,0:0:0:0:
228,161,23684,1,0,0:0:0:0:
228,161,23804,1,0,0:0:0:0:
228,161,23924,1,8,0:0:0:0:
234,151,24044,1,0,0:0:0:0:
234,151,24104,1,0,0:0:0:0:
234,151,24164,1,0,0:0:0:0:
231,182,24284,1,0,0:0:0:0:
211,170,24404,1,8,0:0:0:0:
244,138,24644,1,8,0:0:0:0:
236,145,24764,1,0,0:0:0:0:
236,145,24884,1,8,0:0:0:0:
236,145,25004,1,8,0:0:0:0:
248,177,25244,1,4,0:0:0:0:
245,183,25484,1,4,0:0:0:0:
238,170,25724,1,0,0:0:0:0:
234,158,25844,1,8,0:0:0:0:
236,145,25964,1,8,0:0:0:0:
240,192,26024,1,8,0:0:0:0:
240,192,26084,1,8,0:0:0:0:
245,168,26204,1,0,0:0:0:0:
245,168,26444,1,8,0:0:0:0:
250,190,26564,1,0,0:0:0:0:
249,153,26684,1,0,0:0:0:0:
256,159,26864,1,8,0:0:0:0:
258,166,26924,1,8,0:0:0:0:
245,168,27044,1,0,0:0:0:0:
242,169,27164,1,8,0:0:0:0:
246,174,27524,1,8,0:0:0:0:
249,169,27644,1,8,0:0:0:0:
250,177,27764,1,0,0:0:0:0:
246,176,27884,1,8,0:0:0:0:
246,176,28004,1,8,0:0:0:0:
246,176,28124,1,0,0:0:0:0:
252,161,28364,1,0,0:0:0:0:
247,161,28484,1,8,0:0:0:0:
248,191,28604,1,0,0:0:0:0:
250,151,28664,1,0,0:0:0:0:
250,151,28724,1,0,0:0:0:0:
251,145,28844,1,8,0:0:0:0:
251,145,28964,1,8,0:0:0:0:
250,147,29084,1,0,0:0:0:0:
246,129,29324,1,0,0:0:0:0:
246,129,29444,1,0,0:0:0:0:
246,129,29564,1,8,0:0:0:0:
238,142,29624,1,8,0:0:0:0:
246,129,29684,1,8,0:0:0:0:
241,120,29804,1,8,0:0:0:0:
247,108,30044,1,0,0:0:0:0:
235,143,30164,1,8,0:0:0:0:
247,108,30284,1,0,0:0:0:0:
247,108,30404,1,0,0:0:0:0:
258,119,30524,1,8,0:0:0:0:
245,122,31004,1,4,0:0:0:0:
235,180,31244,1,8,0:0:0:0:
230,159,31364,1,0,0:0:0:0:
230,159,31484,1,0,0:0:0:0:
230,159,31604,1,8,0:0:0:0:
230,159,31724,1,8,0:0:0:0:
230,159,31784,1,8,0:0:0:0:
230,159,31844,1,8,0:0:0:0:
230,159,31964,1,0,0:0:0:0:
246,160,32084,1,8,0:0:0:0:
246,160,32324,1,8,0:0:0:0:
235,162,32444,1,8,0:0:0:0:
256,128,32564,1,0,0:0:0:0:
235,162,32684,1,8,0:0:0:0:
242,150,32924,1,4,0:0:0:0:
242,150,33044,1,4,0:0:0:0:
242,150,33164,1,4,0:0:0:0:
243,146,33404,1,8,0:0:0:0:
254,121,33524,1,0,0:0:0:0:
244,150,33644,1,8,0:0:0:0:
242,150,33704,1,8,0:0:0:0:
248,166,33764,1,8,0:0:0:0:
237,145,33884,1,0,0:0:0:0:
246,142,34124,1,8,0:0:0:0:
241,158,34244,1,0,0:0:0:0:
249,148,34364,1,8,0:0:0:0:
235,153,34844,1,0,0:0:0:0:
245,153,35024,1,0,0:0:0:0:
235,153,35084,1,0,0:0:0:0:
235,144,35204,1,8,0:0:0:0:
235,144,35324,1,0,0:0:0:0:
236,146,35444,1,0,0:0:0:0:
236,146,35564,1,8,0:0:0:0:
236,146,35804,1,0,0:0:0:0:
236,146,35924,1,0,0:0:0:0:
236,146,36044,1,8,0:0:0:0:
219,140,36164,1,8,0:0:0:0:
219,140,36224,1,8,0:0:0:0:
219,140,36284,1,8,0:0:0:0:
219,134,36404,1,0,0:0:0:0:
219,134,36524,1,8,0:0:0:0:
218,123,36764,1,0,0:0:0:0:
232,127,37004,1,0,0:0:0:0:
232,127,37124,1,0,0:0:0:0:
232,181,37244,1,8,0:0:0:0:
227,139,37304,1,8,0:0:0:0:
232,181,37364,1,8,0:0:0:0:
232,181,37484,1,0,0:0:0:0:
233,142,37604,1,8,0:0:0:0:
214,115,37724,1,0,0:0:0:0:
232,181,37844,1,8,0:0:0:0:
243,161,38084,1,8,0:0:0:0:
245,207,38204,1,0,0:0:0:0:
235,207,38684,5,4,0:0:0:0:
257,222,38924,1,8,0:0:0:0:
257,222,39044,1,0,0:0:0:0:
256,221,39164,1,0,0:0:0:0:
254,197,39284,1,8,0:0:0:0:
252,210,39524,1,8,0:0:0:0:
253,194,39644,1,0,0:0:0:0:
245,199,39764,1,8,0:0:0:0:
245,199,39884,1,8,0:0:0:0:
245,208,39944,1,8,0:0:0:0:
245,207,40004,1,8,0:0:0:0:
257,199,40124,1,8,0:0:0:0:
245,177,40364,1,0,0:0:0:0:
245,177,40484,1,8,0:0:0:0:
245,177,40604,1,0,0:0:0:0:
245,177,40724,1,0,0:0:0:0:
245,177,40844,1,0,0:0:0:0:
245,177,41084,1,0,0:0:0:0:
232,172,41144,1,0,0:0:0:0:
232,172,41204,1,0,0:0:0:0:
240,169,41324,1,0,0:0:0:0:
253,195,41444,1,8,0:0:0:0:
235,167,41564,1,0,0:0:0:0:
232,124,41804,1,0,0:0:0:0:
232,172,41924,1,0,0:0:0:0:
237,130,42044,1,8,0:0:0:0:
240,149,42404,1,8,0:0:0:0:
229,155,42524,1,4,0:0:0:0:
227,183,42764,1,8,0:0:0:0:
235,155,42884,1,0,0:0:0:0:
235,155,43004,1,0,0:0:0:0:
235,155,43124,1,8,0:0:0:0:
241,151,43244,1,0,0:0:0:0:
234,170,43484,1,0,0:0:0:0:
226,164,43604,1,8,0:0:0:0:
226,164,43724,1,0,0:0:0:0:
226,170,43844,1,0,0:0:0:0:
226,170,43964,1,8,0:0:0:0:
227,169,44084,1,0,0:0:0:0:
227,169,44324,1,8,0:0:0:0:
227,169,44444,1,0,0:0:0:0:
232,164,44684,1,0,0:0:0:0:
232,164,44804,1,8,0:0:0:0:
232,164,44864,1,8,0:0:0:0:
232,157,44924,1,8,0:0:0:0:
232,157,45044,1,8,0:0:0:0:
222,157,45164,1,0,0:0:0:0:
222,156,45404,1,0,0:0:0:0:
226,148,45524,1,0,0:0:0:0:
229,154,45644,1,8,0:0:0:0:
229,154,45704,1,8,0:0:0:0:
232,157,45764,1,8,0:0:0:0:
232,157,45884,1,0,0:0:0:0:
235,158,46004,1,8,0:0:0:0:
234,143,46364,5,4,0:0:0:0:
242,158,46604,1,8,0:0:0:0:
225,151,46724,1,0,0:0:0:0:
221,159,46844,1,0,0:0:0:0:
222,164,46964,1,8,0:0:0:0:
243,130,47084,1,0,0:0:0:0:
262,92,47204,1,8,0:0:0:0:
254,121,47324,1,0,0:0:0:0:
234,171,47564,1,8,0:0:0:0:
227,153,47684,1,0,0:0:0:0:
246,144,47804,1,8,0:0:0:0:
243,130,47864,1,8,0:0:0:0:
246,144,47924,1,8,0:0:0:0:
227,153,48044,1,8,0:0:0:0:
243,157,48284,1,8,0:0:0:0:
227,153,48524,1,8,0:0:0:0:
227,153,48644,1,8,0:0:0:0:
257,175,48764,1,0,0:0:0:0:
256,117,48884,1,8,0:0:0:0:
250,126,49004,1,0,0:0:0:0:
250,126,49244,1,0,0:0:0:0:
237,114,49364,1,0,0:0:0:0:
237,114,49484,1,8,0:0:0:0:
237,114,49604,1,0,0:0:0:0:
249,141,49724,1,8,0:0:0:0:
247,144,50204,1,0,0:0:0:0:
236,140,50324,1,0,0:0:0:0:
236,140,50444,1,8,0:0:0:0:
236,140,50564,1,0,0:0:0:0:
236,140,50804,1,8,0:0:0:0:
238,145,50924,1,8,0:0:0:0:
238,145,51044,1,8,0:0:0:0:
236,140,51164,1,0,0:0:0:0:
237,149,51404,1,8,0:0:0:0:
229,128,51524,1,0,0:0:0:0:
234,145,51584,1,0,0:0:0:0:
229,128,51644,1,0,0:0:0:0:
229,128,51764,1,0,0:0:0:0:
238,145,51884,1,8,0:0:0:0:
234,139,52124,1,8,0:0:0:0:
240,140,52244,1,0,0:0:0:0:
240,140,52364,1,8,0:0:0:0:
241,152,52484,1,0,0:0:0:0:
238,145,52724,1,0,0:0:0:0:
237,176,52844,1,8,0:0:0:0:
240,140,53084,1,0,0:0:0:0:
240,140,53204,1,0,0:0:0:0:
240,140,53324,1,8,0:0:0:0:
240,127,53444,1,0,0:0:0:0:
251,138,53564,1,8,0:0:0:0:
234,143,54044,1,0,0:0:0:0:
242,158,54284,1,8,0:0:0:0:
221,161,54404,1,8,0:0:0:0:
251,132,54524,1,0,0:0:0:0:
251,132,54644,1,8,0:0:0:0:
254,132,54764,1,0,0:0:0:0:
253,132,55004,1,8,0:0:0:0:
234,172,55124,1,0,0:0:0:0:
234,171,55244,1,8,0:0:0:0:
227,153,55364,1,8,0:0:0:0:
225,104,55484,1,0,0:0:0:0:
246,144,55544,1,0,0:0:0:0:
225,104,55604,1,0,0:0:0:0:
227,153,55724,1,8,0:0:0:0:
233,147,55964,1,8,0:0:0:0:
227,153,56084,1,8,0:0:0:0:
227,153,56204,1,0,0:0:0:0:
226,157,56324,1,8,0:0:0:0:
229,154,56384,1,8,0:0:0:0:
241,156,56444,1,8,0:0:0:0:
242,136,56564,1,8,0:0:0:0:
232,116,56804,1,8,0:0:0:0:
232,116,56924,1,0,0:0:0:0:
237,114,57044,1,0,0:0:0:0:
237,114,57164,1,8,0:0:0:0:
254,111,57284,1,8,0:0:0:0:
237,114,57404,1,0,0:0:0:0:
235,123,57884,1,8,0:0:0:0:
236,140,58004,1,8,0:0:0:0:
236,140,58124,1,0,0:0:0:0:
222,136,58244,1,8,0:0:0:0:
236,140,58484,1,0,0:0:0:0:
238,145,58604,1,8,0:0:0:0:
241,132,58724,1,8,0:0:0:0:
227,131,58844,1,0,0:0:0:0:
237,149,59084,1,0,0:0:0:0:
229,128,59204,1,8,0:0:0:0:
220,133,59324,1,8,0:0:0:0:
229,128,59444,1,0,0:0:0:0:
238,145,59564,1,8,0:0:0:0:
240,140,59804,1,8,0:0:0:0:
240,140,59924,1,0,0:0:0:0:
240,140,60044,1,8,0:0:0:0:
229,128,60164,1,0,0:0:0:0:
229,128,60224,1,0,0:0:0:0:
240,140,60284,1,0,0:0:0:0:
238,145,60404,1,8,0:0:0:0:
237,176,60524,1,8,0:0:0:0:
240,140,60764,1,0,0:0:0:0:
240,127,61244,1,8,0:0:0:0:
227,148,61364,1,8,0:0:0:0:
247,144,61484,1,0,0:0:0:0:
265,217,61724,5,4,0:0:0:0:
231,228,61844,1,8,0:0:0:0:
235,225,62084,1,0,0:0:0:0:
222,230,62204,1,12,0:0:0:0:
238,194,62444,1,8,0:0:0:0:
234,201,62564,1,8,0:0:0:0:
206,170,62684,1,4,0:0:0:0:
215,168,62924,1,0,0:0:0:0:
216,181,63164,1,12,0:0:0:0:
220,175,63284,1,12,0:0:0:0:
212,170,63524,1,8,0:0:0:0:
217,164,63644,1,4,0:0:0:0:
226,177,63884,1,0,0:0:0:0:
226,177,64004,1,0,0:0:0:0:
224,148,64124,1,12,0:0:0:0:
218,130,64364,1,8,0:0:0:0:
217,130,64604,1,4,0:0:0:0:
232,162,64724,1,8,0:0:0:0:
215,104,64844,1,0,0:0:0:0:
215,104,65084,1,12,0:0:0:0:
216,148,65564,1,4,0:0:0:0:
219,150,65804,1,8,0:0:0:0:
219,150,65924,1,0,0:0:0:0:
203,148,66044,1,12,0:0:0:0:
207,139,66284,1,8,0:0:0:0:
211,140,66404,1,8,0:0:0:0:
211,140,66524,1,4,0:0:0:0:
213,130,66764,1,0,0:0:0:0:
218,147,67004,1,12,0:0:0:0:
204,123,67244,1,8,0:0:0:0:
204,123,67364,1,8,0:0:0:0:
204,123,67484,1,4,0:0:0:0:
209,124,67724,1,8,0:0:0:0:
209,124,67844,1,0,0:0:0:0:
201,135,67964,1,12,0:0:0:0:
201,118,68324,1,8,0:0:0:0:
201,116,68444,1,4,0:0:0:0:
209,124,68684,1,0,0:0:0:0:
209,124,68804,1,0,0:0:0:0:
205,125,68924,1,12,0:0:0:0:
190,149,69404,1,4,0:0:0:0:
207,164,69644,1,8,0:0:0:0:
207,164,69764,1,0,0:0:0:0:
194,181,69884,1,12,0:0:0:0:
195,175,70244,1,8,0:0:0:0:
195,175,70364,1,4,0:0:0:0:
220,146,70604,1,0,0:0:0:0:
205,177,70844,1,12,0:0:0:0:
190,164,70964,1,12,0:0:0:0:
211,138,71204,1,8,0:0:0:0:
194,168,71324,1,4,0:0:0:0:
204,143,71564,1,8,0:0:0:0:
201,137,71684,1,0,0:0:0:0:
196,159,71804,1,12,0:0:0:0:
208,133,72044,1,8,0:0:0:0:
208,133,72164,1,8,0:0:0:0:
208,133,72284,1,4,0:0:0:0:
201,156,72524,1,0,0:0:0:0:
192,133,72764,1,12,0:0:0:0:
222,128,73244,1,4,0:0:0:0:
225,150,73484,1,8,0:0:0:0:
225,150,73604,1,0,0:0:0:0:
220,142,73724,1,12,0:0:0:0:
224,135,73964,1,8,0:0:0:0:
217,133,74084,1,8,0:0:0:0:
217,133,74204,1,4,0:0:0:0:
218,122,74444,1,0,0:0:0:0:
218,122,74684,1,12,0:0:0:0:
222,122,74924,1,8,0:0:0:0:
227,126,75044,1,8,0:0:0:0:
226,124,75164,1,4,0:0:0:0:
226,124,75404,1,0,0:0:0:0:
226,124,75524,1,0,0:0:0:0:
227,127,75644,1,12,0:0:0:0:
227,126,75884,1,0,0:0:0:0:
226,124,76004,1,8,0:0:0:0:
226,124,76124,1,4,0:0:0:0:
226,124,76364,1,0,0:0:0:0:
224,120,76604,1,12,0:0:0:0:
226,124,77084,5,4,0:0:0:0:
244,138,77444,1,0,0:0:0:0:
240,138,77564,1,8,0:0:0:0:
261,134,77804,1,0,0:0:0:0:
273,144,77924,1,0,0:0:0:0:
223,120,77984,1,0,0:0:0:0:
210,132,78044,1,0,0:0:0:0:
229,146,78164,1,8,0:0:0:0:
229,146,78284,1,0,0:0:0:0:
243,156,78524,1,8,0:0:0:0:
235,169,78764,1,0,0:0:0:0:
253,156,78884,1,8,0:0:0:0:
253,156,79004,1,0,0:0:0:0:
253,156,79364,1,0,0:0:0:0:
251,174,79484,1,8,0:0:0:0:
244,161,79724,1,8,0:0:0:0:
244,161,79844,1,0,0:0:0:0:
226,117,79904,1,0,0:0:0:0:
244,161,79964,1,0,0:0:0:0:
244,161,80084,1,8,0:0:0:0:
226,117,80204,1,0,0:0:0:0:
240,167,80444,1,8,0:0:0:0:
240,167,80684,1,8,0:0:0:0:
240,167,80804,1,8,0:0:0:0:
252,176,80924,1,0,0:0:0:0:
254,154,81284,1,0,0:0:0:0:
246,166,81404,1,8,0:0:0:0:
235,151,81644,1,0,0:0:0:0:
235,151,81764,1,8,0:0:0:0:
235,151,81884,1,0,0:0:0:0:
235,151,82004,1,8,0:0:0:0:
249,140,82124,1,0,0:0:0:0:
251,144,82364,1,8,0:0:0:0:
230,168,82604,1,0,0:0:0:0:
246,180,82724,1,8,0:0:0:0:
246,180,82844,1,0,0:0:0:0:
246,180,83084,1,0,0:0:0:0:
246,180,83204,1,0,0:0:0:0:
246,180,83324,1,8,0:0:0:0:
224,162,83564,1,0,0:0:0:0:
224,162,83684,1,0,0:0:0:0:
224,225,83804,1,0,0:0:0:0:
248,172,83924,1,8,0:0:0:0:
248,172,83984,1,8,0:0:0:0:
233,199,84044,1,8,0:0:0:0:
233,199,84164,1,0,0:0:0:0:
242,200,84284,1,8,0:0:0:0:
224,225,84764,5,4,0:0:0:0:
243,187,85004,1,8,0:0:0:0:
236,220,85244,1,0,0:0:0:0:
236,220,85484,1,0,0:0:0:0:
241,197,85724,1,0,0:0:0:0:
256,207,85964,1,8,0:0:0:0:
264,228,86204,1,0,0:0:0:0:
264,228,86444,1,0,0:0:0:0:
243,187,86684,1,0,0:0:0:0:
243,187,86924,1,8,0:0:0:0:
243,187,87164,1,0,0:0:0:0:
243,187,87404,1,0,0:0:0:0:
243,187,87644,1,0,0:0:0:0:
243,187,87884,1,8,0:0:0:0:
243,187,88124,1,0,0:0:0:0:
243,187,88364,1,0,0:0:0:0:
243,187,88604,1,0,0:0:0:0:
243,187,88844,1,8,0:0:0:0:
243,187,89084,1,0,0:0:0:0:
243,187,89324,1,0,0:0:0:0:
243,187,89564,1,0,0:0:0:0:
243,187,89804,1,8,0:0:0:0:
243,187,90044,1,0,0:0:0:0:
243,187,90284,1,0,0:0:0:0:
243,187,90524,1,0,0:0:0:0:
243,187,90764,1,8,0:0:0:0:
243,187,91004,1,0,0:0:0:0:
243,187,91244,1,0,0:0:0:0:
243,187,91484,1,0,0:0:0:0:
243,187,91724,1,8,0:0:0:0:
243,187,91964,1,0,0:0:0:0:
243,176,92084,1,8,0:0:0:0:
243,176,92444,1,4,0:0:0:0:
246,162,92684,1,8,0:0:0:0:
245,171,92924,1,0,0:0:0:0:
243,176,93164,1,8,0:0:0:0:
243,176,93284,1,8,0:0:0:0:
245,172,93404,1,0,0:0:0:0:
235,175,93644,1,8,0:0:0:0:
235,175,93764,1,0,0:0:0:0:
235,175,94004,1,0,0:0:0:0:
235,175,94124,1,8,0:0:0:0:
235,175,94244,1,8,0:0:0:0:
235,175,94364,1,0,0:0:0:0:
226,164,94604,1,8,0:0:0:0:
226,164,94844,1,0,0:0:0:0:
226,164,94964,1,8,0:0:0:0:
226,164,95204,1,8,0:0:0:0:
226,164,95324,1,0,0:0:0:0:
226,164,95564,1,8,0:0:0:0:
226,164,95684,1,8,0:0:0:0:
226,164,95804,1,0,0:0:0:0:
226,164,95924,1,8,0:0:0:0:
226,164,96164,1,8,0:0:0:0:
226,164,96284,1,0,0:0:0:0:
226,175,96404,1,8,0:0:0:0:
224,183,96644,1,8,0:0:0:0:
224,183,97004,1,0,0:0:0:0:
231,150,97124,1,8,0:0:0:0:
216,182,97364,1,8,0:0:0:0:
217,171,97484,1,8,0:0:0:0:
217,171,97604,1,8,0:0:0:0:
231,172,97844,1,0,0:0:0:0:
231,172,97964,1,8,0:0:0:0:
243,202,98084,1,8,0:0:0:0:
231,251,98204,1,0,0:0:0:0:
231,251,98444,1,8,0:0:0:0:
231,251,98564,1,0,0:0:0:0:
228,234,98684,1,0,0:0:0:0:
228,234,98744,1,0,0:0:0:0:
228,234,98804,1,0,0:0:0:0:
228,234,98924,1,8,0:0:0:0:
224,233,99044,1,8,0:0:0:0:
238,228,99164,1,0,0:0:0:0:
238,228,99404,1,8,0:0:0:0:
238,228,99524,1,0,0:0:0:0:
236,203,99644,1,0,0:0:0:0:
226,194,100124,5,4,0:0:0:0:
228,184,100364,1,8,0:0:0:0:
228,184,100484,1,8,0:0:0:0:
228,184,100604,1,0,0:0:0:0:
226,185,100724,1,0,0:0:0:0:
245,170,100844,1,8,0:0:0:0:
240,164,101084,1,8,0:0:0:0:
246,151,101204,1,8,0:0:0:0:
247,148,101324,1,0,0:0:0:0:
247,148,101444,1,8,0:0:0:0:
235,166,101504,1,8,0:0:0:0:
235,166,101564,1,8,0:0:0:0:
235,166,101684,1,0,0:0:0:0:
258,148,101804,1,8,0:0:0:0:
246,151,101924,1,8,0:0:0:0:
254,145,102044,1,8,0:0:0:0:
259,149,102284,1,8,0:0:0:0:
259,149,102404,1,0,0:0:0:0:
253,144,102524,1,8,0:0:0:0:
253,154,102764,1,8,0:0:0:0:
230,155,102884,1,0,0:0:0:0:
258,146,103004,1,0,0:0:0:0:
267,128,103124,1,8,0:0:0:0:
259,149,103244,1,8,0:0:0:0:
262,136,103484,1,8,0:0:0:0:
262,135,103664,1,8,0:0:0:0:
272,140,103724,1,8,0:0:0:0:
243,138,103844,1,0,0:0:0:0:
243,138,103964,1,8,0:0:0:0:
252,136,104324,1,8,0:0:0:0:
228,153,104444,1,0,0:0:0:0:
257,124,104564,1,0,0:0:0:0:
258,142,104684,1,8,0:0:0:0:
258,142,104744,1,8,0:0:0:0:
258,142,104804,1,8,0:0:0:0:
258,141,104924,1,0,0:0:0:0:
256,143,105164,1,8,0:0:0:0:
256,143,105284,1,0,0:0:0:0:
243,143,105404,1,0,0:0:0:0:
256,140,105524,1,0,0:0:0:0:
253,147,105644,1,8,0:0:0:0:
253,147,105764,1,8,0:0:0:0:
255,156,105884,1,0,0:0:0:0:
256,156,106124,1,8,0:0:0:0:
263,165,106244,1,0,0:0:0:0:
239,132,106304,1,0,0:0:0:0:
263,165,106364,1,0,0:0:0:0:
263,165,106484,1,0,0:0:0:0:
267,167,106604,1,8,0:0:0:0:
252,131,106724,1,8,0:0:0:0:
264,175,106964,1,0,0:0:0:0:
263,166,107084,1,8,0:0:0:0:
254,170,107204,1,8,0:0:0:0:
252,155,107324,1,0,0:0:0:0:
226,194,107804,1,4,0:0:0:0:
228,184,108044,1,8,0:0:0:0:
228,184,108164,1,0,0:0:0:0:
228,184,108284,1,0,0:0:0:0:
226,185,108404,1,0,0:0:0:0:
245,170,108524,1,8,0:0:0:0:
240,164,108764,1,8,0:0:0:0:
258,185,108884,1,8,0:0:0:0:
247,148,109004,1,0,0:0:0:0:
247,148,109124,1,8,0:0:0:0:
258,185,109184,1,8,0:0:0:0:
258,185,109244,1,8,0:0:0:0:
248,163,109364,1,0,0:0:0:0:
243,149,109484,1,8,0:0:0:0:
240,161,109724,1,8,0:0:0:0:
259,149,109964,1,8,0:0:0:0:
261,124,110084,1,0,0:0:0:0:
253,135,110204,1,8,0:0:0:0:
258,148,110324,1,0,0:0:0:0:
253,154,110444,1,8,0:0:0:0:
258,146,110684,1,0,0:0:0:0:
267,128,110804,1,8,0:0:0:0:
259,149,110924,1,8,0:0:0:0:
269,155,111164,1,0,0:0:0:0:
262,135,111344,1,8,0:0:0:0:
272,140,111404,1,8,0:0:0:0:
243,138,111524,1,0,0:0:0:0:
243,138,111644,1,8,0:0:0:0:
252,136,112004,1,8,0:0:0:0:
228,153,112124,1,0,0:0:0:0:
236,134,112304,1,0,0:0:0:0:
258,142,112364,1,0,0:0:0:0:
248,149,112484,1,0,0:0:0:0:
248,149,112604,1,8,0:0:0:0:
256,116,112844,1,0,0:0:0:0:
247,143,112964,1,8,0:0:0:0:
243,143,113084,1,0,0:0:0:0:
259,132,113264,1,8,0:0:0:0:
253,147,113324,1,8,0:0:0:0:
253,147,113444,1,8,0:0:0:0:
255,156,113564,1,0,0:0:0:0:
256,156,113804,1,8,0:0:0:0:
263,165,113924,1,0,0:0:0:0:
263,165,114044,1,0,0:0:0:0:
253,140,114104,1,0,0:0:0:0:
263,165,114164,1,0,0:0:0:0:
267,167,114284,1,8,0:0:0:0:
264,175,114524,1,0,0:0:0:0:
264,175,114644,1,0,0:0:0:0:
263,166,114764,1,8,0:0:0:0:
254,170,114884,1,8,0:0:0:0:
252,155,115004,1,0,0:0:0:0:
226,194,115484,5,4,0:0:0:0:
228,184,115724,1,8,0:0:0:0:
238,160,115844,1,8,0:0:0:0:
220,188,115964,1,0,0:0:0:0:
226,185,116084,1,0,0:0:0:0:
245,170,116204,1,8,0:0:0:0:
240,164,116444,1,8,0:0:0:0:
246,151,116564,1,8,0:0:0:0:
247,148,116684,1,0,0:0:0:0:
247,148,116804,1,8,0:0:0:0:
247,148,116864,1,8,0:0:0:0:
247,148,116924,1,8,0:0:0:0:
253,144,117044,1,0,0:0:0:0:
258,148,117164,1,8,0:0:0:0:
246,151,117284,1,0,0:0:0:0:
254,145,117404,1,8,0:0:0:0:
259,149,117644,1,8,0:0:0:0:
248,177,117764,1,0,0:0:0:0:
253,144,117884,1,8,0:0:0:0:
253,154,118124,1,8,0:0:0:0:
254,145,118244,1,8,0:0:0:0:
258,146,118364,1,0,0:0:0:0:
267,128,118484,1,0,0:0:0:0:
263,139,118604,1,8,0:0:0:0:
265,168,118844,1,0,0:0:0:0:
262,135,119024,1,8,0:0:0:0:
265,168,119084,1,8,0:0:0:0:
243,138,119204,1,0,0:0:0:0:
243,138,119324,1,8,0:0:0:0:
252,136,119684,1,8,0:0:0:0:
228,153,119804,1,0,0:0:0:0:
257,124,119924,1,0,0:0:0:0:
258,142,120044,1,8,0:0:0:0:
258,142,120104,1,8,0:0:0:0:
258,142,120164,1,8,0:0:0:0:
258,141,120284,1,0,0:0:0:0:
256,143,120524,1,8,0:0:0:0:
256,116,120644,1,8,0:0:0:0:
256,116,120764,1,0,0:0:0:0:
256,140,120884,1,0,0:0:0:0:
253,147,121004,1,8,0:0:0:0:
241,117,121064,1,8,0:0:0:0:
253,147,121124,1,8,0:0:0:0:
255,156,121244,1,0,0:0:0:0:
256,156,121484,1,8,0:0:0:0:
263,165,121604,1,0,0:0:0:0:
263,165,121724,1,0,0:0:0:0:
263,165,121844,1,0,0:0:0:0:
267,167,121964,1,8,0:0:0:0:
264,175,122204,1,0,0:0:0:0:
257,136,122324,1,8,0:0:0:0:
263,166,122444,1,8,0:0:0:0:
257,136,122564,1,8,0:0:0:0:
252,155,122684,1,0,0:0:0:0:
226,194,123164,1,0,0:0:0:0:
228,184,123404,1,8,0:0:0:0:
228,184,123524,1,0,0:0:0:0:
240,153,123644,1,8,0:0:0:0:
226,185,123764,1,0,0:0:0:0:
245,170,123884,1,8,0:0:0:0:
240,164,124124,1,8,0:0:0:0:
246,151,124244,1,8,0:0:0:0:
247,148,124364,1,0,0:0:0:0:
247,148,124484,1,8,0:0:0:0:
247,148,124544,1,8,0:0:0:0:
247,148,124604,1,8,0:0:0:0:
252,163,124724,1,0,0:0:0:0:
258,148,124844,1,8,0:0:0:0:
254,145,125084,1,8,0:0:0:0:
249,153,125324,1,0,0:0:0:0:
259,149,125444,1,0,0:0:0:0:
253,144,125564,1,8,0:0:0:0:
258,148,125684,1,0,0:0:0:0:
253,154,125804,1,8,0:0:0:0:
254,145,125864,1,8,0:0:0:0:
254,145,125924,1,8,0:0:0:0:
258,146,126044,1,0,0:0:0:0:
259,149,126284,1,8,0:0:0:0:
268,122,126404,1,0,0:0:0:0:
262,136,126524,1,8,0:0:0:0:
256,127,126644,1,0,0:0:0:0:
236,163,126764,1,8,0:0:0:0:
246,143,127004,1,0,0:0:0:0:
252,136,127364,1,8,0:0:0:0:
228,153,127484,1,0,0:0:0:0:
257,124,127604,1,0,0:0:0:0:
258,142,127724,1,8,0:0:0:0:
230,140,127784,1,8,0:0:0:0:
258,142,127844,1,8,0:0:0:0:
258,141,127964,1,0,0:0:0:0:
224,133,128204,1,8,0:0:0:0:
224,133,128324,1,0,0:0:0:0:
258,152,128444,1,0,0:0:0:0:
256,140,128564,1,0,0:0:0:0:
253,147,128684,1,8,0:0:0:0:
253,147,128804,1,8,0:0:0:0:
255,156,128924,1,0,0:0:0:0:
256,156,129164,1,8,0:0:0:0:
263,165,129284,1,0,0:0:0:0:
230,131,129404,1,8,0:0:0:0:
263,165,129524,1,0,0:0:0:0:
267,167,129644,1,8,0:0:0:0:
264,175,129884,1,0,0:0:0:0:
258,172,129944,1,0,0:0:0:0:
264,175,130004,1,0,0:0:0:0:
263,166,130124,1,8,0:0:0:0:
254,170,130244,1,0,0:0:0:0:
252,155,130364,1,8,0:0:0:0:
243,159,130844,5,4,0:0:0:0:
248,156,131084,1,8,0:0:0:0:
259,211,131204,1,8,0:0:0:0:
270,198,131324,1,0,0:0:0:0:
249,183,131444,1,0,0:0:0:0:
249,182,131564,1,8,0:0:0:0:
243,159,131804,1,8,0:0:0:0:
242,159,132044,1,0,0:0:0:0:
254,160,132164,1,8,0:0:0:0:
254,160,132284,1,8,0:0:0:0:
246,172,132404,1,0,0:0:0:0:
246,172,132524,1,8,0:0:0:0:
248,171,132764,1,0,0:0:0:0:
258,187,132884,1,0,0:0:0:0:
244,167,133004,1,8,0:0:0:0:
249,177,133124,1,8,0:0:0:0:
249,177,133364,1,0,0:0:0:0:
249,177,133484,1,8,0:0:0:0:
249,177,133724,1,0,0:0:0:0:
249,177,133784,1,0,0:0:0:0:
249,177,133844,1,0,0:0:0:0:
249,178,133964,1,8,0:0:0:0:
249,177,134084,1,0,0:0:0:0:
249,177,134204,1,8,0:0:0:0:
243,159,134684,1,0,0:0:0:0:
240,191,134804,1,0,0:0:0:0:
259,173,134924,1,8,0:0:0:0:
244,181,135044,1,8,0:0:0:0:
241,153,135164,1,0,0:0:0:0:
249,164,135404,1,8,0:0:0:0:
234,176,135524,1,8,0:0:0:0:
234,176,135644,1,0,0:0:0:0:
235,140,135704,1,0,0:0:0:0:
246,165,135764,1,0,0:0:0:0:
247,134,135884,1,8,0:0:0:0:
229,156,136004,1,0,0:0:0:0:
239,155,136244,1,0,0:0:0:0:
239,155,136364,1,8,0:0:0:0:
231,158,136604,1,0,0:0:0:0:
210,174,136724,1,8,0:0:0:0:
233,109,136844,1,0,0:0:0:0:
254,137,136964,1,8,0:0:0:0:
245,169,137204,1,8,0:0:0:0:
245,169,137264,1,8,0:0:0:0:
251,142,137324,1,8,0:0:0:0:
251,142,137444,1,8,0:0:0:0:
245,169,137564,1,0,0:0:0:0:
238,147,137684,1,0,0:0:0:0:
231,146,137804,1,8,0:0:0:0:
232,155,137924,1,0,0:0:0:0:
241,163,138044,1,8,0:0:0:0:
246,121,138524,1,0,0:0:0:0:
244,133,138644,1,0,0:0:0:0:
235,165,138764,1,8,0:0:0:0:
235,165,138824,1,8,0:0:0:0:
235,165,138884,1,8,0:0:0:0:
235,165,139004,1,0,0:0:0:0:
232,134,139124,1,8,0:0:0:0:
244,142,139244,1,0,0:0:0:0:
241,138,139484,1,8,0:0:0:0:
247,156,139724,1,0,0:0:0:0:
235,165,139844,1,8,0:0:0:0:
235,165,139964,1,8,0:0:0:0:
233,160,140084,1,0,0:0:0:0:
233,180,140204,1,8,0:0:0:0:
235,185,140444,1,0,0:0:0:0:
232,193,140684,1,8,0:0:0:0:
221,171,140804,1,8,0:0:0:0:
229,186,140924,1,0,0:0:0:0:
247,169,141044,1,0,0:0:0:0:
236,147,141164,1,8,0:0:0:0:
236,155,141404,1,0,0:0:0:0:
240,144,141464,1,0,0:0:0:0:
224,158,141524,1,0,0:0:0:0:
224,158,141644,1,8,0:0:0:0:
237,166,141764,1,0,0:0:0:0:
237,166,141884,1,8,0:0:0:0:
230,177,142364,1,0,0:0:0:0:
230,177,142604,1,8,0:0:0:0:
226,155,142724,1,0,0:0:0:0:
226,155,142844,1,8,0:0:0:0:
226,155,142964,1,8,0:0:0:0:
233,133,143084,1,0,0:0:0:0:
252,149,143324,1,8,0:0:0:0:
243,171,143564,1,0,0:0:0:0:
251,143,143684,1,8,0:0:0:0:
227,179,143804,1,8,0:0:0:0:
227,179,143924,1,0,0:0:0:0:
246,138,144044,1,8,0:0:0:0:
246,167,144284,1,0,0:0:0:0:
240,187,144404,1,0,0:0:0:0:
240,186,144524,1,8,0:0:0:0:
240,186,144644,1,8,0:0:0:0:
240,186,144764,1,0,0:0:0:0:
243,161,144884,1,0,0:0:0:0:
243,161,145004,1,8,0:0:0:0:
243,161,145244,1,0,0:0:0:0:
243,161,145484,1,8,0:0:0:0:
235,155,145604,1,8,0:0:0:0:
243,161,145724,1,0,0:0:0:0:
243,161,145844,1,0,0:0:0:0:
243,161,145964,1,8,0:0:0:0:
243,161,146204,1,4,0:0:0:0:
