osu file format v14

[General]
AudioFilename: audio.mp3
AudioLeadIn: 0
PreviewTime: 99644
Countdown: 0
SampleSet: Normal
StackLeniency: 0.7
Mode: 1
LetterboxInBreaks: 0
WidescreenStoryboard: 1

[Editor]
Bookmarks: 7956,15636,23316,30996,38676,46356,61716,77076,84756,92436,100116,115476,130836
DistanceSpacing: 1.6
BeatDivisor: 1
GridSize: 32
TimelineZoom: 1.7

[Metadata]
Title:Newborn space
TitleUnicode:Newborn space
Artist:exnoiz
ArtistUnicode:exnoiz
Creator:WTHBRO
Version:kantan
Source:
Tags:instrumental electronic breakcore psytrance メトロミュー metro mew baby galaxy
BeatmapID:4326037
BeatmapSetID:2067863

[Difficulty]
HPDrainRate:8
CircleSize:3
OverallDifficulty:3
ApproachRate:5
SliderMultiplier:1.1
SliderTickRate:1

[Events]
//Background and Video events
0,0,"cliff.jpg",0,0
//Break Periods
//Storyboard Layer 0 (Background)
//Storyboard Layer 1 (Fail)
//Storyboard Layer 2 (Pass)
//Storyboard Layer 3 (Foreground)
//Storyboard Layer 4 (Overlay)
//Storyboard Sound Samples

[TimingPoints]
284,240,4,1,0,50,1,0
284,-121.951219512195,4,1,0,50,0,0
7964,-121.951219512195,4,1,0,85,0,0
15644,-121.951219512195,4,1,0,90,0,0
23324,-121.951219512195,4,1,0,100,0,1
38684,-121.951219512195,4,1,0,95,0,0
46364,-121.951219512195,4,1,0,90,0,0
61724,-121.951219512195,4,1,0,100,0,1
77084,-121.951219512195,4,1,0,95,0,0
84764,-121.951219512195,4,1,0,75,0,0
92444,-121.951219512195,4,1,0,80,0,0
100124,-121.951219512195,4,1,0,90,0,1
130844,-121.951219512195,4,1,0,90,0,0

[HitObjects]
172,207,7964,5,0,0:0:0:0:
172,207,8444,1,8,0:0:0:0:
216,153,8684,1,0,0:0:0:0:
194,171,8924,1,0,0:0:0:0:
179,169,9404,1,8,0:0:0:0:
201,151,9884,1,0,0:0:0:0:
222,126,10364,1,8,0:0:0:0:
216,150,10604,1,8,0:0:0:0:
195,161,10844,1,0,0:0:0:0:
193,150,11084,1,0,0:0:0:0:
193,150,11324,1,8,0:0:0:0:
193,150,11804,1,0,0:0:0:0:
200,153,12284,1,0,0:0:0:0:
175,155,12524,1,8,0:0:0:0:
200,148,12764,1,0,0:0:0:0:
175,155,13244,1,8,0:0:0:0:
193,150,13724,1,0,0:0:0:0:
197,116,14204,1,0,0:0:0:0:
197,116,14684,1,8,0:0:0:0:
197,116,15644,5,4,0:0:0:0:
190,127,16124,1,8,0:0:0:0:
190,127,16364,1,8,0:0:0:0:
215,113,16604,1,0,0:0:0:0:
215,113,16844,1,0,0:0:0:0:
215,113,17084,1,8,0:0:0:0:
215,113,17564,1,8,0:0:0:0:
208,117,18044,1,8,0:0:0:0:
208,117,18284,1,0,0:0:0:0:
208,117,18524,1,8,0:0:0:0:
216,123,19004,1,0,0:0:0:0:
216,123,19244,1,0,0:0:0:0:
220,110,19484,1,8,0:0:0:0:
200,128,19964,1,8,0:0:0:0:
212,116,20204,1,8,0:0:0:0:
203,101,20444,1,0,0:0:0:0:
201,112,20924,1,8,0:0:0:0:
208,110,21404,1,0,0:0:0:0:
208,110,21644,1,0,0:0:0:0:
208,110,21884,1,8,0:0:0:0:
205,127,22364,1,4,0:0:0:0:
205,127,23324,5,4,0:0:0:0:
207,119,23564,1,8,0:0:0:0:
207,119,23804,1,0,0:0:0:0:
227,84,24284,1,0,0:0:0:0:
205,163,24524,1,8,0:0:0:0:
228,171,24764,1,8,0:0:0:0:
228,171,25004,1,8,0:0:0:0:
228,171,25244,1,0,0:0:0:0:
228,171,25724,1,8,0:0:0:0:
228,171,25964,1,8,0:0:0:0:
220,172,26204,1,0,0:0:0:0:
220,172,26684,1,0,0:0:0:0:
220,172,27164,1,8,0:0:0:0:
216,117,27644,1,0,0:0:0:0:
216,117,27884,1,8,0:0:0:0:
216,117,28124,1,8,0:0:0:0:
233,122,28604,1,0,0:0:0:0:
230,122,28844,1,8,0:0:0:0:
228,122,29084,1,0,0:0:0:0:
210,119,29564,1,8,0:0:0:0:
210,119,30044,1,0,0:0:0:0:
213,144,31004,1,4,0:0:0:0:
213,144,31484,1,8,0:0:0:0:
227,122,31724,1,8,0:0:0:0:
219,121,31964,1,0,0:0:0:0:
222,112,32204,1,0,0:0:0:0:
221,112,32444,1,8,0:0:0:0:
221,112,32924,1,8,0:0:0:0:
222,112,33164,1,0,0:0:0:0:
221,112,33404,1,8,0:0:0:0:
221,112,33644,1,8,0:0:0:0:
222,112,34124,1,8,0:0:0:0:
221,112,34364,1,8,0:0:0:0:
220,95,34604,1,8,0:0:0:0:
220,95,34844,1,0,0:0:0:0:
220,95,35324,1,0,0:0:0:0:
219,73,35564,1,8,0:0:0:0:
220,95,35804,1,0,0:0:0:0:
207,84,36284,1,8,0:0:0:0:
207,84,36524,1,8,0:0:0:0:
207,84,36764,1,0,0:0:0:0:
203,106,37004,1,0,0:0:0:0:
203,106,37244,1,8,0:0:0:0:
203,106,37724,1,8,0:0:0:0:
204,142,38684,5,4,0:0:0:0:
204,142,38924,1,8,0:0:0:0:
204,142,39404,1,8,0:0:0:0:
207,134,39644,1,0,0:0:0:0:
206,134,39884,1,8,0:0:0:0:
206,134,40124,1,8,0:0:0:0:
182,142,40604,1,0,0:0:0:0:
206,134,41084,1,0,0:0:0:0:
197,157,41324,1,0,0:0:0:0:
207,134,41564,1,8,0:0:0:0:
206,134,41804,1,0,0:0:0:0:
206,134,42044,1,8,0:0:0:0:
237,110,42524,1,4,0:0:0:0:
206,134,42764,1,8,0:0:0:0:
207,134,43244,1,8,0:0:0:0:
190,147,43484,1,0,0:0:0:0:
204,122,43964,1,8,0:0:0:0:
204,122,44444,1,8,0:0:0:0:
190,147,44684,1,0,0:0:0:0:
230,108,44924,1,8,0:0:0:0:
230,108,45164,1,8,0:0:0:0:
216,153,45404,1,0,0:0:0:0:
240,159,46364,5,4,0:0:0:0:
243,153,46844,1,8,0:0:0:0:
243,153,47084,1,8,0:0:0:0:
243,153,47324,1,0,0:0:0:0:
228,127,47804,1,8,0:0:0:0:
228,126,48284,1,8,0:0:0:0:
212,140,48764,1,8,0:0:0:0:
226,154,49004,1,0,0:0:0:0:
226,154,49244,1,8,0:0:0:0:
212,140,49724,1,8,0:0:0:0:
212,140,49964,1,8,0:0:0:0:
212,140,50204,1,0,0:0:0:0:
208,151,50684,1,0,0:0:0:0:
212,140,50924,1,8,0:0:0:0:
212,140,51164,1,0,0:0:0:0:
212,140,51404,1,0,0:0:0:0:
193,134,51644,1,8,0:0:0:0:
197,113,52124,1,0,0:0:0:0:
204,117,52604,1,0,0:0:0:0:
204,117,52844,1,8,0:0:0:0:
204,117,53084,1,0,0:0:0:0:
210,139,54044,1,0,0:0:0:0:
210,139,54524,1,8,0:0:0:0:
210,139,54764,1,8,0:0:0:0:
225,153,55004,1,0,0:0:0:0:
225,153,55244,1,0,0:0:0:0:
225,153,55484,1,8,0:0:0:0:
237,142,55964,1,8,0:0:0:0:
231,128,56444,1,0,0:0:0:0:
252,138,56684,1,0,0:0:0:0:
245,141,56924,1,8,0:0:0:0:
243,140,57404,1,8,0:0:0:0:
231,137,57644,1,0,0:0:0:0:
231,137,57884,1,8,0:0:0:0:
231,138,58364,1,8,0:0:0:0:
231,137,58844,1,0,0:0:0:0:
235,128,59084,1,8,0:0:0:0:
235,128,59324,1,8,0:0:0:0:
235,128,59804,1,0,0:0:0:0:
241,126,60044,1,0,0:0:0:0:
237,104,60284,1,8,0:0:0:0:
233,85,60524,1,8,0:0:0:0:
237,104,60764,1,0,0:0:0:0:
237,104,61724,5,4,0:0:0:0:
217,125,62204,1,12,0:0:0:0:
221,125,62684,1,4,0:0:0:0:
221,113,62924,1,0,0:0:0:0:
217,125,63164,1,12,0:0:0:0:
219,118,63644,1,4,0:0:0:0:
219,118,64124,1,12,0:0:0:0:
219,118,64604,1,4,0:0:0:0:
219,118,65084,1,12,0:0:0:0:
235,132,65324,1,0,0:0:0:0:
219,118,65564,1,4,0:0:0:0:
219,118,66044,1,12,0:0:0:0:
219,118,66524,1,4,0:0:0:0:
235,132,66764,1,0,0:0:0:0:
219,118,67004,1,12,0:0:0:0:
235,132,67244,1,8,0:0:0:0:
219,118,67484,1,4,0:0:0:0:
219,118,67964,1,12,0:0:0:0:
219,118,68444,1,4,0:0:0:0:
219,118,69404,1,4,0:0:0:0:
219,118,69884,1,12,0:0:0:0:
219,118,70364,1,4,0:0:0:0:
219,118,70604,1,0,0:0:0:0:
219,118,70844,1,12,0:0:0:0:
219,118,71324,1,4,0:0:0:0:
219,118,71804,1,12,0:0:0:0:
218,97,72044,1,8,0:0:0:0:
219,118,72284,1,4,0:0:0:0:
221,103,72524,1,0,0:0:0:0:
219,118,72764,1,12,0:0:0:0:
219,118,73244,1,4,0:0:0:0:
219,118,73724,1,12,0:0:0:0:
219,118,74204,1,4,0:0:0:0:
219,109,74444,1,0,0:0:0:0:
219,118,74684,1,12,0:0:0:0:
219,118,75164,1,4,0:0:0:0:
219,118,75644,1,12,0:0:0:0:
219,118,76124,1,4,0:0:0:0:
232,133,77084,5,4,0:0:0:0:
232,133,77324,1,0,0:0:0:0:
232,133,77564,1,8,0:0:0:0:
243,118,78044,1,8,0:0:0:0:
243,118,78284,1,0,0:0:0:0:
243,118,78524,1,8,0:0:0:0:
249,108,79004,1,0,0:0:0:0:
248,109,79244,1,0,0:0:0:0:
243,118,79484,1,8,0:0:0:0:
238,146,79964,1,8,0:0:0:0:
238,146,80204,1,0,0:0:0:0:
238,146,80444,1,8,0:0:0:0:
238,146,80684,1,8,0:0:0:0:
238,146,80924,1,0,0:0:0:0:
238,146,81404,1,8,0:0:0:0:
226,138,81884,1,8,0:0:0:0:
241,139,82124,1,0,0:0:0:0:
241,139,82364,1,8,0:0:0:0:
241,139,82844,1,0,0:0:0:0:
241,139,83084,1,0,0:0:0:0:
241,139,83324,1,8,0:0:0:0:
217,136,83804,1,8,0:0:0:0:
217,136,84044,1,0,0:0:0:0:
217,136,84284,1,8,0:0:0:0:
211,190,84764,5,4,0:0:0:0:
215,179,85004,1,8,0:0:0:0:
215,179,85964,1,8,0:0:0:0:
215,179,86924,1,8,0:0:0:0:
215,179,87884,1,8,0:0:0:0:
215,179,88844,1,8,0:0:0:0:
215,179,89804,1,8,0:0:0:0:
215,179,90764,1,8,0:0:0:0:
215,179,91724,1,8,0:0:0:0:
205,219,92444,1,4,0:0:0:0:
205,219,92684,1,8,0:0:0:0:
211,169,93164,1,8,0:0:0:0:
211,169,93404,1,0,0:0:0:0:
211,169,93644,1,8,0:0:0:0:
235,161,94124,1,8,0:0:0:0:
222,158,94364,1,0,0:0:0:0:
247,159,94844,1,0,0:0:0:0:
233,146,95084,1,0,0:0:0:0:
233,146,95324,1,8,0:0:0:0:
248,152,95564,1,0,0:0:0:0:
248,152,95804,1,8,0:0:0:0:
216,148,96284,1,0,0:0:0:0:
225,135,96764,1,8,0:0:0:0:
216,148,97244,1,8,0:0:0:0:
216,148,97484,1,0,0:0:0:0:
216,148,97724,1,8,0:0:0:0:
216,148,98204,1,0,0:0:0:0:
216,148,98444,1,0,0:0:0:0:
216,148,98684,1,8,0:0:0:0:
216,148,98924,1,8,0:0:0:0:
216,148,99164,1,0,0:0:0:0:
216,148,100124,5,4,0:0:0:0:
216,148,100364,1,8,0:0:0:0:
206,132,100844,1,8,0:0:0:0:
206,132,101084,1,0,0:0:0:0:
206,132,101324,1,8,0:0:0:0:
206,132,101804,1,8,0:0:0:0:
206,132,102044,1,0,0:0:0:0:
206,132,102284,1,0,0:0:0:0:
206,132,102524,1,8,0:0:0:0:
206,132,102764,1,8,0:0:0:0:
206,132,103244,1,8,0:0:0:0:
206,132,103484,1,8,0:0:0:0:
214,133,103724,1,0,0:0:0:0:
214,133,103964,1,8,0:0:0:0:
213,142,104444,1,0,0:0:0:0:
213,142,104684,1,8,0:0:0:0:
213,141,104924,1,0,0:0:0:0:
222,126,105404,1,8,0:0:0:0:
222,126,105644,1,8,0:0:0:0:
222,126,105884,1,0,0:0:0:0:
214,128,106364,1,0,0:0:0:0:
206,109,106604,1,8,0:0:0:0:
206,109,106844,1,0,0:0:0:0:
198,115,107804,1,4,0:0:0:0:
205,131,108044,1,8,0:0:0:0:
213,122,108524,1,8,0:0:0:0:
213,122,108764,1,0,0:0:0:0:
206,142,109244,1,8,0:0:0:0:
193,139,109484,1,0,0:0:0:0:
193,139,109724,1,8,0:0:0:0:
193,139,109964,1,8,0:0:0:0:
193,139,110204,1,0,0:0:0:0:
193,139,110444,1,8,0:0:0:0:
188,132,110924,1,8,0:0:0:0:
188,132,111164,1,0,0:0:0:0:
187,107,111404,1,0,0:0:0:0:
187,107,111644,1,8,0:0:0:0:
200,129,112124,1,8,0:0:0:0:
200,129,112364,1,0,0:0:0:0:
200,129,112604,1,8,0:0:0:0:
193,138,113084,1,0,0:0:0:0:
210,118,113324,1,8,0:0:0:0:
231,120,113564,1,8,0:0:0:0:
230,161,114044,1,0,0:0:0:0:
230,161,114524,1,8,0:0:0:0:
217,175,115484,1,4,0:0:0:0:
217,175,115724,1,8,0:0:0:0:
217,175,116204,1,8,0:0:0:0:
217,175,116444,1,0,0:0:0:0:
217,175,116684,1,8,0:0:0:0:
217,175,117164,1,8,0:0:0:0:
217,175,117404,1,0,0:0:0:0:
233,138,117644,1,0,0:0:0:0:
217,175,117884,1,8,0:0:0:0:
217,175,118124,1,8,0:0:0:0:
193,159,118604,1,8,0:0:0:0:
217,175,118844,1,8,0:0:0:0:
212,185,119084,1,0,0:0:0:0:
184,164,119324,1,8,0:0:0:0:
214,166,119804,1,0,0:0:0:0:
214,166,120044,1,8,0:0:0:0:
216,177,120284,1,0,0:0:0:0:
216,177,120524,1,8,0:0:0:0:
216,177,121004,1,8,0:0:0:0:
216,177,121244,1,0,0:0:0:0:
222,193,121484,1,8,0:0:0:0:
209,107,121724,1,0,0:0:0:0:
222,194,122204,1,0,0:0:0:0:
201,198,123164,1,0,0:0:0:0:
201,198,123404,1,8,0:0:0:0:
201,198,123884,1,8,0:0:0:0:
201,198,124124,1,0,0:0:0:0:
212,197,124604,1,8,0:0:0:0:
211,179,124844,1,0,0:0:0:0:
211,179,125084,1,8,0:0:0:0:
194,181,125324,1,0,0:0:0:0:
194,181,125564,1,8,0:0:0:0:
195,182,125804,1,8,0:0:0:0:
194,181,126284,1,8,0:0:0:0:
198,171,126524,1,8,0:0:0:0:
198,171,126764,1,8,0:0:0:0:
198,171,127004,1,0,0:0:0:0:
201,168,127484,1,0,0:0:0:0:
201,168,127724,1,8,0:0:0:0:
198,178,127964,1,0,0:0:0:0:
197,159,128444,1,0,0:0:0:0:
198,152,128924,1,8,0:0:0:0:
198,152,129164,1,8,0:0:0:0:
198,152,129404,1,0,0:0:0:0:
198,178,129644,1,0,0:0:0:0:
198,178,129884,1,8,0:0:0:0:
184,166,130844,5,4,0:0:0:0:
180,171,131084,1,0,0:0:0:0:
175,171,131564,1,0,0:0:0:0:
175,171,131804,1,8,0:0:0:0:
175,171,132284,1,8,0:0:0:0:
175,171,132524,1,8,0:0:0:0:
175,171,132764,1,0,0:0:0:0:
191,161,133244,1,8,0:0:0:0:
180,150,133484,1,0,0:0:0:0:
180,149,133724,1,8,0:0:0:0:
190,138,133964,1,0,0:0:0:0:
190,138,134204,1,8,0:0:0:0:
190,140,134684,1,0,0:0:0:0:
190,138,135164,1,8,0:0:0:0:
193,115,135404,1,0,0:0:0:0:
193,115,135644,1,8,0:0:0:0:
193,115,135884,1,8,0:0:0:0:
193,115,136124,1,0,0:0:0:0:
194,129,136604,1,8,0:0:0:0:
194,129,137084,1,8,0:0:0:0:
217,133,137324,1,0,0:0:0:0:
224,125,137564,1,8,0:0:0:0:
230,206,138524,1,8,0:0:0:0:
249,175,138764,1,8,0:0:0:0:
249,175,139004,1,0,0:0:0:0:
253,183,139484,1,8,0:0:0:0:
248,149,139964,1,8,0:0:0:0:
258,192,140204,1,8,0:0:0:0:
252,154,140444,1,0,0:0:0:0:
258,192,140684,1,0,0:0:0:0:
238,168,140924,1,0,0:0:0:0:
260,169,141404,1,8,0:0:0:0:
244,156,141884,1,8,0:0:0:0:
252,150,142364,1,0,0:0:0:0:
252,150,142604,1,8,0:0:0:0:
252,150,142844,1,0,0:0:0:0:
252,150,143324,1,8,0:0:0:0:
238,143,143564,1,0,0:0:0:0:
238,143,143804,1,8,0:0:0:0:
235,147,144284,1,0,0:0:0:0:
238,143,144524,1,0,0:0:0:0:
238,143,144764,1,8,0:0:0:0:
235,147,145004,1,8,0:0:0:0:
228,148,145484,1,8,0:0:0:0:
228,148,145724,1,0,0:0:0:0:
228,148,146204,1,4,0:0:0:0:
