osu file format v14

[General]
AudioFilename: audio.mp3
AudioLeadIn: 0
PreviewTime: 83709
Countdown: 0
SampleSet: Normal
StackLeniency: 0.7
Mode: 1
LetterboxInBreaks: 0
WidescreenStoryboard: 0

[Editor]
Bookmarks: 42162,84162
DistanceSpacing: 0.7
BeatDivisor: 4
GridSize: 4
TimelineZoom: 4.299998

[Metadata]
Title:Loneliness
TitleUnicode:Loneliness
Artist:exnoiz
ArtistUnicode:exnoiz
Creator:woosungko
Version:Farewell
Source:
Tags:Haru no Sekibaku inabakumori ハルノ寂寞 稲葉曇 loneliness of spring michoup 視長p 因幡プカリ inaba pukari きゐな kiwina inaba cumori japanese tsurumaki maki 弦巻マキ synthesizer v vocaloid voiceroid ぬくぬくにぎりめし nukunuku nigirimeshi weather station ウェザーステーション uxcl-276 electronic remix bootleg hardcore breakcore
BeatmapID:4512057
BeatmapSetID:2143268

[Difficulty]
HPDrainRate:6
CircleSize:2
OverallDifficulty:7
ApproachRate:10
SliderMultiplier:1.4
SliderTickRate:1

[Events]
//Background and Video events
0,0,"bg.jpg",0,40
//Break Periods
//Storyboard Layer 0 (Background)
//Storyboard Layer 1 (Fail)
//Storyboard Layer 2 (Pass)
//Storyboard Layer 3 (Foreground)
//Storyboard Layer 4 (Overlay)
//Storyboard Sound Samples

[TimingPoints]
225,250,4,1,0,40,1,8
595,-133.333333333333,4,1,0,40,0,0
657,-134.249008957056,4,1,0,40,0,0
720,-135.185895201955,4,1,0,40,0,0
1209,-100,4,1,0,70,0,0
1225,250,4,1,0,70,1,0
1225,-142.857142857143,4,1,0,70,0,0
9209,-133.333333333333,4,1,0,75,0,0
15209,-133.333333333333,4,1,0,80,0,0
15470,-130.329005364074,4,1,0,80,0,0
15595,-128.852323114625,4,1,0,80,0,0
15720,-127.392372293916,4,1,0,80,0,0
15845,-125.948963327845,4,1,0,80,0,0
16095,-123.111023378657,4,1,0,80,0,0
16220,-121.716123890037,4,1,0,80,0,0
16470,-118.973560225192,4,1,0,80,0,0
16595,-117.625539928041,4,1,0,80,0,0
16845,-114.975147181753,4,1,0,80,0,0
16970,-113.672430580051,4,1,0,80,0,0
17209,-95.238095238095,4,1,0,90,0,0
17241,-100,4,1,0,90,0,0
21209,-95.238095238095,4,1,0,90,0,0
21241,-100,4,1,0,90,0,0
24225,250,4,1,0,90,1,0
24225,-90.909090909091,4,1,0,90,0,0
24251,-111.111111111111,4,1,0,90,0,0
28720,-111.111111111111,4,1,0,90,0,0
28845,-109.08333963858,4,1,0,90,0,0
28907,-108.091337162188,4,1,0,90,0,0
28970,-107.092574880353,4,1,0,90,0,0
29032,-106.118676392861,4,1,0,90,0,0
29095,-105.138141465992,4,1,0,90,0,0
29157,-104.182016570631,4,1,0,90,0,0
29220,-86.95652173913,4,1,0,90,0,0
29470,-91.226148573342,4,1,0,90,0,0
29720,-100.503781525921,4,1,0,90,0,0
29845,-103.056686462741,4,1,0,90,0,0
29907,-104.346884201751,4,1,0,90,0,0
29970,-105.674437950781,4,1,0,90,0,0
30095,-108.358683162696,4,1,0,90,0,0
30220,-111.111111111111,4,1,0,90,0,0
30470,-95.238095238095,4,1,0,90,0,0
30595,-96.883369146608,4,1,0,90,0,0
30657,-97.709939656312,4,1,0,90,0,0
30720,-98.557065780578,4,1,0,90,0,0
30761,-99.11231126376,4,1,0,90,0,0
30803,-99.684342953682,4,1,0,90,0,0
30845,-100.259676153276,4,1,0,90,0,0
30907,-101.115051976296,4,1,0,90,0,0
30970,-101.991699760411,4,1,0,90,0,0
31095,-103.753644726668,4,1,0,90,0,0
31136,-104.338166416127,4,1,0,90,0,0
31178,-104.940359391927,4,1,0,90,0,0
31220,-105.546027954777,4,1,0,90,0,0
31345,-107.36937527716,4,1,0,90,0,0
31470,-95.2380952380952,4,1,0,90,0,0
31595,-97.5900072948533,4,1,0,90,0,0
31720,-100,4,1,0,90,0,0
31761,-100.86769910138,4,1,0,90,0,0
31803,-101.764368853641,4,1,0,90,0,0
31845,-102.669009608034,4,1,0,90,0,0
31907,-104.019150211997,4,1,0,90,0,0
31970,-105.409255338946,4,1,0,90,0,0
32032,-106.795431325351,4,1,0,90,0,0
32095,-108.2226384917,4,1,0,90,0,0
32136,-109.161685353382,4,1,0,90,0,0
32178,-110.132085017836,4,1,0,90,0,0
32220,-111.111111111111,4,1,0,90,0,0
35720,-111.111111111111,4,1,0,90,0,0
35845,-109.08333963858,4,1,0,90,0,0
35907,-108.091337162188,4,1,0,90,0,0
35970,-107.092574880353,4,1,0,90,0,0
36032,-106.118676392861,4,1,0,90,0,0
36095,-105.138141465992,4,1,0,90,0,0
36157,-104.182016570631,4,1,0,90,0,0
36220,-86.95652173913,4,1,0,90,0,0
36470,-91.226148573342,4,1,0,90,0,0
36720,-100.503781525921,4,1,0,90,0,0
36845,-103.056686462741,4,1,0,90,0,0
36907,-104.346884201751,4,1,0,90,0,0
36970,-105.674437950781,4,1,0,90,0,0
37095,-108.358683162696,4,1,0,90,0,0
37220,-111.111111111111,4,1,0,90,0,0
37470,-95.238095238095,4,1,0,90,0,0
37595,-96.883369146608,4,1,0,90,0,0
37657,-97.709939656312,4,1,0,90,0,0
37720,-98.557065780578,4,1,0,90,0,0
37761,-99.11231126376,4,1,0,90,0,0
37803,-99.684342953682,4,1,0,90,0,0
37845,-100.259676153276,4,1,0,90,0,0
37907,-101.115051976296,4,1,0,90,0,0
37970,-101.991699760411,4,1,0,90,0,0
38095,-103.753644726668,4,1,0,90,0,0
38136,-104.338166416127,4,1,0,90,0,0
38178,-104.940359391927,4,1,0,90,0,0
38220,-105.546027954777,4,1,0,90,0,0
38345,-107.36937527716,4,1,0,90,0,0
38470,-95.2380952380952,4,1,0,90,0,0
38595,-97.5900072948533,4,1,0,90,0,0
38720,-100,4,1,0,90,0,0
38761,-100.86769910138,4,1,0,90,0,0
38803,-101.764368853641,4,1,0,90,0,0
38845,-102.669009608034,4,1,0,90,0,0
38907,-104.019150211997,4,1,0,90,0,0
38970,-105.409255338946,4,1,0,90,0,0
39095,-108.2226384917,4,1,0,90,0,0
39220,-111.111111111111,4,1,0,90,0,0
41220,-111.111111111111,4,1,0,90,0,0
41345,-108.691019775798,4,1,0,90,0,0
41407,-107.510283043791,4,1,0,90,0,0
41470,-106.323640019126,4,1,0,90,0,0
41532,-105.168620703729,4,1,0,90,0,0
41595,-104.007823739583,4,1,0,90,0,0
41720,-101.742447842251,4,1,0,90,0,0
41782,-100.637195121102,4,1,0,90,0,0
41845,-99.526413694142,4,1,0,90,0,0
41907,-98.445234285797,4,1,0,90,0,0
41970,-97.358646591398,4,1,0,90,0,0
42032,-96.301016159315,4,1,0,90,0,0
42095,-95.238095238095,4,1,0,90,0,0
42209,-86.95652173913,4,1,0,100,0,0
42225,250,4,1,0,100,1,1
42225,-86.95652173913,4,1,0,100,0,1
42235,-90.909090909091,4,1,0,100,0,1
48220,-90.909090909091,4,1,0,100,0,1
48345,-91.488567413155,4,1,0,100,0,1
48470,-92.071737640426,4,1,0,100,0,1
48511,-92.26382591329,4,1,0,100,0,1
48553,-92.461014805563,4,1,0,100,0,1
48595,-92.658625135587,4,1,0,100,0,1
48720,-93.249253593402,4,1,0,100,0,1
48761,-93.443798505094,4,1,0,100,0,1
48803,-93.643509268599,4,1,0,100,0,1
48845,-93.84364685967,4,1,0,100,0,1
48970,-94.441828932189,4,1,0,100,0,1
49095,-95.043823961727,4,1,0,100,0,1
49157,-95.343835630266,4,1,0,100,0,1
49220,-95.649656252992,4,1,0,100,0,1
49345,-96.259350265617,4,1,0,100,0,1
49407,-96.563198817599,4,1,0,100,0,1
49470,-96.872930615146,4,1,0,100,0,1
49511,-97.075035565113,4,1,0,100,0,1
49553,-97.282507112504,4,1,0,100,0,1
49595,-97.490422074031,4,1,0,100,0,1
49636,-97.693815289766,4,1,0,100,0,1
49678,-97.902609310914,4,1,0,100,0,1
49720,-98.111849572626,4,1,0,100,0,1
49975,-99.366613205946,4,1,0,100,0,0
50011,-99.573920698997,4,1,0,100,0,0
50053,-99.786732935294,4,1,0,100,0,0
50095,-100,4,1,0,100,0,0
50215,-86.95652173913,4,1,0,100,0,0
50225,-86.95652173913,4,1,0,100,0,1
50235,-90.909090909091,4,1,0,100,0,1
56220,-90.909090909091,4,1,0,100,0,1
56345,-91.452242160603,4,1,0,100,0,1
56470,-91.998638558218,4,1,0,100,0,1
56511,-92.178566617024,4,1,0,100,0,1
56553,-92.36324804751,4,1,0,100,0,1
56595,-92.548299490592,4,1,0,100,0,1
56720,-93.101244462222,4,1,0,100,0,1
56761,-93.283328963156,4,1,0,100,0,1
56803,-93.470223805045,4,1,0,100,0,1
56845,-93.65749309414,4,1,0,100,0,1
56970,-94.217065124603,4,1,0,100,0,1
57095,-94.779980409802,4,1,0,100,0,1
57157,-95.060432926682,4,1,0,100,0,1
57220,-95.346258924559,4,1,0,100,0,1
57345,-95.91592076304,4,1,0,100,0,1
57470,-96.488986139467,4,1,0,100,0,1
57595,-97.065475388834,4,1,0,100,0,1
57636,-97.25531300858,4,1,0,100,0,1
57678,-97.450165792562,4,1,0,100,0,1
57720,-97.645408967631,4,1,0,100,0,1
57970,-98.815691551307,4,1,0,100,0,1
58095,-99.406082083194,4,1,0,100,0,1
58136,-99.600497388279,4,1,0,100,0,1
58178,-99.800048791711,4,1,0,100,0,1
58225,-100,4,1,0,100,0,0
58240,-101.120844111584,4,1,0,90,0,0
58595,-101.685968496702,4,1,0,90,0,0
58720,-102.254251138393,4,1,0,90,0,0
58845,-102.825709686905,4,1,0,90,0,0
58907,-103.110336888655,4,1,0,90,0,0
58970,-103.400361891122,4,1,0,90,0,0
59095,-103.978225599125,4,1,0,90,0,0
59220,-104.559318758736,4,1,0,90,0,0
59345,-105.143659418083,4,1,0,90,0,0
59470,-105.731265726156,4,1,0,90,0,0
59595,-106.322155933374,4,1,0,90,0,0
59720,-106.916348392151,4,1,0,90,0,0
59845,-107.513861557463,4,1,0,90,0,0
59907,-107.811465820615,4,1,0,90,0,0
59970,-108.114713987425,4,1,0,90,0,0
60095,-108.718924343867,4,1,0,90,0,0
60220,-109.326511392909,4,1,0,90,0,0
60470,-110.551891158257,4,1,0,90,0,0
60720,-111.79100552055,4,1,0,90,0,0
60751,-111.94562041493,4,1,0,90,0,0
60970,-113.044008423208,4,1,0,90,0,0
61032,-113.35692043607,4,1,0,90,0,0
61095,-113.675766655772,4,1,0,90,0,0
61220,-114.311055535118,4,1,0,90,0,0
61345,-114.949894792632,4,1,0,90,0,0
61470,-115.592304269973,4,1,0,90,0,0
61595,-116.238303919687,4,1,0,90,0,0
61657,-116.560057917608,4,1,0,90,0,0
61720,-116.887913805827,4,1,0,90,0,0
61782,-117.211465959528,4,1,0,90,0,0
61845,-117.541154104576,4,1,0,90,0,0
61970,-118.198045104874,4,1,0,90,0,0
62032,-118.525223773837,4,1,0,90,0,0
62095,-118.858607209046,4,1,0,90,0,0
62157,-119.187614350128,4,1,0,90,0,0
62220,-119.522860933439,4,1,0,90,0,0
62470,-120.862525882209,4,1,0,90,0,0
62595,-121.537978715134,4,1,0,90,0,0
62720,-122.217206386672,4,1,0,90,0,0
62845,-122.900229992901,4,1,0,90,0,0
62970,-123.587070747799,4,1,0,90,0,0
63095,-124.2777499839,4,1,0,90,0,0
63220,-124.972289152955,4,1,0,90,0,0
63282,-125.318219300836,4,1,0,90,0,0
63345,-125.670709826604,4,1,0,90,0,0
63470,-126.373033697038,4,1,0,90,0,0
63595,-127.079282577681,4,1,0,90,0,0
63720,-127.789478403862,4,1,0,90,0,0
63845,-128.503643233497,4,1,0,90,0,0
63970,-129.221799247776,4,1,0,90,0,0
64095,-129.943968751851,4,1,0,90,0,0
64220,-130.670174175528,4,1,0,90,0,0
64345,-131.400438073965,4,1,0,90,0,0
64470,-132.134783128371,4,1,0,90,0,0
64595,-132.873232146713,4,1,0,90,0,0
64720,-133.61580806442,4,1,0,90,0,0
64845,-134.362533945101,4,1,0,90,0,0
64907,-134.734456805379,4,1,0,90,0,0
64970,-135.113432981256,4,1,0,90,0,0
65095,-135.868528495,4,1,0,90,0,0
65220,-136.627843938786,4,1,0,90,0,0
65345,-137.391402896132,4,1,0,90,0,0
65470,-138.159229082358,4,1,0,90,0,0
65595,-138.931346345316,4,1,0,90,0,0
65657,-139.315915928799,4,1,0,90,0,0
65720,-139.707778666138,4,1,0,90,0,0
65845,-140.488550159973,4,1,0,90,0,0
65970,-141.273685076742,4,1,0,90,0,0
66011,-141.532163765489,4,1,0,90,0,0
66053,-141.797437183004,4,1,0,90,0,0
66095,-142.063207801891,4,1,0,90,0,0
66157,-142.456446549587,4,1,0,90,0,0
66205,-142.857142857143,4,1,0,70,0,0
71959,-117.647058823529,4,1,0,80,0,0
72224,-111.111111111111,4,1,0,80,0,0
72469,-138.166887161976,4,1,0,80,0,0
72594,-135.879825312818,4,1,0,80,0,0
72719,-133.630620956212,4,1,0,80,0,0
72844,-131.418647441096,4,1,0,80,0,0
72969,-129.243288489293,4,1,0,80,0,0
73094,-127.103938023814,4,1,0,80,0,0
73156,-126.055995257509,4,1,0,80,0,0
73219,-111.111111111111,4,1,0,80,0,0
73469,-138.166887161976,4,1,0,80,0,0
73594,-135.879825312818,4,1,0,80,0,0
73719,-133.630620956212,4,1,0,80,0,0
73781,-132.528867188664,4,1,0,80,0,0
73844,-131.418647441096,4,1,0,80,0,0
73906,-130.335130886969,4,1,0,80,0,0
73969,-129.243288489293,4,1,0,80,0,0
74094,-127.103938023814,4,1,0,80,0,0
74209,-100,4,1,0,85,0,0
74241,-111.111111111111,4,1,0,85,0,0
78209,-100,4,1,0,90,0,0
78407,-109.626766518767,4,1,0,90,0,0
78470,-109.131172061695,4,1,0,90,0,0
78595,-108.154472630811,4,1,0,90,0,0
78657,-107.673277675742,4,1,0,90,0,0
78720,-107.186514440034,4,1,0,90,0,0
78782,-106.709626071525,4,1,0,90,0,0
78845,-106.227219257234,4,1,0,90,0,0
78970,-105.276509550439,4,1,0,90,0,0
79032,-104.808119071057,4,1,0,90,0,0
79095,-104.33430848157,4,1,0,90,0,0
79157,-103.870109991571,4,1,0,90,0,0
79220,-103.400539900233,4,1,0,90,0,0
79282,-102.940495882256,4,1,0,90,0,0
79345,-102.475128337562,4,1,0,90,0,0
79470,-101.557999000121,4,1,0,90,0,0
79532,-101.106152714184,4,1,0,90,0,0
79595,-100.649077763858,4,1,0,90,0,0
79657,-100.201275400495,4,1,0,90,0,0
79720,-99.748291168113,4,1,0,90,0,0
79845,-98.855566409687,4,1,0,90,0,0
79907,-98.415743638795,4,1,0,90,0,0
79970,-97.970831336947,4,1,0,90,0,0
80095,-97.094014444007,4,1,0,90,0,0
80220,-90.09009009009,4,1,0,90,0,0
80345,-95.363852368047,4,1,0,90,0,0
80407,-94.939564739998,4,1,0,90,0,0
80470,-94.510367350199,4,1,0,90,0,0
80532,-94.089877000939,4,1,0,90,0,0
80595,-93.664520831191,4,1,0,90,0,0
80657,-93.247793775929,4,1,0,90,0,0
80720,-92.826244448177,4,1,0,90,0,0
80761,-92.552927041971,4,1,0,90,0,0
80803,-92.273777774425,4,1,0,90,0,0
80845,-91.995470450145,4,1,0,90,0,0
80907,-91.586169242409,4,1,0,90,0,0
80970,-91.172131692435,4,1,0,90,0,0
81032,-90.766493638399,4,1,0,90,0,0
81095,-90.356161631322,4,1,0,90,0,0
81157,-89.954153946584,4,1,0,90,0,0
81220,-89.547494318628,4,1,0,90,0,0
81282,-89.149084512201,4,1,0,90,0,0
81345,-88.7460643964,4,1,0,90,0,0
81407,-88.35122026808,4,1,0,90,0,0
81470,-87.95180709162,4,1,0,90,0,0
81532,-87.560496729392,4,1,0,90,0,0
81595,-87.164658210976,4,1,0,90,0,0
81657,-86.77684998843,4,1,0,90,0,0
81720,-86.384554135673,4,1,0,90,0,0
81782,-86.000216709446,4,1,0,90,0,0
81845,-85.611431816288,4,1,0,90,0,0
81907,-85.230534123533,4,1,0,90,0,0
81970,-84.845228767677,4,1,0,90,0,0
82032,-84.467740023554,4,1,0,90,0,0
82095,-84.085883063923,4,1,0,90,0,0
82157,-83.71177275911,4,1,0,90,0,0
82220,-83.333333333333,4,1,0,90,0,0
82256,-142.857142857143,4,1,0,30,0,0
83209,-117.647058823529,4,1,0,60,0,0
83470,-112.527637871538,4,1,0,60,0,0
83720,-107.630988922058,4,1,0,60,0,0
83751,-107.038846063245,4,1,0,60,0,0
83845,-105.263157894737,4,1,0,60,0,0
83959,-80,4,1,0,100,0,0
84225,250,4,1,0,100,1,1
84225,-86.95652173913,4,1,0,100,0,1
84241,-90.909090909091,4,1,0,100,0,1
90220,-90.909090909091,4,1,0,100,0,1
90345,-91.488567413155,4,1,0,100,0,1
90470,-92.071737640426,4,1,0,100,0,1
90595,-92.658625135587,4,1,0,100,0,1
90657,-92.951107777517,4,1,0,100,0,1
90720,-93.249253593402,4,1,0,100,0,1
90845,-93.84364685967,4,1,0,100,0,1
90907,-94.139870095463,4,1,0,100,0,1
90970,-94.441828932189,4,1,0,100,0,1
91032,-94.739940366439,4,1,0,100,0,1
91095,-95.043823961727,4,1,0,100,0,1
91157,-95.343835630266,4,1,0,100,0,1
91220,-95.649656252992,4,1,0,100,0,1
91345,-96.259350265617,4,1,0,100,0,1
91407,-96.563198817599,4,1,0,100,0,1
91470,-96.872930615146,4,1,0,100,0,1
91595,-97.490422074031,4,1,0,100,0,1
91720,-98.111849572626,4,1,0,100,0,1
91975,-99.366613205946,4,1,0,100,0,0
92011,-99.573920698997,4,1,0,100,0,0
92053,-99.786732935294,4,1,0,100,0,0
92095,-100,4,1,0,100,0,0
92225,-90.909090909091,4,1,0,100,0,1
98220,-90.909090909091,4,1,0,100,0,1
98345,-91.452242160603,4,1,0,100,0,1
98407,-91.722847950743,4,1,0,100,0,1
98470,-91.998638558218,4,1,0,100,0,1
98595,-92.548299490592,4,1,0,100,0,1
98657,-92.822148497659,4,1,0,100,0,1
98720,-93.101244462222,4,1,0,100,0,1
98782,-93.376729625029,4,1,0,100,0,1
98845,-93.65749309414,4,1,0,100,0,1
98907,-93.934624188167,4,1,0,100,0,1
98970,-94.217065124603,4,1,0,100,0,1
99095,-94.779980409802,4,1,0,100,0,1
99220,-95.346258924559,4,1,0,100,0,1
99470,-96.488986139467,4,1,0,100,0,1
99595,-97.065475388834,4,1,0,100,0,1
99720,-97.645408967631,4,1,0,100,0,1
99970,-98.815691551307,4,1,0,100,0,1
100225,-100,4,1,0,100,0,0
106220,-100,4,1,0,100,0,0
106470,-98.208230018712,4,1,0,100,0,0
106595,-97.324420372879,4,1,0,100,0,0
106657,-96.88900615407,4,1,0,100,0,0
106720,-96.448564434082,4,1,0,100,0,0
106845,-95.580590624175,4,1,0,100,0,0
106970,-94.720428009169,4,1,0,100,0,0
107095,-93.868006293434,4,1,0,100,0,0
107225,250,4,1,0,100,1,0
107225,-93.023255813953,4,1,0,100,0,0
113220,-93.023255813953,4,1,0,100,0,0
113282,-93.301741980175,4,1,0,99,0,0
113345,-93.585573862725,4,1,0,98,0,0
113407,-93.86574345527,4,1,0,97,0,0
113470,-94.151291078567,4,1,0,96,0,0
113595,-94.720428009169,4,1,0,94,0,0
113657,-95.003995044405,4,1,0,93,0,0
113720,-95.293005326431,4,1,0,92,0,0
113782,-95.578286501432,4,1,0,91,0,0
113845,-95.869043827211,4,1,0,90,0,0
113970,-96.448564434082,4,1,0,88,0,0
114095,-97.031588196096,4,1,0,86,0,0
114157,-97.322074212336,4,1,0,84,0,0
114220,-97.618136289539,4,1,0,83,0,0
114345,-98.208230018712,4,1,0,81,0,0
114407,-98.502238578507,4,1,0,80,0,0
114470,-98.801890816694,4,1,0,79,0,0
114532,-99.097676634425,4,1,0,78,0,0
114595,-99.399140246128,4,1,0,77,0,0
114720,-100,4,1,0,75,0,0

[HitObjects]
321,221,600,5,0,0:0:0:0:
321,221,662,1,0,0:0:0:0:
323,228,725,1,8,0:0:0:0:
320,236,1225,1,0,0:0:0:0:
322,247,1475,1,0,0:0:0:0:
344,249,1725,1,8,0:0:0:0:
340,280,1850,1,0,0:0:0:0:
344,249,1975,1,8,0:0:0:0:
344,249,2100,1,8,0:0:0:0:
402,269,2225,1,0,0:0:0:0:
366,259,2350,1,8,0:0:0:0:
367,243,2475,1,0,0:0:0:0:
360,256,2725,1,8,0:0:0:0:
448,235,2975,1,0,0:0:0:0:
360,256,3225,1,8,0:0:0:0:
395,252,3475,1,0,0:0:0:0:
395,252,3600,1,0,0:0:0:0:
357,275,3725,1,8,0:0:0:0:
386,277,3975,1,8,0:0:0:0:
416,258,4225,1,0,0:0:0:0:
414,254,4475,1,8,0:0:0:0:
368,249,4600,1,0,0:0:0:0:
414,254,4725,1,8,0:0:0:0:
416,258,4975,1,8,0:0:0:0:
394,258,5225,1,0,0:0:0:0:
394,258,5475,1,0,0:0:0:0:
346,271,5725,1,8,0:0:0:0:
361,259,5850,1,0,0:0:0:0:
366,261,6100,1,0,0:0:0:0:
349,257,6225,1,8,0:0:0:0:
361,259,6475,1,0,0:0:0:0:
356,229,6725,1,8,0:0:0:0:
368,256,6975,1,8,0:0:0:0:
385,247,7100,1,8,0:0:0:0:
286,262,7225,1,0,0:0:0:0:
357,249,7350,1,8,0:0:0:0:
365,268,7475,1,0,0:0:0:0:
325,266,7725,1,8,0:0:0:0:
325,266,7850,1,8,0:0:0:0:
342,260,8100,1,8,0:0:0:0:
353,250,8225,1,0,0:0:0:0:
353,250,8350,1,0,0:0:0:0:
399,233,8475,1,8,0:0:0:0:
399,233,8600,1,8,0:0:0:0:
310,252,8725,1,0,0:0:0:0:
312,251,8787,1,0,0:0:0:0:
379,264,8850,1,8,0:0:0:0:
366,247,9225,1,0,0:0:0:0:
371,249,9475,1,8,0:0:0:0:
366,247,9725,1,8,0:0:0:0:
366,247,9850,1,8,0:0:0:0:
389,241,9975,1,0,0:0:0:0:
389,241,10100,1,0,0:0:0:0:
371,249,10225,1,8,0:0:0:0:
389,241,10350,1,0,0:0:0:0:
394,246,10475,1,8,0:0:0:0:
389,241,10725,1,0,0:0:0:0:
378,239,10975,1,8,0:0:0:0:
418,228,11100,1,0,0:0:0:0:
378,239,11225,1,8,0:0:0:0:
417,228,11475,1,0,0:0:0:0:
418,228,11600,1,0,0:0:0:0:
378,239,11725,1,8,0:0:0:0:
378,239,11850,1,8,0:0:0:0:
378,239,12100,1,8,0:0:0:0:
378,239,12225,1,0,0:0:0:0:
363,224,12475,1,0,0:0:0:0:
363,224,12600,1,0,0:0:0:0:
378,239,12725,1,8,0:0:0:0:
369,226,12975,1,0,0:0:0:0:
352,249,13100,1,8,0:0:0:0:
352,249,13225,1,8,0:0:0:0:
361,244,13475,1,0,0:0:0:0:
361,244,13600,1,0,0:0:0:0:
334,243,13725,1,8,0:0:0:0:
386,235,13850,1,0,0:0:0:0:
331,216,13975,1,8,0:0:0:0:
346,201,14100,1,8,0:0:0:0:
379,244,14225,1,0,0:0:0:0:
378,231,14475,1,0,0:0:0:0:
379,244,14725,1,8,0:0:0:0:
367,266,14975,1,8,0:0:0:0:
366,267,15100,1,8,0:0:0:0:
377,268,15225,1,0,0:0:0:0:
395,252,15475,1,8,0:0:0:0:
380,263,15600,1,0,0:0:0:0:
377,268,15725,1,0,0:0:0:0:
390,269,15850,1,8,0:0:0:0:
390,269,16100,1,8,0:0:0:0:
376,252,16225,1,0,0:0:0:0:
371,243,16475,1,0,0:0:0:0:
430,249,16600,1,8,0:0:0:0:
376,225,16850,1,8,0:0:0:0:
291,279,16975,1,0,0:0:0:0:
350,262,17225,1,12,0:0:0:0:
365,266,17350,1,0,0:0:0:0:
417,278,17475,1,8,0:0:0:0:
417,278,17537,1,8,0:0:0:0:
364,266,17600,1,0,0:0:0:0:
364,266,17662,1,0,0:0:0:0:
417,278,17725,1,8,0:0:0:0:
460,272,17850,1,0,0:0:0:0:
456,266,17975,1,8,0:0:0:0:
417,278,18037,1,8,0:0:0:0:
464,274,18100,1,0,0:0:0:0:
402,273,18225,1,8,0:0:0:0:
392,283,18350,1,0,0:0:0:0:
393,283,18412,1,0,0:0:0:0:
402,273,18475,1,8,0:0:0:0:
392,281,18600,1,0,0:0:0:0:
422,259,18725,1,8,0:0:0:0:
435,248,18808,1,0,0:0:0:0:
344,285,18891,1,0,0:0:0:0:
414,255,18975,1,8,0:0:0:0:
414,255,19100,1,0,0:0:0:0:
425,245,19225,1,8,0:0:0:0:
398,244,19350,1,0,0:0:0:0:
379,254,19475,1,8,0:0:0:0:
397,252,19537,1,0,0:0:0:0:
397,252,19600,1,0,0:0:0:0:
397,252,19662,1,0,0:0:0:0:
383,254,19725,1,8,0:0:0:0:
410,241,19850,1,0,0:0:0:0:
371,234,19975,1,8,0:0:0:0:
440,238,20037,1,0,0:0:0:0:
373,238,20100,1,8,0:0:0:0:
394,245,20225,1,0,0:0:0:0:
427,254,20350,1,8,0:0:0:0:
427,254,20412,1,8,0:0:0:0:
407,235,20475,1,0,0:0:0:0:
411,264,20600,1,0,0:0:0:0:
415,212,20725,1,8,0:0:0:0:
415,212,20787,1,8,0:0:0:0:
415,212,20850,1,8,0:0:0:0:
415,212,20912,1,8,0:0:0:0:
416,233,20975,1,0,0:0:0:0:
419,229,21100,1,0,0:0:0:0:
413,247,21225,1,12,0:0:0:0:
368,266,21350,1,0,0:0:0:0:
392,264,21475,1,8,0:0:0:0:
392,264,21537,1,8,0:0:0:0:
432,257,21600,1,0,0:0:0:0:
432,257,21662,1,0,0:0:0:0:
400,262,21725,1,8,0:0:0:0:
261,263,21850,1,8,0:0:0:0:
389,251,21975,1,0,0:0:0:0:
389,251,22037,1,0,0:0:0:0:
368,266,22100,1,8,0:0:0:0:
366,262,22162,1,8,0:0:0:0:
389,251,22225,1,0,0:0:0:0:
392,264,22350,1,8,0:0:0:0:
279,262,22412,1,0,0:0:0:0:
394,269,22475,1,8,0:0:0:0:
421,268,22600,1,0,0:0:0:0:
457,277,22725,1,8,0:0:0:0:
457,277,22808,1,8,0:0:0:0:
408,268,22891,1,0,0:0:0:0:
408,268,22975,1,8,0:0:0:0:
408,268,23100,1,0,0:0:0:0:
389,245,23225,1,8,0:0:0:0:
406,268,23350,1,0,0:0:0:0:
399,273,23475,1,8,0:0:0:0:
416,257,23537,1,0,0:0:0:0:
416,257,23600,1,0,0:0:0:0:
416,257,23662,1,0,0:0:0:0:
389,275,23725,1,8,0:0:0:0:
416,254,23850,1,8,0:0:0:0:
386,269,23975,1,0,0:0:0:0:
386,269,24037,1,0,0:0:0:0:
386,269,24100,1,0,0:0:0:0:
392,249,24225,1,12,0:0:0:0:
389,275,24475,1,0,0:0:0:0:
372,268,24725,1,8,0:0:0:0:
433,263,24850,1,0,0:0:0:0:
433,263,24912,1,0,0:0:0:0:
390,268,24975,1,8,0:0:0:0:
411,273,25100,1,0,0:0:0:0:
411,273,25162,1,0,0:0:0:0:
375,286,25225,1,8,0:0:0:0:
375,286,25287,1,8,0:0:0:0:
416,278,25350,1,0,0:0:0:0:
375,286,25475,1,8,0:0:0:0:
372,288,25600,1,0,0:0:0:0:
378,266,25662,1,8,0:0:0:0:
372,288,25725,1,0,0:0:0:0:
375,286,25787,1,0,0:0:0:0:
401,285,25850,1,8,0:0:0:0:
395,247,25912,1,0,0:0:0:0:
401,285,25975,1,8,0:0:0:0:
399,271,26100,1,8,0:0:0:0:
396,271,26162,1,8,0:0:0:0:
409,217,26225,1,0,0:0:0:0:
402,282,26350,1,0,0:0:0:0:
402,282,26475,1,0,0:0:0:0:
401,285,26600,1,0,0:0:0:0:
395,274,26725,1,8,0:0:0:0:
399,271,26850,1,0,0:0:0:0:
416,265,26912,1,0,0:0:0:0:
418,258,26975,1,8,0:0:0:0:
361,289,27100,1,8,0:0:0:0:
368,263,27162,1,0,0:0:0:0:
408,276,27225,1,8,0:0:0:0:
424,286,27350,1,0,0:0:0:0:
428,269,27412,1,0,0:0:0:0:
312,319,27475,1,8,0:0:0:0:
319,312,27537,1,8,0:0:0:0:
428,269,27600,1,0,0:0:0:0:
420,304,27725,1,8,0:0:0:0:
336,339,27850,1,0,0:0:0:0:
420,304,27975,1,8,0:0:0:0:
336,326,28100,1,8,0:0:0:0:
336,326,28162,1,8,0:0:0:0:
350,321,28225,1,0,0:0:0:0:
384,288,28350,1,0,0:0:0:0:
355,283,28412,1,8,0:0:0:0:
373,292,28475,1,0,0:0:0:0:
416,257,28537,1,8,0:0:0:0:
361,281,28600,1,0,0:0:0:0:
437,331,28725,1,8,0:0:0:0:
460,275,28850,1,0,0:0:0:0:
415,297,28912,1,0,0:0:0:0:
428,330,28975,1,8,0:0:0:0:
428,330,29037,1,8,0:0:0:0:
428,330,29100,1,8,0:0:0:0:
428,330,29162,1,8,0:0:0:0:
397,323,29225,1,4,0:0:0:0:
398,323,29475,1,4,0:0:0:0:
398,341,29725,1,0,0:0:0:0:
390,301,29850,1,8,0:0:0:0:
390,301,29912,1,8,0:0:0:0:
390,301,29975,1,8,0:0:0:0:
390,301,30100,1,8,0:0:0:0:
422,288,30225,1,0,0:0:0:0:
390,301,30475,1,8,0:0:0:0:
384,289,30600,1,0,0:0:0:0:
384,289,30662,1,0,0:0:0:0:
403,290,30725,1,8,0:0:0:0:
403,290,30766,1,8,0:0:0:0:
403,290,30808,1,8,0:0:0:0:
406,288,30850,1,0,0:0:0:0:
382,290,30912,1,0,0:0:0:0:
429,295,30975,1,8,0:0:0:0:
357,267,31100,1,0,0:0:0:0:
402,273,31141,1,8,0:0:0:0:
402,273,31183,1,8,0:0:0:0:
356,267,31225,1,0,0:0:0:0:
406,264,31350,1,0,0:0:0:0:
391,269,31475,1,8,0:0:0:0:
384,235,31600,1,8,0:0:0:0:
384,235,31725,1,0,0:0:0:0:
408,255,31766,1,0,0:0:0:0:
407,255,31808,1,0,0:0:0:0:
331,281,31850,1,8,0:0:0:0:
407,243,31912,1,0,0:0:0:0:
360,256,31975,1,8,0:0:0:0:
360,256,32037,1,8,0:0:0:0:
400,245,32100,1,0,0:0:0:0:
392,272,32141,1,8,0:0:0:0:
391,269,32183,1,8,0:0:0:0:
397,243,32225,1,0,0:0:0:0:
427,257,32350,1,0,0:0:0:0:
408,255,32475,1,8,0:0:0:0:
380,275,32600,1,0,0:0:0:0:
380,275,32662,1,0,0:0:0:0:
343,297,32725,1,8,0:0:0:0:
395,264,32787,1,8,0:0:0:0:
405,274,32850,1,0,0:0:0:0:
388,263,32912,1,8,0:0:0:0:
405,274,32975,1,0,0:0:0:0:
380,272,33100,1,8,0:0:0:0:
399,287,33225,1,0,0:0:0:0:
426,252,33350,1,8,0:0:0:0:
397,283,33475,1,0,0:0:0:0:
395,264,33537,1,0,0:0:0:0:
436,246,33600,1,8,0:0:0:0:
404,268,33662,1,0,0:0:0:0:
428,271,33725,1,8,0:0:0:0:
422,242,33850,1,8,0:0:0:0:
330,291,33975,1,0,0:0:0:0:
325,283,34037,1,0,0:0:0:0:
386,291,34100,1,8,0:0:0:0:
371,247,34225,1,8,0:0:0:0:
373,258,34350,1,8,0:0:0:0:
373,258,34412,1,8,0:0:0:0:
392,256,34475,1,0,0:0:0:0:
410,250,34600,1,0,0:0:0:0:
397,263,34725,1,8,0:0:0:0:
397,263,34787,1,8,0:0:0:0:
362,259,34850,1,0,0:0:0:0:
397,263,34912,1,8,0:0:0:0:
362,259,34975,1,0,0:0:0:0:
362,259,35037,1,0,0:0:0:0:
397,263,35100,1,8,0:0:0:0:
331,270,35162,1,0,0:0:0:0:
397,263,35225,1,8,0:0:0:0:
363,285,35350,1,0,0:0:0:0:
273,295,35412,1,8,0:0:0:0:
390,228,35475,1,0,0:0:0:0:
435,256,35600,1,0,0:0:0:0:
381,228,35725,1,8,0:0:0:0:
402,277,35850,1,0,0:0:0:0:
402,277,35912,1,0,0:0:0:0:
359,251,35975,1,8,0:0:0:0:
357,250,36037,1,8,0:0:0:0:
359,251,36100,1,8,0:0:0:0:
359,252,36162,1,8,0:0:0:0:
377,239,36225,1,4,0:0:0:0:
424,251,36475,1,4,0:0:0:0:
424,244,36725,1,0,0:0:0:0:
402,240,36850,1,8,0:0:0:0:
394,262,36912,1,8,0:0:0:0:
402,240,36975,1,8,0:0:0:0:
375,240,37100,1,8,0:0:0:0:
396,230,37225,1,0,0:0:0:0:
382,232,37475,1,8,0:0:0:0:
352,225,37600,1,0,0:0:0:0:
351,225,37662,1,0,0:0:0:0:
369,249,37725,1,8,0:0:0:0:
362,233,37766,1,0,0:0:0:0:
362,233,37808,1,0,0:0:0:0:
369,249,37850,1,8,0:0:0:0:
375,236,37912,1,8,0:0:0:0:
300,251,37975,1,0,0:0:0:0:
364,245,38100,1,8,0:0:0:0:
363,244,38141,1,8,0:0:0:0:
363,244,38183,1,8,0:0:0:0:
350,258,38225,1,0,0:0:0:0:
340,254,38350,1,0,0:0:0:0:
356,263,38475,1,8,0:0:0:0:
396,237,38600,1,8,0:0:0:0:
423,215,38725,1,0,0:0:0:0:
387,259,38766,1,0,0:0:0:0:
387,259,38808,1,0,0:0:0:0:
364,245,38850,1,8,0:0:0:0:
378,243,38912,1,8,0:0:0:0:
357,252,38975,1,0,0:0:0:0:
384,251,39100,1,8,0:0:0:0:
406,228,39225,1,0,0:0:0:0:
387,259,39475,1,8,0:0:0:0:
402,261,39600,1,0,0:0:0:0:
402,261,39662,1,0,0:0:0:0:
406,261,39725,1,8,0:0:0:0:
394,264,39850,1,8,0:0:0:0:
402,261,39912,1,0,0:0:0:0:
394,264,39975,1,8,0:0:0:0:
394,264,40037,1,8,0:0:0:0:
402,261,40100,1,0,0:0:0:0:
424,281,40225,1,0,0:0:0:0:
355,259,40350,1,8,0:0:0:0:
372,273,40475,1,0,0:0:0:0:
377,279,40537,1,8,0:0:0:0:
411,281,40600,1,8,0:0:0:0:
369,267,40662,1,0,0:0:0:0:
400,281,40725,1,8,0:0:0:0:
399,280,40850,1,8,0:0:0:0:
392,279,40975,1,0,0:0:0:0:
395,279,41037,1,0,0:0:0:0:
409,277,41100,1,8,0:0:0:0:
394,268,41225,1,0,0:0:0:0:
394,268,41350,1,0,0:0:0:0:
394,268,41412,1,0,0:0:0:0:
433,272,41475,1,8,0:0:0:0:
434,272,41537,1,8,0:0:0:0:
394,268,41600,1,0,0:0:0:0:
412,276,41725,1,8,0:0:0:0:
382,288,41787,1,0,0:0:0:0:
409,277,41850,1,8,0:0:0:0:
431,256,41912,1,8,0:0:0:0:
412,273,41975,1,0,0:0:0:0:
413,273,42037,1,0,0:0:0:0:
308,267,42100,1,8,0:0:0:0:
356,296,42225,1,4,0:0:0:0:
406,261,42350,1,8,0:0:0:0:
380,259,42391,1,0,0:0:0:0:
380,259,42433,1,0,0:0:0:0:
406,261,42475,1,8,0:0:0:0:
380,259,42600,1,0,0:0:0:0:
416,260,42725,1,8,0:0:0:0:
380,259,42766,1,0,0:0:0:0:
380,259,42808,1,0,0:0:0:0:
416,260,42850,1,8,0:0:0:0:
397,257,42975,1,0,0:0:0:0:
397,257,43037,1,0,0:0:0:0:
352,265,43100,1,8,0:0:0:0:
397,257,43162,1,0,0:0:0:0:
351,266,43225,1,8,0:0:0:0:
437,264,43350,1,0,0:0:0:0:
437,264,43412,1,0,0:0:0:0:
403,257,43475,1,8,0:0:0:0:
436,239,43600,1,0,0:0:0:0:
422,265,43725,1,8,0:0:0:0:
418,264,43787,1,8,0:0:0:0:
398,281,43850,1,0,0:0:0:0:
398,281,43912,1,0,0:0:0:0:
418,264,43975,1,8,0:0:0:0:
421,264,44100,1,8,0:0:0:0:
396,284,44225,1,0,0:0:0:0:
423,276,44350,1,8,0:0:0:0:
422,265,44412,1,0,0:0:0:0:
424,278,44475,1,8,0:0:0:0:
425,272,44600,1,0,0:0:0:0:
428,274,44725,1,8,0:0:0:0:
428,274,44787,1,8,0:0:0:0:
437,267,44850,1,0,0:0:0:0:
428,274,44912,1,8,0:0:0:0:
475,249,44975,1,0,0:0:0:0:
437,267,45037,1,0,0:0:0:0:
432,240,45100,1,8,0:0:0:0:
432,240,45141,1,8,0:0:0:0:
432,240,45183,1,8,0:0:0:0:
431,253,45225,1,0,0:0:0:0:
424,258,45350,1,8,0:0:0:0:
422,220,45475,1,0,0:0:0:0:
422,246,45600,1,8,0:0:0:0:
422,245,45641,1,8,0:0:0:0:
422,245,45683,1,8,0:0:0:0:
422,245,45725,1,8,0:0:0:0:
432,240,45850,1,0,0:0:0:0:
441,262,45975,1,0,0:0:0:0:
441,262,46037,1,0,0:0:0:0:
353,259,46100,1,8,0:0:0:0:
353,259,46141,1,0,0:0:0:0:
353,259,46183,1,0,0:0:0:0:
435,233,46225,1,8,0:0:0:0:
361,250,46350,1,0,0:0:0:0:
364,251,46412,1,0,0:0:0:0:
432,256,46475,1,8,0:0:0:0:
404,236,46516,1,8,0:0:0:0:
404,236,46558,1,8,0:0:0:0:
412,251,46600,1,0,0:0:0:0:
429,252,46662,1,0,0:0:0:0:
338,284,46725,1,8,0:0:0:0:
429,252,46787,1,0,0:0:0:0:
376,260,46850,1,8,0:0:0:0:
376,260,46891,1,8,0:0:0:0:
380,278,46933,1,0,0:0:0:0:
376,260,46975,1,8,0:0:0:0:
380,278,47016,1,0,0:0:0:0:
378,278,47058,1,0,0:0:0:0:
376,260,47100,1,8,0:0:0:0:
394,268,47225,1,0,0:0:0:0:
370,241,47350,1,8,0:0:0:0:
385,268,47412,1,0,0:0:0:0:
365,248,47475,1,8,0:0:0:0:
365,248,47537,1,8,0:0:0:0:
385,268,47600,1,0,0:0:0:0:
377,266,47725,1,8,0:0:0:0:
377,266,47787,1,8,0:0:0:0:
369,274,47850,1,0,0:0:0:0:
368,272,47912,1,0,0:0:0:0:
365,267,47975,1,8,0:0:0:0:
349,256,48016,1,8,0:0:0:0:
396,266,48058,1,0,0:0:0:0:
397,260,48100,1,0,0:0:0:0:
353,255,48141,1,8,0:0:0:0:
353,255,48183,1,8,0:0:0:0:
383,261,48225,1,0,0:0:0:0:
374,249,48350,1,0,0:0:0:0:
376,255,48475,1,8,0:0:0:0:
376,255,48516,1,8,0:0:0:0:
376,255,48558,1,8,0:0:0:0:
376,255,48600,1,8,0:0:0:0:
388,234,48725,1,0,0:0:0:0:
388,234,48766,1,0,0:0:0:0:
388,234,48808,1,0,0:0:0:0:
401,258,48850,1,8,0:0:0:0:
393,230,48975,1,0,0:0:0:0:
428,246,49100,1,8,0:0:0:0:
430,245,49162,1,8,0:0:0:0:
390,244,49225,1,0,0:0:0:0:
369,237,49350,1,0,0:0:0:0:
369,237,49412,1,0,0:0:0:0:
428,262,49475,1,8,0:0:0:0:
368,249,49516,1,8,0:0:0:0:
376,239,49558,1,0,0:0:0:0:
403,262,49600,1,0,0:0:0:0:
355,234,49641,1,0,0:0:0:0:
355,234,49683,1,0,0:0:0:0:
384,240,49725,1,8,0:0:0:0:
333,294,49975,1,0,0:0:0:0:
333,294,50016,1,0,0:0:0:0:
380,260,50058,1,0,0:0:0:0:
382,270,50100,1,8,0:0:0:0:
402,283,50225,1,4,0:0:0:0:
356,239,50350,1,8,0:0:0:0:
377,273,50391,1,0,0:0:0:0:
395,244,50433,1,0,0:0:0:0:
356,239,50475,1,8,0:0:0:0:
389,253,50600,1,0,0:0:0:0:
369,281,50725,1,8,0:0:0:0:
380,260,50766,1,0,0:0:0:0:
389,258,50808,1,0,0:0:0:0:
369,281,50850,1,8,0:0:0:0:
389,273,50975,1,0,0:0:0:0:
385,272,51037,1,8,0:0:0:0:
389,273,51100,1,0,0:0:0:0:
389,273,51162,1,0,0:0:0:0:
385,272,51225,1,8,0:0:0:0:
453,229,51350,1,8,0:0:0:0:
397,279,51412,1,0,0:0:0:0:
417,257,51475,1,8,0:0:0:0:
397,279,51600,1,0,0:0:0:0:
420,234,51725,1,8,0:0:0:0:
420,234,51787,1,8,0:0:0:0:
449,247,51850,1,0,0:0:0:0:
448,248,51912,1,0,0:0:0:0:
420,234,51975,1,8,0:0:0:0:
426,250,52100,1,8,0:0:0:0:
448,248,52225,1,0,0:0:0:0:
420,234,52350,1,8,0:0:0:0:
420,234,52412,1,8,0:0:0:0:
454,241,52475,1,0,0:0:0:0:
378,249,52600,1,8,0:0:0:0:
388,245,52725,1,0,0:0:0:0:
388,245,52787,1,0,0:0:0:0:
398,220,52850,1,8,0:0:0:0:
403,241,52912,1,8,0:0:0:0:
350,245,52975,1,0,0:0:0:0:
398,220,53037,1,8,0:0:0:0:
396,243,53100,1,0,0:0:0:0:
399,245,53141,1,8,0:0:0:0:
399,245,53183,1,8,0:0:0:0:
396,243,53225,1,0,0:0:0:0:
385,273,53350,1,8,0:0:0:0:
401,243,53475,1,0,0:0:0:0:
389,264,53600,1,8,0:0:0:0:
389,264,53641,1,8,0:0:0:0:
389,264,53683,1,8,0:0:0:0:
389,264,53725,1,8,0:0:0:0:
396,243,53850,1,0,0:0:0:0:
402,251,53975,1,8,0:0:0:0:
402,251,54037,1,8,0:0:0:0:
383,256,54100,1,0,0:0:0:0:
383,256,54141,1,0,0:0:0:0:
383,256,54183,1,0,0:0:0:0:
405,256,54225,1,8,0:0:0:0:
442,238,54350,1,0,0:0:0:0:
442,238,54412,1,0,0:0:0:0:
397,251,54475,1,8,0:0:0:0:
397,251,54516,1,0,0:0:0:0:
397,251,54558,1,0,0:0:0:0:
450,233,54600,1,8,0:0:0:0:
382,253,54662,1,8,0:0:0:0:
416,251,54725,1,0,0:0:0:0:
416,251,54787,1,0,0:0:0:0:
417,264,54850,1,8,0:0:0:0:
388,261,54891,1,8,0:0:0:0:
388,261,54933,1,0,0:0:0:0:
417,264,54975,1,8,0:0:0:0:
388,261,55016,1,0,0:0:0:0:
388,261,55058,1,0,0:0:0:0:
415,266,55100,1,8,0:0:0:0:
388,241,55225,1,0,0:0:0:0:
388,241,55350,1,0,0:0:0:0:
388,241,55412,1,0,0:0:0:0:
401,260,55475,1,8,0:0:0:0:
401,260,55537,1,8,0:0:0:0:
388,241,55600,1,0,0:0:0:0:
376,268,55725,1,8,0:0:0:0:
355,243,55787,1,0,0:0:0:0:
363,245,55850,1,8,0:0:0:0:
369,235,55912,1,0,0:0:0:0:
388,217,55975,1,8,0:0:0:0:
389,217,56016,1,8,0:0:0:0:
399,230,56058,1,0,0:0:0:0:
399,230,56100,1,0,0:0:0:0:
389,217,56141,1,8,0:0:0:0:
391,216,56183,1,8,0:0:0:0:
399,230,56225,1,0,0:0:0:0:
339,189,56350,1,0,0:0:0:0:
373,207,56475,1,8,0:0:0:0:
373,207,56516,1,8,0:0:0:0:
373,207,56558,1,8,0:0:0:0:
373,207,56600,1,8,0:0:0:0:
400,243,56725,1,0,0:0:0:0:
400,243,56766,1,0,0:0:0:0:
400,243,56808,1,0,0:0:0:0:
392,216,56850,1,8,0:0:0:0:
405,212,56975,1,0,0:0:0:0:
384,250,57100,1,8,0:0:0:0:
384,250,57162,1,8,0:0:0:0:
400,243,57225,1,0,0:0:0:0:
398,229,57350,1,0,0:0:0:0:
391,243,57475,1,8,0:0:0:0:
438,258,57600,1,8,0:0:0:0:
450,261,57641,1,8,0:0:0:0:
450,261,57683,1,8,0:0:0:0:
384,250,57725,1,0,0:0:0:0:
405,258,57975,1,8,0:0:0:0:
447,256,58100,1,0,0:0:0:0:
447,256,58141,1,0,0:0:0:0:
449,256,58183,1,0,0:0:0:0:
405,258,58225,1,8,0:0:0:0:
414,246,58475,1,8,0:0:0:0:
416,213,58600,1,0,0:0:0:0:
417,224,58725,1,0,0:0:0:0:
418,226,58850,1,0,0:0:0:0:
418,226,58912,1,0,0:0:0:0:
418,226,58975,1,0,0:0:0:0:
440,219,59100,1,0,0:0:0:0:
411,234,59225,1,8,0:0:0:0:
437,241,59350,1,0,0:0:0:0:
411,234,59475,1,8,0:0:0:0:
437,241,59600,1,0,0:0:0:0:
437,241,59725,1,0,0:0:0:0:
375,263,59850,1,8,0:0:0:0:
375,263,59912,1,8,0:0:0:0:
437,241,59975,1,0,0:0:0:0:
462,237,60100,1,0,0:0:0:0:
372,227,60225,1,8,0:0:0:0:
395,280,60475,1,0,0:0:0:0:
369,284,60725,1,8,0:0:0:0:
399,273,60756,1,8,0:0:0:0:
403,274,60975,1,0,0:0:0:0:
403,274,61037,1,0,0:0:0:0:
403,274,61100,1,8,0:0:0:0:
401,266,61225,1,0,0:0:0:0:
401,266,61350,1,0,0:0:0:0:
401,266,61475,1,8,0:0:0:0:
401,266,61600,1,0,0:0:0:0:
401,266,61662,1,8,0:0:0:0:
401,266,61725,1,0,0:0:0:0:
401,266,61787,1,0,0:0:0:0:
401,266,61850,1,8,0:0:0:0:
411,227,61975,1,8,0:0:0:0:
411,227,62037,1,8,0:0:0:0:
411,227,62100,1,8,0:0:0:0:
411,227,62162,1,8,0:0:0:0:
411,247,62225,1,0,0:0:0:0:
400,250,62475,1,0,0:0:0:0:
435,257,62600,1,8,0:0:0:0:
406,263,62725,1,8,0:0:0:0:
404,258,62850,1,0,0:0:0:0:
404,258,62975,1,0,0:0:0:0:
458,243,63100,1,8,0:0:0:0:
394,282,63225,1,0,0:0:0:0:
394,282,63287,1,0,0:0:0:0:
394,281,63350,1,0,0:0:0:0:
397,287,63475,1,8,0:0:0:0:
396,277,63600,1,0,0:0:0:0:
396,287,63725,1,8,0:0:0:0:
394,282,63850,1,8,0:0:0:0:
385,264,63975,1,0,0:0:0:0:
376,269,64100,1,0,0:0:0:0:
364,278,64225,1,8,0:0:0:0:
410,262,64350,1,0,0:0:0:0:
410,262,64475,1,0,0:0:0:0:
410,262,64600,1,0,0:0:0:0:
372,294,64725,1,8,0:0:0:0:
363,276,64850,1,8,0:0:0:0:
364,278,64912,1,8,0:0:0:0:
349,291,64975,1,0,0:0:0:0:
363,294,65100,1,8,0:0:0:0:
367,304,65225,1,0,0:0:0:0:
367,304,65350,1,0,0:0:0:0:
364,318,65475,1,8,0:0:0:0:
376,302,65600,1,0,0:0:0:0:
376,303,65662,1,0,0:0:0:0:
362,320,65725,1,8,0:0:0:0:
378,280,65850,1,0,0:0:0:0:
367,304,65975,1,8,0:0:0:0:
373,306,66016,1,8,0:0:0:0:
373,306,66058,1,8,0:0:0:0:
341,288,66100,1,0,0:0:0:0:
373,291,66162,1,0,0:0:0:0:
391,311,66225,1,8,0:0:0:0:
337,296,66350,1,8,0:0:0:0:
402,289,66475,1,0,0:0:0:0:
340,301,66725,1,8,0:0:0:0:
339,301,66850,1,8,0:0:0:0:
373,279,67100,1,0,0:0:0:0:
367,271,67225,1,8,0:0:0:0:
373,279,67350,1,0,0:0:0:0:
395,315,67475,1,0,0:0:0:0:
361,272,67725,1,8,0:0:0:0:
361,272,67850,1,8,0:0:0:0:
407,287,68100,1,0,0:0:0:0:
378,271,68225,1,8,0:0:0:0:
361,272,68350,1,8,0:0:0:0:
392,286,68475,1,0,0:0:0:0:
392,286,68600,1,0,0:0:0:0:
399,281,68725,1,8,0:0:0:0:
394,294,68850,1,0,0:0:0:0:
399,281,68975,1,8,0:0:0:0:
399,281,69100,1,8,0:0:0:0:
392,286,69225,1,0,0:0:0:0:
399,281,69350,1,8,0:0:0:0:
390,284,69475,1,0,0:0:0:0:
373,303,69600,1,8,0:0:0:0:
343,296,69725,1,8,0:0:0:0:
390,284,69850,1,0,0:0:0:0:
356,329,69975,1,8,0:0:0:0:
399,281,70100,1,0,0:0:0:0:
397,288,70162,1,0,0:0:0:0:
356,329,70225,1,8,0:0:0:0:
356,329,70350,1,8,0:0:0:0:
433,271,70475,1,0,0:0:0:0:
377,298,70725,1,8,0:0:0:0:
399,281,70850,1,0,0:0:0:0:
399,290,71100,1,8,0:0:0:0:
401,279,71225,1,8,0:0:0:0:
387,298,71350,1,0,0:0:0:0:
387,298,71475,1,0,0:0:0:0:
397,281,71725,1,8,0:0:0:0:
452,278,71850,1,0,0:0:0:0:
394,304,71975,1,12,0:0:0:0:
354,292,72225,1,4,0:0:0:0:
402,288,72475,1,8,0:0:0:0:
399,280,72600,1,0,0:0:0:0:
402,288,72725,1,8,0:0:0:0:
402,288,72850,1,8,0:0:0:0:
399,280,72975,1,0,0:0:0:0:
399,277,73100,1,0,0:0:0:0:
400,277,73162,1,0,0:0:0:0:
356,304,73225,1,12,0:0:0:0:
375,296,73475,1,0,0:0:0:0:
389,304,73600,1,8,0:0:0:0:
375,296,73725,1,0,0:0:0:0:
375,296,73787,1,0,0:0:0:0:
389,304,73850,1,8,0:0:0:0:
389,304,73912,1,8,0:0:0:0:
375,296,73975,1,0,0:0:0:0:
440,285,74100,1,8,0:0:0:0:
375,296,74225,1,4,0:0:0:0:
397,312,74475,1,8,0:0:0:0:
453,280,74600,1,0,0:0:0:0:
454,280,74662,1,0,0:0:0:0:
397,312,74725,1,8,0:0:0:0:
424,303,74850,1,0,0:0:0:0:
400,317,74975,1,8,0:0:0:0:
421,308,75037,1,0,0:0:0:0:
397,312,75100,1,8,0:0:0:0:
397,312,75162,1,8,0:0:0:0:
422,305,75225,1,0,0:0:0:0:
390,295,75350,1,0,0:0:0:0:
378,320,75475,1,8,0:0:0:0:
385,288,75725,1,8,0:0:0:0:
385,288,75850,1,8,0:0:0:0:
385,288,75975,1,8,0:0:0:0:
390,295,76100,1,8,0:0:0:0:
369,298,76225,1,0,0:0:0:0:
379,314,76350,1,0,0:0:0:0:
465,278,76475,1,8,0:0:0:0:
465,278,76537,1,8,0:0:0:0:
432,296,76600,1,0,0:0:0:0:
432,296,76662,1,0,0:0:0:0:
465,278,76725,1,8,0:0:0:0:
426,291,76850,1,0,0:0:0:0:
424,298,76975,1,8,0:0:0:0:
424,298,77037,1,8,0:0:0:0:
432,296,77100,1,0,0:0:0:0:
424,298,77162,1,8,0:0:0:0:
450,248,77225,1,0,0:0:0:0:
435,274,77350,1,8,0:0:0:0:
449,258,77475,1,0,0:0:0:0:
426,291,77600,1,0,0:0:0:0:
442,279,77725,1,8,0:0:0:0:
432,273,77975,1,0,0:0:0:0:
428,271,78100,1,0,0:0:0:0:
422,281,78225,1,12,0:0:0:0:
416,293,78412,1,0,0:0:0:0:
405,275,78475,1,8,0:0:0:0:
416,292,78600,1,0,0:0:0:0:
418,275,78662,1,8,0:0:0:0:
373,287,78725,1,0,0:0:0:0:
373,287,78787,1,0,0:0:0:0:
425,269,78850,1,8,0:0:0:0:
373,287,78975,1,0,0:0:0:0:
373,287,79037,1,0,0:0:0:0:
446,273,79100,1,8,0:0:0:0:
373,287,79162,1,0,0:0:0:0:
447,271,79225,1,8,0:0:0:0:
447,271,79287,1,8,0:0:0:0:
401,282,79350,1,0,0:0:0:0:
417,311,79475,1,8,0:0:0:0:
417,311,79537,1,8,0:0:0:0:
455,296,79600,1,0,0:0:0:0:
455,296,79662,1,0,0:0:0:0:
417,311,79725,1,8,0:0:0:0:
417,311,79850,1,8,0:0:0:0:
466,269,79912,1,0,0:0:0:0:
417,311,79975,1,8,0:0:0:0:
458,296,80100,1,0,0:0:0:0:
418,291,80225,1,12,0:0:0:0:
440,294,80350,1,0,0:0:0:0:
440,294,80412,1,0,0:0:0:0:
437,283,80475,1,8,0:0:0:0:
437,283,80537,1,8,0:0:0:0:
454,281,80600,1,0,0:0:0:0:
433,285,80662,1,8,0:0:0:0:
435,282,80725,1,0,0:0:0:0:
435,282,80766,1,0,0:0:0:0:
435,282,80808,1,0,0:0:0:0:
427,285,80850,1,8,0:0:0:0:
425,273,80912,1,8,0:0:0:0:
417,260,80975,1,0,0:0:0:0:
412,260,81037,1,0,0:0:0:0:
394,280,81100,1,8,0:0:0:0:
394,280,81162,1,8,0:0:0:0:
467,290,81225,1,0,0:0:0:0:
467,290,81287,1,0,0:0:0:0:
467,290,81350,1,0,0:0:0:0:
464,290,81412,1,0,0:0:0:0:
422,278,81475,1,8,0:0:0:0:
477,274,81537,1,8,0:0:0:0:
464,290,81600,1,0,0:0:0:0:
464,290,81662,1,0,0:0:0:0:
400,289,81725,1,8,0:0:0:0:
400,289,81787,1,8,0:0:0:0:
400,289,81850,1,8,0:0:0:0:
400,289,81912,1,8,0:0:0:0:
477,274,81975,1,0,0:0:0:0:
485,264,82037,1,0,0:0:0:0:
400,289,82100,1,8,0:0:0:0:
401,289,82162,1,8,0:0:0:0:
436,282,82225,1,0,0:0:0:0:
368,304,83225,1,8,0:0:0:0:
368,304,83475,1,8,0:0:0:0:
349,311,83725,1,8,0:0:0:0:
356,304,83756,1,8,0:0:0:0:
390,272,83850,1,0,0:0:0:0:
393,255,83975,1,12,0:0:0:0:
415,274,84225,1,4,0:0:0:0:
423,308,84350,1,8,0:0:0:0:
443,275,84475,1,0,0:0:0:0:
443,275,84537,1,0,0:0:0:0:
408,297,84600,1,8,0:0:0:0:
445,275,84662,1,0,0:0:0:0:
408,297,84725,1,8,0:0:0:0:
428,279,84850,1,8,0:0:0:0:
407,289,84975,1,0,0:0:0:0:
406,288,85037,1,0,0:0:0:0:
423,308,85100,1,8,0:0:0:0:
420,302,85162,1,8,0:0:0:0:
407,288,85225,1,0,0:0:0:0:
378,267,85350,1,0,0:0:0:0:
397,272,85412,1,0,0:0:0:0:
409,279,85475,1,8,0:0:0:0:
436,262,85600,1,0,0:0:0:0:
459,300,85725,1,8,0:0:0:0:
459,300,85787,1,8,0:0:0:0:
478,254,85850,1,0,0:0:0:0:
478,254,85912,1,0,0:0:0:0:
459,300,85975,1,8,0:0:0:0:
442,235,86016,1,0,0:0:0:0:
442,235,86058,1,0,0:0:0:0:
401,271,86100,1,8,0:0:0:0:
430,286,86162,1,8,0:0:0:0:
307,285,86225,1,0,0:0:0:0:
377,282,86350,1,8,0:0:0:0:
408,289,86412,1,0,0:0:0:0:
377,282,86475,1,8,0:0:0:0:
377,282,86537,1,8,0:0:0:0:
408,289,86600,1,0,0:0:0:0:
428,258,86725,1,8,0:0:0:0:
428,258,86766,1,8,0:0:0:0:
428,258,86808,1,8,0:0:0:0:
428,258,86850,1,8,0:0:0:0:
422,267,86975,1,0,0:0:0:0:
456,285,87100,1,8,0:0:0:0:
482,265,87162,1,8,0:0:0:0:
430,276,87225,1,0,0:0:0:0:
424,292,87350,1,0,0:0:0:0:
425,292,87391,1,0,0:0:0:0:
425,292,87433,1,0,0:0:0:0:
453,295,87475,1,8,0:0:0:0:
426,278,87600,1,0,0:0:0:0:
418,285,87725,1,8,0:0:0:0:
418,286,87766,1,8,0:0:0:0:
418,288,87808,1,8,0:0:0:0:
409,286,87850,1,0,0:0:0:0:
430,276,87912,1,0,0:0:0:0:
423,298,87975,1,8,0:0:0:0:
443,264,88016,1,0,0:0:0:0:
429,304,88058,1,0,0:0:0:0:
424,292,88100,1,8,0:0:0:0:
451,258,88162,1,8,0:0:0:0:
448,262,88225,1,0,0:0:0:0:
426,268,88350,1,0,0:0:0:0:
426,268,88412,1,0,0:0:0:0:
469,257,88475,1,8,0:0:0:0:
391,283,88600,1,0,0:0:0:0:
439,290,88662,1,8,0:0:0:0:
439,290,88725,1,8,0:0:0:0:
391,283,88787,1,0,0:0:0:0:
440,290,88850,1,8,0:0:0:0:
374,295,88975,1,0,0:0:0:0:
470,284,89100,1,0,0:0:0:0:
439,290,89225,1,8,0:0:0:0:
493,265,89350,1,0,0:0:0:0:
494,265,89412,1,0,0:0:0:0:
439,290,89475,1,8,0:0:0:0:
484,277,89600,1,0,0:0:0:0:
431,281,89725,1,8,0:0:0:0:
431,281,89787,1,8,0:0:0:0:
457,262,89850,1,0,0:0:0:0:
457,262,89912,1,0,0:0:0:0:
439,290,89975,1,8,0:0:0:0:
439,290,90016,1,8,0:0:0:0:
439,290,90058,1,0,0:0:0:0:
443,299,90100,1,0,0:0:0:0:
439,290,90141,1,8,0:0:0:0:
439,290,90183,1,8,0:0:0:0:
443,299,90225,1,0,0:0:0:0:
453,291,90350,1,0,0:0:0:0:
431,281,90475,1,8,0:0:0:0:
425,302,90600,1,0,0:0:0:0:
425,302,90662,1,0,0:0:0:0:
425,295,90725,1,8,0:0:0:0:
418,285,90850,1,8,0:0:0:0:
460,294,90912,1,0,0:0:0:0:
418,285,90975,1,8,0:0:0:0:
438,269,91037,1,8,0:0:0:0:
468,317,91100,1,0,0:0:0:0:
438,269,91162,1,8,0:0:0:0:
467,314,91225,1,0,0:0:0:0:
436,295,91350,1,8,0:0:0:0:
436,295,91412,1,8,0:0:0:0:
407,285,91475,1,0,0:0:0:0:
398,304,91600,1,0,0:0:0:0:
417,300,91725,1,8,0:0:0:0:
414,280,91975,1,0,0:0:0:0:
414,280,92016,1,0,0:0:0:0:
414,280,92058,1,0,0:0:0:0:
378,285,92100,1,8,0:0:0:0:
407,285,92225,1,0,0:0:0:0:
391,280,92350,1,0,0:0:0:0:
392,285,92412,1,0,0:0:0:0:
385,267,92475,1,8,0:0:0:0:
384,268,92600,1,8,0:0:0:0:
383,268,92662,1,8,0:0:0:0:
376,297,92725,1,0,0:0:0:0:
376,297,92787,1,0,0:0:0:0:
382,268,92850,1,8,0:0:0:0:
392,294,92975,1,8,0:0:0:0:
380,286,93037,1,0,0:0:0:0:
392,294,93100,1,8,0:0:0:0:
392,294,93162,1,8,0:0:0:0:
366,304,93225,1,0,0:0:0:0:
472,278,93350,1,0,0:0:0:0:
472,278,93412,1,0,0:0:0:0:
390,291,93475,1,8,0:0:0:0:
436,293,93600,1,0,0:0:0:0:
435,285,93662,1,8,0:0:0:0:
436,293,93725,1,0,0:0:0:0:
436,274,93787,1,0,0:0:0:0:
435,285,93850,1,8,0:0:0:0:
436,293,93912,1,0,0:0:0:0:
435,285,93975,1,8,0:0:0:0:
385,272,94100,1,8,0:0:0:0:
424,264,94225,1,0,0:0:0:0:
465,246,94350,1,0,0:0:0:0:
412,268,94475,1,8,0:0:0:0:
461,258,94600,1,0,0:0:0:0:
469,255,94662,1,0,0:0:0:0:
440,250,94725,1,8,0:0:0:0:
446,274,94850,1,0,0:0:0:0:
446,274,94912,1,8,0:0:0:0:
407,279,94975,1,0,0:0:0:0:
407,279,95037,1,0,0:0:0:0:
452,279,95100,1,8,0:0:0:0:
400,294,95225,1,0,0:0:0:0:
400,294,95287,1,0,0:0:0:0:
406,294,95350,1,8,0:0:0:0:
405,295,95412,1,8,0:0:0:0:
400,294,95475,1,0,0:0:0:0:
407,292,95600,1,8,0:0:0:0:
407,279,95725,1,0,0:0:0:0:
407,292,95850,1,8,0:0:0:0:
407,292,95912,1,8,0:0:0:0:
421,277,95975,1,0,0:0:0:0:
425,296,96100,1,8,0:0:0:0:
409,279,96225,1,0,0:0:0:0:
409,279,96350,1,0,0:0:0:0:
432,268,96475,1,8,0:0:0:0:
409,279,96600,1,0,0:0:0:0:
413,291,96725,1,8,0:0:0:0:
413,291,96787,1,8,0:0:0:0:
408,278,96850,1,0,0:0:0:0:
409,279,96912,1,0,0:0:0:0:
413,291,96975,1,8,0:0:0:0:
413,291,97100,1,8,0:0:0:0:
398,287,97225,1,0,0:0:0:0:
398,287,97350,1,0,0:0:0:0:
398,287,97412,1,0,0:0:0:0:
412,282,97475,1,8,0:0:0:0:
462,287,97600,1,0,0:0:0:0:
436,297,97725,1,8,0:0:0:0:
436,297,97787,1,8,0:0:0:0:
461,288,97850,1,0,0:0:0:0:
436,297,97912,1,8,0:0:0:0:
475,273,97975,1,0,0:0:0:0:
484,268,98100,1,0,0:0:0:0:
444,284,98225,1,8,0:0:0:0:
464,277,98350,1,8,0:0:0:0:
466,278,98412,1,0,0:0:0:0:
448,289,98475,1,8,0:0:0:0:
407,284,98600,1,0,0:0:0:0:
407,284,98662,1,0,0:0:0:0:
452,307,98725,1,8,0:0:0:0:
407,284,98787,1,0,0:0:0:0:
452,307,98850,1,8,0:0:0:0:
452,307,98912,1,8,0:0:0:0:
403,300,98975,1,0,0:0:0:0:
382,295,99100,1,8,0:0:0:0:
429,285,99225,1,0,0:0:0:0:
429,285,99475,1,0,0:0:0:0:
430,285,99600,1,0,0:0:0:0:
386,287,99725,1,8,0:0:0:0:
395,300,99975,1,8,0:0:0:0:
403,283,100225,1,0,0:0:0:0:
403,277,100475,1,8,0:0:0:0:
403,277,100600,1,8,0:0:0:0:
403,277,100662,1,8,0:0:0:0:
410,267,100725,1,0,0:0:0:0:
425,274,100850,1,8,0:0:0:0:
434,269,100975,1,0,0:0:0:0:
434,269,101037,1,0,0:0:0:0:
434,269,101100,1,0,0:0:0:0:
434,269,101162,1,0,0:0:0:0:
408,283,101225,1,8,0:0:0:0:
408,283,101350,1,8,0:0:0:0:
409,283,101412,1,8,0:0:0:0:
435,268,101475,1,0,0:0:0:0:
407,292,101600,1,0,0:0:0:0:
414,307,101725,1,8,0:0:0:0:
415,295,101808,1,0,0:0:0:0:
416,295,101891,1,0,0:0:0:0:
414,310,101975,1,8,0:0:0:0:
445,260,102100,1,8,0:0:0:0:
407,292,102225,1,0,0:0:0:0:
431,292,102475,1,8,0:0:0:0:
436,272,102600,1,0,0:0:0:0:
401,281,102662,1,8,0:0:0:0:
436,272,102725,1,0,0:0:0:0:
422,290,102850,1,8,0:0:0:0:
419,283,102975,1,0,0:0:0:0:
419,283,103037,1,0,0:0:0:0:
419,283,103100,1,0,0:0:0:0:
423,282,103162,1,0,0:0:0:0:
421,284,103225,1,8,0:0:0:0:
409,268,103350,1,8,0:0:0:0:
460,275,103412,1,0,0:0:0:0:
409,268,103475,1,8,0:0:0:0:
439,289,103600,1,0,0:0:0:0:
403,309,103725,1,0,0:0:0:0:
403,309,103787,1,0,0:0:0:0:
403,292,103850,1,8,0:0:0:0:
401,293,103912,1,8,0:0:0:0:
403,309,103975,1,0,0:0:0:0:
426,286,104100,1,8,0:0:0:0:
424,300,104225,1,0,0:0:0:0:
388,261,104475,1,8,0:0:0:0:
408,271,104600,1,8,0:0:0:0:
398,275,104662,1,0,0:0:0:0:
425,295,104725,1,0,0:0:0:0:
420,275,104850,1,8,0:0:0:0:
433,267,104975,1,0,0:0:0:0:
433,267,105037,1,0,0:0:0:0:
433,267,105100,1,0,0:0:0:0:
435,267,105162,1,0,0:0:0:0:
420,275,105225,1,8,0:0:0:0:
432,263,105350,1,0,0:0:0:0:
417,255,105412,1,8,0:0:0:0:
390,284,105475,1,0,0:0:0:0:
420,275,105600,1,0,0:0:0:0:
419,273,105725,1,8,0:0:0:0:
419,273,105808,1,8,0:0:0:0:
419,273,105891,1,0,0:0:0:0:
429,263,105975,1,8,0:0:0:0:
423,285,106100,1,8,0:0:0:0:
426,264,106225,1,0,0:0:0:0:
377,279,106475,1,8,0:0:0:0:
377,279,106600,1,0,0:0:0:0:
377,279,106662,1,0,0:0:0:0:
386,278,106725,1,8,0:0:0:0:
393,285,106850,1,0,0:0:0:0:
365,284,106975,1,8,0:0:0:0:
344,294,107100,1,8,0:0:0:0:
411,285,107225,1,0,0:0:0:0:
391,263,107475,1,8,0:0:0:0:
406,251,107600,1,8,0:0:0:0:
406,251,107662,1,8,0:0:0:0:
367,269,107725,1,0,0:0:0:0:
361,277,107850,1,8,0:0:0:0:
391,276,107975,1,0,0:0:0:0:
391,276,108037,1,0,0:0:0:0:
241,278,108100,1,8,0:0:0:0:
391,276,108162,1,0,0:0:0:0:
366,277,108225,1,8,0:0:0:0:
357,304,108350,1,8,0:0:0:0:
357,304,108412,1,8,0:0:0:0:
397,271,108475,1,0,0:0:0:0:
397,271,108600,1,0,0:0:0:0:
382,271,108725,1,8,0:0:0:0:
394,264,108808,1,0,0:0:0:0:
394,264,108891,1,0,0:0:0:0:
381,272,108975,1,8,0:0:0:0:
367,297,109100,1,8,0:0:0:0:
456,254,109225,1,0,0:0:0:0:
445,318,109475,1,8,0:0:0:0:
468,272,109600,1,0,0:0:0:0:
451,285,109662,1,8,0:0:0:0:
468,272,109725,1,0,0:0:0:0:
469,250,109850,1,8,0:0:0:0:
403,307,109975,1,0,0:0:0:0:
403,307,110037,1,0,0:0:0:0:
469,250,110100,1,8,0:0:0:0:
403,307,110162,1,0,0:0:0:0:
468,252,110225,1,8,0:0:0:0:
379,263,110350,1,0,0:0:0:0:
422,273,110412,1,8,0:0:0:0:
422,273,110475,1,8,0:0:0:0:
394,260,110600,1,0,0:0:0:0:
403,307,110725,1,8,0:0:0:0:
404,273,110787,1,0,0:0:0:0:
404,273,110850,1,0,0:0:0:0:
404,273,110912,1,0,0:0:0:0:
409,291,110975,1,8,0:0:0:0:
391,262,111100,1,8,0:0:0:0:
406,272,111225,1,0,0:0:0:0:
422,272,111475,1,8,0:0:0:0:
417,289,111600,1,0,0:0:0:0:
417,289,111662,1,0,0:0:0:0:
409,291,111725,1,8,0:0:0:0:
412,288,111787,1,8,0:0:0:0:
417,289,111850,1,0,0:0:0:0:
412,288,111912,1,8,0:0:0:0:
417,289,111975,1,0,0:0:0:0:
334,279,112100,1,8,0:0:0:0:
334,279,112162,1,8,0:0:0:0:
449,276,112225,1,0,0:0:0:0:
414,262,112350,1,0,0:0:0:0:
414,262,112412,1,0,0:0:0:0:
406,281,112475,1,8,0:0:0:0:
406,281,112537,1,8,0:0:0:0:
414,262,112600,1,0,0:0:0:0:
398,287,112725,1,8,0:0:0:0:
398,287,112808,1,8,0:0:0:0:
385,295,112891,1,0,0:0:0:0:
398,287,112975,1,8,0:0:0:0:
409,286,113100,1,8,0:0:0:0:
434,292,113225,1,0,0:0:0:0:
416,252,113287,1,0,0:0:0:0:
392,267,113350,1,8,0:0:0:0:
392,267,113412,1,8,0:0:0:0:
407,274,113475,1,0,0:0:0:0:
392,267,113600,1,8,0:0:0:0:
430,253,113662,1,8,0:0:0:0:
414,278,113725,1,0,0:0:0:0:
392,267,113787,1,8,0:0:0:0:
424,243,113850,1,0,0:0:0:0:
407,260,113975,1,8,0:0:0:0:
405,268,114100,1,0,0:0:0:0:
406,268,114162,1,0,0:0:0:0:
407,260,114225,1,8,0:0:0:0:
419,257,114350,1,8,0:0:0:0:
344,285,114412,1,0,0:0:0:0:
416,257,114475,1,8,0:0:0:0:
412,260,114537,1,8,0:0:0:0:
412,283,114600,1,0,0:0:0:0:
350,266,114725,1,0,0:0:0:0:
