osu file format v14

[General]
AudioFilename: audio.ogg
AudioLeadIn: 0
PreviewTime: 29511
Countdown: 0
SampleSet: Normal
StackLeniency: 0.7
Mode: 1
LetterboxInBreaks: 0
WidescreenStoryboard: 0

[Editor]
DistanceSpacing: 1
BeatDivisor: 16
GridSize: 16
TimelineZoom: 4.599998

[Metadata]
Title:Bomber
TitleUnicode:Bomber
Artist:exnoiz
ArtistUnicode:exnoiz
Creator:Quorum
Version:Hell Oni
Source:
Tags:lolicore breakcore electronic japanese amenbreak yorushika ヨルシカ bakudanma 爆弾魔 makeinu ni encore wa iranai 負け犬にアンコールはいらない 盗作 plagiarism tousaku a loser doesn't doesnt need an encore compulsive ktyn kitajimayn Waribashi cryceptio
BeatmapID:3982809
BeatmapSetID:1928563

[Difficulty]
HPDrainRate:5.5
CircleSize:5
OverallDifficulty:7.5
ApproachRate:5
SliderMultiplier:1.4
SliderTickRate:1

[Events]
//Background and Video events
0,0,"image.jpg",0,-120
//Break Periods
//Storyboard Layer 0 (Background)
//Storyboard Layer 1 (Fail)
//Storyboard Layer 2 (Pass)
//Storyboard Layer 3 (Foreground)
//Storyboard Layer 4 (Overlay)
//Storyboard Sound Samples

[TimingPoints]
443,230.769230769231,4,1,0,100,1,0
443,-117.647059132896,4,1,0,100,0,0
6557,-117.647058823529,4,1,0,100,0,0
6672,-111.128954552754,4,1,0,100,0,0
6730,-108.108108108108,4,1,0,100,0,0
6788,-105.247148288973,4,1,0,100,0,0
6903,-100,4,1,0,100,0,0
13365,-100,4,1,0,100,0,0
13480,-101.261656609984,4,1,0,100,0,0
13595,-102.555555555556,4,1,0,100,0,0
13711,-103.894642053129,4,1,0,100,0,0
13826,-105.257155890067,4,1,0,100,0,0
13942,-106.668207558072,4,1,0,100,0,0
14057,-108.10494260951,4,1,0,100,0,0
14115,-108.844339622641,4,1,0,100,0,0
14172,-109.580909414698,4,1,0,100,0,0
14230,-110.340705319785,4,1,0,100,0,0
14288,-111.111111111111,4,1,0,100,0,0
21095,-111.111111111111,4,1,0,100,0,0
21153,-110.494063577174,4,1,0,100,0,0
21211,-109.883831651114,4,1,0,100,0,0
21268,-109.290652523913,4,1,0,100,0,0
21326,-108.693604596402,4,1,0,100,0,0
21384,-108.103044496487,4,1,0,100,0,0
21442,-107.51886704556,4,1,0,100,0,0
21557,-106.379056047198,4,1,0,100,0,0
21672,-105.263157894737,4,1,0,100,0,0
25365,-105.263157894737,4,1,0,100,0,0
25480,-104.547604035309,4,1,0,100,0,0
25595,-103.841712820714,4,1,0,100,0,0
25711,-103.139274953834,4,1,0,100,0,0
25768,-102.797582145071,4,1,0,100,0,0
25826,-102.452210851516,4,1,0,100,0,0
25942,-101.768383904254,4,1,0,100,0,0
26057,-101.099403616409,4,1,0,100,0,0
26172,-100.439161050958,4,1,0,100,0,0
26230,-100.109429832836,4,1,0,100,0,0
26288,-99.781856476606,4,1,0,100,0,0
26403,-99.1386558547112,4,1,0,100,0,0
26518,-98.5036943526529,4,1,0,100,0,0
26634,-97.8713985317446,4,1,0,100,0,0
26692,-97.5582849157902,4,1,0,100,0,0
26749,-97.2525156252864,4,1,0,100,0,0
26807,-96.9433431385088,4,1,0,100,0,0
26865,-96.6361301837653,4,1,0,100,0,0
26922,-96.336105159955,4,1,0,100,0,0
26980,-96.0327227973648,4,1,0,100,0,0
27038,-95.7312452639555,4,1,0,100,0,0
27095,-95.4368041441085,4,1,0,100,0,0
27211,-94.8431495218518,4,1,0,100,0,0
27268,-94.5541378572956,4,1,0,100,0,0
27326,-94.2618582341446,4,1,0,100,0,0
27384,-93.9713799943327,4,1,0,100,0,0
27442,-93.6826865355415,4,1,0,100,0,0
27499,-93.400693552078,4,1,0,100,0,0
27557,-93.1154905849113,4,1,0,100,0,0
27615,-92.8320240740417,4,1,0,100,0,0
27672,-92.5551214066425,4,1,0,100,0,0
27730,-92.2750513025634,4,1,0,100,0,0
27788,-91.9966710590193,4,1,0,100,0,0
27845,-91.7247221117776,4,1,0,100,0,0
27903,-91.4496475414074,4,1,0,100,0,0
27961,-91.1762178881347,4,1,0,100,0,0
28018,-90.9090909090909,4,1,0,100,0,0
29054,-100,4,1,0,100,0,0
29169,-99.3808882907133,4,1,0,100,0,0
29285,-98.7641110694987,4,1,0,100,0,0
29400,-98.160161650537,4,1,0,100,0,0
29458,-97.8583545377438,4,1,0,100,0,0
29515,-97.5635537233761,4,1,0,100,0,0
29631,-96.96906025109,4,1,0,100,0,0
29746,-96.3868003341688,4,1,0,100,0,0
29981,-95.2380952380952,4,1,0,100,0,1
43362,-95.2380952380952,4,1,0,100,0,1
43419,-95.4252421829214,4,1,0,100,0,1
43477,-95.6164288921897,4,1,0,100,0,1
43535,-95.8083832335329,4,1,0,100,0,1
43592,-95.9977803981411,4,1,0,100,0,1
43650,-96.1912705031971,4,1,0,100,0,1
43708,-96.3855421686747,4,1,0,100,0,1
43765,-96.5772303827501,4,1,0,100,0,1
43823,-96.7730657623326,4,1,0,100,0,1
43939,-97.1671288657984,4,1,0,100,0,1
44054,-97.5609756097561,4,1,0,100,0,1
44169,-97.9580280992321,4,1,0,100,0,1
44400,-98.7654320987654,4,1,0,100,0,1
44515,-99.1723693167568,4,1,0,100,0,1
44573,-99.3788819875776,4,1,0,100,0,1
44631,-99.586256520957,4,1,0,100,0,1
44750,-100,4,1,0,100,0,0
50980,-100,4,1,0,100,0,0
51095,-101.006564551422,4,1,0,100,0,0
51211,-102.04262092139,4,1,0,100,0,0
51326,-103.090941575844,4,1,0,100,0,0
51441,-104.1610253633,4,1,0,100,0,0
51557,-105.263157894737,4,1,0,100,0,0
51672,-106.379056047198,4,1,0,100,0,0
51788,-107.528885575848,4,1,0,100,0,0
51903,-108.693604596402,4,1,0,100,0,0
51961,-109.290652523913,4,1,0,100,0,0
52018,-109.883831651114,4,1,0,100,0,0
52076,-110.494063577174,4,1,0,100,0,0
52134,-111.111111111111,4,1,0,100,0,0
58595,-111.111111111111,4,1,0,100,0,0
58712,-110.33411033411,4,1,0,100,0,0
58827,-109.580909414698,4,1,0,100,0,0
58884,-109.211382594806,4,1,0,100,0,0
58942,-108.837922292318,4,1,0,100,0,0
59000,-108.467007462248,4,1,0,100,0,0
59058,-108.098612168414,4,1,0,100,0,0
59173,-107.375523499302,4,1,0,100,0,0
59289,-106.655881673215,4,1,0,100,0,0
59404,-105.951902657407,4,1,0,100,0,0
59518,-105.263157894737,4,1,0,100,0,0
67826,-105.263157894737,4,1,0,100,0,0
67884,-107.153917621555,4,1,0,100,0,0
67942,-109.113844213182,4,1,0,100,0,0
67999,-111.111111111111,4,1,0,100,0,0
68057,-113.219895287958,4,1,0,100,0,0
68115,-115.410273515677,4,1,0,100,0,0
68172,-117.647058823529,4,1,0,100,0,0
68288,-105.263157894737,4,1,0,100,0,0
68317,-104.570715662924,4,1,0,100,0,0
68403,-102.569807542552,4,1,0,100,0,0
68432,-101.912236100365,4,1,0,100,0,0
68518,-100.010847163467,4,1,0,100,0,0
68547,-99.3855772340196,4,1,0,100,0,0
68750,-95.2380952380952,4,1,0,100,0,1
81672,-95.2380952380952,4,1,0,100,0,1
81730,-95.667495854063,4,1,0,100,0,1
81787,-96.0932823195648,4,1,0,100,0,1
81845,-96.5304468324313,4,1,0,100,0,1
81903,-96.9716071756888,4,1,0,100,0,1
81961,-97.4168183857094,4,1,0,100,0,1
82018,-97.8583545377438,4,1,0,100,0,1
82076,-98.311764392608,4,1,0,100,0,1
82134,-98.7693953986089,4,1,0,100,0,1
82191,-99.2233061893628,4,1,0,100,0,1
82249,-99.6894829215607,4,1,0,100,0,1
82307,-100.160060768834,4,1,0,100,0,1
82364,-100.626873807577,4,1,0,100,0,1
82422,-101.106364333443,4,1,0,100,0,1
82480,-101.590446315558,4,1,0,100,0,1
82537,-102.070719637279,4,1,0,100,0,1
82595,-102.564102564103,4,1,0,100,0,1
82711,-103.565317400208,4,1,0,100,0,1
82768,-104.064490670274,4,1,0,100,0,1
82826,-104.577384998867,4,1,0,100,0,1
82942,-105.618491818286,4,1,0,100,0,1
83057,-106.671289474445,4,1,0,100,0,1
83115,-107.21026802567,4,1,0,100,0,1
83172,-107.745286873285,4,1,0,100,0,1
83288,-108.850757709771,4,1,0,100,0,1
83403,-109.969320584994,4,1,0,100,0,1
83519,-111.111111111111,4,1,0,100,0,0
90095,-111.111111111111,4,1,0,100,0,0
90153,-110.66977126421,4,1,0,100,0,0
90211,-110.231923601637,4,1,0,100,0,0
90326,-109.373942470389,4,1,0,100,0,0
90384,-108.946268455471,4,1,0,100,0,0
90442,-108.521925995568,4,1,0,100,0,0
90557,-107.690257230441,4,1,0,100,0,0
90615,-107.275624004248,4,1,0,100,0,0
90672,-106.871238674691,4,1,0,100,0,0
90730,-106.462876342315,4,1,0,100,0,0
90788,-106.057622891645,4,1,0,100,0,0
90845,-105.662351248856,4,1,0,100,0,0
90903,-105.263157894737,4,1,0,100,0,0
96900,-105.263157894737,4,1,0,100,0,0
96958,-105.729226306348,4,1,0,100,0,0
97015,-106.191297680659,4,1,0,100,0,0
97073,-106.665639801302,4,1,0,100,0,0
97131,-107.144238579662,4,1,0,100,0,0
97189,-107.627151571667,4,1,0,100,0,0
97246,-108.105998516957,4,1,0,100,0,0
97304,-108.597639863567,4,1,0,100,0,0
97362,-109.09377338427,4,1,0,100,0,0
97477,-110.091013870673,4,1,0,100,0,0
97592,-111.10665436605,4,1,0,100,0,0
97708,-112.150289485404,4,1,0,100,0,0
97823,-113.204462789652,4,1,0,100,0,0
97939,-114.2880719561,4,1,0,100,0,0
98054,-115.383013287791,4,1,0,100,0,0
98169,-116.499137822265,4,1,0,100,0,0
98285,-117.647058823529,4,1,0,100,0,0
101977,-117.647058823529,4,1,0,100,0,0
102208,-116.563438687897,4,1,0,100,0,0
102323,-116.031382718336,4,1,0,100,0,0
102439,-115.499598319527,4,1,0,100,0,0
102669,-114.459482387335,4,1,0,100,0,0
102785,-113.941976639946,4,1,0,100,0,0
102900,-113.433530796492,4,1,0,100,0,0
103015,-112.92960249295,4,1,0,100,0,0
103131,-112.425807940313,4,1,0,100,0,0
103246,-111.930773943231,4,1,0,100,0,0
103477,-110.949459168828,4,1,0,100,0,0
103592,-110.467313263635,4,1,0,100,0,0
103708,-109.985201535027,4,1,0,100,0,0
103823,-109.511381941236,4,1,0,100,0,0
103939,-109.03756014472,4,1,0,100,0,0
104054,-108.571853025651,4,1,0,100,0,0
104169,-108.110107123926,4,1,0,100,0,0
104285,-107.648307945353,4,1,0,100,0,0
104400,-107.194367712128,4,1,0,100,0,0
104515,-106.744239827651,4,1,0,100,0,0
104631,-106.354883007394,4,1,0,100,0,0
104746,-105.587087497757,4,1,0,100,0,0
104862,-104.823765045018,4,1,0,100,0,0
104977,-104.077839728873,4,1,0,100,0,0
105092,-103.342455403714,4,1,0,100,0,0
105208,-102.611129901595,4,1,0,100,0,0
105323,-101.896255055745,4,1,0,100,0,0
105439,-101.185184618321,4,1,0,100,0,0
105554,-100.489973064043,4,1,0,100,0,0
105669,-99.8042494804308,4,1,0,100,0,0
105785,-99.1219791743889,4,1,0,100,0,0
105900,-98.4547363657254,4,1,0,100,0,0
106015,-97.7964166242403,4,1,0,100,0,0
106131,-97.1412315140849,4,1,0,100,0,0
106246,-96.5003029825689,4,1,0,100,0,0
106362,-95.8623127185726,4,1,0,100,0,0
106593,-117.302052785924,4,1,0,100,0,0
112939,-115.881348495181,4,1,0,100,0,0
112996,-114.518273553436,4,1,0,100,0,0
113054,-113.163811328255,4,1,0,100,0,0
113112,-111.841014324528,4,1,0,100,0,0
113169,-110.570811726963,4,1,0,100,0,0
113227,-109.307602164211,4,1,0,100,0,0
113285,-108.072929506079,4,1,0,100,0,0
113342,-106.886420987188,4,1,0,100,0,0
113400,-105.705543513118,4,1,0,100,0,0
113458,-104.550473505851,4,1,0,100,0,0
113515,-103.439651551831,4,1,0,100,0,0
113573,-102.333311547044,4,1,0,100,0,0
113631,-101.250386848535,4,1,0,100,0,0
113689,-100.190141875091,4,1,0,100,0,0
113746,-99.1695904051611,4,1,0,100,0,0
113804,-98.1522568974125,4,1,0,100,0,0
113862,-97.1555841191397,4,1,0,100,0,0
113919,-96.1956211683028,4,1,0,100,0,0
113981,-95.2380952380952,4,1,0,100,0,1
118362,-95.2380952380952,4,1,0,100,0,1
118477,-94.7878987175271,4,1,0,100,0,1
118593,-94.3380788741614,4,1,0,100,0,1
118708,-93.8963312838471,4,1,0,100,0,1
118824,-93.4549138804458,4,1,0,100,0,1
118939,-93.0213795885438,4,1,0,100,0,1
119054,-92.5918490262999,4,1,0,100,0,1
119112,-92.3767175419621,4,1,0,100,0,1
119170,-92.1625834299189,4,1,0,100,0,1
119227,-91.953106308318,4,1,0,100,0,1
119285,-91.7409293443666,4,1,0,100,0,1
119400,-91.3231159162013,4,1,0,100,0,1
119516,-90.9090909090909,4,1,0,100,0,1
132439,-90.9090909090909,4,1,0,100,0,1
132496,-91.1649958022618,4,1,0,100,0,1
132554,-91.4268733594176,4,1,0,100,0,1
132612,-91.6902597725128,4,1,0,100,0,1
132669,-91.9505877664873,4,1,0,100,0,1
132727,-92.2170046957738,4,1,0,100,0,1
132785,-92.4849699398798,4,1,0,100,0,1
132842,-92.749836708034,4,1,0,100,0,1
132900,-93.0209120685311,4,1,0,100,0,1
132958,-93.2935765906909,4,1,0,100,0,1
133015,-93.5631018753168,4,1,0,100,0,1
133073,-93.8389589263928,4,1,0,100,0,1
133131,-94.1164474355053,4,1,0,100,0,1
133189,-94.3955819185928,4,1,0,100,0,1
133246,-94.6715216164932,4,1,0,100,0,1
133304,-94.9539632734942,4,1,0,100,0,1
133362,-95.2380952380952,4,1,0,100,0,1
133477,-95.8065185800291,4,1,0,100,0,1
133592,-96.3817678692633,4,1,0,100,0,1
133708,-96.96906025109,4,1,0,100,0,1
133823,-97.5583976323856,4,1,0,100,0,1
133881,-97.8583545377438,4,1,0,100,0,1
133939,-98.160161650537,4,1,0,100,0,1
134054,-98.7641110694987,4,1,0,100,0,1
134083,-98.917586539492,4,1,0,100,0,1
134169,-99.3755383290267,4,1,0,100,0,1
134198,-99.5309214428209,4,1,0,100,0,1
134289,-100,4,1,0,100,0,0
134315,-100,4,1,0,100,0,0

[HitObjects]
271,176,443,5,0,0:0:0:0:
271,176,673,1,8,0:0:0:0:
271,176,904,1,0,0:0:0:0:
271,161,1135,1,8,0:0:0:0:
271,161,1250,1,0,0:0:0:0:
291,178,2058,1,8,0:0:0:0:
291,178,2289,1,0,0:0:0:0:
298,169,2519,1,8,0:0:0:0:
298,169,2750,1,0,0:0:0:0:
298,169,2981,1,8,0:0:0:0:
298,169,3096,1,0,0:0:0:0:
252,204,3558,1,0,0:0:0:0:
252,204,3673,1,8,0:0:0:0:
252,204,3904,1,8,0:0:0:0:
252,204,4019,1,8,0:0:0:0:
252,204,4135,1,0,0:0:0:0:
171,46,4366,1,8,0:0:0:0:
171,46,4596,1,0,0:0:0:0:
171,46,4712,1,8,0:0:0:0:
171,46,4827,1,8,0:0:0:0:
171,46,4943,1,0,0:0:0:0:
171,46,5635,1,0,0:0:0:0:
171,46,5750,1,8,0:0:0:0:
171,46,5981,1,0,0:0:0:0:
171,46,6212,1,8,0:0:0:0:
96,122,6327,1,0,0:0:0:0:
96,122,6558,1,8,0:0:0:0:
96,122,6673,1,0,0:0:0:0:
96,122,6731,1,0,0:0:0:0:
96,122,6789,1,8,0:0:0:0:
96,122,6904,1,12,0:0:0:0:
96,122,7019,1,0,0:0:0:0:
96,122,7135,1,8,0:0:0:0:
102,124,7250,1,0,0:0:0:0:
186,106,7308,1,0,0:0:0:0:
102,124,7366,1,8,0:0:0:0:
183,84,7423,1,8,0:0:0:0:
179,103,7481,1,0,0:0:0:0:
102,124,7596,1,8,0:0:0:0:
102,124,7712,1,0,0:0:0:0:
183,84,7769,1,0,0:0:0:0:
185,96,7827,1,8,0:0:0:0:
110,118,7943,1,0,0:0:0:0:
110,118,8058,1,8,0:0:0:0:
110,118,8173,1,0,0:0:0:0:
102,124,8289,1,0,0:0:0:0:
110,118,8404,1,0,0:0:0:0:
110,118,8519,1,8,0:0:0:0:
110,118,8577,1,8,0:0:0:0:
110,118,8635,1,8,0:0:0:0:
110,118,8750,1,0,0:0:0:0:
110,118,8866,1,0,0:0:0:0:
110,118,8981,1,8,0:0:0:0:
110,118,9096,1,0,0:0:0:0:
165,56,9154,1,0,0:0:0:0:
110,118,9212,1,8,0:0:0:0:
165,56,9269,1,8,0:0:0:0:
165,56,9327,1,0,0:0:0:0:
110,118,9443,1,8,0:0:0:0:
110,118,9558,1,8,0:0:0:0:
165,56,9673,1,0,0:0:0:0:
110,118,9789,1,0,0:0:0:0:
165,56,9846,1,0,0:0:0:0:
250,164,9904,1,8,0:0:0:0:
250,164,10019,1,0,0:0:0:0:
157,101,10135,1,0,0:0:0:0:
251,152,10250,1,0,0:0:0:0:
251,152,10366,1,8,0:0:0:0:
251,152,10423,1,8,0:0:0:0:
251,152,10481,1,0,0:0:0:0:
251,152,10596,1,12,0:0:0:0:
251,152,10712,1,0,0:0:0:0:
251,152,10827,1,8,0:0:0:0:
251,152,10943,1,8,0:0:0:0:
150,63,11000,1,0,0:0:0:0:
251,152,11058,1,8,0:0:0:0:
150,63,11116,1,8,0:0:0:0:
251,152,11173,1,0,0:0:0:0:
251,152,11289,1,8,0:0:0:0:
251,152,11404,1,0,0:0:0:0:
159,60,11462,1,0,0:0:0:0:
160,60,11519,1,8,0:0:0:0:
251,152,11635,1,0,0:0:0:0:
159,60,11750,1,8,0:0:0:0:
251,152,11866,1,8,0:0:0:0:
157,101,11981,1,0,0:0:0:0:
175,151,12096,1,0,0:0:0:0:
175,151,12212,1,8,0:0:0:0:
175,151,12327,1,0,0:0:0:0:
159,60,12385,1,0,0:0:0:0:
175,151,12443,1,0,0:0:0:0:
181,139,12558,1,8,0:0:0:0:
181,139,12673,1,8,0:0:0:0:
181,139,12789,1,0,0:0:0:0:
159,60,12846,1,0,0:0:0:0:
159,60,12904,1,8,0:0:0:0:
181,139,13019,1,0,0:0:0:0:
181,139,13135,1,8,0:0:0:0:
181,139,13250,1,0,0:0:0:0:
181,139,13366,1,8,0:0:0:0:
159,60,13481,1,8,0:0:0:0:
181,139,13596,1,0,0:0:0:0:
159,60,13712,1,0,0:0:0:0:
181,139,13827,1,8,0:0:0:0:
181,139,13943,1,8,0:0:0:0:
181,139,14058,1,0,0:0:0:0:
181,139,14116,1,0,0:0:0:0:
181,139,14173,1,0,0:0:0:0:
181,139,14231,1,0,0:0:0:0:
181,139,14289,1,12,0:0:0:0:
164,105,14519,1,8,0:0:0:0:
182,82,14635,1,0,0:0:0:0:
164,105,14693,1,0,0:0:0:0:
259,203,14750,1,8,0:0:0:0:
234,164,14808,1,8,0:0:0:0:
161,142,14866,1,0,0:0:0:0:
161,142,14981,1,8,0:0:0:0:
161,142,15096,1,8,0:0:0:0:
161,142,15154,1,8,0:0:0:0:
161,142,15212,1,0,0:0:0:0:
161,142,15443,1,8,0:0:0:0:
161,142,15558,1,0,0:0:0:0:
161,142,15616,1,8,0:0:0:0:
161,142,15731,1,8,0:0:0:0:
161,142,15789,1,0,0:0:0:0:
161,142,15904,1,8,0:0:0:0:
161,142,16019,1,8,0:0:0:0:
159,128,16077,1,8,0:0:0:0:
161,142,16135,1,0,0:0:0:0:
161,142,16250,1,0,0:0:0:0:
161,142,16366,1,8,0:0:0:0:
161,142,16481,1,0,0:0:0:0:
161,142,16539,1,0,0:0:0:0:
161,142,16596,1,8,0:0:0:0:
161,142,16654,1,8,0:0:0:0:
161,142,16712,1,0,0:0:0:0:
161,142,16827,1,0,0:0:0:0:
171,117,16943,1,8,0:0:0:0:
155,113,17000,1,8,0:0:0:0:
171,117,17058,1,0,0:0:0:0:
155,113,17173,1,0,0:0:0:0:
155,113,17289,1,8,0:0:0:0:
155,113,17404,1,0,0:0:0:0:
155,113,17462,1,8,0:0:0:0:
155,113,17519,1,8,0:0:0:0:
155,113,17577,1,8,0:0:0:0:
155,113,17635,1,0,0:0:0:0:
155,113,17750,1,0,0:0:0:0:
155,99,17866,1,8,0:0:0:0:
156,108,17981,1,0,0:0:0:0:
155,113,18212,1,8,0:0:0:0:
155,113,18327,1,0,0:0:0:0:
155,113,18385,1,0,0:0:0:0:
155,113,18443,1,8,0:0:0:0:
155,113,18500,1,8,0:0:0:0:
155,113,18558,1,0,0:0:0:0:
155,113,18673,1,8,0:0:0:0:
156,111,18789,1,8,0:0:0:0:
156,111,18846,1,8,0:0:0:0:
156,108,18904,1,0,0:0:0:0:
155,113,19019,1,0,0:0:0:0:
155,113,19135,1,8,0:0:0:0:
155,113,19250,1,0,0:0:0:0:
155,113,19308,1,8,0:0:0:0:
155,113,19423,1,8,0:0:0:0:
155,113,19481,1,0,0:0:0:0:
155,113,19596,1,8,0:0:0:0:
156,111,19712,1,0,0:0:0:0:
172,90,19769,1,0,0:0:0:0:
156,111,19827,1,8,0:0:0:0:
155,113,19943,1,0,0:0:0:0:
155,113,20058,1,8,0:0:0:0:
155,113,20173,1,8,0:0:0:0:
155,113,20231,1,0,0:0:0:0:
155,113,20289,1,8,0:0:0:0:
155,113,20346,1,8,0:0:0:0:
155,113,20404,1,0,0:0:0:0:
155,113,20519,1,8,0:0:0:0:
155,113,20635,1,0,0:0:0:0:
156,111,20693,1,0,0:0:0:0:
156,111,20750,1,8,0:0:0:0:
155,113,20866,1,0,0:0:0:0:
155,113,20981,1,8,0:0:0:0:
155,113,21096,1,0,0:0:0:0:
155,113,21154,1,8,0:0:0:0:
155,113,21212,1,8,0:0:0:0:
155,113,21269,1,0,0:0:0:0:
155,113,21327,1,0,0:0:0:0:
74,157,21385,1,0,0:0:0:0:
155,113,21443,1,8,0:0:0:0:
155,113,21558,1,0,0:0:0:0:
155,113,21673,1,12,0:0:0:0:
188,72,21904,1,8,0:0:0:0:
188,72,22019,1,0,0:0:0:0:
188,72,22077,1,0,0:0:0:0:
188,72,22135,1,8,0:0:0:0:
188,72,22193,1,8,0:0:0:0:
188,72,22250,1,0,0:0:0:0:
194,61,22366,1,8,0:0:0:0:
194,61,22481,1,0,0:0:0:0:
194,61,22539,1,0,0:0:0:0:
194,61,22596,1,8,0:0:0:0:
194,61,22712,1,0,0:0:0:0:
194,61,22827,1,8,0:0:0:0:
194,61,22943,1,0,0:0:0:0:
194,61,23000,1,8,0:0:0:0:
195,67,23058,1,8,0:0:0:0:
194,61,23116,1,8,0:0:0:0:
194,61,23173,1,0,0:0:0:0:
194,61,23289,1,8,0:0:0:0:
194,61,23404,1,8,0:0:0:0:
186,79,23462,1,8,0:0:0:0:
193,53,23519,1,0,0:0:0:0:
193,53,23635,1,0,0:0:0:0:
193,53,23750,1,8,0:0:0:0:
193,53,23866,1,0,0:0:0:0:
193,53,23923,1,0,0:0:0:0:
193,53,23981,1,0,0:0:0:0:
193,53,24039,1,0,0:0:0:0:
193,53,24096,1,8,0:0:0:0:
193,53,24212,1,0,0:0:0:0:
193,53,24327,1,0,0:0:0:0:
193,53,24385,1,0,0:0:0:0:
193,53,24443,1,8,0:0:0:0:
180,11,24558,1,0,0:0:0:0:
180,11,24673,1,8,0:0:0:0:
180,11,24789,1,0,0:0:0:0:
180,11,24846,1,8,0:0:0:0:
91,97,24904,1,0,0:0:0:0:
180,11,24962,1,0,0:0:0:0:
180,11,25019,1,8,0:0:0:0:
180,11,25135,1,0,0:0:0:0:
180,11,25250,1,8,0:0:0:0:
180,11,25366,1,8,0:0:0:0:
180,11,25481,1,0,0:0:0:0:
180,11,25596,1,8,0:0:0:0:
180,11,25712,1,0,0:0:0:0:
133,77,25769,1,0,0:0:0:0:
180,11,25827,1,8,0:0:0:0:
180,11,25943,1,0,0:0:0:0:
180,11,26058,1,8,0:0:0:0:
180,11,26173,1,8,0:0:0:0:
180,11,26231,1,8,0:0:0:0:
180,11,26289,1,0,0:0:0:0:
180,11,26404,1,0,0:0:0:0:
180,11,26519,1,8,0:0:0:0:
180,11,26635,1,0,0:0:0:0:
180,11,26693,1,0,0:0:0:0:
180,11,26750,1,8,0:0:0:0:
180,11,26808,1,0,0:0:0:0:
181,1,26866,1,8,0:0:0:0:
180,11,26923,1,8,0:0:0:0:
181,1,26981,1,0,0:0:0:0:
84,125,27039,1,0,0:0:0:0:
181,1,27096,1,8,0:0:0:0:
181,1,27212,1,8,0:0:0:0:
162,76,27269,1,8,0:0:0:0:
181,1,27327,1,0,0:0:0:0:
162,76,27385,1,0,0:0:0:0:
181,1,27443,1,8,0:0:0:0:
162,76,27500,1,0,0:0:0:0:
162,76,27558,1,8,0:0:0:0:
162,76,27616,1,8,0:0:0:0:
181,0,27673,1,0,0:0:0:0:
181,0,27731,1,0,0:0:0:0:
181,0,27789,1,8,0:0:0:0:
181,1,27846,1,0,0:0:0:0:
181,0,27904,1,8,0:0:0:0:
181,0,27962,1,8,0:0:0:0:
181,1,28019,1,0,0:0:0:0:
125,106,29058,1,8,0:0:0:0:
125,106,29173,1,0,0:0:0:0:
125,106,29289,1,8,0:0:0:0:
125,106,29404,1,0,0:0:0:0:
125,106,29462,1,0,0:0:0:0:
125,106,29519,1,8,0:0:0:0:
142,104,29635,1,0,0:0:0:0:
142,104,29750,1,8,0:0:0:0:
142,104,29981,1,12,0:0:0:0:
158,112,30096,1,0,0:0:0:0:
158,112,30212,1,8,0:0:0:0:
158,112,30269,1,8,0:0:0:0:
158,112,30327,1,8,0:0:0:0:
100,130,30385,1,8,0:0:0:0:
100,130,30443,1,0,0:0:0:0:
181,86,30558,1,8,0:0:0:0:
181,86,30673,1,0,0:0:0:0:
181,86,30789,1,8,0:0:0:0:
181,86,30846,1,8,0:0:0:0:
181,86,30904,1,0,0:0:0:0:
181,86,31019,1,8,0:0:0:0:
181,86,31135,1,0,0:0:0:0:
168,87,31193,1,0,0:0:0:0:
181,86,31250,1,8,0:0:0:0:
181,86,31308,1,8,0:0:0:0:
181,86,31366,1,0,0:0:0:0:
181,86,31481,1,8,0:0:0:0:
181,86,31596,1,8,0:0:0:0:
181,86,31712,1,0,0:0:0:0:
181,86,31827,1,0,0:0:0:0:
181,86,31943,1,8,0:0:0:0:
132,108,32000,1,8,0:0:0:0:
181,86,32058,1,0,0:0:0:0:
181,86,32173,1,8,0:0:0:0:
181,86,32289,1,0,0:0:0:0:
151,62,32346,1,0,0:0:0:0:
181,86,32404,1,0,0:0:0:0:
151,62,32462,1,0,0:0:0:0:
181,86,32519,1,8,0:0:0:0:
181,86,32635,1,0,0:0:0:0:
181,86,32750,1,0,0:0:0:0:
111,106,32866,1,8,0:0:0:0:
146,44,32923,1,8,0:0:0:0:
111,106,32981,1,0,0:0:0:0:
101,92,33039,1,0,0:0:0:0:
111,106,33096,1,8,0:0:0:0:
111,106,33212,1,8,0:0:0:0:
111,106,33327,1,0,0:0:0:0:
111,106,33385,1,8,0:0:0:0:
119,109,33500,1,0,0:0:0:0:
119,109,33558,1,8,0:0:0:0:
119,109,33673,1,0,0:0:0:0:
119,109,33789,1,8,0:0:0:0:
119,109,33904,1,8,0:0:0:0:
119,109,34019,1,0,0:0:0:0:
116,64,34077,1,0,0:0:0:0:
119,109,34135,1,8,0:0:0:0:
119,109,34250,1,8,0:0:0:0:
116,64,34308,1,0,0:0:0:0:
119,109,34366,1,8,0:0:0:0:
104,36,34423,1,8,0:0:0:0:
119,109,34481,1,0,0:0:0:0:
140,65,34539,1,0,0:0:0:0:
119,109,34596,1,8,0:0:0:0:
119,109,34712,1,0,0:0:0:0:
119,109,34827,1,8,0:0:0:0:
119,109,34943,1,0,0:0:0:0:
119,109,35058,1,8,0:0:0:0:
102,139,35116,1,8,0:0:0:0:
119,109,35173,1,0,0:0:0:0:
140,100,35231,1,0,0:0:0:0:
119,109,35289,1,8,0:0:0:0:
119,109,35404,1,0,0:0:0:0:
119,109,35519,1,0,0:0:0:0:
119,109,35635,1,0,0:0:0:0:
178,69,35693,1,0,0:0:0:0:
119,109,35750,1,8,0:0:0:0:
119,109,35866,1,0,0:0:0:0:
119,109,35981,1,8,0:0:0:0:
119,109,36096,1,0,0:0:0:0:
160,61,36154,1,0,0:0:0:0:
119,109,36212,1,0,0:0:0:0:
180,30,36269,1,0,0:0:0:0:
144,44,36327,1,12,0:0:0:0:
119,109,36558,1,0,0:0:0:0:
119,109,36673,1,0,0:0:0:0:
119,109,36789,1,8,0:0:0:0:
144,44,36846,1,0,0:0:0:0:
119,109,36904,1,8,0:0:0:0:
144,44,36962,1,8,0:0:0:0:
119,109,37019,1,0,0:0:0:0:
144,44,37077,1,0,0:0:0:0:
119,109,37135,1,8,0:0:0:0:
119,109,37250,1,8,0:0:0:0:
119,109,37366,1,0,0:0:0:0:
119,109,37596,1,12,0:0:0:0:
119,109,37712,1,0,0:0:0:0:
129,84,37769,1,0,0:0:0:0:
129,84,37827,1,8,0:0:0:0:
138,97,37943,1,0,0:0:0:0:
138,97,38058,1,0,0:0:0:0:
138,97,38173,1,8,0:0:0:0:
138,97,38231,1,8,0:0:0:0:
139,98,38289,1,0,0:0:0:0:
138,97,38346,1,0,0:0:0:0:
139,98,38404,1,0,0:0:0:0:
139,98,38519,1,8,0:0:0:0:
139,98,38635,1,0,0:0:0:0:
147,91,38750,1,8,0:0:0:0:
138,97,38866,1,0,0:0:0:0:
83,120,38923,1,0,0:0:0:0:
147,91,38981,1,8,0:0:0:0:
147,91,39096,1,8,0:0:0:0:
147,91,39212,1,0,0:0:0:0:
122,94,39269,1,0,0:0:0:0:
147,91,39327,1,0,0:0:0:0:
141,72,39385,1,0,0:0:0:0:
147,91,39443,1,8,0:0:0:0:
147,91,39558,1,0,0:0:0:0:
147,91,39673,1,8,0:0:0:0:
147,91,39789,1,0,0:0:0:0:
32,129,39846,1,0,0:0:0:0:
147,91,39904,1,8,0:0:0:0:
147,91,40019,1,0,0:0:0:0:
147,91,40135,1,8,0:0:0:0:
143,64,40193,1,8,0:0:0:0:
160,54,40250,1,0,0:0:0:0:
128,93,40308,1,0,0:0:0:0:
160,54,40366,1,8,0:0:0:0:
127,85,40423,1,0,0:0:0:0:
160,54,40481,1,8,0:0:0:0:
160,54,40539,1,8,0:0:0:0:
160,54,40596,1,0,0:0:0:0:
160,54,40712,1,0,0:0:0:0:
159,53,40827,1,8,0:0:0:0:
159,53,40885,1,8,0:0:0:0:
159,53,40943,1,8,0:0:0:0:
159,53,41000,1,8,0:0:0:0:
159,53,41058,1,0,0:0:0:0:
160,54,41173,1,0,0:0:0:0:
160,54,41289,1,8,0:0:0:0:
160,54,41404,1,8,0:0:0:0:
168,61,41462,1,8,0:0:0:0:
160,54,41519,1,0,0:0:0:0:
160,54,41635,1,0,0:0:0:0:
160,54,41750,1,8,0:0:0:0:
159,53,41808,1,0,0:0:0:0:
159,53,41866,1,8,0:0:0:0:
159,53,41923,1,8,0:0:0:0:
159,53,41981,1,0,0:0:0:0:
159,53,42096,1,0,0:0:0:0:
160,54,42212,1,8,0:0:0:0:
160,54,42269,1,8,0:0:0:0:
160,54,42327,1,8,0:0:0:0:
160,54,42385,1,0,0:0:0:0:
160,54,42443,1,8,0:0:0:0:
160,54,42500,1,8,0:0:0:0:
160,54,42558,1,0,0:0:0:0:
160,54,42616,1,0,0:0:0:0:
160,54,42673,1,8,0:0:0:0:
160,54,42789,1,0,0:0:0:0:
159,53,42904,1,8,0:0:0:0:
159,53,43019,1,8,0:0:0:0:
159,53,43135,1,0,0:0:0:0:
160,54,43250,1,0,0:0:0:0:
160,54,43366,1,8,0:0:0:0:
160,54,43423,1,8,0:0:0:0:
160,54,43481,1,0,0:0:0:0:
160,54,43539,1,0,0:0:0:0:
160,54,43596,1,8,0:0:0:0:
160,54,43654,1,8,0:0:0:0:
160,54,43712,1,8,0:0:0:0:
160,54,43769,1,8,0:0:0:0:
160,54,43827,1,0,0:0:0:0:
109,111,43943,1,0,0:0:0:0:
159,53,44058,1,0,0:0:0:0:
159,53,44173,1,8,0:0:0:0:
96,122,44404,1,8,0:0:0:0:
96,122,44519,1,0,0:0:0:0:
96,122,44577,1,0,0:0:0:0:
63,64,44635,1,0,0:0:0:0:
96,122,44750,1,12,0:0:0:0:
96,122,44981,1,8,0:0:0:0:
102,124,45096,1,0,0:0:0:0:
186,106,45154,1,0,0:0:0:0:
102,124,45212,1,8,0:0:0:0:
183,84,45269,1,8,0:0:0:0:
179,103,45327,1,0,0:0:0:0:
102,124,45442,1,8,0:0:0:0:
102,124,45558,1,0,0:0:0:0:
183,84,45615,1,0,0:0:0:0:
185,96,45673,1,8,0:0:0:0:
110,118,45789,1,0,0:0:0:0:
110,118,45904,1,8,0:0:0:0:
110,118,46019,1,0,0:0:0:0:
158,51,46135,1,0,0:0:0:0:
110,118,46250,1,0,0:0:0:0:
110,118,46365,1,8,0:0:0:0:
110,118,46423,1,8,0:0:0:0:
110,118,46481,1,8,0:0:0:0:
110,118,46596,1,0,0:0:0:0:
110,118,46712,1,0,0:0:0:0:
110,118,46827,1,8,0:0:0:0:
110,118,46942,1,8,0:0:0:0:
165,56,47000,1,0,0:0:0:0:
110,118,47058,1,8,0:0:0:0:
165,56,47115,1,8,0:0:0:0:
165,56,47173,1,0,0:0:0:0:
110,118,47289,1,8,0:0:0:0:
110,118,47404,1,8,0:0:0:0:
165,56,47519,1,0,0:0:0:0:
110,118,47635,1,0,0:0:0:0:
165,56,47692,1,0,0:0:0:0:
250,164,47750,1,8,0:0:0:0:
250,164,47865,1,0,0:0:0:0:
158,50,47981,1,0,0:0:0:0:
251,152,48096,1,0,0:0:0:0:
251,152,48212,1,8,0:0:0:0:
251,152,48269,1,8,0:0:0:0:
251,152,48327,1,0,0:0:0:0:
251,152,48442,1,12,0:0:0:0:
251,152,48673,1,8,0:0:0:0:
251,152,48789,1,0,0:0:0:0:
150,63,48846,1,0,0:0:0:0:
251,152,48904,1,0,0:0:0:0:
150,63,48962,1,0,0:0:0:0:
251,152,49019,1,8,0:0:0:0:
251,152,49135,1,8,0:0:0:0:
251,152,49250,1,0,0:0:0:0:
159,60,49308,1,0,0:0:0:0:
160,60,49365,1,8,0:0:0:0:
251,152,49481,1,0,0:0:0:0:
159,60,49596,1,8,0:0:0:0:
251,152,49712,1,8,0:0:0:0:
158,50,49827,1,0,0:0:0:0:
175,151,49942,1,0,0:0:0:0:
175,151,50058,1,0,0:0:0:0:
175,151,50173,1,8,0:0:0:0:
159,60,50231,1,8,0:0:0:0:
175,151,50289,1,8,0:0:0:0:
181,139,50404,1,0,0:0:0:0:
181,139,50519,1,0,0:0:0:0:
181,139,50635,1,8,0:0:0:0:
159,60,50692,1,8,0:0:0:0:
159,60,50750,1,8,0:0:0:0:
181,139,50865,1,0,0:0:0:0:
181,139,50981,1,8,0:0:0:0:
181,139,51096,1,0,0:0:0:0:
181,139,51212,1,8,0:0:0:0:
159,60,51327,1,8,0:0:0:0:
181,139,51442,1,0,0:0:0:0:
159,60,51558,1,0,0:0:0:0:
181,139,51673,1,8,0:0:0:0:
181,139,51789,1,8,0:0:0:0:
181,139,51904,1,0,0:0:0:0:
181,139,51962,1,0,0:0:0:0:
181,139,52019,1,0,0:0:0:0:
181,139,52077,1,0,0:0:0:0:
181,139,52135,1,12,0:0:0:0:
164,105,52366,1,0,0:0:0:0:
182,82,52482,1,8,0:0:0:0:
164,105,52540,1,0,0:0:0:0:
259,203,52597,1,8,0:0:0:0:
234,164,52655,1,8,0:0:0:0:
161,142,52713,1,0,0:0:0:0:
161,142,52828,1,8,0:0:0:0:
161,142,52943,1,8,0:0:0:0:
161,142,53001,1,8,0:0:0:0:
161,142,53059,1,0,0:0:0:0:
161,142,53290,1,8,0:0:0:0:
161,142,53405,1,0,0:0:0:0:
161,142,53636,1,0,0:0:0:0:
161,142,53751,1,8,0:0:0:0:
161,142,53866,1,8,0:0:0:0:
159,128,53924,1,8,0:0:0:0:
161,142,53982,1,0,0:0:0:0:
161,142,54097,1,0,0:0:0:0:
161,142,54213,1,8,0:0:0:0:
161,142,54328,1,0,0:0:0:0:
161,142,54386,1,0,0:0:0:0:
161,142,54443,1,8,0:0:0:0:
161,142,54501,1,8,0:0:0:0:
161,142,54559,1,0,0:0:0:0:
161,142,54674,1,0,0:0:0:0:
171,117,54790,1,8,0:0:0:0:
155,113,54847,1,8,0:0:0:0:
171,117,54905,1,0,0:0:0:0:
155,113,55020,1,0,0:0:0:0:
155,113,55136,1,8,0:0:0:0:
155,113,55251,1,0,0:0:0:0:
155,113,55309,1,8,0:0:0:0:
155,113,55366,1,8,0:0:0:0:
155,113,55424,1,8,0:0:0:0:
155,113,55482,1,0,0:0:0:0:
155,113,55597,1,8,0:0:0:0:
156,111,55713,1,8,0:0:0:0:
172,90,55770,1,8,0:0:0:0:
156,108,55828,1,0,0:0:0:0:
155,113,56059,1,8,0:0:0:0:
155,113,56174,1,0,0:0:0:0:
155,113,56232,1,0,0:0:0:0:
155,113,56290,1,8,0:0:0:0:
155,113,56347,1,8,0:0:0:0:
155,113,56405,1,0,0:0:0:0:
155,113,56520,1,8,0:0:0:0:
156,111,56636,1,8,0:0:0:0:
156,111,56693,1,8,0:0:0:0:
156,108,56751,1,0,0:0:0:0:
155,113,56866,1,0,0:0:0:0:
155,113,56982,1,8,0:0:0:0:
155,113,57097,1,0,0:0:0:0:
155,113,57155,1,8,0:0:0:0:
155,113,57270,1,8,0:0:0:0:
155,113,57328,1,0,0:0:0:0:
155,113,57443,1,8,0:0:0:0:
156,111,57559,1,8,0:0:0:0:
172,90,57616,1,8,0:0:0:0:
156,111,57674,1,0,0:0:0:0:
155,113,57790,1,0,0:0:0:0:
155,113,57905,1,0,0:0:0:0:
155,113,58020,1,8,0:0:0:0:
155,113,58078,1,0,0:0:0:0:
155,113,58136,1,8,0:0:0:0:
155,113,58193,1,8,0:0:0:0:
155,113,58251,1,0,0:0:0:0:
155,113,58366,1,8,0:0:0:0:
155,113,58482,1,0,0:0:0:0:
156,111,58540,1,0,0:0:0:0:
156,111,58596,1,8,0:0:0:0:
155,113,58713,1,0,0:0:0:0:
155,113,58828,1,8,0:0:0:0:
78,117,58885,1,8,0:0:0:0:
155,113,58943,1,0,0:0:0:0:
155,113,59001,1,0,0:0:0:0:
155,113,59059,1,8,0:0:0:0:
155,113,59174,1,0,0:0:0:0:
155,113,59290,1,8,0:0:0:0:
155,113,59405,1,0,0:0:0:0:
155,113,59519,1,12,0:0:0:0:
188,72,59751,1,0,0:0:0:0:
188,72,59866,1,8,0:0:0:0:
188,72,59924,1,0,0:0:0:0:
188,72,59982,1,8,0:0:0:0:
188,72,60040,1,8,0:0:0:0:
188,72,60097,1,0,0:0:0:0:
175,91,60154,1,0,0:0:0:0:
194,61,60213,1,8,0:0:0:0:
194,61,60328,1,0,0:0:0:0:
194,61,60386,1,0,0:0:0:0:
194,61,60443,1,8,0:0:0:0:
194,61,60559,1,0,0:0:0:0:
194,61,60674,1,8,0:0:0:0:
194,61,60790,1,0,0:0:0:0:
194,61,60847,1,8,0:0:0:0:
195,67,60905,1,8,0:0:0:0:
194,61,60963,1,8,0:0:0:0:
194,61,61020,1,0,0:0:0:0:
194,61,61136,1,8,0:0:0:0:
194,61,61251,1,8,0:0:0:0:
186,79,61309,1,8,0:0:0:0:
193,53,61366,1,0,0:0:0:0:
193,53,61482,1,0,0:0:0:0:
193,53,61597,1,8,0:0:0:0:
193,53,61713,1,0,0:0:0:0:
193,53,61770,1,0,0:0:0:0:
193,53,61828,1,8,0:0:0:0:
193,53,61886,1,8,0:0:0:0:
193,53,61943,1,0,0:0:0:0:
128,80,62000,1,0,0:0:0:0:
193,53,62059,1,8,0:0:0:0:
193,53,62174,1,0,0:0:0:0:
193,53,62232,1,0,0:0:0:0:
193,53,62290,1,8,0:0:0:0:
180,11,62405,1,0,0:0:0:0:
63,64,62519,1,0,0:0:0:0:
180,11,62636,1,8,0:0:0:0:
180,11,62693,1,8,0:0:0:0:
91,97,62751,1,0,0:0:0:0:
180,11,62809,1,0,0:0:0:0:
180,11,62866,1,8,0:0:0:0:
180,11,62982,1,0,0:0:0:0:
180,11,63097,1,0,0:0:0:0:
171,65,63154,1,0,0:0:0:0:
180,11,63213,1,8,0:0:0:0:
180,11,63328,1,0,0:0:0:0:
180,11,63443,1,0,0:0:0:0:
180,11,63559,1,8,0:0:0:0:
133,77,63616,1,8,0:0:0:0:
180,11,63674,1,8,0:0:0:0:
66,136,63731,1,8,0:0:0:0:
180,11,63790,1,0,0:0:0:0:
161,66,63846,1,0,0:0:0:0:
180,11,63905,1,8,0:0:0:0:
180,11,64020,1,0,0:0:0:0:
180,11,64078,1,8,0:0:0:0:
447,64,64135,1,8,0:0:0:0:
180,11,64251,1,0,0:0:0:0:
63,64,64366,1,0,0:0:0:0:
180,11,64482,1,8,0:0:0:0:
180,11,64540,1,0,0:0:0:0:
180,11,64597,1,8,0:0:0:0:
180,11,64655,1,8,0:0:0:0:
181,1,64713,1,0,0:0:0:0:
181,1,64828,1,0,0:0:0:0:
181,1,64943,1,8,0:0:0:0:
110,97,65000,1,8,0:0:0:0:
181,1,65059,1,0,0:0:0:0:
181,1,65174,1,0,0:0:0:0:
181,1,65290,1,8,0:0:0:0:
162,76,65405,1,8,0:0:0:0:
162,76,65463,1,8,0:0:0:0:
181,0,65520,1,0,0:0:0:0:
181,0,65578,1,0,0:0:0:0:
181,0,65636,1,8,0:0:0:0:
55,144,65693,1,0,0:0:0:0:
181,0,65751,1,8,0:0:0:0:
181,1,65866,1,8,0:0:0:0:
157,87,65923,1,8,0:0:0:0:
94,129,65981,1,0,0:0:0:0:
140,84,66096,1,0,0:0:0:0:
140,84,66212,1,8,0:0:0:0:
140,84,66327,1,0,0:0:0:0:
140,84,66385,1,8,0:0:0:0:
140,84,66443,1,8,0:0:0:0:
140,84,66500,1,8,0:0:0:0:
140,84,66558,1,0,0:0:0:0:
157,87,66616,1,0,0:0:0:0:
140,84,66673,1,8,0:0:0:0:
140,84,66789,1,8,0:0:0:0:
187,63,66846,1,8,0:0:0:0:
38,114,66904,1,0,0:0:0:0:
38,114,67019,1,0,0:0:0:0:
38,114,67135,1,8,0:0:0:0:
38,114,67250,1,8,0:0:0:0:
84,98,67308,1,0,0:0:0:0:
38,114,67366,1,8,0:0:0:0:
156,144,67423,1,8,0:0:0:0:
38,114,67481,1,0,0:0:0:0:
38,114,67539,1,0,0:0:0:0:
38,114,67596,1,8,0:0:0:0:
156,144,67654,1,8,0:0:0:0:
156,144,67712,1,8,0:0:0:0:
156,144,67769,1,0,0:0:0:0:
156,144,67827,1,8,0:0:0:0:
181,139,67885,1,8,0:0:0:0:
190,138,67943,1,8,0:0:0:0:
253,153,68000,1,8,0:0:0:0:
181,139,68058,1,0,0:0:0:0:
253,153,68116,1,0,0:0:0:0:
253,153,68173,1,0,0:0:0:0:
178,80,68289,1,8,0:0:0:0:
110,118,68318,1,8,0:0:0:0:
185,79,68404,1,0,0:0:0:0:
110,118,68433,1,0,0:0:0:0:
178,80,68519,1,8,0:0:0:0:
186,94,68548,1,8,0:0:0:0:
142,104,68750,1,12,0:0:0:0:
158,112,68865,1,0,0:0:0:0:
91,155,68923,1,0,0:0:0:0:
158,112,68981,1,8,0:0:0:0:
158,112,69038,1,8,0:0:0:0:
158,112,69096,1,8,0:0:0:0:
100,130,69154,1,8,0:0:0:0:
100,130,69212,1,0,0:0:0:0:
181,86,69327,1,8,0:0:0:0:
181,86,69442,1,0,0:0:0:0:
181,86,69558,1,8,0:0:0:0:
181,86,69615,1,8,0:0:0:0:
181,86,69673,1,0,0:0:0:0:
163,94,69731,1,0,0:0:0:0:
181,86,69788,1,8,0:0:0:0:
181,86,69904,1,0,0:0:0:0:
181,86,70019,1,8,0:0:0:0:
181,86,70077,1,8,0:0:0:0:
181,86,70135,1,0,0:0:0:0:
181,86,70250,1,0,0:0:0:0:
181,86,70365,1,8,0:0:0:0:
174,32,70423,1,0,0:0:0:0:
181,86,70481,1,8,0:0:0:0:
174,32,70539,1,8,0:0:0:0:
181,86,70596,1,0,0:0:0:0:
181,86,70712,1,8,0:0:0:0:
132,108,70769,1,8,0:0:0:0:
181,86,70827,1,0,0:0:0:0:
181,86,70942,1,0,0:0:0:0:
107,127,70981,1,0,0:0:0:0:
107,127,71019,1,0,0:0:0:0:
181,86,71058,1,8,0:0:0:0:
181,86,71173,1,8,0:0:0:0:
151,62,71231,1,8,0:0:0:0:
181,86,71288,1,0,0:0:0:0:
181,86,71404,1,8,0:0:0:0:
181,86,71519,1,0,0:0:0:0:
111,106,71635,1,8,0:0:0:0:
146,44,71692,1,8,0:0:0:0:
111,106,71750,1,0,0:0:0:0:
101,92,71808,1,0,0:0:0:0:
111,106,71865,1,8,0:0:0:0:
111,106,71981,1,8,0:0:0:0:
111,106,72096,1,0,0:0:0:0:
111,106,72154,1,0,0:0:0:0:
158,91,72212,1,8,0:0:0:0:
119,109,72327,1,8,0:0:0:0:
119,109,72442,1,0,0:0:0:0:
119,109,72558,1,8,0:0:0:0:
119,109,72673,1,8,0:0:0:0:
119,109,72788,1,0,0:0:0:0:
116,64,72846,1,0,0:0:0:0:
119,109,72904,1,8,0:0:0:0:
119,109,73019,1,0,0:0:0:0:
116,64,73077,1,0,0:0:0:0:
119,109,73135,1,8,0:0:0:0:
104,36,73192,1,8,0:0:0:0:
119,109,73250,1,0,0:0:0:0:
140,65,73308,1,0,0:0:0:0:
119,109,73365,1,8,0:0:0:0:
119,109,73481,1,0,0:0:0:0:
119,109,73596,1,8,0:0:0:0:
119,109,73712,1,0,0:0:0:0:
119,109,73827,1,8,0:0:0:0:
102,139,73885,1,0,0:0:0:0:
119,109,73942,1,8,0:0:0:0:
140,100,74000,1,8,0:0:0:0:
119,109,74058,1,0,0:0:0:0:
185,66,74116,1,0,0:0:0:0:
211,82,74173,1,8,0:0:0:0:
119,109,74288,1,0,0:0:0:0:
119,109,74404,1,0,0:0:0:0:
178,69,74462,1,0,0:0:0:0:
119,109,74519,1,8,0:0:0:0:
119,109,74635,1,0,0:0:0:0:
116,88,74693,1,0,0:0:0:0:
119,109,74750,1,8,0:0:0:0:
181,75,74808,1,8,0:0:0:0:
119,109,74865,1,0,0:0:0:0:
160,61,74923,1,8,0:0:0:0:
119,109,74981,1,0,0:0:0:0:
180,30,75038,1,0,0:0:0:0:
144,44,75096,1,12,0:0:0:0:
119,109,75327,1,12,0:0:0:0:
119,109,75558,1,0,0:0:0:0:
119,109,75673,1,8,0:0:0:0:
144,44,75731,1,8,0:0:0:0:
119,109,75788,1,0,0:0:0:0:
144,44,75846,1,0,0:0:0:0:
119,109,75904,1,8,0:0:0:0:
185,102,75962,1,0,0:0:0:0:
119,109,76019,1,0,0:0:0:0:
97,119,76077,1,0,0:0:0:0:
119,109,76135,1,8,0:0:0:0:
105,130,76250,1,0,0:0:0:0:
119,109,76365,1,8,0:0:0:0:
119,109,76481,1,0,0:0:0:0:
447,64,76539,1,0,0:0:0:0:
129,84,76596,1,8,0:0:0:0:
138,97,76712,1,0,0:0:0:0:
138,97,76827,1,0,0:0:0:0:
138,97,76942,1,8,0:0:0:0:
114,119,77000,1,8,0:0:0:0:
139,98,77058,1,0,0:0:0:0:
86,139,77116,1,0,0:0:0:0:
139,98,77173,1,8,0:0:0:0:
129,89,77231,1,0,0:0:0:0:
139,98,77289,1,8,0:0:0:0:
129,89,77346,1,8,0:0:0:0:
139,98,77404,1,0,0:0:0:0:
147,91,77519,1,8,0:0:0:0:
138,97,77635,1,0,0:0:0:0:
83,120,77692,1,0,0:0:0:0:
147,91,77750,1,8,0:0:0:0:
147,91,77865,1,0,0:0:0:0:
147,91,77981,1,0,0:0:0:0:
122,94,78038,1,0,0:0:0:0:
147,91,78096,1,0,0:0:0:0:
141,72,78154,1,0,0:0:0:0:
147,91,78212,1,8,0:0:0:0:
147,91,78327,1,0,0:0:0:0:
147,91,78442,1,0,0:0:0:0:
101,112,78500,1,0,0:0:0:0:
147,91,78558,1,8,0:0:0:0:
32,129,78615,1,8,0:0:0:0:
147,91,78673,1,0,0:0:0:0:
147,91,78788,1,0,0:0:0:0:
147,91,78904,1,8,0:0:0:0:
148,81,78933,1,8,0:0:0:0:
160,54,79019,1,8,0:0:0:0:
197,41,79048,1,8,0:0:0:0:
160,54,79135,1,0,0:0:0:0:
39,148,79164,1,0,0:0:0:0:
160,54,79250,1,0,0:0:0:0:
58,141,79279,1,0,0:0:0:0:
191,179,79366,1,8,0:0:0:0:
160,54,79481,1,0,0:0:0:0:
159,53,79596,1,0,0:0:0:0:
159,53,79654,1,0,0:0:0:0:
159,53,79712,1,8,0:0:0:0:
159,53,79769,1,8,0:0:0:0:
159,53,79827,1,0,0:0:0:0:
160,54,79942,1,0,0:0:0:0:
160,54,80058,1,8,0:0:0:0:
160,54,80173,1,0,0:0:0:0:
168,61,80231,1,8,0:0:0:0:
160,54,80288,1,0,0:0:0:0:
178,77,80346,1,8,0:0:0:0:
160,54,80404,1,0,0:0:0:0:
124,117,80462,1,0,0:0:0:0:
160,54,80519,1,8,0:0:0:0:
159,53,80635,1,8,0:0:0:0:
159,53,80692,1,8,0:0:0:0:
159,53,80750,1,0,0:0:0:0:
159,53,80865,1,0,0:0:0:0:
160,54,80981,1,8,0:0:0:0:
160,54,81096,1,0,0:0:0:0:
160,54,81212,1,8,0:0:0:0:
160,54,81269,1,8,0:0:0:0:
160,54,81327,1,0,0:0:0:0:
160,54,81443,1,0,0:0:0:0:
86,121,81500,1,0,0:0:0:0:
160,54,81558,1,8,0:0:0:0:
159,53,81673,1,0,0:0:0:0:
150,85,81731,1,0,0:0:0:0:
159,53,81788,1,0,0:0:0:0:
150,85,81846,1,0,0:0:0:0:
159,53,81904,1,8,0:0:0:0:
176,116,81962,1,0,0:0:0:0:
160,54,82019,1,8,0:0:0:0:
150,85,82077,1,8,0:0:0:0:
160,54,82135,1,0,0:0:0:0:
160,54,82192,1,0,0:0:0:0:
160,54,82250,1,8,0:0:0:0:
160,54,82308,1,0,0:0:0:0:
160,54,82365,1,8,0:0:0:0:
176,116,82423,1,8,0:0:0:0:
160,54,82481,1,0,0:0:0:0:
160,54,82538,1,0,0:0:0:0:
160,54,82596,1,8,0:0:0:0:
165,129,82712,1,0,0:0:0:0:
165,129,82769,1,0,0:0:0:0:
165,129,82827,1,8,0:0:0:0:
165,129,82943,1,0,0:0:0:0:
170,129,83058,1,0,0:0:0:0:
170,129,83116,1,0,0:0:0:0:
165,129,83173,1,8,0:0:0:0:
224,139,83289,1,8,0:0:0:0:
153,96,83404,1,0,0:0:0:0:
165,129,83519,1,12,0:0:0:0:
143,139,83750,1,0,0:0:0:0:
143,139,83866,1,8,0:0:0:0:
143,139,83981,1,8,0:0:0:0:
143,139,84096,1,0,0:0:0:0:
143,139,84212,1,8,0:0:0:0:
143,139,84327,1,8,0:0:0:0:
131,120,84443,1,0,0:0:0:0:
143,139,84673,1,0,0:0:0:0:
143,139,84789,1,0,0:0:0:0:
143,139,84904,1,8,0:0:0:0:
143,139,85019,1,0,0:0:0:0:
143,139,85135,1,8,0:0:0:0:
174,108,85250,1,8,0:0:0:0:
143,139,85366,1,0,0:0:0:0:
143,139,85596,1,8,0:0:0:0:
143,139,85712,1,8,0:0:0:0:
143,139,85827,1,0,0:0:0:0:
143,139,85943,1,0,0:0:0:0:
143,139,86058,1,8,0:0:0:0:
143,139,86173,1,0,0:0:0:0:
149,132,86289,1,8,0:0:0:0:
143,139,86404,1,8,0:0:0:0:
143,139,86519,1,0,0:0:0:0:
143,139,86635,1,8,0:0:0:0:
149,132,86866,1,0,0:0:0:0:
149,132,86981,1,8,0:0:0:0:
149,132,87096,1,8,0:0:0:0:
149,132,87212,1,0,0:0:0:0:
149,132,87443,1,0,0:0:0:0:
149,132,87558,1,0,0:0:0:0:
149,132,87673,1,8,0:0:0:0:
149,132,87789,1,0,0:0:0:0:
149,132,87904,1,8,0:0:0:0:
149,132,88019,1,8,0:0:0:0:
149,132,88135,1,0,0:0:0:0:
156,117,88366,1,0,0:0:0:0:
156,117,88481,1,8,0:0:0:0:
225,90,88596,1,8,0:0:0:0:
225,90,88712,1,0,0:0:0:0:
225,90,88827,1,8,0:0:0:0:
225,90,88943,1,8,0:0:0:0:
225,90,89058,1,0,0:0:0:0:
225,90,89289,1,8,0:0:0:0:
225,90,89404,1,0,0:0:0:0:
225,90,89519,1,8,0:0:0:0:
225,90,89635,1,0,0:0:0:0:
225,90,89750,1,8,0:0:0:0:
225,90,89866,1,8,0:0:0:0:
225,90,89981,1,0,0:0:0:0:
225,90,90096,1,8,0:0:0:0:
173,103,90154,1,8,0:0:0:0:
225,90,90212,1,8,0:0:0:0:
225,90,90327,1,0,0:0:0:0:
173,103,90385,1,0,0:0:0:0:
191,126,90443,1,0,0:0:0:0:
195,128,90558,1,8,0:0:0:0:
147,116,90616,1,0,0:0:0:0:
195,128,90673,1,8,0:0:0:0:
195,128,90731,1,8,0:0:0:0:
195,128,90789,1,0,0:0:0:0:
195,128,90846,1,0,0:0:0:0:
195,128,90904,1,8,0:0:0:0:
195,128,91135,1,8,0:0:0:0:
195,128,91250,1,0,0:0:0:0:
195,128,91308,1,0,0:0:0:0:
195,128,91366,1,8,0:0:0:0:
159,100,91423,1,8,0:0:0:0:
195,128,91481,1,0,0:0:0:0:
195,128,91596,1,8,0:0:0:0:
195,128,91712,1,0,0:0:0:0:
195,128,91769,1,0,0:0:0:0:
195,128,91827,1,8,0:0:0:0:
195,128,91943,1,0,0:0:0:0:
129,33,92058,1,8,0:0:0:0:
129,33,92173,1,0,0:0:0:0:
129,33,92231,1,0,0:0:0:0:
135,27,92289,1,8,0:0:0:0:
63,64,92404,1,0,0:0:0:0:
133,28,92519,1,8,0:0:0:0:
167,72,92577,1,8,0:0:0:0:
120,126,92635,1,0,0:0:0:0:
161,93,92750,1,0,0:0:0:0:
177,104,92808,1,0,0:0:0:0:
161,93,92866,1,0,0:0:0:0:
177,104,92923,1,0,0:0:0:0:
161,93,92981,1,8,0:0:0:0:
161,93,93096,1,0,0:0:0:0:
161,93,93212,1,0,0:0:0:0:
161,93,93269,1,0,0:0:0:0:
182,80,93327,1,8,0:0:0:0:
182,80,93385,1,0,0:0:0:0:
182,80,93443,1,8,0:0:0:0:
193,78,93500,1,8,0:0:0:0:
182,80,93558,1,0,0:0:0:0:
182,80,93616,1,0,0:0:0:0:
182,80,93673,1,8,0:0:0:0:
203,74,93731,1,8,0:0:0:0:
193,78,93789,1,0,0:0:0:0:
203,74,93846,1,0,0:0:0:0:
193,78,93904,1,8,0:0:0:0:
203,74,93962,1,8,0:0:0:0:
193,78,94019,1,0,0:0:0:0:
193,78,94077,1,0,0:0:0:0:
203,74,94135,1,8,0:0:0:0:
203,74,94193,1,0,0:0:0:0:
203,74,94250,1,8,0:0:0:0:
203,74,94308,1,8,0:0:0:0:
203,74,94366,1,0,0:0:0:0:
203,74,94423,1,0,0:0:0:0:
203,74,94481,1,8,0:0:0:0:
203,74,94539,1,0,0:0:0:0:
203,74,94596,1,8,0:0:0:0:
230,93,94827,1,8,0:0:0:0:
240,69,94943,1,0,0:0:0:0:
241,76,95000,1,0,0:0:0:0:
230,93,95058,1,0,0:0:0:0:
241,76,95173,1,0,0:0:0:0:
241,76,95289,1,8,0:0:0:0:
241,76,95404,1,0,0:0:0:0:
155,63,95462,1,0,0:0:0:0:
241,76,95519,1,8,0:0:0:0:
129,99,95635,1,0,0:0:0:0:
134,99,95750,1,0,0:0:0:0:
151,79,95866,1,8,0:0:0:0:
151,79,95923,1,0,0:0:0:0:
151,79,95981,1,8,0:0:0:0:
136,74,96096,1,0,0:0:0:0:
129,99,96154,1,8,0:0:0:0:
134,100,96327,1,0,0:0:0:0:
134,99,96443,1,8,0:0:0:0:
134,99,96558,1,0,0:0:0:0:
134,100,96673,1,8,0:0:0:0:
134,100,96789,1,0,0:0:0:0:
134,100,96904,1,8,0:0:0:0:
134,100,96962,1,8,0:0:0:0:
149,91,97019,1,8,0:0:0:0:
86,123,97077,1,0,0:0:0:0:
148,90,97135,1,0,0:0:0:0:
86,123,97193,1,0,0:0:0:0:
148,90,97250,1,8,0:0:0:0:
148,90,97308,1,8,0:0:0:0:
148,90,97366,1,0,0:0:0:0:
181,62,97481,1,0,0:0:0:0:
152,93,97596,1,8,0:0:0:0:
175,63,97712,1,0,0:0:0:0:
150,93,97827,1,8,0:0:0:0:
156,91,97943,1,8,0:0:0:0:
156,91,98058,1,0,0:0:0:0:
156,91,98173,1,0,0:0:0:0:
152,93,98289,1,12,0:0:0:0:
50,137,98750,1,8,0:0:0:0:
63,136,98981,1,0,0:0:0:0:
63,136,99096,1,0,0:0:0:0:
63,136,99212,1,8,0:0:0:0:
63,136,99327,1,8,0:0:0:0:
63,136,99443,1,0,0:0:0:0:
63,136,99673,1,8,0:0:0:0:
63,136,99904,1,8,0:0:0:0:
63,136,100135,1,0,0:0:0:0:
63,136,100366,1,0,0:0:0:0:
63,136,100481,1,0,0:0:0:0:
63,136,100596,1,8,0:0:0:0:
63,136,100827,1,8,0:0:0:0:
63,136,100943,1,8,0:0:0:0:
63,136,101058,1,8,0:0:0:0:
178,88,101173,1,8,0:0:0:0:
63,136,101289,1,0,0:0:0:0:
63,136,101519,1,8,0:0:0:0:
63,136,101635,1,0,0:0:0:0:
63,136,101750,1,8,0:0:0:0:
63,136,101981,1,12,0:0:0:0:
63,136,102212,1,0,0:0:0:0:
63,136,102327,1,0,0:0:0:0:
63,136,102443,1,8,0:0:0:0:
63,136,102673,1,0,0:0:0:0:
63,136,102789,1,0,0:0:0:0:
63,136,102904,1,12,0:0:0:0:
63,136,103019,1,0,0:0:0:0:
63,136,103135,1,0,0:0:0:0:
184,73,103250,1,8,0:0:0:0:
63,136,103481,1,8,0:0:0:0:
63,136,103596,1,8,0:0:0:0:
169,116,103712,1,0,0:0:0:0:
63,136,103827,1,12,0:0:0:0:
137,96,103943,1,0,0:0:0:0:
63,136,104058,1,8,0:0:0:0:
63,136,104173,1,8,0:0:0:0:
63,136,104289,1,8,0:0:0:0:
63,136,104404,1,0,0:0:0:0:
63,136,104519,1,8,0:0:0:0:
63,136,104635,1,0,0:0:0:0:
63,136,104750,1,8,0:0:0:0:
63,136,104866,1,8,0:0:0:0:
63,136,104981,1,8,0:0:0:0:
63,136,105096,1,8,0:0:0:0:
63,136,105212,1,0,0:0:0:0:
63,136,105327,1,0,0:0:0:0:
63,136,105443,1,8,0:0:0:0:
63,136,105558,1,0,0:0:0:0:
63,136,105673,1,8,0:0:0:0:
63,136,105789,1,8,0:0:0:0:
63,136,105904,1,0,0:0:0:0:
63,136,106019,1,0,0:0:0:0:
63,136,106135,1,8,0:0:0:0:
63,136,106250,1,8,0:0:0:0:
63,136,106366,1,0,0:0:0:0:
106,110,106596,1,0,0:0:0:0:
216,122,106654,1,0,0:0:0:0:
236,127,106712,1,0,0:0:0:0:
165,127,106827,1,8,0:0:0:0:
188,114,106943,1,0,0:0:0:0:
188,114,107000,1,0,0:0:0:0:
188,114,107058,1,0,0:0:0:0:
188,114,107173,1,8,0:0:0:0:
188,114,107289,1,0,0:0:0:0:
188,114,107346,1,0,0:0:0:0:
188,114,107404,1,8,0:0:0:0:
188,114,107519,1,0,0:0:0:0:
188,114,107635,1,0,0:0:0:0:
217,111,107750,1,8,0:0:0:0:
217,111,107808,1,8,0:0:0:0:
217,111,107866,1,8,0:0:0:0:
217,111,107923,1,8,0:0:0:0:
217,111,107981,1,0,0:0:0:0:
217,111,108096,1,0,0:0:0:0:
217,111,108212,1,8,0:0:0:0:
217,111,108327,1,8,0:0:0:0:
217,111,108443,1,0,0:0:0:0:
215,120,108500,1,0,0:0:0:0:
217,111,108558,1,0,0:0:0:0:
217,111,108673,1,8,0:0:0:0:
217,111,108789,1,0,0:0:0:0:
217,111,108846,1,0,0:0:0:0:
217,111,108904,1,0,0:0:0:0:
119,127,109019,1,8,0:0:0:0:
119,127,109135,1,0,0:0:0:0:
119,127,109193,1,0,0:0:0:0:
119,127,109250,1,8,0:0:0:0:
146,125,109366,1,0,0:0:0:0:
146,125,109481,1,0,0:0:0:0:
146,125,109596,1,8,0:0:0:0:
146,125,109654,1,8,0:0:0:0:
146,125,109712,1,8,0:0:0:0:
146,125,109769,1,8,0:0:0:0:
146,125,109827,1,0,0:0:0:0:
146,125,109943,1,0,0:0:0:0:
146,125,110058,1,8,0:0:0:0:
146,125,110173,1,8,0:0:0:0:
146,125,110289,1,0,0:0:0:0:
217,157,110346,1,0,0:0:0:0:
146,125,110404,1,0,0:0:0:0:
146,125,110519,1,8,0:0:0:0:
146,125,110635,1,0,0:0:0:0:
146,125,110693,1,0,0:0:0:0:
146,125,110750,1,8,0:0:0:0:
146,125,110808,1,8,0:0:0:0:
146,125,110866,1,0,0:0:0:0:
146,125,110981,1,8,0:0:0:0:
146,125,111096,1,8,0:0:0:0:
146,125,111212,1,0,0:0:0:0:
146,125,111269,1,0,0:0:0:0:
146,125,111327,1,0,0:0:0:0:
146,125,111385,1,0,0:0:0:0:
146,125,111443,1,8,0:0:0:0:
146,125,111558,1,0,0:0:0:0:
133,98,111616,1,0,0:0:0:0:
146,125,111673,1,0,0:0:0:0:
146,125,111789,1,8,0:0:0:0:
146,125,111904,1,0,0:0:0:0:
133,98,111962,1,0,0:0:0:0:
146,125,112019,1,8,0:0:0:0:
146,125,112135,1,0,0:0:0:0:
146,125,112193,1,0,0:0:0:0:
146,125,112250,1,0,0:0:0:0:
146,125,112308,1,0,0:0:0:0:
146,125,112366,1,8,0:0:0:0:
146,125,112481,1,0,0:0:0:0:
88,120,112539,1,0,0:0:0:0:
146,125,112596,1,0,0:0:0:0:
146,125,112712,1,8,0:0:0:0:
146,125,112827,1,0,0:0:0:0:
146,125,112943,1,8,0:0:0:0:
81,132,113000,1,8,0:0:0:0:
146,125,113058,1,0,0:0:0:0:
146,125,113116,1,0,0:0:0:0:
146,125,113173,1,8,0:0:0:0:
146,125,113231,1,8,0:0:0:0:
146,125,113289,1,8,0:0:0:0:
146,125,113346,1,8,0:0:0:0:
146,125,113404,1,0,0:0:0:0:
146,125,113462,1,0,0:0:0:0:
146,125,113519,1,8,0:0:0:0:
146,125,113577,1,8,0:0:0:0:
146,125,113635,1,0,0:0:0:0:
146,125,113693,1,0,0:0:0:0:
146,125,113750,1,8,0:0:0:0:
146,125,113808,1,8,0:0:0:0:
146,125,113866,1,8,0:0:0:0:
146,125,113923,1,8,0:0:0:0:
106,110,113981,1,4,0:0:0:0:
165,127,114212,1,8,0:0:0:0:
188,114,114328,1,0,0:0:0:0:
188,114,114385,1,0,0:0:0:0:
188,114,114443,1,0,0:0:0:0:
188,114,114558,1,8,0:0:0:0:
188,114,114674,1,0,0:0:0:0:
188,114,114731,1,0,0:0:0:0:
188,114,114789,1,8,0:0:0:0:
216,83,114846,1,8,0:0:0:0:
188,114,114904,1,0,0:0:0:0:
188,114,115020,1,0,0:0:0:0:
217,111,115135,1,8,0:0:0:0:
217,111,115251,1,0,0:0:0:0:
217,111,115308,1,0,0:0:0:0:
217,111,115366,1,0,0:0:0:0:
217,111,115481,1,8,0:0:0:0:
217,111,115597,1,8,0:0:0:0:
165,103,115654,1,8,0:0:0:0:
217,111,115712,1,8,0:0:0:0:
165,103,115769,1,8,0:0:0:0:
217,111,115828,1,0,0:0:0:0:
217,111,115943,1,0,0:0:0:0:
217,111,116058,1,8,0:0:0:0:
217,111,116174,1,0,0:0:0:0:
217,111,116231,1,0,0:0:0:0:
217,111,116289,1,0,0:0:0:0:
157,112,116346,1,0,0:0:0:0:
119,127,116404,1,8,0:0:0:0:
119,127,116520,1,0,0:0:0:0:
119,127,116635,1,8,0:0:0:0:
159,101,116693,1,8,0:0:0:0:
146,125,116751,1,0,0:0:0:0:
146,125,116866,1,0,0:0:0:0:
146,125,116981,1,8,0:0:0:0:
146,125,117097,1,0,0:0:0:0:
155,55,117154,1,0,0:0:0:0:
146,125,117212,1,8,0:0:0:0:
146,125,117328,1,0,0:0:0:0:
146,125,117443,1,8,0:0:0:0:
146,125,117558,1,8,0:0:0:0:
146,125,117674,1,0,0:0:0:0:
115,125,117731,1,0,0:0:0:0:
146,125,117789,1,0,0:0:0:0:
148,120,117846,1,0,0:0:0:0:
146,125,117904,1,8,0:0:0:0:
146,125,118020,1,0,0:0:0:0:
203,138,118077,1,0,0:0:0:0:
146,125,118135,1,0,0:0:0:0:
146,125,118193,1,0,0:0:0:0:
146,125,118251,1,8,0:0:0:0:
146,125,118366,1,0,0:0:0:0:
146,125,118481,1,8,0:0:0:0:
146,125,118597,1,8,0:0:0:0:
146,125,118712,1,0,0:0:0:0:
146,125,118828,1,8,0:0:0:0:
146,125,118943,1,0,0:0:0:0:
146,125,119058,1,8,0:0:0:0:
116,128,119116,1,8,0:0:0:0:
146,125,119174,1,0,0:0:0:0:
139,111,119231,1,0,0:0:0:0:
146,125,119289,1,8,0:0:0:0:
146,125,119404,1,0,0:0:0:0:
128,92,119519,1,12,0:0:0:0:
130,148,119750,1,8,0:0:0:0:
130,148,119866,1,0,0:0:0:0:
130,148,119923,1,0,0:0:0:0:
130,148,119981,1,0,0:0:0:0:
255,156,120096,1,8,0:0:0:0:
255,156,120212,1,0,0:0:0:0:
255,156,120269,1,0,0:0:0:0:
255,156,120327,1,8,0:0:0:0:
255,156,120385,1,8,0:0:0:0:
255,156,120443,1,0,0:0:0:0:
255,156,120558,1,0,0:0:0:0:
255,156,120616,1,0,0:0:0:0:
255,156,120673,1,8,0:0:0:0:
195,155,120789,1,0,0:0:0:0:
195,155,120904,1,8,0:0:0:0:
195,155,120962,1,8,0:0:0:0:
195,155,121019,1,0,0:0:0:0:
195,155,121077,1,0,0:0:0:0:
195,155,121135,1,8,0:0:0:0:
195,155,121193,1,8,0:0:0:0:
195,155,121250,1,8,0:0:0:0:
195,155,121308,1,8,0:0:0:0:
195,155,121366,1,0,0:0:0:0:
190,90,121481,1,8,0:0:0:0:
190,90,121539,1,8,0:0:0:0:
190,90,121596,1,0,0:0:0:0:
190,90,121712,1,8,0:0:0:0:
190,90,121827,1,0,0:0:0:0:
176,132,121885,1,0,0:0:0:0:
190,90,121943,1,8,0:0:0:0:
176,132,122000,1,8,0:0:0:0:
190,90,122058,1,0,0:0:0:0:
190,90,122173,1,8,0:0:0:0:
190,90,122231,1,8,0:0:0:0:
190,90,122289,1,8,0:0:0:0:
190,90,122404,1,0,0:0:0:0:
190,90,122519,1,0,0:0:0:0:
190,90,122635,1,8,0:0:0:0:
190,90,122693,1,8,0:0:0:0:
190,90,122750,1,8,0:0:0:0:
190,90,122808,1,8,0:0:0:0:
190,90,122866,1,0,0:0:0:0:
190,90,122981,1,8,0:0:0:0:
190,90,123096,1,8,0:0:0:0:
190,90,123212,1,0,0:0:0:0:
155,110,123269,1,8,0:0:0:0:
190,90,123327,1,8,0:0:0:0:
155,110,123385,1,8,0:0:0:0:
190,90,123443,1,0,0:0:0:0:
50,147,123500,1,0,0:0:0:0:
190,90,123558,1,8,0:0:0:0:
190,90,123616,1,8,0:0:0:0:
190,90,123673,1,0,0:0:0:0:
190,90,123789,1,8,0:0:0:0:
148,72,123846,1,8,0:0:0:0:
190,90,123904,1,0,0:0:0:0:
190,90,124019,1,0,0:0:0:0:
190,90,124135,1,8,0:0:0:0:
190,90,124250,1,0,0:0:0:0:
190,90,124308,1,0,0:0:0:0:
190,90,124366,1,8,0:0:0:0:
190,90,124481,1,0,0:0:0:0:
190,90,124596,1,8,0:0:0:0:
190,90,124654,1,8,0:0:0:0:
190,90,124712,1,0,0:0:0:0:
145,104,124769,1,0,0:0:0:0:
190,90,124827,1,8,0:0:0:0:
190,90,124943,1,0,0:0:0:0:
190,90,125058,1,0,0:0:0:0:
183,133,125173,1,8,0:0:0:0:
169,131,125231,1,8,0:0:0:0:
179,128,125289,1,0,0:0:0:0:
183,133,125404,1,0,0:0:0:0:
202,145,125462,1,0,0:0:0:0:
184,148,125519,1,8,0:0:0:0:
198,145,125635,1,0,0:0:0:0:
198,145,125750,1,8,0:0:0:0:
207,147,125808,1,0,0:0:0:0:
198,145,125866,1,8,0:0:0:0:
207,147,125923,1,8,0:0:0:0:
198,145,125981,1,0,0:0:0:0:
195,127,126096,1,0,0:0:0:0:
189,132,126212,1,8,0:0:0:0:
189,132,126327,1,0,0:0:0:0:
189,132,126385,1,8,0:0:0:0:
189,132,126443,1,8,0:0:0:0:
189,132,126500,1,8,0:0:0:0:
207,147,126558,1,0,0:0:0:0:
189,132,126673,1,8,0:0:0:0:
189,132,126789,1,0,0:0:0:0:
201,182,126846,1,0,0:0:0:0:
189,132,126904,1,8,0:0:0:0:
64,143,127019,1,8,0:0:0:0:
169,122,127077,1,8,0:0:0:0:
152,128,127135,1,0,0:0:0:0:
195,46,127250,1,0,0:0:0:0:
195,46,127366,1,8,0:0:0:0:
195,46,127423,1,0,0:0:0:0:
204,111,127481,1,8,0:0:0:0:
204,111,127539,1,8,0:0:0:0:
204,111,127596,1,0,0:0:0:0:
109,120,127654,1,0,0:0:0:0:
204,111,127712,1,8,0:0:0:0:
204,111,127827,1,8,0:0:0:0:
184,124,127856,1,8,0:0:0:0:
204,111,127943,1,8,0:0:0:0:
184,124,127971,1,8,0:0:0:0:
204,111,128058,1,0,0:0:0:0:
184,124,128087,1,0,0:0:0:0:
204,111,128173,1,8,0:0:0:0:
184,124,128202,1,8,0:0:0:0:
204,111,128289,1,8,0:0:0:0:
95,138,128318,1,8,0:0:0:0:
204,111,128404,1,0,0:0:0:0:
204,111,128519,1,0,0:0:0:0:
204,111,128577,1,0,0:0:0:0:
204,111,128635,1,8,0:0:0:0:
204,111,128693,1,8,0:0:0:0:
204,111,128750,1,0,0:0:0:0:
204,111,128866,1,0,0:0:0:0:
204,111,128981,1,8,0:0:0:0:
204,111,129096,1,0,0:0:0:0:
207,124,129154,1,0,0:0:0:0:
204,111,129212,1,8,0:0:0:0:
128,112,129269,1,0,0:0:0:0:
204,111,129327,1,8,0:0:0:0:
204,111,129443,1,0,0:0:0:0:
63,64,129558,1,0,0:0:0:0:
204,111,129673,1,8,0:0:0:0:
185,102,129702,1,8,0:0:0:0:
186,99,129789,1,8,0:0:0:0:
185,102,129818,1,8,0:0:0:0:
186,99,129904,1,0,0:0:0:0:
185,102,129933,1,0,0:0:0:0:
186,99,130019,1,8,0:0:0:0:
184,102,130048,1,8,0:0:0:0:
217,110,130135,1,0,0:0:0:0:
217,110,130250,1,0,0:0:0:0:
86,113,130308,1,0,0:0:0:0:
217,110,130366,1,8,0:0:0:0:
117,148,130423,1,8,0:0:0:0:
217,110,130481,1,8,0:0:0:0:
217,110,130539,1,8,0:0:0:0:
217,110,130596,1,0,0:0:0:0:
218,104,130712,1,8,0:0:0:0:
218,104,130827,1,0,0:0:0:0:
162,91,130885,1,8,0:0:0:0:
218,104,130943,1,0,0:0:0:0:
162,91,131000,1,0,0:0:0:0:
218,104,131058,1,8,0:0:0:0:
218,104,131173,1,8,0:0:0:0:
218,104,131289,1,0,0:0:0:0:
218,104,131404,1,8,0:0:0:0:
218,104,131462,1,0,0:0:0:0:
218,104,131519,1,8,0:0:0:0:
165,135,131577,1,8,0:0:0:0:
218,104,131635,1,0,0:0:0:0:
218,104,131750,1,8,0:0:0:0:
218,104,131866,1,0,0:0:0:0:
218,104,131981,1,8,0:0:0:0:
166,73,132039,1,8,0:0:0:0:
218,104,132096,1,0,0:0:0:0:
168,80,132154,1,0,0:0:0:0:
218,104,132212,1,8,0:0:0:0:
218,104,132327,1,8,0:0:0:0:
218,104,132443,1,0,0:0:0:0:
185,130,132500,1,0,0:0:0:0:
218,104,132558,1,0,0:0:0:0:
218,104,132616,1,0,0:0:0:0:
218,104,132673,1,8,0:0:0:0:
218,104,132731,1,8,0:0:0:0:
218,104,132789,1,0,0:0:0:0:
183,137,132846,1,0,0:0:0:0:
218,104,132904,1,0,0:0:0:0:
218,104,132962,1,0,0:0:0:0:
218,104,133019,1,8,0:0:0:0:
218,104,133077,1,0,0:0:0:0:
218,104,133135,1,8,0:0:0:0:
218,104,133193,1,8,0:0:0:0:
218,104,133250,1,0,0:0:0:0:
218,104,133308,1,0,0:0:0:0:
218,104,133366,1,8,0:0:0:0:
218,104,133481,1,8,0:0:0:0:
218,104,133596,1,0,0:0:0:0:
218,104,133712,1,8,0:0:0:0:
218,104,133827,1,0,0:0:0:0:
218,104,133943,1,0,0:0:0:0:
198,98,134058,1,8,0:0:0:0:
205,107,134087,1,8,0:0:0:0:
198,98,134173,1,8,0:0:0:0:
205,107,134202,1,8,0:0:0:0:
205,107,134289,1,0,0:0:0:0:
198,77,134519,1,8,0:0:0:0:
198,77,134635,1,0,0:0:0:0:
187,110,134750,1,0,0:0:0:0:
198,77,134866,1,8,0:0:0:0:
198,77,134981,1,0,0:0:0:0:
198,77,135096,1,8,0:0:0:0:
198,77,135154,1,8,0:0:0:0:
198,77,135212,1,0,0:0:0:0:
198,77,135327,1,0,0:0:0:0:
198,77,135443,1,8,0:0:0:0:
198,77,135558,1,0,0:0:0:0:
198,77,135616,1,0,0:0:0:0:
198,77,135673,1,8,0:0:0:0:
198,77,135731,1,8,0:0:0:0:
198,77,135789,1,0,0:0:0:0:
198,77,135904,1,8,0:0:0:0:
198,77,135962,1,8,0:0:0:0:
198,77,136019,1,8,0:0:0:0:
198,77,136077,1,8,0:0:0:0:
198,77,136135,1,0,0:0:0:0:
198,77,136250,1,0,0:0:0:0:
198,77,136366,1,8,0:0:0:0:
198,77,136481,1,0,0:0:0:0:
198,77,136596,1,0,0:0:0:0:
198,77,136712,1,8,0:0:0:0:
198,77,136827,1,0,0:0:0:0:
198,77,136943,1,8,0:0:0:0:
198,77,137000,1,8,0:0:0:0:
198,77,137058,1,0,0:0:0:0:
198,77,137173,1,8,0:0:0:0:
198,77,137289,1,0,0:0:0:0:
198,77,137404,1,8,0:0:0:0:
198,77,137462,1,0,0:0:0:0:
198,77,137519,1,8,0:0:0:0:
198,77,137577,1,8,0:0:0:0:
198,77,137635,1,0,0:0:0:0:
198,77,137750,1,8,0:0:0:0:
183,30,137808,1,8,0:0:0:0:
198,77,137866,1,0,0:0:0:0:
183,30,137923,1,0,0:0:0:0:
183,30,137981,1,8,0:0:0:0:
183,30,138096,1,0,0:0:0:0:
183,30,138212,1,8,0:0:0:0:
183,30,138327,1,0,0:0:0:0:
183,30,138385,1,0,0:0:0:0:
183,30,138443,1,0,0:0:0:0:
183,30,138558,1,8,0:0:0:0:
183,30,138673,1,0,0:0:0:0:
183,30,138731,1,0,0:0:0:0:
183,30,138789,1,8,0:0:0:0:
183,30,138846,1,8,0:0:0:0:
183,30,138904,1,0,0:0:0:0:
183,30,139019,1,0,0:0:0:0:
183,30,139135,1,8,0:0:0:0:
183,30,139250,1,0,0:0:0:0:
183,30,139308,1,0,0:0:0:0:
183,30,139366,1,8,0:0:0:0:
183,30,139481,1,0,0:0:0:0:
183,30,139596,1,8,0:0:0:0:
183,30,139654,1,0,0:0:0:0:
183,30,139712,1,8,0:0:0:0:
183,30,139769,1,8,0:0:0:0:
183,30,139827,1,0,0:0:0:0:
183,30,139943,1,0,0:0:0:0:
183,30,140058,1,8,0:0:0:0:
134,111,140116,1,0,0:0:0:0:
183,30,140173,1,8,0:0:0:0:
183,30,140231,1,8,0:0:0:0:
183,30,140289,1,0,0:0:0:0:
183,30,140404,1,0,0:0:0:0:
183,30,140519,1,8,0:0:0:0:
183,30,140635,1,0,0:0:0:0:
183,30,140750,1,8,0:0:0:0:
187,75,140808,1,8,0:0:0:0:
183,30,140866,1,0,0:0:0:0:
177,75,140923,1,0,0:0:0:0:
183,30,140981,1,8,0:0:0:0:
187,75,141039,1,0,0:0:0:0:
183,30,141096,1,8,0:0:0:0:
183,30,141154,1,8,0:0:0:0:
183,30,141212,1,0,0:0:0:0:
183,30,141269,1,0,0:0:0:0:
183,30,141327,1,8,0:0:0:0:
183,30,141385,1,0,0:0:0:0:
183,30,141443,1,8,0:0:0:0:
183,30,141500,1,8,0:0:0:0:
183,30,141558,1,0,0:0:0:0:
183,30,141616,1,0,0:0:0:0:
183,30,141673,1,12,0:0:0:0:
