osu file format v14

[General]
AudioFilename: audio.ogg
AudioLeadIn: 0
PreviewTime: 29511
Countdown: 0
SampleSet: Normal
StackLeniency: 0.7
Mode: 1
LetterboxInBreaks: 0
WidescreenStoryboard: 1

[Editor]
DistanceSpacing: 1
BeatDivisor: 4
GridSize: 16
TimelineZoom: 2.7

[Metadata]
Title:Bomber
TitleUnicode:Bomber
Artist:exnoiz
ArtistUnicode:exnoiz
Creator:Quorum
Version:Futsuu
Source:
Tags:lolicore breakcore electronic japanese amenbreak yorushika ヨルシカ bakudanma 爆弾魔 makeinu ni encore wa iranai 負け犬にアンコールはいらない 盗作 plagiarism tousaku a loser doesn't doesnt need an encore compulsive ktyn kitajimayn Waribashi cryceptio
BeatmapID:3983758
BeatmapSetID:1928563

[Difficulty]
HPDrainRate:7
CircleSize:5
OverallDifficulty:4
ApproachRate:5
SliderMultiplier:1.4
SliderTickRate:1

[Events]
//Background and Video events
0,0,"image.jpg",0,-120
//Break Periods
//Storyboard Layer 0 (Background)
//Storyboard Layer 1 (Fail)
//Storyboard Layer 2 (Pass)
//Storyboard Layer 3 (Foreground)
//Storyboard Layer 4 (Overlay)
//Storyboard Sound Samples

[TimingPoints]
443,230.769230769231,4,1,0,100,1,0
443,-111.111111111111,4,1,0,100,0,0
29981,-111.111111111111,4,1,0,100,0,1
44750,-111.111111111111,4,1,0,100,0,0
68750,-111.111111111111,4,1,0,100,0,1
83519,-111.111111111111,4,1,0,100,0,0
98750,-111.111111111111,4,1,0,100,0,0
106596,-111.111111111111,4,1,0,100,0,0
113981,-111.111111111111,4,1,0,100,0,1
119519,-111.111111111111,4,1,0,100,0,1
134289,-111.111111111111,4,1,0,100,0,0

[HitObjects]
272,176,443,5,0,0:0:0:0:
272,176,673,1,8,0:0:0:0:
272,176,904,1,0,0:0:0:0:
272,161,1250,1,0,0:0:0:0:
292,178,2058,1,8,0:0:0:0:
292,178,2289,1,0,0:0:0:0:
299,169,2519,1,8,0:0:0:0:
299,169,2750,1,0,0:0:0:0:
299,169,3096,1,0,0:0:0:0:
253,204,3673,1,8,0:0:0:0:
253,204,3904,1,8,0:0:0:0:
253,204,4135,1,0,0:0:0:0:
172,46,4366,1,8,0:0:0:0:
172,46,4596,1,0,0:0:0:0:
172,46,4943,1,0,0:0:0:0:
172,46,5750,1,8,0:0:0:0:
172,46,5981,1,0,0:0:0:0:
97,122,6327,1,0,0:0:0:0:
97,122,6558,1,8,0:0:0:0:
97,122,6673,1,0,0:0:0:0:
97,122,6904,1,12,0:0:0:0:
97,122,7135,1,0,0:0:0:0:
103,124,7366,1,8,0:0:0:0:
186,96,7827,1,8,0:0:0:0:
111,118,8058,1,8,0:0:0:0:
111,118,8173,1,0,0:0:0:0:
111,118,8519,1,8,0:0:0:0:
111,118,8750,1,8,0:0:0:0:
111,118,8981,1,0,0:0:0:0:
111,118,9212,1,8,0:0:0:0:
166,56,9673,1,0,0:0:0:0:
251,164,9904,1,8,0:0:0:0:
251,164,10019,1,0,0:0:0:0:
147,128,10366,1,0,0:0:0:0:
252,152,10596,1,12,0:0:0:0:
252,152,10827,1,8,0:0:0:0:
252,152,11058,1,8,0:0:0:0:
161,60,11519,1,8,0:0:0:0:
160,60,11750,1,8,0:0:0:0:
252,152,11866,1,0,0:0:0:0:
213,144,12096,1,0,0:0:0:0:
176,151,12212,1,8,0:0:0:0:
176,151,12327,1,8,0:0:0:0:
104,133,12558,1,0,0:0:0:0:
182,139,12673,1,0,0:0:0:0:
182,139,12789,1,0,0:0:0:0:
182,139,13135,1,8,0:0:0:0:
182,139,13366,1,8,0:0:0:0:
182,139,13596,1,0,0:0:0:0:
182,139,13827,1,8,0:0:0:0:
182,139,14058,1,0,0:0:0:0:
182,139,14289,1,12,0:0:0:0:
260,203,14750,1,8,0:0:0:0:
162,142,14981,1,0,0:0:0:0:
162,142,15096,1,8,0:0:0:0:
162,142,15673,1,0,0:0:0:0:
162,142,15904,1,8,0:0:0:0:
162,142,16135,1,8,0:0:0:0:
162,142,16366,1,0,0:0:0:0:
162,142,16596,1,8,0:0:0:0:
172,117,16827,1,0,0:0:0:0:
172,117,17058,1,8,0:0:0:0:
156,113,17289,1,8,0:0:0:0:
118,112,17404,1,8,0:0:0:0:
156,113,17519,1,0,0:0:0:0:
157,108,17981,1,0,0:0:0:0:
156,113,18212,1,8,0:0:0:0:
156,113,18443,1,8,0:0:0:0:
156,113,18673,1,0,0:0:0:0:
157,111,18789,1,8,0:0:0:0:
152,86,19366,1,0,0:0:0:0:
152,86,19596,1,0,0:0:0:0:
188,66,19712,1,0,0:0:0:0:
157,111,19827,1,8,0:0:0:0:
157,111,20058,1,0,0:0:0:0:
156,113,20289,1,8,0:0:0:0:
156,113,20519,1,0,0:0:0:0:
157,111,20750,1,8,0:0:0:0:
156,113,20981,1,8,0:0:0:0:
106,84,21096,1,8,0:0:0:0:
156,113,21212,1,0,0:0:0:0:
156,113,21443,1,0,0:0:0:0:
156,113,21673,1,12,0:0:0:0:
189,72,22135,1,8,0:0:0:0:
195,61,22366,1,8,0:0:0:0:
168,84,22481,1,8,0:0:0:0:
195,61,22596,1,0,0:0:0:0:
195,61,22827,1,8,0:0:0:0:
195,61,23289,1,8,0:0:0:0:
194,53,23519,1,0,0:0:0:0:
194,53,23981,1,8,0:0:0:0:
194,53,24212,1,0,0:0:0:0:
75,129,24327,1,0,0:0:0:0:
194,53,24443,1,8,0:0:0:0:
181,11,24673,1,8,0:0:0:0:
181,11,25135,1,8,0:0:0:0:
181,11,25366,1,8,0:0:0:0:
53,122,25596,1,0,0:0:0:0:
142,38,25712,1,0,0:0:0:0:
181,11,25827,1,8,0:0:0:0:
181,11,26058,1,0,0:0:0:0:
181,11,26289,1,0,0:0:0:0:
181,11,26519,1,8,0:0:0:0:
181,11,26635,1,0,0:0:0:0:
182,1,26866,1,0,0:0:0:0:
182,1,26981,1,8,0:0:0:0:
182,1,27212,1,0,0:0:0:0:
182,1,27443,1,8,0:0:0:0:
182,0,27673,1,8,0:0:0:0:
182,0,27904,1,8,0:0:0:0:
182,1,28019,1,0,0:0:0:0:
126,106,29058,1,8,0:0:0:0:
126,106,29289,1,8,0:0:0:0:
126,106,29519,1,0,0:0:0:0:
143,104,29750,1,8,0:0:0:0:
143,104,29981,1,12,0:0:0:0:
159,112,30212,1,8,0:0:0:0:
101,130,30443,1,0,0:0:0:0:
182,86,30558,1,8,0:0:0:0:
182,86,30789,1,8,0:0:0:0:
124,99,30904,1,0,0:0:0:0:
196,193,31135,1,0,0:0:0:0:
182,86,31366,1,8,0:0:0:0:
182,86,31596,1,8,0:0:0:0:
182,86,31827,1,0,0:0:0:0:
182,86,32058,1,8,0:0:0:0:
182,86,32289,1,8,0:0:0:0:
182,86,32404,1,8,0:0:0:0:
182,86,32635,1,8,0:0:0:0:
150,88,32750,1,0,0:0:0:0:
112,106,33212,1,8,0:0:0:0:
120,109,33443,1,0,0:0:0:0:
120,109,33673,1,8,0:0:0:0:
120,109,34135,1,8,0:0:0:0:
120,109,34366,1,0,0:0:0:0:
120,109,34596,1,8,0:0:0:0:
120,109,34827,1,0,0:0:0:0:
120,109,35058,1,0,0:0:0:0:
185,86,35173,1,0,0:0:0:0:
120,109,35289,1,0,0:0:0:0:
120,109,35519,1,8,0:0:0:0:
120,109,35981,1,8,0:0:0:0:
120,109,36212,1,0,0:0:0:0:
145,44,36327,1,12,0:0:0:0:
120,109,36904,1,8,0:0:0:0:
120,109,37135,1,8,0:0:0:0:
120,109,37366,1,0,0:0:0:0:
120,109,37596,1,12,0:0:0:0:
130,84,37827,1,0,0:0:0:0:
135,62,37943,1,0,0:0:0:0:
139,97,38173,1,8,0:0:0:0:
140,98,38289,1,0,0:0:0:0:
160,137,38519,1,0,0:0:0:0:
148,91,38750,1,8,0:0:0:0:
148,91,38981,1,8,0:0:0:0:
148,91,39212,1,0,0:0:0:0:
148,91,39443,1,0,0:0:0:0:
148,91,39673,1,8,0:0:0:0:
45,109,39789,1,8,0:0:0:0:
148,91,39904,1,8,0:0:0:0:
135,97,40135,1,0,0:0:0:0:
183,121,40596,1,8,0:0:0:0:
160,53,40827,1,8,0:0:0:0:
160,53,41058,1,0,0:0:0:0:
141,146,41289,1,8,0:0:0:0:
161,54,41519,1,0,0:0:0:0:
161,54,41750,1,8,0:0:0:0:
160,53,41981,1,0,0:0:0:0:
141,146,42212,1,8,0:0:0:0:
161,54,42443,1,8,0:0:0:0:
161,54,42673,1,8,0:0:0:0:
160,53,42904,1,0,0:0:0:0:
161,54,43135,1,8,0:0:0:0:
163,88,43366,1,0,0:0:0:0:
82,133,43481,1,0,0:0:0:0:
161,54,43596,1,8,0:0:0:0:
448,64,43827,1,8,0:0:0:0:
97,122,44519,1,0,0:0:0:0:
97,122,44750,1,12,0:0:0:0:
129,123,44981,1,0,0:0:0:0:
103,124,45212,1,8,0:0:0:0:
186,96,45673,1,8,0:0:0:0:
111,118,45904,1,8,0:0:0:0:
111,118,46019,1,0,0:0:0:0:
111,118,46365,1,8,0:0:0:0:
111,118,46596,1,0,0:0:0:0:
111,118,46827,1,0,0:0:0:0:
111,118,47058,1,8,0:0:0:0:
166,56,47519,1,0,0:0:0:0:
251,164,47750,1,8,0:0:0:0:
251,164,47865,1,0,0:0:0:0:
64,64,48212,1,0,0:0:0:0:
448,320,48443,1,12,0:0:0:0:
64,64,48673,1,0,0:0:0:0:
252,152,48904,1,8,0:0:0:0:
161,60,49365,1,8,0:0:0:0:
160,60,49596,1,8,0:0:0:0:
252,152,49712,1,0,0:0:0:0:
213,144,49942,1,0,0:0:0:0:
176,151,50058,1,0,0:0:0:0:
166,83,50173,1,8,0:0:0:0:
176,151,50404,1,0,0:0:0:0:
182,139,50519,1,0,0:0:0:0:
182,139,50635,1,8,0:0:0:0:
182,139,50981,1,8,0:0:0:0:
182,139,51212,5,8,0:0:0:0:
182,139,51442,1,0,0:0:0:0:
182,139,51673,1,8,0:0:0:0:
182,139,51904,1,0,0:0:0:0:
182,139,52135,1,12,0:0:0:0:
260,203,52597,1,8,0:0:0:0:
94,110,52827,1,8,0:0:0:0:
64,144,53058,1,0,0:0:0:0:
162,142,53290,1,8,0:0:0:0:
162,142,53636,1,0,0:0:0:0:
162,142,53751,1,8,0:0:0:0:
162,142,53981,1,0,0:0:0:0:
162,142,54213,1,8,0:0:0:0:
162,142,54443,1,8,0:0:0:0:
172,117,54673,1,8,0:0:0:0:
162,142,54789,1,0,0:0:0:0:
156,113,55020,1,0,0:0:0:0:
156,113,55136,1,8,0:0:0:0:
156,113,55366,1,0,0:0:0:0:
156,113,55597,1,8,0:0:0:0:
157,108,55828,1,0,0:0:0:0:
156,113,56290,1,8,0:0:0:0:
169,67,56520,1,8,0:0:0:0:
156,113,56750,1,0,0:0:0:0:
156,113,56981,1,8,0:0:0:0:
156,113,57443,1,8,0:0:0:0:
156,113,57673,1,0,0:0:0:0:
156,113,57905,1,8,0:0:0:0:
156,113,58020,1,8,0:0:0:0:
156,113,58251,1,0,0:0:0:0:
156,113,58366,1,8,0:0:0:0:
157,111,58596,1,0,0:0:0:0:
156,113,58828,1,0,0:0:0:0:
156,113,59059,1,0,0:0:0:0:
156,113,59290,1,0,0:0:0:0:
156,113,59520,1,12,0:0:0:0:
189,72,59982,1,8,0:0:0:0:
195,61,60213,1,8,0:0:0:0:
155,133,60327,1,8,0:0:0:0:
195,61,60443,1,0,0:0:0:0:
195,61,60674,1,8,0:0:0:0:
195,61,61136,1,8,0:0:0:0:
194,53,61366,1,0,0:0:0:0:
194,53,61596,1,8,0:0:0:0:
194,53,61828,1,0,0:0:0:0:
82,108,61943,1,0,0:0:0:0:
194,53,62059,1,8,0:0:0:0:
194,53,62290,1,0,0:0:0:0:
181,11,62520,1,8,0:0:0:0:
181,11,62982,1,8,0:0:0:0:
181,11,63213,1,0,0:0:0:0:
181,11,63443,1,8,0:0:0:0:
181,11,63559,1,8,0:0:0:0:
181,11,63790,1,0,0:0:0:0:
181,11,63905,1,8,0:0:0:0:
181,11,64136,1,0,0:0:0:0:
181,11,64366,1,8,0:0:0:0:
181,11,64482,1,8,0:0:0:0:
182,1,64713,1,0,0:0:0:0:
182,1,64828,1,8,0:0:0:0:
182,1,65059,1,0,0:0:0:0:
182,0,65519,1,8,0:0:0:0:
182,0,65751,1,8,0:0:0:0:
95,129,65981,1,0,0:0:0:0:
141,84,66212,1,8,0:0:0:0:
141,84,66443,1,0,0:0:0:0:
141,84,66673,1,8,0:0:0:0:
39,114,66904,1,0,0:0:0:0:
39,114,67135,1,8,0:0:0:0:
39,114,67366,1,0,0:0:0:0:
39,114,67596,1,0,0:0:0:0:
157,144,67827,1,12,0:0:0:0:
179,80,68289,1,8,0:0:0:0:
179,80,68519,1,0,0:0:0:0:
143,104,68750,1,12,0:0:0:0:
159,112,68981,1,8,0:0:0:0:
101,130,69212,1,0,0:0:0:0:
182,86,69327,1,0,0:0:0:0:
182,86,69558,1,8,0:0:0:0:
182,86,69673,1,0,0:0:0:0:
158,117,69904,1,0,0:0:0:0:
182,86,70135,1,8,0:0:0:0:
182,86,70365,1,8,0:0:0:0:
182,86,70596,1,0,0:0:0:0:
182,86,70827,1,8,0:0:0:0:
182,86,71058,1,0,0:0:0:0:
182,86,71173,1,8,0:0:0:0:
182,86,71404,1,8,0:0:0:0:
78,93,71519,1,0,0:0:0:0:
112,106,71981,1,8,0:0:0:0:
159,91,72212,1,8,0:0:0:0:
120,109,72442,1,0,0:0:0:0:
120,109,72904,1,8,0:0:0:0:
120,109,73135,1,0,0:0:0:0:
153,95,73365,1,8,0:0:0:0:
120,109,73596,1,0,0:0:0:0:
120,109,73827,1,8,0:0:0:0:
201,119,73943,1,8,0:0:0:0:
120,109,74058,1,8,0:0:0:0:
120,109,74288,1,0,0:0:0:0:
64,64,74750,1,0,0:0:0:0:
120,109,74981,1,0,0:0:0:0:
448,320,75096,1,12,0:0:0:0:
120,109,75673,1,8,0:0:0:0:
120,109,75904,1,8,0:0:0:0:
120,109,76135,1,0,0:0:0:0:
120,109,76365,1,8,0:0:0:0:
130,84,76596,1,0,0:0:0:0:
139,97,76712,1,8,0:0:0:0:
139,97,76942,1,8,0:0:0:0:
140,98,77058,1,0,0:0:0:0:
148,91,77519,1,8,0:0:0:0:
148,91,77750,1,8,0:0:0:0:
148,91,77981,1,0,0:0:0:0:
148,91,78212,1,8,0:0:0:0:
148,91,78442,1,8,0:0:0:0:
148,91,78673,1,0,0:0:0:0:
148,91,78788,1,8,0:0:0:0:
58,153,79366,1,8,0:0:0:0:
160,53,79596,1,8,0:0:0:0:
160,53,79827,1,0,0:0:0:0:
83,108,80058,1,8,0:0:0:0:
161,54,80289,1,0,0:0:0:0:
161,54,80519,1,8,0:0:0:0:
160,53,80750,1,0,0:0:0:0:
83,108,80981,1,8,0:0:0:0:
161,54,81212,1,8,0:0:0:0:
161,54,81442,1,8,0:0:0:0:
160,53,81673,1,0,0:0:0:0:
132,126,81789,1,0,0:0:0:0:
160,53,81904,1,0,0:0:0:0:
132,126,82135,1,0,0:0:0:0:
154,95,82250,1,0,0:0:0:0:
161,54,82366,1,8,0:0:0:0:
448,64,82596,1,8,0:0:0:0:
160,112,83289,1,0,0:0:0:0:
166,129,83519,1,12,0:0:0:0:
144,139,83981,1,8,0:0:0:0:
144,139,84212,1,8,0:0:0:0:
132,120,84443,1,0,0:0:0:0:
144,139,84904,1,0,0:0:0:0:
144,139,85135,1,8,0:0:0:0:
144,139,85366,1,0,0:0:0:0:
144,139,85827,1,0,0:0:0:0:
144,139,86058,1,8,0:0:0:0:
150,132,86289,1,8,0:0:0:0:
144,139,86519,1,0,0:0:0:0:
144,139,86635,1,8,0:0:0:0:
150,132,86866,1,0,0:0:0:0:
150,132,86981,1,8,0:0:0:0:
150,132,87212,1,0,0:0:0:0:
150,132,87673,1,8,0:0:0:0:
150,132,87904,1,8,0:0:0:0:
150,132,88135,1,0,0:0:0:0:
226,90,88596,1,0,0:0:0:0:
226,90,88827,1,8,0:0:0:0:
226,90,89058,1,0,0:0:0:0:
226,90,89519,1,8,0:0:0:0:
226,90,89750,1,0,0:0:0:0:
226,90,89981,1,0,0:0:0:0:
226,90,90212,1,8,0:0:0:0:
226,90,90327,1,0,0:0:0:0:
196,128,90558,1,0,0:0:0:0:
196,128,90673,1,8,0:0:0:0:
196,128,90904,1,0,0:0:0:0:
196,128,91366,1,8,0:0:0:0:
196,128,91596,1,8,0:0:0:0:
196,128,91827,1,0,0:0:0:0:
102,122,92058,1,0,0:0:0:0:
130,33,92173,1,8,0:0:0:0:
130,33,92404,1,8,0:0:0:0:
134,28,92519,1,8,0:0:0:0:
162,93,92750,1,0,0:0:0:0:
162,93,93212,1,0,0:0:0:0:
183,80,93443,1,0,0:0:0:0:
183,80,93673,1,8,0:0:0:0:
194,78,93904,1,8,0:0:0:0:
204,74,94135,1,0,0:0:0:0:
204,74,94366,1,0,0:0:0:0:
204,74,94596,1,8,0:0:0:0:
231,93,95058,1,8,0:0:0:0:
242,76,95289,1,0,0:0:0:0:
242,76,95519,1,8,0:0:0:0:
152,79,95981,1,0,0:0:0:0:
130,99,96212,1,0,0:0:0:0:
135,99,96443,1,8,0:0:0:0:
135,100,96904,1,8,0:0:0:0:
150,91,97135,1,8,0:0:0:0:
149,90,97366,1,0,0:0:0:0:
153,93,97596,1,8,0:0:0:0:
151,93,97827,1,8,0:0:0:0:
157,91,98058,1,0,0:0:0:0:
153,93,98289,1,12,0:0:0:0:
51,137,98750,1,8,0:0:0:0:
64,136,99212,1,8,0:0:0:0:
64,136,99443,1,0,0:0:0:0:
64,136,99673,1,8,0:0:0:0:
64,136,100135,1,0,0:0:0:0:
64,136,100596,1,8,0:0:0:0:
64,136,101058,1,8,0:0:0:0:
64,136,101289,1,0,0:0:0:0:
64,136,101519,1,8,0:0:0:0:
64,136,101981,1,12,0:0:0:0:
64,136,102443,1,8,0:0:0:0:
64,136,102904,1,12,0:0:0:0:
64,136,103135,1,0,0:0:0:0:
185,73,103366,1,8,0:0:0:0:
64,136,103827,1,12,0:0:0:0:
64,136,104289,1,8,0:0:0:0:
64,136,104519,1,0,0:0:0:0:
64,136,104635,1,8,0:0:0:0:
64,136,106135,1,8,0:0:0:0:
107,110,106596,1,0,0:0:0:0:
166,127,106827,1,8,0:0:0:0:
189,114,107058,1,0,0:0:0:0:
189,114,107289,1,0,0:0:0:0:
189,114,107519,1,8,0:0:0:0:
218,111,107981,1,8,0:0:0:0:
218,111,108212,1,8,0:0:0:0:
218,111,108443,1,0,0:0:0:0:
218,111,108673,1,8,0:0:0:0:
120,127,108904,1,0,0:0:0:0:
120,127,109135,1,0,0:0:0:0:
147,125,109366,1,8,0:0:0:0:
147,125,109827,1,0,0:0:0:0:
147,125,110058,1,8,0:0:0:0:
147,125,110289,1,0,0:0:0:0:
147,125,110750,1,8,0:0:0:0:
147,125,110981,1,8,0:0:0:0:
147,125,111212,1,0,0:0:0:0:
147,125,111673,1,0,0:0:0:0:
147,125,111904,1,0,0:0:0:0:
147,125,112135,1,8,0:0:0:0:
147,125,112596,1,8,0:0:0:0:
147,125,112827,1,0,0:0:0:0:
147,125,112943,1,8,0:0:0:0:
147,125,113519,1,0,0:0:0:0:
107,110,113981,1,12,0:0:0:0:
166,127,114212,1,8,0:0:0:0:
189,114,114443,1,0,0:0:0:0:
189,114,114558,1,8,0:0:0:0:
163,97,114789,1,8,0:0:0:0:
189,114,114904,1,0,0:0:0:0:
123,105,115135,1,0,0:0:0:0:
54,123,115366,1,8,0:0:0:0:
218,111,115597,1,8,0:0:0:0:
218,111,115828,1,0,0:0:0:0:
218,111,116058,1,8,0:0:0:0:
218,111,116289,1,0,0:0:0:0:
120,127,116404,1,8,0:0:0:0:
120,127,116635,1,8,0:0:0:0:
147,125,116751,1,0,0:0:0:0:
61,127,117212,1,0,0:0:0:0:
147,125,117443,1,8,0:0:0:0:
147,125,117674,1,8,0:0:0:0:
147,125,117904,1,0,0:0:0:0:
147,125,118135,1,0,0:0:0:0:
147,125,118366,5,8,0:0:0:0:
169,82,118596,1,8,0:0:0:0:
169,82,119058,1,0,0:0:0:0:
129,92,119519,1,12,0:0:0:0:
131,148,119750,1,8,0:0:0:0:
131,148,119981,1,0,0:0:0:0:
256,156,120096,1,8,0:0:0:0:
188,57,120327,1,0,0:0:0:0:
256,156,120443,1,0,0:0:0:0:
159,128,120673,1,0,0:0:0:0:
196,155,120904,1,8,0:0:0:0:
196,155,121135,1,8,0:0:0:0:
196,155,121366,1,0,0:0:0:0:
191,90,121596,1,8,0:0:0:0:
191,90,121827,1,0,0:0:0:0:
191,90,121943,1,8,0:0:0:0:
191,90,122173,1,8,0:0:0:0:
191,90,122289,1,0,0:0:0:0:
191,90,122750,1,0,0:0:0:0:
191,90,122981,1,0,0:0:0:0:
191,90,123212,1,8,0:0:0:0:
191,90,123673,1,8,0:0:0:0:
191,90,123904,1,0,0:0:0:0:
191,90,124135,1,8,0:0:0:0:
137,87,124366,1,0,0:0:0:0:
191,90,124596,1,8,0:0:0:0:
145,90,124712,1,8,0:0:0:0:
191,90,124827,1,8,0:0:0:0:
191,90,125058,1,0,0:0:0:0:
185,148,125519,1,8,0:0:0:0:
199,145,125750,1,8,0:0:0:0:
196,127,125866,1,0,0:0:0:0:
190,132,126443,1,0,0:0:0:0:
190,132,126673,1,8,0:0:0:0:
190,132,126904,1,0,0:0:0:0:
90,110,127135,1,0,0:0:0:0:
196,46,127366,1,8,0:0:0:0:
205,111,127596,1,0,0:0:0:0:
205,111,127827,1,8,0:0:0:0:
83,122,127943,1,8,0:0:0:0:
205,111,128173,1,8,0:0:0:0:
205,111,128289,1,0,0:0:0:0:
205,111,128519,1,8,0:0:0:0:
205,111,128750,1,0,0:0:0:0:
205,111,129212,1,0,0:0:0:0:
205,111,129443,1,0,0:0:0:0:
154,107,129673,1,8,0:0:0:0:
187,99,129789,1,8,0:0:0:0:
187,99,130019,1,8,0:0:0:0:
202,74,130135,1,0,0:0:0:0:
218,110,130366,1,8,0:0:0:0:
218,110,130596,1,0,0:0:0:0:
219,104,131058,1,8,0:0:0:0:
219,104,131289,1,8,0:0:0:0:
219,104,131519,1,0,0:0:0:0:
203,110,131750,1,0,0:0:0:0:
219,104,131981,1,8,0:0:0:0:
219,104,132212,1,8,0:0:0:0:
219,104,132443,1,0,0:0:0:0:
219,104,132673,1,0,0:0:0:0:
219,104,132904,1,8,0:0:0:0:
90,112,133019,1,8,0:0:0:0:
219,104,133135,1,8,0:0:0:0:
81,111,133366,1,0,0:0:0:0:
199,98,134058,1,0,0:0:0:0:
206,107,134289,1,12,0:0:0:0:
199,77,134519,1,0,0:0:0:0:
188,110,134750,1,8,0:0:0:0:
199,77,134981,1,0,0:0:0:0:
199,77,135212,1,8,0:0:0:0:
199,77,135443,1,8,0:0:0:0:
199,77,135558,1,0,0:0:0:0:
199,77,136135,1,8,0:0:0:0:
199,77,136366,1,0,0:0:0:0:
199,77,136596,1,8,0:0:0:0:
199,77,136827,1,0,0:0:0:0:
199,77,137058,1,0,0:0:0:0:
199,77,137289,1,8,0:0:0:0:
199,77,137404,1,0,0:0:0:0:
184,30,137981,1,12,0:0:0:0:
184,30,138212,1,0,0:0:0:0:
154,80,138443,1,8,0:0:0:0:
184,30,138673,1,0,0:0:0:0:
184,30,138904,1,8,0:0:0:0:
184,30,139135,1,8,0:0:0:0:
184,30,139250,1,0,0:0:0:0:
184,30,139481,1,0,0:0:0:0:
184,30,139596,1,0,0:0:0:0:
184,30,139712,1,8,0:0:0:0:
91,129,139943,1,0,0:0:0:0:
184,30,140058,1,0,0:0:0:0:
184,30,140173,1,8,0:0:0:0:
199,77,140519,1,8,0:0:0:0:
184,30,140750,1,8,0:0:0:0:
184,30,140981,1,0,0:0:0:0:
184,30,141212,1,8,0:0:0:0:
184,30,141673,1,12,0:0:0:0:
