osu file format v14

[General]
AudioFilename: audio.mp3
AudioLeadIn: 0
PreviewTime: 3467
Countdown: 0
SampleSet: None
StackLeniency: 0.7
Mode: 3
LetterboxInBreaks: 0
SpecialStyle: 0
WidescreenStoryboard: 1

[Editor]
DistanceSpacing: 1.1
BeatDivisor: 4
GridSize: 4
TimelineZoom: 1

[Metadata]
Title:Nyanko is LOVE !
TitleUnicode:にゃんこ is L♥VE !
Artist:every-ing!
ArtistUnicode:every♥ing!
Creator:SReisen
Version:Normal
Source:にゃんこデイズ
Tags:nyanko days
BeatmapID:1967455
BeatmapSetID:939513

[Difficulty]
HPDrainRate:7
CircleSize:4
OverallDifficulty:7.5
ApproachRate:5
SliderMultiplier:1.4
SliderTickRate:1

[Events]
//Background and Video events
0,0,"bg.jpg",0,0
//Break Periods
//Storyboard Layer 0 (Background)
//Storyboard Layer 1 (Fail)
//Storyboard Layer 2 (Pass)
//Storyboard Layer 3 (Foreground)
//Storyboard Sound Samples

[TimingPoints]
202,408.163265306122,4,2,0,40,1,0
3467,-100,4,2,0,40,0,1
22650,-100,4,2,0,40,0,0

[HitObjects]
320,192,1834,5,8,0:0:0:0:
448,192,1834,1,0,0:0:0:0:
64,192,2038,1,0,0:0:0:0:
192,192,2038,1,8,0:0:0:0:
448,192,2242,1,0,0:0:0:0:
320,192,2242,1,8,0:0:0:0:
192,192,2446,1,8,0:0:0:0:
64,192,2446,1,0,0:0:0:0:
448,192,2650,1,0,0:0:0:0:
320,192,2650,1,8,0:0:0:0:
64,192,3059,1,4,0:0:0:0:
192,192,3059,1,8,0:0:0:0:
448,192,3467,1,2,0:0:0:0:
64,192,3671,1,2,0:0:0:0:
448,192,3875,1,2,0:0:0:0:
64,192,4283,1,0,0:0:0:0:
448,192,4691,1,0,0:0:0:0:
320,192,5099,1,2,0:0:0:0:
192,192,5304,1,2,0:0:0:0:
320,192,5508,1,2,0:0:0:0:
448,192,5916,1,0,0:0:0:0:
320,192,6324,1,0,0:0:0:0:
64,192,6732,1,2,0:0:0:0:
320,192,6936,1,2,0:0:0:0:
64,192,7140,1,2,0:0:0:0:
192,192,7548,1,0,0:0:0:0:
320,192,7957,1,0,0:0:0:0:
64,192,8161,1,0,0:0:0:0:
448,192,8365,1,8,0:0:0:0:
320,192,8365,1,2,0:0:0:0:
192,192,8671,1,2,0:0:0:0:
64,192,8671,1,8,0:0:0:0:
320,192,8977,1,2,0:0:0:0:
448,192,8977,1,8,0:0:0:0:
64,192,9181,1,8,0:0:0:0:
192,192,9181,1,2,0:0:0:0:
448,192,9589,1,8,0:0:0:0:
320,192,9589,1,2,0:0:0:0:
64,192,9997,1,2,0:0:0:0:
448,192,10201,1,2,0:0:0:0:
64,192,10406,1,2,0:0:0:0:
448,192,10814,1,0,0:0:0:0:
320,192,11222,1,0,0:0:0:0:
192,192,11630,1,2,0:0:0:0:
448,192,12038,1,0,0:0:0:0:
64,192,12446,1,2,0:0:0:0:
320,192,12855,1,0,0:0:0:0:
64,192,13263,1,0,0:0:0:0:
448,192,13671,1,0,0:0:0:0:
448,192,14079,1,0,0:0:0:0:
64,192,14487,1,0,0:0:0:0:
64,192,14895,1,0,0:0:0:0:
320,192,15304,1,0,0:0:0:0:
320,192,15712,1,0,0:0:0:0:
64,192,16120,128,0,16528:0:0:0:0:
448,192,16528,1,10,0:0:0:0:
192,192,16732,1,10,0:0:0:0:
448,192,16936,1,10,0:0:0:0:
64,192,17242,1,0,0:0:0:0:
448,192,17446,1,0,0:0:0:0:
448,192,17753,1,0,0:0:0:0:
64,192,17957,1,0,0:0:0:0:
320,192,18161,1,10,0:0:0:0:
192,192,18365,1,10,0:0:0:0:
320,192,18569,1,10,0:0:0:0:
448,192,18875,1,2,0:0:0:0:
320,192,19079,1,2,0:0:0:0:
192,192,19283,1,2,0:0:0:0:
320,192,19589,1,2,0:0:0:0:
64,192,19793,1,10,0:0:0:0:
448,192,19997,1,10,0:0:0:0:
64,192,20201,1,10,0:0:0:0:
320,192,21018,128,0,21426:0:0:0:0:
64,192,21426,1,10,0:0:0:0:
448,192,21732,1,10,0:0:0:0:
192,192,22038,1,10,0:0:0:0:
448,192,22242,1,8,0:0:0:0:
64,192,22242,1,2,0:0:0:0:
448,192,22650,1,8,0:0:0:0:
320,192,22650,1,4,0:0:0:0:
448,192,23059,1,0,0:0:0:0:
320,192,23263,1,0,0:0:0:0:
64,192,23467,1,0,0:0:0:0:
192,192,23671,128,0,24079:0:0:0:0:
448,192,24079,1,0,0:0:0:0:
320,192,24283,1,0,0:0:0:0:
64,192,24487,1,0,0:0:0:0:
448,192,24691,1,0,0:0:0:0:
192,192,24895,1,0,0:0:0:0:
320,192,25099,1,0,0:0:0:0:
448,192,25304,128,0,25712:0:0:0:0:
320,192,25712,1,0,0:0:0:0:
64,192,25916,1,0,0:0:0:0:
448,192,26120,1,0,0:0:0:0:
192,192,26324,1,0,0:0:0:0:
320,192,26528,1,0,0:0:0:0:
192,192,26732,1,0,0:0:0:0:
320,192,26936,128,0,27344:0:0:0:0:
64,192,27344,1,0,0:0:0:0:
192,192,27548,1,0,0:0:0:0:
448,192,27753,1,0,0:0:0:0:
320,192,27957,1,8,0:0:0:0:
192,192,28161,1,8,0:0:0:0:
320,192,28365,1,8,0:0:0:0:
192,192,28569,1,8,0:0:0:0:
448,192,28977,1,0,0:0:0:0:
64,192,29181,128,0,29589:0:0:0:0:
