osu file format v14

[General]
AudioFilename: audio.mp3
AudioLeadIn: 0
PreviewTime: 4643
Countdown: 0
SampleSet: Soft
StackLeniency: 0.3
Mode: 0
LetterboxInBreaks: 0
WidescreenStoryboard: 1

[Editor]
Bookmarks: 4745,4949,5459,5663,5765,5867,15255,16786,17806,18010,18214,18826,19031,20459,20969,21479,22194,22602,22704,23010,23316,23520,24541,24745,24949,26582,26990
DistanceSpacing: 1
BeatDivisor: 4
GridSize: 16
TimelineZoom: 1.9

[Metadata]
Title:Nyanko is LOVE!
TitleUnicode:Nyanko is LOVE!
Artist:every-ing!
ArtistUnicode:every-ing!
Creator:Neppy5000
Version:Nyan
Source:にゃんこデイズ
Tags:Neko, Nyanko Days, にゃんこデイズ, Short
BeatmapID:1786400
BeatmapSetID:851394

[Difficulty]
HPDrainRate:6
CircleSize:4.5
OverallDifficulty:6
ApproachRate:8
SliderMultiplier:1.5
SliderTickRate:1

[Events]
//Background and Video events
0,0,"DBBtZLU.jpg",0,0
//Break Periods
//Storyboard Layer 0 (Background)
//Storyboard Layer 1 (Fail)
//Storyboard Layer 2 (Pass)
//Storyboard Layer 3 (Foreground)
//Storyboard Sound Samples

[TimingPoints]
1480,408.163265306122,4,2,2,70,1,0
4745,-57.1428571428571,4,2,2,70,0,0
12908,-113.636363636364,4,2,2,70,0,0
14439,-77.5193798449612,4,2,2,70,0,0
15357,-66.6666666666667,4,2,2,70,0,0
17806,-80,4,2,2,70,0,0
18826,-66.6666666666667,4,2,2,70,0,0
22194,-50,4,2,2,70,0,0
22704,-57.1428571428571,4,2,2,70,0,0
24337,-57.1428571428571,4,2,2,70,0,0

[Colours]
Combo1 : 255,243,13
Combo2 : 255,128,0
Combo3 : 2,23,172
Combo4 : 197,244,132
Combo5 : 242,30,109

[HitObjects]
288,160,1480,5,8,0:0:0:0:
224,224,1684,1,8,0:0:0:0:
288,160,1888,1,8,0:0:0:0:
224,160,2296,5,8,0:0:0:0:
288,224,2500,1,8,0:0:0:0:
224,160,2704,1,8,0:0:0:0:
304,144,3112,5,8,0:0:0:0:
208,240,3316,1,8,0:0:0:0:
208,144,3520,5,8,0:0:0:0:
304,240,3724,1,8,0:0:0:0:
256,192,3928,5,12,0:0:0:0:
105,80,4745,5,8,0:0:0:0:
105,80,4949,2,0,P|160:103|180:150,1,65.6250006258488
112,148,5153,1,8,0:0:0:0:
296,79,5459,1,8,0:0:0:0:
246,200,5663,1,0,0:0:0:0:
246,200,5765,1,0,0:0:0:0:
368,231,5969,1,8,0:0:0:0:
277,325,6173,1,0,0:0:0:0:
147,348,6377,5,8,0:0:0:0:
147,348,6581,2,0,P|202:325|222:278,1,65.6250006258488
154,280,6785,1,8,0:0:0:0:
208,152,7092,1,8,0:0:0:0:
104,72,7296,1,0,0:0:0:0:
104,72,7398,1,0,0:0:0:0:
99,202,7602,1,8,0:0:0:0:
407,80,8010,5,8,0:0:0:0:
407,80,8214,2,0,P|352:103|332:150,1,65.6250006258488
400,148,8418,1,8,0:0:0:0:
215,79,8724,1,8,0:0:0:0:
266,201,8928,1,0,0:0:0:0:
266,201,9030,1,0,0:0:0:0:
144,232,9234,1,8,0:0:0:0:
235,326,9438,1,0,0:0:0:0:
235,326,9643,5,8,0:0:0:0:
144,232,9949,1,8,0:0:0:0:
266,201,10255,1,8,0:0:0:0:
266,201,10459,1,8,0:0:0:0:
480,192,10867,1,12,0:0:0:0:
365,348,11275,5,8,0:0:0:0:
365,348,11479,2,0,P|310:325|290:278,1,65.6250006258488
358,280,11683,1,8,0:0:0:0:
154,280,11990,1,8,0:0:0:0:
204,159,12194,1,0,0:0:0:0:
204,159,12296,1,0,0:0:0:0:
82,128,12500,1,8,0:0:0:0:
173,34,12704,1,0,0:0:0:0:
143,112,12908,6,0,P|175:118|208:144,1,66.0000020141602
335,238,13316,54,0,P|303:232|272:208,1,66.0000020141602
367,111,13724,38,0,P|335:118|304:144,1,66.0000020141602
174,238,14133,54,0,P|206:232|240:208,1,66.0000020141602
112,160,14541,22,0,B|192:256|256:192|256:192|320:256|400:160,1,338.625005167008
258,302,15561,1,0,0:0:0:0:
150,231,15765,1,0,0:0:0:0:
261,171,15969,1,0,0:0:0:0:
167,108,16173,2,0,P|219:65|294:83,1,112.500004291535,0|8,0:0|0:0,0:0:0:0:
366,107,16582,2,0,P|430:126|492:80,1,112.500004291535,0|8,0:0|0:0,0:0:0:0:
418,60,16990,1,8,0:0:0:0:
233,131,17398,1,8,0:0:0:0:
216,355,17806,5,8,0:0:0:0:
308,262,18010,1,8,0:0:0:0:
186,230,18214,1,8,0:0:0:0:
296,29,18826,1,0,0:0:0:0:
326,154,19031,1,0,0:0:0:0:
296,29,19439,5,8,0:0:0:0:
204,122,19643,1,8,0:0:0:0:
326,154,19847,1,8,0:0:0:0:
48,196,20357,2,0,B|143:164|155:235|265:200|328:176,1,281.250010728836
372,78,21071,5,8,0:0:0:0:
147,77,21479,2,0,P|115:133|117:187,1,112.500004291535
78,259,22194,2,0,B|165:199|165:199|181:209|181:209|273:137|273:137|269:122|269:122|316:84,1,300
354,55,22704,5,8,0:0:0:0:
304,177,23010,1,8,0:0:0:0:
195,112,23316,1,8,0:0:0:0:
193,243,23520,1,8,0:0:0:0:
71,192,24337,5,0,0:0:0:0:
193,243,24541,1,0,0:0:0:0:
224,121,24745,1,0,0:0:0:0:
318,212,24949,1,0,0:0:0:0:
247,59,25357,1,0,0:0:0:0:
196,181,25561,1,0,0:0:0:0:
318,212,25765,1,0,0:0:0:0:
227,306,25969,5,0,0:0:0:0:
227,306,26173,1,0,0:0:0:0:
318,212,26377,2,0,P|283:125|205:114,1,131.250001251698
162,205,26786,2,0,P|197:292|275:303,1,131.250001251698
408,115,27602,5,0,0:0:0:0:
285,63,27806,1,0,0:0:0:0:
255,186,28010,1,0,0:0:0:0:
160,95,28214,1,0,0:0:0:0:
160,95,28622,1,0,0:0:0:0:
255,186,28826,1,0,0:0:0:0:
285,63,29030,1,0,0:0:0:0:
160,95,29235,5,0,0:0:0:0:
160,95,29439,1,0,0:0:0:0:
68,188,29643,2,0,P|103:275|181:286,1,131.250001251698
224,195,30052,2,0,P|189:108|111:97,1,131.250001251698
224,195,30867,6,0,P|214:101|142:69,1,131.250001251698
224,195,31684,2,0,P|238:102|177:52,1,131.250001251698
224,195,32092,2,0,P|251:105|197:47,1,131.250001251698
224,195,32500,6,0,P|263:110|218:45,1,131.250001251698
125,53,32908,5,0,0:0:0:0:
97,86,33010,1,0,0:0:0:0:
89,129,33112,1,0,0:0:0:0:
103,170,33214,1,0,0:0:0:0:
