osu file format v14

[General]
AudioFilename: audio.mp3
AudioLeadIn: 0
PreviewTime: 52664
Countdown: 0
SampleSet: Soft
StackLeniency: 0.3
Mode: 0
LetterboxInBreaks: 0
WidescreenStoryboard: 1

[Editor]
Bookmarks: 30632
DistanceSpacing: 0.8
BeatDivisor: 4
GridSize: 4
TimelineZoom: 1.4

[Metadata]
Title:Paradigm (TV Size)
TitleUnicode:パラダイム(TV Size)
Artist:eufonius
ArtistUnicode:eufonius
Creator:Civil oath
Version:Practice
Source:
Tags:opening kokoro connect
BeatmapID:1599441
BeatmapSetID:760501

[Difficulty]
HPDrainRate:6
CircleSize:4
OverallDifficulty:6.5
ApproachRate:8.5
SliderMultiplier:1.57
SliderTickRate:1

[Events]
//Background and Video events
0,0,"Kokoro.Connect..jpg",0,0
Video,0,"Video.avi"
//Break Periods
//Storyboard Layer 0 (Background)
//Storyboard Layer 1 (Fail)
//Storyboard Layer 2 (Pass)
//Storyboard Layer 3 (Foreground)
//Storyboard Sound Samples

[TimingPoints]
169,375,4,2,2,70,1,0
262,-100,4,2,1,70,0,0
1106,-100,4,1,1,70,0,0
1294,-100,4,1,1,70,0,0
1387,-100,4,2,1,70,0,0
2231,-100,4,1,1,70,0,0
2419,-100,4,2,1,70,0,0
2606,-100,4,1,1,70,0,0
2794,-100,4,1,1,30,0,0
3169,-100,4,1,2,70,0,0
3356,-100,4,2,1,70,0,0
3544,-100,4,2,2,70,0,0
3637,-100,4,2,1,70,0,0
3919,-100,4,2,1,30,0,0
4106,-100,4,2,1,35,0,0
4294,-100,4,2,1,30,0,0
4481,-125,4,2,2,70,0,0
5044,-100,4,1,1,70,0,0
5137,-100,4,2,1,70,0,0
5325,-100,4,1,1,70,0,0
5419,-100,4,2,1,70,0,0
5887,-100,4,1,2,50,0,0
6169,-100,4,2,2,70,0,1
6262,-100,4,2,2,70,0,0
6919,-100,4,1,1,50,0,0
7294,-100,4,2,2,70,0,0
7669,-100,4,1,1,40,0,0
7762,-100,4,2,2,70,0,0
8231,-100,4,1,1,50,0,0
8419,-100,4,2,2,35,0,0
8606,-100,4,1,1,50,0,0
8794,-100,4,2,2,70,0,0
9169,-100,4,1,1,50,0,0
9262,-100,4,2,2,70,0,0
9731,-100,4,1,1,50,0,0
10294,-100,4,2,2,70,0,0
10669,-100,4,1,1,25,0,0
10856,-100,4,2,2,70,0,0
11794,-100,4,2,2,40,0,0
12075,-100,4,2,2,70,0,0
13106,-100,4,1,1,60,0,0
13294,-100,4,2,2,70,0,0
13481,-200,4,2,2,70,0,0
13575,-200,4,2,2,5,0,0
14231,-133.333333333333,4,1,1,35,0,0
15169,-117.647058823529,4,1,2,50,0,0
15262,-117.647058823529,4,2,1,50,0,0
16669,-117.647058823529,4,1,1,50,0,0
16762,-117.647058823529,4,2,1,50,0,0
17231,-117.647058823529,4,1,1,50,0,0
17419,-117.647058823529,4,2,1,50,0,0
17606,-117.647058823529,4,1,1,50,0,0
17794,-117.647058823529,4,2,1,50,0,0
18169,-117.647058823529,4,1,1,50,0,0
18262,-117.647058823529,4,2,1,50,0,0
19106,-117.647058823529,4,1,1,50,0,0
19294,-117.647058823529,4,2,1,50,0,0
19669,-117.647058823529,4,1,1,50,0,0
20044,-117.647058823529,4,2,1,50,0,0
20231,-117.647058823529,4,1,1,50,0,0
20794,-117.647058823529,4,2,1,50,0,0
21075,-117.647058823529,4,2,1,5,0,0
21169,-117.647058823529,4,1,1,50,0,0
21262,-117.647058823529,4,2,1,50,0,0
22106,-117.647058823529,4,1,1,50,0,0
22294,-117.647058823529,4,2,1,50,0,0
22575,-117.647058823529,4,2,1,5,0,0
22669,-117.647058823529,4,1,1,50,0,0
23044,-117.647058823529,4,2,1,50,0,0
23231,-117.647058823529,4,1,1,50,0,0
23419,-117.647058823529,4,2,1,50,0,0
23606,-117.647058823529,4,1,1,50,0,0
23794,-117.647058823529,4,2,1,50,0,0
24169,-117.647058823529,4,1,1,50,0,0
24262,-117.647058823529,4,2,1,50,0,0
25106,-117.647058823529,4,1,1,50,0,0
25294,-117.647058823529,4,2,1,50,0,0
25669,-117.647058823529,4,1,1,50,0,0
25950,-117.647058823529,4,2,1,5,0,0
26044,-117.647058823529,4,2,1,50,0,0
26231,-117.647058823529,4,1,1,50,0,0
26419,-117.647058823529,4,2,1,50,0,0
26606,-117.647058823529,4,1,1,50,0,0
26700,-117.647058823529,4,2,1,50,0,0
27169,-117.647058823529,4,1,1,50,0,0
27450,-117.647058823529,4,2,1,5,0,0
27544,-117.647058823529,4,2,1,50,0,0
28106,-117.647058823529,4,1,1,50,0,0
28294,-117.647058823529,4,2,1,50,0,0
28669,-117.647058823529,4,1,1,50,0,0
28762,-117.647058823529,4,2,1,50,0,0
29231,-117.647058823529,4,1,1,50,0,0
29794,-117.647058823529,4,2,1,50,0,0
30169,-117.647058823529,4,1,1,50,0,0
30262,-117.647058823529,4,2,1,50,0,0
30731,-117.647058823529,4,1,1,50,0,0
31106,-117.647058823529,4,2,1,50,0,0
31294,-117.647058823529,4,2,1,50,0,0
31669,-117.647058823529,4,1,1,50,0,0
31762,-117.647058823529,4,2,1,50,0,0
32231,-117.647058823529,4,1,1,50,0,0
32419,-117.647058823529,4,2,1,50,0,0
32606,-117.647058823529,4,1,1,50,0,0
32794,-117.647058823529,4,2,1,50,0,0
33169,-117.647058823529,4,1,1,50,0,0
33262,-117.647058823529,4,2,1,50,0,0
34106,-117.647058823529,4,1,1,50,0,0
34200,-117.647058823529,4,2,1,50,0,0
34669,-117.647058823529,4,1,1,50,0,0
34762,-117.647058823529,4,2,1,50,0,0
35231,-117.647058823529,4,1,1,50,0,0
35794,-117.647058823529,4,2,1,50,0,0
36169,-117.647058823529,4,1,1,50,0,0
36450,-117.647058823529,4,2,1,5,0,0
36544,-117.647058823529,4,2,1,50,0,0
37106,-117.647058823529,4,1,1,50,0,0
37294,-117.647058823529,4,2,1,50,0,0
37481,-100,4,1,1,40,0,0
38606,-100,4,2,1,70,0,0
38794,-142.857142857143,4,2,1,70,0,0
39075,-133.333333333333,4,2,1,5,0,0
39169,-111.111111111111,4,2,2,80,0,0
39262,-111.111111111111,4,2,1,60,0,0
40106,-111.111111111111,4,1,1,50,0,0
40294,-111.111111111111,4,2,1,60,0,0
40669,-111.111111111111,4,1,1,50,0,0
40762,-111.111111111111,4,2,1,60,0,0
41231,-111.111111111111,4,1,1,50,0,0
41419,-111.111111111111,4,2,1,60,0,0
41606,-111.111111111111,4,1,1,50,0,0
41794,-111.111111111111,4,2,1,60,0,0
42169,-111.111111111111,4,1,1,50,0,0
42544,-111.111111111111,4,2,1,60,0,0
43669,-111.111111111111,4,1,1,50,0,0
44044,-111.111111111111,4,2,1,60,0,0
44231,-111.111111111111,4,1,1,50,0,0
44419,-111.111111111111,4,2,1,60,0,0
44606,-111.111111111111,4,1,1,50,0,0
44794,-111.111111111111,4,2,1,60,0,0
44981,-111.111111111111,4,2,1,60,0,0
45169,-111.111111111111,4,1,1,50,0,0
45544,-111.111111111111,4,2,1,60,0,0
46106,-111.111111111111,4,1,1,50,0,0
46294,-111.111111111111,4,2,1,60,0,0
46669,-111.111111111111,4,1,1,50,0,0
47044,-111.111111111111,4,2,1,60,0,0
47419,-111.111111111111,4,1,1,50,0,0
47794,-111.111111111111,4,2,2,60,0,0
47981,-100,4,2,1,60,0,0
48356,-111.111111111111,4,1,1,50,0,0
48544,-100,4,1,2,45,0,0
48637,-100,4,2,1,60,0,0
49106,-100,4,1,1,50,0,0
49294,-117.647058823529,4,2,2,60,0,0
49669,-100,4,1,1,50,0,0
50044,-117.647058823529,4,2,2,60,0,0
50606,-117.647058823529,4,1,1,50,0,0
50700,-100,4,2,2,60,0,0
51356,-100,4,1,1,50,0,0
51450,-100,4,2,2,60,0,0
52106,-100,4,1,1,50,0,0
52200,-100,4,2,2,60,0,0
52669,-100,4,1,1,50,0,0
52762,-100,4,2,2,50,0,0
53419,-100,4,2,2,40,0,0
53606,-100,4,1,1,50,0,0
53794,-100,4,2,2,40,0,0
54169,-100,4,2,2,70,0,1
54731,-125,4,1,1,55,0,1
55294,-100,4,2,2,70,0,1
55669,-125,4,1,1,55,0,1
55856,-100,4,2,2,70,0,1
56231,-100,4,1,1,55,0,1
56794,-100,4,2,2,70,0,1
57169,-100,4,1,1,55,0,1
57356,-100,4,2,2,70,0,1
58106,-100,4,1,1,55,0,1
58294,-100,4,2,2,70,0,1
58669,-100,4,1,1,55,0,1
58856,-100,4,2,2,70,0,1
59231,-100,4,1,1,55,0,1
59325,-100,4,2,2,70,0,1
60169,-100,4,1,1,55,0,1
60356,-100,4,2,2,70,0,1
60731,-125,4,1,1,55,0,1
61294,-100,4,2,2,70,0,1
61669,-100,4,2,2,45,0,1
61762,-100,4,2,2,70,0,1
62231,-125,4,1,2,55,0,1
62606,-125,4,1,1,55,0,1
62794,-100,4,2,2,70,0,1
63169,-125,4,1,1,55,0,1
63356,-100,4,2,2,70,0,1
64106,-100,4,1,1,55,0,1
64294,-100,4,2,2,70,0,1
65512,-100,4,2,2,5,0,1
65606,-100,4,2,2,55,0,0
65794,-100,4,2,2,55,0,0
65887,-100,4,2,2,45,0,0
65981,-100,4,2,2,55,0,0
66075,-100,4,2,2,40,0,0
66169,-100,4,2,2,70,0,1
66731,-125,4,1,1,55,0,1
67294,-100,4,2,2,70,0,1
67669,-125,4,1,1,55,0,1
67856,-100,4,2,2,70,0,1
68231,-125,4,1,1,55,0,1
68794,-100,4,2,2,70,0,1
69169,-100,4,1,1,55,0,1
69356,-100,4,2,2,70,0,1
70106,-100,4,1,1,55,0,1
70294,-100,4,2,2,70,0,1
70669,-100,4,1,1,55,0,1
70856,-100,4,2,2,70,0,1
71231,-111.111111111111,4,2,2,70,0,1
71606,-100,4,1,1,55,0,1
71794,-100,4,2,2,40,0,1
71981,-100,4,2,2,70,0,1
72731,-125,4,2,2,70,0,1
73106,-100,4,2,2,65,0,1
73481,-100,4,1,1,55,0,1
73669,-100,4,2,2,70,0,1
74231,-125,4,2,2,70,0,1
74606,-100,4,1,1,55,0,1
74794,-100,4,2,2,70,0,1
74981,-100,4,2,2,45,0,1
75169,-100,4,2,2,70,0,1
75731,-100,4,1,1,55,0,1
75919,-100,4,2,2,70,0,1
76106,-100,4,1,1,55,0,1
76294,-100,4,2,2,70,0,1
76669,-100,4,1,1,55,0,1
77044,-100,4,2,2,70,0,1
77137,-100,4,1,1,55,0,1
77606,-100,4,2,2,70,0,1
78075,-100,4,2,2,70,0,0
78169,-100,4,2,2,70,0,1
78262,-100,4,2,2,60,0,0
78919,-100,4,1,1,50,0,0
79294,-100,4,2,2,65,0,0
80606,-100,4,1,1,50,0,0
80794,-100,4,2,2,65,0,0
81919,-100,4,1,2,50,0,0
82294,-100,4,2,2,65,0,0
82856,-100,4,1,1,50,0,0
83044,-100,4,2,2,65,0,0
83419,-100,4,1,1,50,0,0
83606,-100,4,2,2,65,0,0
83794,-100,4,2,2,50,0,0
83981,-100,4,1,2,50,0,0
84075,-100,4,2,2,65,0,0
84731,-125,4,2,2,65,0,0
85106,-125,4,1,1,45,0,0
85294,-100,4,2,2,65,0,0
85481,-125,4,2,2,65,0,0
85856,-125,4,1,1,45,0,0
86044,-100,4,2,2,65,0,0
86981,-100,4,2,2,70,0,1
87075,-100,4,2,2,5,0,0

[Colours]
Combo1 : 171,84,84
Combo2 : 255,140,85
Combo3 : 255,255,64
Combo4 : 0,107,159

[HitObjects]
91,298,169,6,0,P|124:317|163:318,1,78.5
173,158,544,1,0,0:0:0:0:
147,237,731,1,0,0:0:0:0:
163,318,919,1,0,0:0:0:0:
226,264,1106,1,0,0:0:0:0:
147,237,1294,1,0,0:0:0:0:
242,344,1481,6,0,P|300:296|295:220,1,157
224,102,2044,2,0,L|221:180,1,78.5
163,318,2419,1,0,0:0:0:0:
147,237,2606,1,0,0:0:0:0:
242,344,2794,2,0,L|320:346,1,78.5
452,275,3169,6,0,P|418:294|380:295,1,78.5
338,157,3544,1,0,0:0:0:0:
398,214,3731,1,0,0:0:0:0:
380,295,3919,1,0,0:0:0:0:
318,238,4106,1,0,0:0:0:0:
398,214,4294,1,0,0:0:0:0:
298,317,4481,6,0,P|248:283|238:223,1,125.6
269,88,5044,2,0,P|288:121|288:160,1,78.5
152,237,5419,1,0,0:0:0:0:
238,223,5606,1,0,0:0:0:0:
102,299,5794,1,0,0:0:0:0:
287,160,5981,1,0,0:0:0:0:
206,296,6169,6,0,B|244:295|280:314|280:314|283:270|317:247,2,157
363,317,7106,1,0,0:0:0:0:
276,183,7294,2,0,P|314:170|352:179,1,78.5
489,116,7669,6,0,P|452:128|414:120,1,78.5
327,98,8044,1,0,0:0:0:0:
110,98,8231,2,0,P|169:51|241:75,1,157
178,290,8794,1,0,0:0:0:0:
174,261,8887,1,0,0:0:0:0:
170,232,8981,1,0,0:0:0:0:
166,203,9075,1,0,0:0:0:0:
161,173,9169,6,0,B|120:196|85:185|85:185|88:229|56:256,2,157
4,193,10106,1,0,0:0:0:0:
210,116,10294,2,0,P|232:149|234:188,1,78.5
329,318,10669,6,0,P|307:285|305:246,1,78.5
321,156,11044,1,0,0:0:0:0:
218,277,11231,2,0,P|142:273|97:334,1,157
120,202,11794,2,0,P|142:169|144:130,1,78.5
329,318,12169,5,0,0:0:0:0:
177,348,12356,1,0,0:0:0:0:
391,235,12544,5,0,0:0:0:0:
239,265,12731,1,0,0:0:0:0:
302,183,12919,5,0,0:0:0:0:
150,213,13106,1,0,0:0:0:0:
364,100,13294,5,0,0:0:0:0:
211,129,13481,2,0,P|157:110|100:120,1,117.75
48,212,14231,6,0,L|58:329,1,117.750004491806
239,265,14794,1,0,0:0:0:0:
239,265,15169,6,0,L|305:259,1,66.7250012726784
363,323,15544,2,0,P|428:313|478:354,2,133.450002545357
305,258,16481,1,0,0:0:0:0:
277,340,16669,6,0,L|144:352,1,133.450002545357
60,316,17231,2,0,B|94:274|94:274|172:265,1,133.450002545357
200,182,17794,1,0,0:0:0:0:
363,193,18169,6,0,P|428:203|478:162,2,133.450002545357
222,231,19106,1,0,0:0:0:0:
305,258,19294,1,0,0:0:0:0:
287,173,19481,6,0,L|273:107,1,66.7250012726784
426,93,20044,1,0,0:0:0:0:
304,257,20231,2,0,P|357:221|370:157,1,133.450002545357
344,75,20794,1,0,0:0:0:0:
277,340,21169,6,0,L|144:352,1,133.450002545357
20,270,21731,2,0,P|82:291|139:261,1,133.450002545357
201,201,22294,1,0,0:0:0:0:
118,177,22481,1,0,0:0:0:0:
221,284,22669,6,0,L|354:272,1,133.450002545357
440,265,23231,1,0,0:0:0:0:
486,185,23419,2,0,P|428:156|410:94,1,133.450002545357
313,106,24169,6,0,L|181:84,1,133.450002545357
99,55,24731,2,0,P|101:120|147:165,1,133.450002545357
166,0,25294,1,0,0:0:0:0:
235,170,25481,6,0,P|226:203|206:229,1,66.7250012726784
147,165,25856,1,0,0:0:0:0:
245,292,26044,2,0,P|289:238|308:173,1,133.450002545357
277,112,26606,1,0,0:0:0:0:
147,165,26794,1,0,0:0:0:0:
348,117,26981,1,0,0:0:0:0:
232,372,27169,6,0,P|177:339|164:275,1,133.450002545357
91,206,27731,2,0,L|224:193,1,133.450002545357
279,260,28294,2,0,P|311:254|344:262,1,66.7250012726784
424,293,28669,6,0,P|460:240|447:176,1,133.450002545357
396,105,29231,1,0,0:0:0:0:
347,32,29419,2,0,P|413:18|466:53,1,133.450002545357
307,110,30169,6,0,P|241:124|188:88,1,133.450002545357
11,151,30731,2,0,L|144:164,1,133.450002545357
231,165,31294,1,0,0:0:0:0:
396,105,31669,6,0,L|383:238,1,133.450002545357
375,323,32231,2,0,P|408:320|442:299,1,66.7250012726784
305,273,32606,2,0,P|272:275|238:297,1,66.7250012726784
383,237,32981,1,0,0:0:0:0:
170,342,33169,6,0,P|109:350|57:300,1,133.450002545357
243,291,33731,2,0,P|258:321|257:354,1,66.7250012726784
163,254,34106,2,0,L|150:121,1,133.450002545357
64,133,34669,6,0,P|95:190|158:209,1,133.450002545357
237,110,35231,2,0,P|206:53|143:34,1,133.450002545357
304,158,35794,2,0,P|318:127|317:94,1,66.7250012726784
229,192,36169,6,0,L|242:325,1,133.450002545357
443,351,36731,2,0,P|389:316|325:331,1,133.450002545357
512,297,37294,1,0,0:0:0:0:
383,237,37481,1,0,0:0:0:0:
499,156,37856,5,0,0:0:0:0:
383,237,38231,5,0,0:0:0:0:
370,96,38606,5,0,0:0:0:0:
466,233,38794,2,0,P|463:263|449:290,1,54.9499983230591
291,265,39169,6,0,P|295:196|345:147,1,141.299995687866
457,76,39731,2,0,P|389:86|326:45,1,141.299995687866
344,147,40294,1,0,0:0:0:0:
251,110,40481,1,0,0:0:0:0:
182,49,40669,6,0,L|42:70,1,141.299995687866
125,149,41231,1,0,0:0:0:0:
72,232,41419,2,0,P|140:246|200:211,1,141.299995687866
125,149,41981,1,0,0:0:0:0:
268,178,42169,6,0,L|250:109,1,70.6499978439332,0|0,2:0|2:0,2:0:0:0:
178,294,42544,2,0,L|196:363,1,70.6499978439332
389,291,42919,2,0,P|329:256|262:271,1,141.299995687866
315,354,43481,1,0,0:0:0:0:
464,351,43669,6,0,P|480:269|446:216,1,141.299995687866
350,164,44231,2,0,L|490:143,1,141.299995687866
385,293,44794,1,0,0:0:0:0:
256,259,44981,1,0,0:0:0:0:
189,144,45169,6,0,P|132:184|66:168,1,141.299995687866
83,279,45731,2,0,L|221:251,1,141.299995687866
119,104,46294,2,0,P|87:87|53:86,1,70.6499978439332
269,178,46669,6,0,P|324:139|391:154,1,141.299995687866
465,205,47231,1,0,0:0:0:0:
369,358,47419,2,0,L|341:220,1,141.299995687866
141,268,47981,6,0,P|195:329|270:317,1,157
340,219,48544,1,0,0:0:0:0:
221,250,48731,1,0,0:0:0:0:
356,301,48919,2,0,P|392:285|415:253,1,78.5
166,190,49294,1,0,0:0:0:0:
182,323,49481,1,0,0:0:0:0:
220,128,49669,6,0,P|186:109|147:109,1,78.5
246,205,50044,2,0,L|311:191,1,66.7250012726784
166,190,50419,2,0,L|152:255,1,66.7250012726784
298,102,50794,1,0,0:0:0:0:
320,273,50981,6,0,P|383:231|385:155,1,157
387,52,51544,1,0,0:0:0:0:
245,241,51731,2,0,P|249:316|314:356,1,157
416,356,52294,1,0,0:0:0:0:
311,190,52481,1,0,0:0:0:0:
163,230,52669,6,0,L|124:221,3,39.25
19,158,53044,2,0,L|58:150,3,39.25
153,128,53419,1,0,0:0:0:0:
57,293,53606,1,0,0:0:0:0:
86,56,53794,1,0,0:0:0:0:
163,230,53981,1,0,0:0:0:0:
225,62,54169,6,0,L|302:77,1,78.5
387,95,54544,1,0,0:0:0:0:
379,181,54731,2,0,P|438:163|471:111,1,125.6
314,236,55294,2,0,L|237:252,1,78.5
387,95,55669,5,0,0:0:0:0:
397,267,55856,1,0,0:0:0:0:
298,151,56044,1,0,0:0:0:0:
481,252,56231,2,0,P|460:325|389:353,1,157
319,304,56794,1,0,0:0:0:0:
397,267,56981,1,0,0:0:0:0:
233,288,57169,6,0,L|156:304,1,78.5
27,226,57544,2,0,P|79:280|64:356,1,157
2,304,58106,1,0,0:0:0:0:
156,303,58294,2,0,P|152:265|137:228,1,78.5
207,362,58669,5,0,0:0:0:0:
153,153,58856,2,0,P|115:152|83:174,1,78.5
28,128,59231,2,0,P|90:83|167:82,1,157
17,200,59794,1,0,0:0:0:0:
221,129,59981,1,0,0:0:0:0:
256,293,60169,6,0,L|240:216,1,78.5
285,69,60544,1,0,0:0:0:0:
355,228,60731,2,0,P|295:242|240:216,1,125.6
221,129,61294,1,0,0:0:0:0:
305,155,61481,1,0,0:0:0:0:
404,301,61669,6,0,P|430:271|442:234,1,78.5
404,155,62044,1,0,0:0:0:0:
231,203,62231,2,0,L|354:227,1,125.6
404,301,62794,1,0,0:0:0:0:
491,160,62981,1,0,0:0:0:0:
315,306,63169,6,0,L|253:293,1,62.8
473,371,63544,2,0,P|502:299|472:229,1,157
387,78,64106,2,0,L|403:154,1,78.5
503,132,64481,1,0,0:0:0:0:
372,251,64669,5,0,0:0:0:0:
343,257,64762,1,0,0:0:0:0:
314,263,64856,1,0,0:0:0:0:
285,269,64950,2,0,L|246:277,2,39.25
168,341,65231,2,0,P|109:295|36:318,1,157
94,376,65794,1,0,0:0:0:0:
30,229,65981,1,0,0:0:0:0:
189,247,66169,6,0,L|174:170,1,78.5
157,86,66544,1,0,0:0:0:0:
93,143,66731,2,0,P|71:85|95:26,1,125.6
236,111,67294,2,0,P|268:132|307:135,1,78.5
173,169,67669,5,0,0:0:0:0:
294,56,67856,1,0,0:0:0:0:
102,106,68044,1,0,0:0:0:0:
258,209,68231,2,0,P|215:254|154:262,1,125.6
83,199,68794,1,0,0:0:0:0:
173,169,68981,1,0,0:0:0:0:
63,291,69169,6,0,P|82:326|114:348,1,78.5
308,230,69544,2,0,L|154:261,1,157
208,339,70106,1,0,0:0:0:0:
173,167,70294,2,0,L|250:152,1,78.5
154,260,70669,5,0,0:0:0:0:
364,307,70856,2,0,L|287:323,1,78.5
452,351,71231,2,0,P|458:281|419:224,1,141.299995687866
305,141,71794,1,0,0:0:0:0:
364,307,71981,1,0,0:0:0:0:
401,123,72169,6,0,P|440:123|481:144,1,78.5
419,224,72544,1,0,0:0:0:0:
337,47,72731,2,0,P|278:61|225:30,1,125.6
140,74,73294,1,0,0:0:0:0:
220,125,73481,1,0,0:0:0:0:
130,246,73669,6,0,L|135:168,1,78.5
220,125,74044,1,0,0:0:0:0:
205,278,74231,2,0,P|151:325|97:320,1,125.6
49,258,74794,1,0,0:0:0:0:
273,321,74981,1,0,0:0:0:0:
273,321,75075,1,0,0:0:0:0:
273,321,75169,6,0,P|348:311|406:360,1,157
198,352,75731,2,0,P|191:314|204:278,1,78.5
281,164,76106,2,0,P|287:202|275:239,1,78.5
136,236,76481,1,0,0:0:0:0:
338,272,76669,6,0,P|360:198|341:123,2,157
207,196,77606,1,0,0:0:0:0:
382,53,77794,1,0,0:0:0:0:
417,262,77981,1,0,0:0:0:0:
417,262,78075,1,0,0:0:0:0:
417,262,78169,6,0,P|390:333|316:350,1,157
232,217,78731,1,0,0:0:0:0:
338,272,78919,1,0,0:0:0:0:
237,337,79106,1,0,0:0:0:0:
310,195,79294,1,0,0:0:0:0:
179,279,79481,6,0,P|150:208|194:145,1,157
158,359,80044,2,0,L|65:384,1,78.5
338,272,80419,1,0,0:0:0:0:
301,365,80606,1,0,0:0:0:0:
232,217,80794,1,0,0:0:0:0:
54,196,80981,6,0,B|111:204|158:184|158:184|167:163|191:146,1,157
275,148,81544,1,0,0:0:0:0:
168,73,81731,1,0,0:0:0:0:
84,274,81919,2,0,P|123:271|161:262,1,78.5
248,73,82294,1,0,0:0:0:0:
257,235,82481,6,0,P|331:216|363:146,1,157
421,24,83044,1,0,0:0:0:0:
275,148,83231,1,0,0:0:0:0:
332,297,83419,2,0,P|368:279|395:252,1,78.5
191,175,83794,1,0,0:0:0:0:
239,322,83981,1,0,0:0:0:0:
239,322,84075,1,0,0:0:0:0:
239,322,84169,5,0,0:0:0:0:
275,148,84356,1,0,0:0:0:0:
107,204,84544,1,0,0:0:0:0:
235,72,84731,2,0,P|296:65|346:101,1,125.6
351,187,85294,1,0,0:0:0:0:
250,271,85481,6,0,L|274:148,1,125.6
270,61,86044,1,0,0:0:0:0:
201,194,86231,1,0,0:0:0:0:
201,194,86325,1,0,0:0:0:0:
201,194,86419,6,0,P|227:222|263:235,1,78.5
348,101,86794,2,0,P|321:72|285:59,1,78.5
