osu file format v14

[General]
AudioFilename: audio.mp3
AudioLeadIn: 0
PreviewTime: 245144
Countdown: 0
SampleSet: Soft
StackLeniency: 0.3
Mode: 0
LetterboxInBreaks: 0
WidescreenStoryboard: 0

[Editor]
Bookmarks: 88769,145207
DistanceSpacing: 1.1
BeatDivisor: 4
GridSize: 16
TimelineZoom: 4.400003

[Metadata]
Title:Paradigm
TitleUnicode:Paradigm
Artist:eufonius
ArtistUnicode:eufonius
Creator:Dubturt
Version:Connect
Source:ココロコネクト
Tags:kokoro connect hearts connect full op
BeatmapID:1393776
BeatmapSetID:658046

[Difficulty]
HPDrainRate:5
CircleSize:3.7
OverallDifficulty:8
ApproachRate:9
SliderMultiplier:1.8
SliderTickRate:1

[Events]
//Background and Video events
0,0,"830225.png",0,0
//Break Periods
//Storyboard Layer 0 (Background)
//Storyboard Layer 1 (Fail)
//Storyboard Layer 2 (Pass)
//Storyboard Layer 3 (Foreground)
//Storyboard Sound Samples

[TimingPoints]
1207,375,4,2,1,55,1,0
1207,-111.111111111111,4,2,1,55,0,0
7207,-100,4,2,1,60,0,0
16207,-111.111111111111,4,2,1,55,0,0
55207,-90.9090909090909,4,2,1,65,0,1
79207,-90.9090909090909,4,2,1,65,0,0
88019,-111.111111111111,4,2,1,60,0,0
89707,-100,4,2,1,55,0,0
95707,-111.111111111111,4,2,1,55,0,0
134707,-90.9090909090909,4,2,1,65,0,1
158707,-90.9090909090909,4,2,1,65,0,0
167707,-111.111111111111,4,2,1,40,0,0
170707,-111.111111111111,4,2,2,40,0,0
178957,-111.111111111111,4,2,1,40,0,0
179707,-111.111111111111,4,2,2,55,0,0
191707,-100,4,2,1,55,0,0
215707,-90.9090909090909,4,2,1,65,0,0
221707,-111.111111111111,4,2,2,35,0,0
244207,-100,4,2,1,60,0,0
245707,-90.9090909090908,4,2,1,65,0,1
269707,-90.9090909090908,4,2,1,65,0,0
284519,-100,4,2,1,55,0,0
286207,-111.111111111111,4,2,1,55,0,0
292207,-100,4,2,1,55,0,0
299143,375,4,2,1,55,1,0
299143,-100,4,2,1,55,0,0
305143,-100,4,2,1,5,0,0

[Colours]
Combo1 : 102,102,102
Combo2 : 91,91,255
Combo3 : 173,90,90
Combo4 : 255,128,64

[HitObjects]
372,327,1207,6,0,P|426:330|484:319,1,80.9999975280763,4|0,0:0|0:0,0:0:0:0:
326,252,1582,1,0,0:0:0:0:
234,317,1769,1,0,0:0:0:0:
172,248,1957,2,0,P|127:242|92:249,1,80.9999975280763,0|2,0:0|0:0,0:0:0:0:
321,326,2332,1,8,0:0:0:0:
310,166,2519,6,0,B|298:244|352:275|307:357,1,161.999995056153,4|0,0:0|0:0,0:0:0:0:
396,188,3082,1,0,0:0:0:0:
238,291,3269,1,8,0:0:0:0:
310,166,3457,2,0,P|254:161|205:169,1,80.9999975280763
61,232,3832,2,0,P|117:237|163:223,1,80.9999975280763,2|0,0:0|0:0,0:0:0:0:
104,60,4207,6,0,P|94:102|109:171,1,80.9999975280763,4|0,0:0|0:0,0:0:0:0:
227,6,4582,1,8,0:0:0:0:
185,106,4769,1,2,0:0:0:0:
236,204,4957,2,0,P|284:213|335:197,1,80.9999975280763,8|0,0:0|0:0,0:0:0:0:
411,126,5332,1,0,0:0:0:0:
403,286,5519,6,0,B|383:221|443:179|399:96,1,161.999995056153,4|0,0:0|0:0,0:0:0:0:
489,262,6082,1,0,0:0:0:0:
321,158,6269,1,8,0:0:0:0:
321,158,6363,1,8,0:0:0:0:
321,158,6457,1,8,0:0:0:0:
248,364,6644,1,0,0:0:0:0:
186,112,6832,2,0,L|179:154,1,40.4999987640381,8|0,0:0|0:0,0:0:0:0:
172,195,7019,1,0,0:0:0:0:
166,379,7207,6,0,L|126:273,1,90
51,358,7582,2,0,L|14:253,1,90,8|0,0:0|0:0,0:0:0:0:
82,100,7957,2,0,P|138:136|171:194,1,135,2|0,0:0|0:0,0:0:0:0:
185,232,8332,1,8,0:0:0:0:
286,159,8519,6,0,P|354:155|409:171,1,90
512,236,8894,2,0,P|452:240|415:230,1,90,0|8,0:0|0:0,0:0:0:0:
464,52,9269,2,0,P|471:134|464:179,1,90,2|0,0:0|0:0,0:0:0:0:
370,33,9644,1,2,0:0:0:0:
271,90,9832,1,8,0:0:0:0:
227,101,9925,1,0,0:0:0:0:
182,97,10019,1,0,0:0:0:0:
137,89,10113,1,0,0:0:0:0:
92,81,10207,6,0,P|35:76|-14:90,1,90
190,173,10582,2,0,P|144:179|100:172,1,90,8|0,0:0|0:0,0:0:0:0:
275,6,10957,2,0,P|311:22|378:134,1,135,2|0,0:0|0:0,0:0:0:0:
383,133,11332,1,8,0:0:0:0:
441,263,11519,6,0,L|457:136,1,90
357,311,11894,2,0,L|329:203,1,90,0|8,0:0|0:0,0:0:0:0:
237,151,12269,2,0,L|222:245,1,90,2|0,0:0|0:0,0:0:0:0:
110,322,12644,1,8,0:0:0:0:
110,322,12737,1,8,0:0:0:0:
110,322,12832,2,0,L|73:246,1,45,8|0,0:0|0:0,0:0:0:0:
37,168,13019,1,8,0:0:0:0:
37,168,13112,1,0,0:0:0:0:
37,168,13207,5,4,0:0:0:0:
224,14,13394,1,0,0:0:0:0:
21,55,13582,1,8,0:0:0:0:
178,218,13769,1,4,0:0:0:0:
231,38,13957,2,0,L|254:170,1,90
280,267,14332,1,8,0:0:0:0:
152,130,14520,1,4,0:0:0:0:
464,24,14894,5,0,0:0:0:0:
424,96,15082,1,0,0:0:0:0:
384,168,15269,2,0,B|380:206|460:228|460:228|439:250|393:304,1,180,2|2,0:0|0:0,0:0:0:0:
330,345,15832,1,0,0:0:0:0:
255,190,16207,5,4,0:0:0:0:
255,190,16582,2,0,P|196:192|152:180,2,80.9999975280763,8|0|0,0:0|0:0|0:0,0:0:0:0:
338,136,17144,1,0,0:0:0:0:
431,68,17332,2,0,P|437:108|436:149,1,80.9999975280763,8|0,0:0|0:0,0:0:0:0:
384,234,17707,6,0,L|470:242,1,80.9999975280763,2|0,0:0|0:0,0:0:0:0:
363,323,18082,2,0,L|266:331,1,80.9999975280763,8|2,0:0|0:0,0:0:0:0:
142,323,18457,2,0,P|194:290|220:253,1,80.9999975280763,0|2,0:0|0:0,0:0:0:0:
309,227,18832,2,0,P|264:202|234:147,1,80.9999975280763,8|0,0:0|0:0,0:0:0:0:
158,122,19207,5,2,0:0:0:0:
158,122,19582,2,0,P|155:188|166:223,1,80.9999975280763,8|0,0:0|0:0,0:0:0:0:
234,267,19957,1,0,0:0:0:0:
168,344,20144,1,2,0:0:0:0:
101,262,20332,2,0,P|48:256|-6:273,1,80.9999975280763,8|0,0:0|0:0,0:0:0:0:
60,352,20707,5,2,0:0:0:0:
101,262,20894,1,0,0:0:0:0:
71,154,21082,1,8,0:0:0:0:
68,67,21269,2,0,B|110:82|110:82|145:115,2,80.9999975280763,2|0|2,0:0|0:0|0:0,0:0:0:0:
71,154,21832,2,0,B|64:198|64:198|82:259,1,80.9999975280763,8|0,0:0|0:0,0:0:0:0:
209,258,22207,5,2,0:0:0:0:
209,258,22582,2,0,P|282:257|308:267,2,80.9999975280763,8|0|0,0:0|0:0|0:0,0:0:0:0:
254,345,23144,1,2,0:0:0:0:
288,259,23332,2,0,B|300:218|300:218|294:153,1,80.9999975280763,8|0,0:0|0:0,0:0:0:0:
242,95,23707,6,0,B|281:84|281:84|343:94,1,80.9999975280763,2|0,0:0|0:0,0:0:0:0:
404,113,24082,1,8,0:0:0:0:
375,200,24269,2,0,B|395:234|434:260|434:260|389:281|377:330,1,161.999995056153,2|2,0:0|0:0,0:0:0:0:
495,314,24832,2,0,P|512:276|499:213,1,80.9999975280763,8|0,0:0|0:0,0:0:0:0:
456,104,25207,5,2,0:0:0:0:
456,104,25582,2,0,P|412:82|357:67,1,80.9999975280763,8|0,0:0|0:0,0:0:0:0:
278,146,25957,1,0,0:0:0:0:
209,44,26144,1,2,0:0:0:0:
111,103,26332,2,0,P|99:144|109:191,1,80.9999975280763,8|0,0:0|0:0,0:0:0:0:
169,313,26707,6,0,P|179:263|174:229,1,80.9999975280763,2|0,0:0|0:0,0:0:0:0:
61,346,27082,1,8,0:0:0:0:
169,313,27269,2,0,B|249:295|249:295|339:319,1,161.999995056153,2|2,0:0|0:0,0:0:0:0:
415,362,27832,2,0,P|426:317|412:273,1,80.9999975280763,8|0,0:0|0:0,0:0:0:0:
305,222,28207,5,4,0:0:0:0:
305,222,28582,2,0,P|299:157|308:115,1,80.9999975280763,8|0,0:0|0:0,0:0:0:0:
364,1,28957,1,0,0:0:0:0:
400,118,29144,1,2,0:0:0:0:
217,66,29332,2,0,P|272:61|308:68,1,80.9999975280763,8|0,0:0|0:0,0:0:0:0:
479,120,29707,6,0,P|439:127|400:118,1,80.9999975280763,2|0,0:0|0:0,0:0:0:0:
439,22,30082,1,8,0:0:0:0:
451,213,30269,2,0,P|467:261|472:322,2,80.9999975280763,2|0|2,0:0|0:0|0:0,0:0:0:0:
331,150,30832,2,0,P|269:158|232:180,1,80.9999975280763,8|0,0:0|0:0,0:0:0:0:
129,214,31207,5,2,0:0:0:0:
129,214,31582,2,0,L|150:298,1,80.9999975280763,8|2,0:0|0:0,0:0:0:0:
11,257,31957,1,0,0:0:0:0:
53,134,32144,1,2,0:0:0:0:
129,214,32332,2,0,P|171:207|215:191,1,80.9999975280763,8|0,0:0|0:0,0:0:0:0:
268,122,32707,5,2,0:0:0:0:
181,6,32894,1,0,0:0:0:0:
52,21,33082,1,8,0:0:0:0:
52,21,33269,2,0,B|30:105|30:105|50:199,1,161.999995056153,2|2,0:0|0:0,0:0:0:0:
134,210,33832,2,0,B|138:180|138:180|127:131,1,80.9999975280763,8|0,0:0|0:0,0:0:0:0:
46,273,34207,5,2,0:0:0:0:
46,273,34582,2,0,L|144:286,1,80.9999975280763,8|0,0:0|0:0,0:0:0:0:
14,365,34957,1,0,0:0:0:0:
126,283,35144,1,2,0:0:0:0:
197,366,35332,2,0,L|286:369,1,80.9999975280763,8|0,0:0|0:0,0:0:0:0:
383,359,35707,6,0,P|391:315|378:261,1,80.9999975280763,2|0,0:0|0:0,0:0:0:0:
300,236,36082,1,8,0:0:0:0:
373,181,36269,2,0,P|298:149|215:195,1,161.999995056153,2|2,0:0|0:0,0:0:0:0:
166,317,36832,1,8,0:0:0:0:
300,236,37019,1,0,0:0:0:0:
428,299,37207,5,2,0:0:0:0:
428,299,37582,2,0,P|444:244|434:211,1,80.9999975280763,8|0,0:0|0:0,0:0:0:0:
358,89,37957,1,0,0:0:0:0:
280,243,38144,1,2,0:0:0:0:
454,194,38332,1,8,0:0:0:0:
277,164,38519,6,0,B|271:204|271:204|288:276,1,80.9999975280763,8|0,1:2|0:0,0:0:0:0:
175,171,38894,2,0,B|141:148|141:148|69:131,1,80.9999975280763,8|0,1:2|0:0,0:0:0:0:
241,79,39269,2,0,B|277:60|277:60|326:5,1,80.9999975280763,8|0,1:2|0:0,0:0:0:0:
102,138,39644,2,0,B|91:176|91:176|110:230,2,80.9999975280763,8|0|8,1:2|0:0|1:2,0:0:0:0:
201,190,40207,6,0,P|256:240|309:189,1,161.999995056153,4|8,0:0|0:0,0:0:0:0:
255,77,40769,1,0,0:0:0:0:
175,27,40957,2,0,P|163:76|177:126,2,80.9999975280763,2|0|8,0:0|0:0|0:0,0:0:0:0:
334,127,41519,1,0,0:0:0:0:
311,269,41707,6,0,P|255:218|201:271,1,161.999995056153,2|8,0:0|0:0,0:0:0:0:
256,345,42269,1,2,0:0:0:0:
392,382,42457,2,0,P|397:326|388:273,1,80.9999975280763,0|2,0:0|0:0,0:0:0:0:
321,136,42832,2,0,P|317:176|320:217,1,80.9999975280763,8|0,0:0|0:0,0:0:0:0:
418,135,43207,6,0,P|387:63|312:41,1,161.999995056153,2|8,0:0|0:0,0:0:0:0:
321,136,43769,1,2,0:0:0:0:
232,82,43957,1,0,0:0:0:0:
159,160,44144,2,0,P|152:211|161:248,2,80.9999975280763,2|8|0,0:0|0:0|0:0,0:0:0:0:
232,82,44707,6,0,B|223:118|266:150|266:150|227:176|239:224,1,161.999995056153,2|8,0:0|0:0,0:0:0:0:
338,224,45269,1,2,0:0:0:0:
159,160,45457,2,0,P|106:154|55:162,2,80.9999975280763,0|2|8,0:0|0:0|0:0,0:0:0:0:
338,224,46019,1,0,0:0:0:0:
187,330,46207,6,0,L|11:350,1,161.999995056153,2|8,0:0|0:0,0:0:0:0:
188,248,46769,2,0,P|236:261|275:312,1,80.9999975280763
393,344,47144,2,0,P|446:349|487:341,2,80.9999975280763,2|8|0,0:0|0:0|0:0,0:0:0:0:
335,270,47707,6,0,P|314:203|335:96,1,161.999995056153,2|8,0:0|0:0,0:0:0:0:
474,135,48269,1,2,0:0:0:0:
366,5,48457,2,0,L|274:24,1,80.9999975280763,0|2,0:0|0:0,0:0:0:0:
134,116,48832,1,8,0:0:0:0:
220,234,49019,6,0,P|227:282|216:331,2,80.9999975280763,2|0|0,0:0|0:0|0:0,0:0:0:0:
134,116,49582,2,0,P|126:167|141:213,1,80.9999975280763,8|0,0:0|0:0,0:0:0:0:
173,33,49957,2,0,P|122:24|76:40,1,80.9999975280763,2|0,0:0|0:0,0:0:0:0:
134,116,50332,1,8,0:0:0:0:
269,70,50519,1,0,0:0:0:0:
246,148,50707,6,0,L|279:39,1,80.9999975280763,2|0,0:0|0:0,0:0:0:0:
374,207,51082,2,0,L|352:123,1,80.9999975280763,8|0,0:0|0:0,0:0:0:0:
255,313,51457,2,0,L|290:209,2,80.9999975280763,2|0|8,0:0|0:0|0:0,0:0:0:0:
109,310,52019,6,0,P|184:281|271:335,1,161.999995056153,2|0,0:0|0:0,0:0:0:0:
354,382,52582,2,0,P|365:334|359:278,1,80.9999975280763,8|0,0:0|0:0,0:0:0:0:
336,130,52957,2,0,P|326:198|343:237,1,80.9999975280763,2|0,0:0|0:0,0:0:0:0:
384,56,53332,2,0,P|316:46|277:63,1,80.9999975280763,8|0,0:0|0:0,0:0:0:0:
205,85,53707,6,0,L|181:26,3,40.4999987640381
120,154,54082,2,0,L|78:143,3,40.4999987640381
219,183,54457,1,8,0:0:0:0:
146,266,54644,1,0,0:0:0:0:
199,358,54832,2,0,P|251:355|313:376,1,80.9999975280763,8|0,0:0|0:0,0:0:0:0:
349,258,55207,6,0,L|368:127,2,99.0000030212403,4|0|8,0:0|0:0|0:0,0:0:0:0:
396,369,55769,2,0,P|448:380|504:363,1,99.0000030212403,2|0,0:0|0:0,0:0:0:0:
442,286,56144,1,2,0:0:0:0:
349,258,56332,2,0,P|296:250|228:271,1,99.0000030212403,8|0,0:0|0:0,0:0:0:0:
165,358,56707,6,0,P|152:300|158:242,1,99.0000030212403,2|0,0:0|0:0,0:0:0:0:
210,174,57082,1,8,0:0:0:0:
141,81,57269,2,0,B|89:66|89:66|42:75,2,99.0000030212403,2|0|2,0:0|0:0|0:0,0:0:0:0:
86,164,57832,1,8,0:0:0:0:
154,260,58019,1,0,0:0:0:0:
246,81,58207,6,0,L|241:191,1,99.0000030212403,2|0,0:0|0:0,0:0:0:0:
154,260,58582,1,8,0:0:0:0:
248,366,58769,2,0,P|261:313|249:249,1,99.0000030212403,2|0,0:0|0:0,0:0:0:0:
241,179,59144,1,2,0:0:0:0:
372,263,59332,1,8,0:0:0:0:
248,366,59519,1,0,0:0:0:0:
241,179,59707,6,0,L|349:146,1,99.0000030212403,2|0,0:0|0:0,0:0:0:0:
499,39,60082,1,8,0:0:0:0:
436,198,60269,2,0,P|442:133|430:80,1,99.0000030212403,2|0,0:0|0:0,0:0:0:0:
352,0,60644,1,2,0:0:0:0:
269,171,60832,1,8,0:0:0:0:
436,100,61019,1,0,0:0:0:0:
266,74,61207,6,0,P|276:129|260:192,2,99.0000030212403,2|0|8,0:0|0:0|0:0,0:0:0:0:
166,7,61769,2,0,P|157:56|168:104,1,99.0000030212403,2|0,0:0|0:0,0:0:0:0:
269,247,62144,1,2,0:0:0:0:
151,181,62332,1,8,0:0:0:0:
39,126,62519,1,0,0:0:0:0:
151,181,62707,6,0,B|208:189|208:189|277:171,2,99.0000030212403,2|0|8,0:0|0:0|0:0,0:0:0:0:
194,7,63269,2,0,L|201:112,1,99.0000030212403,2|0,0:0|0:0,0:0:0:0:
282,26,63644,1,2,0:0:0:0:
357,141,63832,1,8,0:0:0:0:
429,20,64019,1,0,0:0:0:0:
268,98,64207,6,0,L|262:241,1,99.0000030212403,2|0,0:0|0:0,0:0:0:0:
357,141,64582,1,8,0:0:0:0:
435,217,64769,2,0,B|448:268|448:268|424:352,2,99.0000030212403,2|0|2,0:0|0:0|0:0,0:0:0:0:
315,284,65332,1,8,0:0:0:0:
435,217,65519,1,0,0:0:0:0:
334,160,65707,6,0,L|379:124,3,49.5000015106202,2|0|0|0,0:0|0:0|0:0|0:0,0:0:0:0:
253,215,66082,1,8,0:0:0:0:
273,105,66269,5,4,0:0:0:0:
224,101,66362,1,0,0:0:0:0:
177,117,66456,1,0,0:0:0:0:
142,152,66550,1,0,0:0:0:0:
124,197,66644,1,2,0:0:0:0:
126,246,66737,1,0,0:0:0:0:
149,290,66831,1,8,0:0:0:0:
187,321,66925,1,0,0:0:0:0:
235,333,67019,1,0,0:0:0:0:
283,324,67112,1,0,0:0:0:0:
329,304,67207,6,0,P|335:246|314:170,2,99.0000030212403,6|0|8,0:0|0:0|0:0,0:0:0:0:
235,333,67769,2,0,L|123:354,1,99.0000030212403,2|0,0:0|0:0,0:0:0:0:
176,259,68144,1,2,0:0:0:0:
221,181,68332,2,0,L|279:64,1,99.0000030212403,8|0,0:0|0:0,0:0:0:0:
349,50,68707,6,0,P|308:10|236:2,2,99.0000030212403,2|0|8,0:0|0:0|0:0,0:0:0:0:
361,233,69269,2,0,P|376:168|368:115,1,99.0000030212403,2|0,0:0|0:0,0:0:0:0:
258,140,69644,1,0,0:0:0:0:
267,268,69832,1,8,0:0:0:0:
387,315,70019,1,0,0:0:0:0:
267,268,70207,6,0,L|139:268,1,99.0000030212403,2|0,0:0|0:0,0:0:0:0:
212,364,70582,1,8,0:0:0:0:
77,312,70769,2,0,P|64:259|86:198,1,99.0000030212403,2|0,0:0|0:0,0:0:0:0:
168,268,71144,1,2,0:0:0:0:
193,52,71332,1,8,0:0:0:0:
84,130,71519,1,0,0:0:0:0:
197,153,71707,6,0,P|248:148|306:158,1,99.0000030212403,2|0,0:0|0:0,0:0:0:0:
245,241,72082,1,8,0:0:0:0:
375,209,72269,2,0,P|387:153|382:107,1,99.0000030212403,2|0,0:0|0:0,0:0:0:0:
278,8,72644,1,2,0:0:0:0:
245,241,72832,1,8,0:0:0:0:
391,119,73019,1,8,0:0:0:0:
391,119,73113,1,8,0:0:0:0:
391,119,73207,6,0,L|280:98,1,99.0000030212403,4|0,0:0|0:0,0:0:0:0:
159,11,73582,1,8,0:0:0:0:
46,241,73769,2,0,L|178:226,1,99.0000030212403,8|0,0:0|0:0,0:0:0:0:
309,178,74144,1,0,0:0:0:0:
115,100,74332,1,8,0:0:0:0:
252,288,74519,1,8,0:0:0:0:
252,288,74613,1,8,0:0:0:0:
252,288,74707,5,8,0:0:0:0:
285,53,74894,1,8,0:0:0:0:
121,191,75082,1,8,0:0:0:0:
244,178,75269,2,0,P|298:176|380:154,1,99.0000030212403,4|0,0:0|0:0,0:0:0:0:
166,93,75644,1,0,0:0:0:0:
249,315,75832,1,8,0:0:0:0:
161,213,76019,1,8,0:0:0:0:
161,213,76113,1,8,0:0:0:0:
161,213,76207,6,0,P|110:220|44:215,1,99.0000030212403,4|0,0:0|0:0,0:0:0:0:
264,162,76582,1,8,0:0:0:0:
345,255,76769,2,0,P|356:307|339:366,1,99.0000030212403
230,292,77144,1,0,0:0:0:0:
264,162,77332,1,8,0:0:0:0:
385,160,77519,1,0,0:0:0:0:
281,57,77707,6,0,P|225:50|163:60,1,99.0000030212403,2|0,0:0|0:0,0:0:0:0:
12,169,78082,2,0,P|82:173|128:159,1,99.0000030212403,8|0,0:0|0:0,0:0:0:0:
281,57,78457,2,0,P|275:105|283:154,1,99.0000030212403,2|0,0:0|0:0,0:0:0:0:
393,325,78832,2,0,P|399:276|395:226,1,99.0000030212403,8|0,0:0|0:0,0:0:0:0:
339,152,79207,6,0,B|263:161|203:143|203:143|162:199,1,198.000006042481,4|8,0:0|0:0,0:0:0:0:
47,358,79769,1,0,0:0:0:0:
207,328,79957,2,0,P|207:255|184:195,1,99.0000030212403
75,57,80332,5,8,0:0:0:0:
167,192,80519,2,0,B|232:291|355:240,1,198.000006042481,2|0,0:0|0:0,0:0:0:0:
268,164,81082,1,8,0:0:0:0:
333,342,81269,1,0,0:0:0:0:
268,164,81457,2,0,L|237:30,1,99.0000030212403,0|2,0:0|0:0,0:0:0:0:
388,104,81832,1,8,0:0:0:0:
160,130,82019,6,0,P|132:234|192:345,1,198.000006042481,2|0,0:0|0:0,0:0:0:0:
373,261,82582,2,0,P|378:205|353:144,2,99.0000030212403,8|0|0,0:0|0:0|0:0,0:0:0:0:
162,315,83144,1,2,0:0:0:0:
63,212,83332,1,8,0:0:0:0:
157,118,83519,6,0,P|252:138|376:145,1,198.000006042481,2|0,0:0|0:0,0:0:0:0:
262,17,84082,1,8,0:0:0:0:
243,243,84269,1,2,0:0:0:0:
437,101,84457,1,8,0:0:0:0:
457,145,84550,1,8,0:0:0:0:
465,194,84644,1,8,0:0:0:0:
458,243,84738,1,8,0:0:0:0:
438,288,84832,1,8,0:0:0:0:
405,325,84925,1,8,0:0:0:0:
364,351,85019,1,8,0:0:0:0:
316,365,85113,1,8,0:0:0:0:
261,368,85207,6,0,P|256:298|272:230,1,99.0000030212403,2|0,0:0|0:0,0:0:0:0:
365,124,85582,1,8,0:0:0:0:
260,269,85769,1,6,0:0:0:0:
157,157,86144,6,0,L|268:180,1,99.0000030212403,2|8,0:0|0:0,0:0:0:0:
182,282,86519,1,4,0:0:0:0:
78,61,86894,5,0,0:0:0:0:
232,24,87082,2,0,P|284:48|332:113,1,99.0000030212403,8|0,0:0|0:0,0:0:0:0:
313,77,87363,1,8,0:0:0:0:
313,77,87457,1,8,0:0:0:0:
99,31,87644,1,8,0:0:0:0:
214,151,87832,1,8,0:0:0:0:
45,96,88019,6,0,B|65:164|20:198|43:257,1,161.999995056153,4|0,0:0|0:0,0:0:0:0:
128,356,88582,2,0,P|149:318|152:254,1,80.9999975280763,8|0,0:0|0:0,0:0:0:0:
155,280,88863,1,8,0:0:0:0:
155,280,88957,1,8,0:0:0:0:
207,184,89144,1,8,0:0:0:0:
247,179,89237,1,8,0:0:0:0:
285,191,89331,1,8,0:0:0:0:
320,211,89425,1,8,0:0:0:0:
358,227,89519,1,8,0:0:0:0:
398,232,89612,1,8,0:0:0:0:
440,227,89707,6,0,P|446:163|439:126,2,90,4|0|0,0:0|0:0|0:0,0:0:0:0:
354,127,90269,1,0,0:0:0:0:
262,0,90457,2,0,P|255:76|267:117,1,90,0|8,0:0|0:0,0:0:0:0:
354,127,90832,1,0,0:0:0:0:
297,273,91019,6,0,B|232:253|191:316|93:263,1,180,6|0,0:0|0:0,0:0:0:0:
198,187,91582,1,0,0:0:0:0:
281,370,91769,1,2,0:0:0:0:
120,276,91957,2,0,L|102:148,1,90,0|2,0:0|0:0,0:0:0:0:
180,15,92332,2,0,L|193:120,1,90,8|0,0:0|0:0,0:0:0:0:
211,254,92707,6,0,P|257:245|333:272,2,90,4|0|8,0:0|0:0|0:0,0:0:0:0:
258,341,93269,1,8,0:0:0:0:
373,300,93457,2,0,P|382:247|363:198,1,90,0|2,0:0|0:0,0:0:0:0:
283,177,93832,1,8,0:0:0:0:
285,0,94019,6,0,B|305:51|254:95|288:191,1,180,6|8,0:0|0:0,0:0:0:0:
283,177,94488,1,8,0:0:0:0:
283,177,94582,1,8,0:0:0:0:
188,95,94769,1,8,0:0:0:0:
188,95,94863,1,8,0:0:0:0:
188,95,94957,1,8,0:0:0:0:
362,37,95144,1,8,0:0:0:0:
384,76,95238,1,8,0:0:0:0:
387,120,95332,1,8,0:0:0:0:
386,164,95425,1,8,0:0:0:0:
381,208,95519,1,8,0:0:0:0:
363,249,95613,1,8,0:0:0:0:
341,283,95707,5,4,0:0:0:0:
341,283,96082,2,0,L|249:289,2,80.9999975280763,8|0|0,0:0|0:0|0:0,0:0:0:0:
432,337,96644,1,2,0:0:0:0:
500,273,96832,2,0,L|505:171,1,80.9999975280763,8|0,0:0|0:0,0:0:0:0:
480,76,97207,5,2,0:0:0:0:
397,151,97394,1,0,0:0:0:0:
306,102,97582,2,0,P|259:98|210:104,1,80.9999975280763,8|2,0:0|0:0,0:0:0:0:
76,202,97957,2,0,P|69:160|76:117,1,80.9999975280763,0|2,0:0|0:0,0:0:0:0:
144,0,98332,2,0,P|151:63|145:100,1,80.9999975280763,8|0,0:0|0:0,0:0:0:0:
76,202,98707,5,2,0:0:0:0:
76,202,99082,2,0,L|84:298,1,80.9999975280763,8|0,0:0|0:0,0:0:0:0:
173,329,99457,1,0,0:0:0:0:
0,229,99644,1,2,0:0:0:0:
155,192,99832,2,0,L|269:180,1,80.9999975280763,8|0,0:0|0:0,0:0:0:0:
127,89,100207,5,2,0:0:0:0:
235,183,100394,1,0,0:0:0:0:
158,298,100582,1,8,0:0:0:0:
255,360,100769,2,0,B|289:352|319:313|319:313|353:354|415:364,1,161.999995056153,2|2,0:0|0:0,0:0:0:0:
233,276,101332,1,8,0:0:0:0:
280,126,101519,1,8,0:0:0:0:
148,215,101707,5,2,0:0:0:0:
148,215,102082,2,0,P|157:163|145:106,1,80.9999975280763,8|0,0:0|0:0,0:0:0:0:
85,65,102457,1,0,0:0:0:0:
179,1,102644,1,2,0:0:0:0:
243,86,102832,2,0,L|334:98,1,80.9999975280763,8|0,0:0|0:0,0:0:0:0:
425,30,103207,5,2,0:0:0:0:
425,30,103582,1,8,0:0:0:0:
419,126,103769,2,0,B|401:205|401:205|435:296,1,161.999995056153,2|2,0:0|0:0,0:0:0:0:
487,197,104332,1,8,0:0:0:0:
332,260,104519,1,0,0:0:0:0:
175,213,104707,5,2,0:0:0:0:
175,213,105082,2,0,L|57:224,2,80.9999975280763
96,132,105644,1,2,0:0:0:0:
0,209,105832,1,8,0:0:0:0:
21,329,106019,1,0,0:0:0:0:
158,367,106207,6,0,P|183:309|181:264,1,80.9999975280763,2|0,0:0|0:0,0:0:0:0:
93,296,106582,1,8,0:0:0:0:
174,212,106769,2,0,L|258:222,2,80.9999975280763,2|0|2,0:0|0:0|0:0,0:0:0:0:
83,150,107332,1,8,0:0:0:0:
170,59,107519,1,0,0:0:0:0:
251,147,107707,5,2,0:0:0:0:
251,147,108082,2,0,P|307:151|357:144,1,80.9999975280763,8|0,0:0|0:0,0:0:0:0:
439,26,108457,2,0,P|435:94|446:144,1,80.9999975280763,0|2,0:0|0:0,0:0:0:0:
496,190,108832,1,8,0:0:0:0:
408,272,109020,1,0,0:0:0:0:
350,184,109207,6,0,L|255:191,1,80.9999975280763,2|0,0:0|0:0,0:0:0:0:
325,91,109582,1,8,0:0:0:0:
196,30,109769,2,0,B|219:91|206:140|172:188,1,161.999995056153,2|2,0:0|0:0,0:0:0:0:
77,208,110332,2,0,P|82:162|121:110,1,80.9999975280763,8|0,0:0|0:0,0:0:0:0:
168,283,110707,5,2,0:0:0:0:
168,283,111082,2,0,L|59:300,2,80.9999975280763,8|4|0,0:0|0:0|0:0,0:0:0:0:
289,259,111644,1,2,0:0:0:0:
383,373,111832,2,0,P|391:335|384:259,1,80.9999975280763,8|0,0:0|0:0,0:0:0:0:
290,178,112207,6,0,P|285:218|289:259,1,80.9999975280763,2|0,0:0|0:0,0:0:0:0:
390,219,112582,1,8,0:0:0:0:
289,259,112769,2,0,B|226:269|226:269|101:261,1,161.999995056153,2|2,0:0|0:0,0:0:0:0:
53,315,113332,2,0,P|39:248|52:206,1,80.9999975280763,4|0,0:0|0:0,0:0:0:0:
101,141,113707,5,2,0:0:0:0:
101,141,114082,2,0,L|3:135,2,80.9999975280763,8|0|0,0:0|0:0|0:0,0:0:0:0:
196,146,114644,1,2,0:0:0:0:
286,130,114832,2,0,L|386:121,1,80.9999975280763,8|0,0:0|0:0,0:0:0:0:
446,71,115207,6,0,P|457:118|447:176,1,80.9999975280763,2|0,0:0|0:0,0:0:0:0:
358,212,115582,1,8,0:0:0:0:
501,300,115769,2,0,B|421:280|421:280|320:309,1,161.999995056153,2|2,0:0|0:0,0:0:0:0:
293,376,116332,2,0,P|257:325|258:281,1,80.9999975280763
358,212,116707,5,2,0:0:0:0:
358,212,117082,2,0,L|243:215,1,80.9999975280763,8|0,0:0|0:0,0:0:0:0:
88,278,117457,2,0,L|199:280,1,80.9999975280763,0|2,0:0|0:0,0:0:0:0:
277,214,117832,1,8,0:0:0:0:
183,178,118019,6,0,P|136:173|91:153,1,80.9999975280763,8|0,1:2|0:0,0:0:0:0:
277,214,118394,2,0,P|297:248|307:287,1,80.9999975280763,8|0,1:2|0:0,0:0:0:0:
250,97,118769,2,0,P|252:56|265:18,1,80.9999975280763,8|0,1:2|0:0,0:0:0:0:
348,97,119144,2,0,P|358:136|350:177,2,80.9999975280763,8|0|8,1:2|0:0|1:2,0:0:0:0:
206,197,119707,6,0,P|185:265|231:358,1,161.999995056153,4|8,0:0|0:0,0:0:0:0:
287,265,120269,1,0,0:0:0:0:
362,157,120457,2,0,P|310:151|259:160,2,80.9999975280763,2|0|8,0:0|0:0|0:0,0:0:0:0:
320,331,121019,1,0,0:0:0:0:
462,202,121207,6,0,P|483:270|437:363,1,161.999995056153,2|8,0:0|0:0,0:0:0:0:
381,273,121769,1,0,0:0:0:0:
363,177,121957,2,0,P|357:131|368:77,1,80.9999975280763,0|2,0:0|0:0,0:0:0:0:
470,5,122332,2,0,P|474:45|468:85,1,80.9999975280763,8|0,0:0|0:0,0:0:0:0:
362,97,122707,6,0,B|286:78|286:78|179:100,1,161.999995056153,2|8,0:0|0:0,0:0:0:0:
211,195,123269,1,2,0:0:0:0:
112,238,123457,1,0,0:0:0:0:
107,136,123644,2,0,P|102:75|118:29,2,80.9999975280763,2|8|0,0:0|0:0|0:0,0:0:0:0:
210,195,124207,6,0,B|187:235|187:235|222:290|183:359,1,161.999995056153,2|8,0:0|0:0,0:0:0:0:
114,291,124769,1,2,0:0:0:0:
284,280,124957,2,0,P|326:276|388:297,2,80.9999975280763,0|2|8,0:0|0:0|0:0,0:0:0:0:
324,360,125519,1,0,0:0:0:0:
416,223,125707,6,0,L|451:57,1,161.999995056153,2|8,0:0|0:0,0:0:0:0:
336,162,126269,2,0,P|335:226|311:268,1,80.9999975280763,2|0,0:0|0:0,0:0:0:0:
234,197,126644,2,0,P|172:195|134:202,2,80.9999975280763,2|8|0,0:0|0:0|0:0,0:0:0:0:
313,274,127207,6,0,P|338:199|299:95,1,161.999995056153,4|8,0:0|0:0,0:0:0:0:
234,197,127769,1,2,0:0:0:0:
158,128,127957,2,0,P|150:79|162:42,1,80.9999975280763,0|2,0:0|0:0,0:0:0:0:
242,95,128332,1,8,0:0:0:0:
199,211,128519,6,0,P|135:216|99:207,2,80.9999975280763,2|0|0,0:0|0:0|0:0,0:0:0:0:
321,98,129082,2,0,P|281:91|240:95,1,80.9999975280763,8|0,0:0|0:0,0:0:0:0:
407,141,129457,2,0,P|417:97|404:51,1,80.9999975280763,2|0,0:0|0:0,0:0:0:0:
280,173,129832,1,8,0:0:0:0:
339,272,130019,1,0,0:0:0:0:
258,280,130207,6,0,L|357:270,1,80.9999975280763,2|0,0:0|0:0,0:0:0:0:
127,232,130582,2,0,L|217:186,1,80.9999975280763,8|0,0:0|0:0,0:0:0:0:
138,345,130957,2,0,L|236:355,1,80.9999975280763,2|0,0:0|0:0,0:0:0:0:
218,353,131238,1,8,0:0:0:0:
218,353,131332,1,8,0:0:0:0:
142,188,131519,6,0,P|123:270|146:361,1,161.999995056153,2|0,0:0|0:0,0:0:0:0:
222,267,132082,1,8,0:0:0:0:
142,188,132269,2,0,L|70:171,2,40.4999987640381,8|0|8,0:0|0:0|0:0,0:0:0:0:
248,126,132644,2,0,L|301:98,2,40.4999987640381,8|0|8,0:0|0:0|0:0,0:0:0:0:
149,28,133019,6,0,P|139:91|148:216,1,161.999995056153,4|8,0:0|0:0,0:0:0:0:
160,225,133488,1,8,0:0:0:0:
189,252,133582,1,8,0:0:0:0:
225,269,133675,1,8,0:0:0:0:
265,275,133769,1,8,0:0:0:0:
305,275,133863,1,8,0:0:0:0:
344,267,133957,1,8,0:0:0:0:
288,185,134144,1,8,0:0:0:0:
344,100,134332,2,0,P|289:90|256:96,1,80.9999975280763,8|8,0:0|0:0,0:0:0:0:
399,308,134707,6,0,L|416:182,2,99.0000030212403,4|0|8,0:0|0:0|0:0,0:0:0:0:
314,368,135269,2,0,P|244:377|199:360,1,99.0000030212403
97,288,135644,1,0,0:0:0:0:
180,116,135832,2,0,P|168:165|175:220,1,99.0000030212403,8|0,0:0|0:0,0:0:0:0:
267,294,136207,6,0,P|276:222|269:185,1,99.0000030212403,2|0,0:0|0:0,0:0:0:0:
180,116,136582,1,8,0:0:0:0:
314,86,136769,2,0,B|361:75|361:75|443:95,2,99.0000030212403,2|0|2,0:0|0:0|0:0,0:0:0:0:
368,165,137332,1,8,0:0:0:0:
425,249,137519,1,0,0:0:0:0:
314,86,137707,6,0,B|260:91|260:91|205:83,1,99.0000030212403,2|0,0:0|0:0,0:0:0:0:
110,65,138082,1,8,0:0:0:0:
110,65,138269,2,0,P|127:126|113:184,1,99.0000030212403,2|0,0:0|0:0,0:0:0:0:
27,123,138644,1,2,0:0:0:0:
123,160,138832,1,8,0:0:0:0:
224,189,139019,1,0,0:0:0:0:
27,123,139207,6,0,L|34:240,1,99.0000030212403,2|0,0:0|0:0,0:0:0:0:
46,374,139582,1,8,0:0:0:0:
222,314,139769,2,0,L|126:280,1,99.0000030212403
32,221,140144,1,2,0:0:0:0:
141,171,140332,1,8,0:0:0:0:
246,229,140519,1,0,0:0:0:0:
344,178,140707,6,0,P|338:116|348:76,2,99.0000030212403,2|0|8,0:0|0:0|0:0,0:0:0:0:
399,18,141269,2,0,P|348:3|291:17,1,99.0000030212403
196,50,141644,1,2,0:0:0:0:
262,163,141832,1,8,0:0:0:0:
141,158,142020,1,0,0:0:0:0:
68,249,142207,6,0,L|46:362,2,99.0000030212403,2|0|8,0:0|0:0|0:0,0:0:0:0:
136,60,142769,2,0,L|143:176,1,99.0000030212403,2|0,0:0|0:0,0:0:0:0:
155,295,143144,1,2,0:0:0:0:
282,343,143332,1,8,0:0:0:0:
291,173,143519,1,0,0:0:0:0:
155,295,143707,6,0,L|292:244,1,99.0000030212403,2|0,0:0|0:0,0:0:0:0:
153,177,144082,1,8,0:0:0:0:
250,80,144269,2,0,B|298:67|298:67|364:91,2,99.0000030212403,0|0|2,0:0|0:0|0:0,0:0:0:0:
306,179,144832,1,8,0:0:0:0:
250,80,145019,1,0,0:0:0:0:
104,131,145207,6,0,L|56:91,3,49.5000015106202,2|0|0|0,0:0|0:0|0:0|0:0,0:0:0:0:
189,155,145582,1,0,0:0:0:0:
163,261,145769,5,4,0:0:0:0:
195,298,145863,1,0,0:0:0:0:
242,311,145957,1,0,0:0:0:0:
291,311,146050,1,0,0:0:0:0:
340,306,146144,1,2,0:0:0:0:
386,288,146238,1,0,0:0:0:0:
419,251,146332,1,8,0:0:0:0:
429,203,146425,1,0,0:0:0:0:
426,153,146519,1,0,0:0:0:0:
403,108,146613,1,0,0:0:0:0:
358,85,146707,6,0,P|286:137|258:172,2,99.0000030212403,6|0|8,0:0|0:0|0:0,0:0:0:0:
503,16,147269,2,0,L|368:8,1,99.0000030212403
296,36,147644,1,2,0:0:0:0:
194,17,147832,2,0,P|186:71|191:123,1,99.0000030212403,8|0,0:0|0:0,0:0:0:0:
261,278,148207,6,0,B|280:227|256:148,1,99.0000030212403,2|0,0:0|0:0,0:0:0:0:
79,229,148582,1,8,0:0:0:0:
79,229,148769,2,0,P|150:237|196:231,1,99.0000030212403,2|0,0:0|0:0,0:0:0:0:
143,140,149144,1,2,0:0:0:0:
108,315,149332,1,8,0:0:0:0:
269,235,149519,1,0,0:0:0:0:
368,238,149707,6,0,L|243:235,1,99.0000030212403,2|0,0:0|0:0,0:0:0:0:
382,145,150082,1,8,0:0:0:0:
472,184,150269,2,0,L|452:293,1,99.0000030212403
370,337,150644,1,2,0:0:0:0:
323,207,150832,1,8,0:0:0:0:
194,271,151019,1,0,0:0:0:0:
144,191,151207,6,0,P|215:186|261:200,2,99.0000030212403,2|0|8,0:0|0:0|0:0,0:0:0:0:
311,256,151769,2,0,P|324:208|315:146,1,99.0000030212403,2|0,0:0|0:0,0:0:0:0:
242,193,152144,1,2,0:0:0:0:
190,309,152332,1,8,0:0:0:0:
433,320,152519,1,8,0:0:0:0:
433,320,152613,1,8,0:0:0:0:
433,320,152707,6,0,P|372:311|329:317,1,99.0000030212403,4|0,0:0|0:0,0:0:0:0:
164,375,153082,1,8,0:0:0:0:
57,253,153269,2,0,P|94:205|116:148,1,99.0000030212403,4|0,0:0|0:0,0:0:0:0:
191,19,153644,1,10,0:0:0:0:
191,19,153738,1,8,0:0:0:0:
191,19,153832,1,8,0:0:0:0:
400,125,154019,1,8,0:0:0:0:
400,125,154113,1,8,0:0:0:0:
400,125,154207,5,8,0:0:0:0:
219,208,154394,1,0,0:0:0:0:
332,58,154582,1,2,0:0:0:0:
221,306,154769,2,0,P|212:247|226:193,1,99.0000030212403,4|0,0:0|0:0,0:0:0:0:
403,105,155144,1,2,0:0:0:0:
433,358,155332,1,8,0:0:0:0:
307,250,155519,1,8,0:0:0:0:
501,258,155707,6,0,L|504:146,1,99.0000030212403,4|0,0:0|0:0,0:0:0:0:
403,105,156082,1,8,0:0:0:0:
297,138,156269,2,0,B|250:145|250:145|168:134,2,99.0000030212403,0|0|2,0:0|0:0|0:0,0:0:0:0:
261,40,156832,1,8,0:0:0:0:
199,139,157019,1,0,0:0:0:0:
179,258,157207,6,0,L|226:362,1,99.0000030212403,2|0,0:0|0:0,0:0:0:0:
118,345,157582,2,0,L|19:331,1,99.0000030212403,8|2,0:0|0:0,0:0:0:0:
84,256,157957,2,0,L|116:162,1,99.0000030212403,8|2,0:0|0:0,0:0:0:0:
117,163,158238,1,8,0:0:0:0:
117,163,158332,1,8,0:0:0:0:
303,186,158519,1,8,0:0:0:0:
303,186,158613,1,8,0:0:0:0:
303,186,158707,6,0,B|346:138|355:75|355:75|426:49,1,198.000006042481,4|8,0:0|0:0,0:0:0:0:
499,269,159269,1,0,0:0:0:0:
288,6,159457,2,0,P|328:36|356:77,1,99.0000030212403
292,265,159832,5,8,0:0:0:0:
424,49,160019,2,0,P|440:97|415:275,1,198.000006042481,2|0,0:0|0:0,0:0:0:0:
338,149,160582,1,8,0:0:0:0:
512,91,160769,1,0,0:0:0:0:
338,149,160957,2,0,B|220:184,1,99.0000030212403,0|2,0:0|0:0,0:0:0:0:
340,271,161332,1,8,0:0:0:0:
349,58,161519,6,0,P|257:29|152:65,1,198.000006042481,2|0,0:0|0:0,0:0:0:0:
206,246,162082,2,0,P|253:257|301:246,2,99.0000030212403,8|0|0,0:0|0:0|0:0,0:0:0:0:
162,57,162644,1,2,0:0:0:0:
292,2,162832,1,8,0:0:0:0:
415,120,163019,6,0,P|412:204|438:337,1,198.000006042481
512,184,163582,1,8,0:0:0:0:
272,258,163769,1,0,0:0:0:0:
204,141,163957,1,8,0:0:0:0:
204,91,164050,1,8,0:0:0:0:
229,48,164144,1,10,0:0:0:0:
273,26,164238,1,8,0:0:0:0:
322,24,164332,1,8,0:0:0:0:
370,31,164425,1,8,0:0:0:0:
407,63,164519,1,8,0:0:0:0:
439,100,164613,1,8,0:0:0:0:
456,150,164707,6,0,P|399:160|332:149,1,99.0000030212403,2|0,0:0|0:0,0:0:0:0:
407,63,165082,1,8,0:0:0:0:
496,226,165269,1,6,0:0:0:0:
380,258,165644,6,0,L|259:264,1,99.0000030212403,2|8,0:0|0:0,0:0:0:0:
396,177,166019,1,0,0:0:0:0:
330,384,166394,5,0,0:0:0:0:
243,192,166582,2,0,P|181:187|137:193,1,99.0000030212403,8|0,0:0|0:0,0:0:0:0:
144,191,166863,1,8,0:0:0:0:
144,191,166957,1,8,0:0:0:0:
48,268,167144,1,8,0:0:0:0:
226,300,167332,1,8,0:0:0:0:
173,85,167519,1,8,0:0:0:0:
256,192,167613,12,0,170332,0:0:0:0:
255,191,170707,5,2,0:0:0:0:
381,283,171082,1,8,0:0:0:0:
493,122,171644,1,2,0:0:0:0:
493,122,171832,1,8,0:0:0:0:
293,7,172207,5,2,0:0:0:0:
129,102,172582,1,8,0:0:0:0:
87,130,172769,1,2,0:0:0:0:
179,303,173144,1,2,0:0:0:0:
179,303,173332,1,8,0:0:0:0:
456,273,173707,5,2,0:0:0:0:
367,116,174082,1,8,0:0:0:0:
206,333,174644,1,2,0:0:0:0:
206,333,174831,1,8,0:0:0:0:
359,190,175207,5,2,0:0:0:0:
202,19,175582,1,8,0:0:0:0:
190,67,175769,1,2,0:0:0:0:
195,318,176144,1,2,0:0:0:0:
195,318,176332,1,8,0:0:0:0:
452,251,176707,5,2,0:0:0:0:
361,86,177082,1,8,0:0:0:0:
190,259,177644,1,2,0:0:0:0:
190,259,177832,1,8,0:0:0:0:
31,95,178207,5,2,0:0:0:0:
208,35,178582,2,0,P|254:38|315:72,1,80.9999975280763,4|8,0:0|0:0,0:0:0:0:
414,157,178957,1,8,0:0:0:0:
293,202,179144,1,8,0:0:0:0:
248,305,179332,1,8,0:0:0:0:
210,320,179425,1,0,0:0:0:0:
169,320,179519,1,8,0:0:0:0:
129,309,179613,1,0,0:0:0:0:
94,287,179707,6,0,P|83:235|85:181,1,80.9999975280763,4|0,0:0|0:0,0:0:0:0:
118,109,180082,1,8,0:0:0:0:
153,83,180269,1,2,0:0:0:0:
255,195,180644,1,2,0:0:0:0:
292,217,180832,2,0,P|342:222|384:219,1,80.9999975280763,8|0,0:0|0:0,0:0:0:0:
425,18,181207,6,0,P|419:85|426:117,1,80.9999975280763,2|0,0:0|0:0,0:0:0:0:
483,161,181582,1,8,0:0:0:0:
487,205,181769,1,2,0:0:0:0:
410,310,182144,1,2,0:0:0:0:
366,305,182332,2,0,P|319:306|255:306,1,80.9999975280763,8|0,0:0|0:0,0:0:0:0:
64,244,182707,6,0,L|175:237,1,80.9999975280763,2|0,0:0|0:0,0:0:0:0:
234,221,183082,1,8,0:0:0:0:
280,206,183269,1,2,0:0:0:0:
447,91,183644,1,2,0:0:0:0:
405,77,183832,2,0,L|317:55,1,80.9999975280763,8|0,0:0|0:0,0:0:0:0:
170,18,184207,6,0,P|166:97|175:128,2,80.9999975280763,2|0|8,0:0|0:0|0:0,0:0:0:0:
254,69,184769,1,2,0:0:0:0:
254,69,185144,1,2,0:0:0:0:
206,179,185332,2,0,P|155:183|106:176,1,80.9999975280763,8|0,0:0|0:0,0:0:0:0:
306,122,185707,5,2,0:0:0:0:
445,239,186082,1,8,0:0:0:0:
445,239,186269,2,0,P|368:228|270:246,1,161.999995056153,2|2,0:0|0:0,0:0:0:0:
374,321,186832,1,8,0:0:0:0:
453,246,187019,1,8,0:0:0:0:
453,246,187113,1,8,0:0:0:0:
453,246,187207,6,0,L|440:162,1,80.9999975280763,2|0,0:0|0:0,0:0:0:0:
377,54,187582,1,8,0:0:0:0:
336,60,187769,1,2,0:0:0:0:
180,66,188144,1,2,0:0:0:0:
134,58,188332,1,8,0:0:0:0:
180,66,188707,5,2,0:0:0:0:
252,165,189082,2,0,P|189:165|163:170,2,80.9999975280763,8|2|0,0:0|0:0|0:0,0:0:0:0:
337,197,189644,1,2,0:0:0:0:
414,153,189832,2,0,P|422:113|415:67,1,80.9999975280763,8|0,0:0|0:0,0:0:0:0:
337,197,190207,6,0,P|335:260|346:297,1,80.9999975280763,2|0,0:0|0:0,0:0:0:0:
425,327,190582,1,8,0:0:0:0:
338,277,190769,1,2,0:0:0:0:
265,322,190957,1,0,0:0:0:0:
165,275,191144,1,10,0:0:0:0:
165,275,191238,1,8,0:0:0:0:
165,275,191332,1,8,0:0:0:0:
40,348,191519,1,8,0:0:0:0:
40,348,191613,1,8,0:0:0:0:
40,348,191707,6,0,L|32:241,1,90,4|0,0:0|0:0,0:0:0:0:
87,84,192082,2,0,L|87:173,1,90,8|0,0:0|0:0,0:0:0:0:
168,316,192457,2,0,L|164:226,1,90,0|2,0:0|0:0,0:0:0:0:
247,101,192832,2,0,L|251:191,1,90,8|0,0:0|0:0,0:0:0:0:
322,35,193207,5,2,0:0:0:0:
448,126,193394,1,0,0:0:0:0:
322,35,193582,1,8,0:0:0:0:
346,189,193769,2,0,L|356:302,1,90,2|0,0:0|0:0,0:0:0:0:
261,213,194144,1,2,0:0:0:0:
181,251,194332,1,8,0:0:0:0:
97,297,194519,1,0,0:0:0:0:
97,297,194707,6,0,L|196:358,1,90,2|0,0:0|0:0,0:0:0:0:
289,369,195082,2,0,P|345:372|396:342,1,90,8|0,0:0|0:0,0:0:0:0:
414,256,195457,1,0,0:0:0:0:
414,256,195644,2,0,P|390:213|385:160,1,90,2|8,0:0|0:0,0:0:0:0:
488,176,196019,1,0,0:0:0:0:
315,244,196207,5,2,0:0:0:0:
384,173,196394,1,0,0:0:0:0:
195,91,196582,1,8,0:0:0:0:
230,217,196769,2,0,L|284:120,2,90,2|0|2,0:0|0:0|0:0,0:0:0:0:
116,251,197332,1,8,0:0:0:0:
230,217,197519,1,0,0:0:0:0:
340,184,197707,5,2,0:0:0:0:
340,184,198082,2,0,L|447:201,1,90,8|0,0:0|0:0,0:0:0:0:
375,104,198457,1,0,0:0:0:0:
254,135,198644,2,0,L|150:138,1,90,2|8,0:0|0:0,0:0:0:0:
300,57,199019,1,0,0:0:0:0:
164,137,199207,6,0,B|153:182|153:182|170:260,1,90,2|0,0:0|0:0,0:0:0:0:
254,176,199582,1,8,0:0:0:0:
345,92,199769,2,0,B|348:141|387:171|387:171|350:195|346:273,1,180,2|2,0:0|0:0,0:0:0:0:
212,281,200332,1,8,0:0:0:0:
348,246,200519,1,0,0:0:0:0:
460,344,200707,5,2,0:0:0:0:
460,344,201082,2,0,L|472:233,1,90,8|0,0:0|0:0,0:0:0:0:
362,354,201457,1,0,0:0:0:0:
261,278,201644,1,2,0:0:0:0:
370,153,201832,2,0,P|371:215|366:254,1,90,8|0,0:0|0:0,0:0:0:0:
287,115,202207,5,2,0:0:0:0:
358,2,202395,1,0,0:0:0:0:
370,153,202582,1,8,0:0:0:0:
225,43,202769,2,0,L|292:26,2,45,2|0|0,0:0|0:0|0:0,0:0:0:0:
137,109,203144,2,0,L|54:88,2,45,2|0|8,0:0|0:0|0:0,0:0:0:0:
177,129,203425,1,8,0:0:0:0:
214,154,203519,1,0,0:0:0:0:
230,196,203613,1,8,0:0:0:0:
237,240,203707,5,4,0:0:0:0:
101,292,204082,2,0,P|56:295|11:294,1,90,8|0,0:0|0:0,0:0:0:0:
192,226,204457,1,0,0:0:0:0:
261,176,204644,2,0,P|279:112|246:84,1,90,2|8,0:0|0:0,0:0:0:0:
159,145,205019,1,0,0:0:0:0:
268,97,205207,5,2,0:0:0:0:
364,46,205394,1,0,0:0:0:0:
336,201,205582,1,8,0:0:0:0:
465,114,205769,2,0,B|441:164|441:164|465:248|469:300,1,180,2|2,0:0|0:0,0:0:0:0:
495,378,206332,1,8,0:0:0:0:
380,348,206519,1,0,0:0:0:0:
385,194,206707,5,2,0:0:0:0:
385,194,207082,2,0,L|263:206,1,90,8|0,0:0|0:0,0:0:0:0:
379,97,207457,1,0,0:0:0:0:
295,202,207644,2,0,P|301:268|287:308,1,90,2|8,0:0|0:0,0:0:0:0:
194,148,208019,6,0,P|184:92|199:33,2,90,0|2|0,0:0|0:0|0:0,0:0:0:0:
227,247,208582,1,8,0:0:0:0:
77,171,208769,2,0,P|74:225|90:285,2,90,2|0|2,0:0|0:0|0:0,0:0:0:0:
157,213,209332,1,8,0:0:0:0:
106,351,209520,1,0,0:0:0:0:
268,297,209707,5,2,0:0:0:0:
268,297,210082,2,0,P|321:291|364:301,2,90,8|0|0,0:0|0:0|0:0,0:0:0:0:
165,351,210644,1,2,0:0:0:0:
100,270,210832,2,0,L|97:171,1,90,8|0,0:0|0:0,0:0:0:0:
149,64,211207,5,2,0:0:0:0:
247,14,211394,2,0,P|255:55|251:112,1,90,0|8,0:0|0:0,0:0:0:0:
233,269,211769,1,0,0:0:0:0:
97,180,211957,2,0,B|177:214|217:155|312:206,1,180,0|8,0:0|0:0,0:0:0:0:
306,273,212519,1,0,0:0:0:0:
177,189,212707,5,2,0:0:0:0:
177,189,213082,2,0,L|170:81,1,90,8|0,0:0|0:0,0:0:0:0:
55,240,213457,1,0,0:0:0:0:
177,189,213644,2,0,P|248:178|305:186,1,90,2|8,0:0|0:0,0:0:0:0:
229,307,214019,1,0,0:0:0:0:
108,129,214207,5,8,0:0:0:0:
315,236,214394,1,8,0:0:0:0:
122,262,214582,1,8,0:0:0:0:
248,81,214769,1,8,0:0:0:0:
252,346,214957,2,0,L|215:283,3,45,8|0|8|0,0:0|0:0|0:0|0:0,0:0:0:0:
320,281,215332,2,0,L|313:207,3,45,8|0|8|0,0:0|0:0|0:0|0:0,0:0:0:0:
384,372,215707,6,0,P|432:302|449:155,1,198.000006042481,4|8,0:0|0:0,0:0:0:0:
424,86,216269,1,0,0:0:0:0:
241,131,216457,1,0,0:0:0:0:
346,18,216644,1,0,0:0:0:0:
379,224,216832,1,8,0:0:0:0:
204,141,217019,1,0,0:0:0:0:
338,122,217207,6,0,L|294:218,1,99.0000030212403,2|0,0:0|0:0,0:0:0:0:
217,334,217582,2,0,L|198:202,1,99.0000030212403,8|2,0:0|0:0,0:0:0:0:
97,322,217957,1,0,0:0:0:0:
217,334,218144,1,2,0:0:0:0:
269,145,218332,1,8,0:0:0:0:
202,236,218519,1,0,0:0:0:0:
328,264,218707,6,0,P|391:268|437:264,1,99.0000030212403,8|0,0:0|0:0,0:0:0:0:
202,236,219082,2,0,P|130:229|79:239,1,99.0000030212403,8|0,0:0|0:0,0:0:0:0:
259,316,219457,1,8,0:0:0:0:
300,164,219644,1,8,0:0:0:0:
300,164,219738,1,8,0:0:0:0:
300,164,219832,1,8,0:0:0:0:
194,33,220019,2,0,P|188:83|188:146,1,99.0000030212403,8|0,0:0|0:0,0:0:0:0:
237,217,220394,5,0,0:0:0:0:
253,263,220488,1,0,0:0:0:0:
235,309,220582,1,0,0:0:0:0:
191,330,220675,1,0,0:0:0:0:
141,325,220769,1,0,0:0:0:0:
100,296,220863,1,0,0:0:0:0:
86,248,220957,1,0,0:0:0:0:
128,115,221144,2,0,B|177:126|220:89|220:89|256:128|321:114,1,198.000006042481
310,115,221707,5,2,0:0:0:0:
432,169,222082,1,8,0:0:0:0:
449,214,222269,1,2,0:0:0:0:
279,280,222644,2,0,P|224:288|173:287,2,80.9999975280763,2|0|2,0:0|0:0|0:0,0:0:0:0:
259,100,223207,5,2,0:0:0:0:
279,281,223582,1,8,0:0:0:0:
230,280,223769,1,2,0:0:0:0:
109,324,224144,2,0,P|102:260|103:220,2,80.9999975280763,2|0|2,0:0|0:0|0:0,0:0:0:0:
175,157,224707,5,2,0:0:0:0:
109,324,225082,1,8,0:0:0:0:
157,329,225269,1,2,0:0:0:0:
243,240,225644,2,0,P|287:257|323:277,2,80.9999975280763,2|0|2,0:0|0:0|0:0,0:0:0:0:
55,263,226207,6,0,L|137:203,1,80.9999975280763
197,149,226582,1,8,0:0:0:0:
279,21,226769,2,0,P|289:78|286:202,1,161.999995056153,2|2,0:0|0:0,0:0:0:0:
213,244,227332,1,0,0:0:0:0:
274,328,227519,1,0,0:0:0:0:
362,258,227707,5,2,0:0:0:0:
310,134,228082,1,8,0:0:0:0:
329,89,228269,1,2,0:0:0:0:
439,15,228644,2,0,P|462:85|464:113,1,80.9999975280763,2|0,0:0|0:0,0:0:0:0:
472,176,229019,1,2,0:0:0:0:
370,258,229207,5,0,0:0:0:0:
200,238,229582,1,8,0:0:0:0:
152,230,229769,1,2,0:0:0:0:
276,144,230144,2,0,P|319:143|372:148,2,80.9999975280763,2|0|2,0:0|0:0|0:0,0:0:0:0:
108,174,230707,5,2,0:0:0:0:
218,333,231082,1,8,0:0:0:0:
264,346,231269,1,2,0:0:0:0:
417,280,231644,2,0,L|465:193,2,80.9999975280763,2|0|2,0:0|0:0|0:0,0:0:0:0:
207,329,232207,6,0,P|205:269|210:212,1,80.9999975280763,2|0,0:0|0:0,0:0:0:0:
276,180,232582,1,8,0:0:0:0:
253,137,232769,1,2,0:0:0:0:
143,20,233144,1,2,0:0:0:0:
126,66,233332,1,8,0:0:0:0:
133,113,233519,1,2,0:0:0:0:
228,218,233707,5,4,0:0:0:0:
77,273,234082,1,8,0:0:0:0:
54,229,234270,1,2,0:0:0:0:
131,99,234644,2,0,P|186:101|237:117,1,80.9999975280763,2|0,0:0|0:0,0:0:0:0:
299,156,235019,1,2,0:0:0:0:
446,243,235207,5,2,0:0:0:0:
299,156,235582,1,8,0:0:0:0:
292,107,235769,1,2,0:0:0:0:
386,19,236144,2,0,L|480:32,2,80.9999975280763,2|0|2,0:0|0:0|0:0,0:0:0:0:
217,75,236707,5,2,0:0:0:0:
8,121,237082,1,8,0:0:0:0:
49,146,237269,1,2,0:0:0:0:
194,158,237644,2,0,P|205:207|192:265,1,80.9999975280763,2|8,0:0|0:0,0:0:0:0:
193,321,238019,1,0,0:0:0:0:
207,349,238113,1,0,0:0:0:0:
237,361,238207,5,2,0:0:0:0:
408,287,238582,1,8,0:0:0:0:
384,244,238769,1,2,0:0:0:0:
296,39,239144,1,2,0:0:0:0:
330,73,239332,2,0,P|342:122|333:173,1,80.9999975280763,8|2,0:0|0:0,0:0:0:0:
223,184,239707,6,0,P|165:181|135:188,1,80.9999975280763,2|0,0:0|0:0,0:0:0:0:
283,251,240082,1,8,0:0:0:0:
331,245,240270,1,2,0:0:0:0:
465,119,240644,1,2,0:0:0:0:
483,164,240832,1,8,0:0:0:0:
474,211,241019,1,2,0:0:0:0:
425,329,241207,6,0,L|328:330,1,80.9999975280763,2|0,0:0|0:0,0:0:0:0:
163,246,241582,1,8,0:0:0:0:
210,257,241769,1,2,0:0:0:0:
344,329,242144,2,0,P|349:262|344:216,2,80.9999975280763,2|0|2,0:0|0:0|0:0,0:0:0:0:
218,371,242707,5,2,0:0:0:0:
48,300,243082,1,8,0:0:0:0:
43,251,243269,1,2,0:0:0:0:
86,119,243644,1,8,0:0:0:0:
86,119,243738,1,8,0:0:0:0:
86,119,243832,2,0,P|139:124|184:115,1,80.9999975280763,12|0,0:0|0:0,0:0:0:0:
227,30,244207,5,8,0:0:0:0:
350,75,244394,2,0,L|420:55,2,45,0|0|8,0:0|0:0|0:0,0:0:0:0:
210,128,244769,2,0,L|145:115,2,45,0|0|8,0:0|0:0|0:0,0:0:0:0:
331,158,245144,1,8,0:0:0:0:
344,196,245238,1,0,0:0:0:0:
344,236,245332,1,8,0:0:0:0:
334,275,245425,1,0,0:0:0:0:
318,312,245519,1,8,0:0:0:0:
288,340,245613,1,0,0:0:0:0:
249,363,245707,6,0,P|190:370|145:363,2,99.0000030212403,4|0|8,0:0|0:0|0:0,0:0:0:0:
334,275,246269,2,0,P|396:269|449:280,1,99.0000030212403
204,286,246644,1,0,0:0:0:0:
106,159,246832,1,8,0:0:0:0:
249,74,247019,1,0,0:0:0:0:
273,193,247207,6,0,P|212:199|164:192,1,99.0000030212403,2|0,0:0|0:0,0:0:0:0:
345,99,247582,1,8,0:0:0:0:
384,195,247769,2,0,L|401:318,2,99.0000030212403,2|0|2,0:0|0:0|0:0,0:0:0:0:
345,99,248332,2,0,L|230:80,1,99.0000030212403,8|0,0:0|0:0,0:0:0:0:
109,77,248707,6,0,P|101:148|117:193,1,99.0000030212403,2|0,0:0|0:0,0:0:0:0:
255,213,249082,2,0,L|152:287,1,99.0000030212403,8|0,0:0|0:0,0:0:0:0:
49,320,249457,1,0,0:0:0:0:
48,140,249644,1,2,0:0:0:0:
139,230,249832,2,0,L|213:314,1,99.0000030212403,8|0,0:0|0:0,0:0:0:0:
182,146,250207,5,2,0:0:0:0:
0,199,250394,1,0,0:0:0:0:
139,230,250582,1,8,0:0:0:0:
98,80,250769,2,0,P|145:43|270:88,1,198.000006042481,2|2,0:0|0:0,0:0:0:0:
305,178,251332,1,8,0:0:0:0:
425,150,251519,1,0,0:0:0:0:
322,0,251707,6,0,L|259:92,1,99.0000030212403,2|0,0:0|0:0,0:0:0:0:
212,171,252082,1,8,0:0:0:0:
40,120,252269,2,0,P|90:107|154:132,1,99.0000030212403
72,224,252644,1,2,0:0:0:0:
153,378,252832,1,8,0:0:0:0:
263,273,253019,1,0,0:0:0:0:
5,324,253207,6,0,L|119:312,1,99.0000030212403,2|0,0:0|0:0,0:0:0:0:
103,313,253488,1,8,0:0:0:0:
103,313,253582,1,8,0:0:0:0:
265,378,253769,2,0,B|343:294|252:171,1,198.000006042481,2|2,0:0|0:0,0:0:0:0:
179,291,254332,1,8,0:0:0:0:
265,378,254519,1,0,0:0:0:0:
420,322,254707,6,0,L|432:191,1,99.0000030212403,2|0,0:0|0:0,0:0:0:0:
359,117,255082,2,0,B|305:108|305:108|250:111,1,99.0000030212403,8|0,0:0|0:0,0:0:0:0:
165,211,255457,1,0,0:0:0:0:
276,302,255645,1,2,0:0:0:0:
359,117,255832,1,8,0:0:0:0:
244,188,256019,1,0,0:0:0:0:
481,283,256207,6,0,L|441:252,3,49.5000015106202,2|0|0|0,0:0|0:0|0:0|0:0,0:0:0:0:
360,247,256582,1,0,0:0:0:0:
380,146,256769,5,4,0:0:0:0:
341,114,256863,1,0,0:0:0:0:
291,111,256957,1,0,0:0:0:0:
252,140,257050,1,0,0:0:0:0:
244,188,257144,1,2,0:0:0:0:
265,232,257238,1,0,0:0:0:0:
283,277,257332,1,8,0:0:0:0:
277,325,257425,1,0,0:0:0:0:
238,355,257519,1,0,0:0:0:0:
188,356,257613,1,0,0:0:0:0:
140,342,257707,6,0,P|132:282|140:224,2,99.0000030212403,2|0|8,0:0|0:0|0:0,0:0:0:0:
89,173,258269,2,0,P|152:164|197:180,1,99.0000030212403
135,243,258644,1,2,0:0:0:0:
0,168,258832,1,8,0:0:0:0:
134,56,259019,1,0,0:0:0:0:
259,159,259207,6,0,B|348:253,1,99.0000030212403,2|0,0:0|0:0,0:0:0:0:
375,87,259582,1,8,0:0:0:0:
244,75,259769,2,0,P|198:99|170:149,2,99.0000030212403,2|0|2,0:0|0:0|0:0,0:0:0:0:
375,87,260332,1,8,0:0:0:0:
327,230,260519,1,0,0:0:0:0:
427,287,260707,6,0,L|445:397,1,99.0000030212403,2|0,0:0|0:0,0:0:0:0:
503,233,261082,1,8,0:0:0:0:
409,186,261269,2,0,P|327:189|280:196,1,99.0000030212403
169,228,261644,1,2,0:0:0:0:
304,289,261832,2,0,P|314:225|306:174,1,99.0000030212403,8|0,0:0|0:0,0:0:0:0:
195,128,262207,5,2,0:0:0:0:
288,41,262394,1,0,0:0:0:0:
396,230,262582,1,8,0:0:0:0:
304,289,262769,2,0,P|295:193|390:113,1,198.000006042481,2|2,0:0|0:0,0:0:0:0:
359,121,263238,1,8,0:0:0:0:
359,121,263332,1,8,0:0:0:0:
494,225,263519,1,8,0:0:0:0:
494,225,263613,1,8,0:0:0:0:
494,225,263707,6,0,L|369:231,1,99.0000030212403,4|0,0:0|0:0,0:0:0:0:
200,277,264082,1,8,0:0:0:0:
336,365,264269,2,0,L|304:260,1,99.0000030212403,4|0,0:0|0:0,0:0:0:0:
207,123,264644,1,2,0:0:0:0:
94,349,264832,1,8,0:0:0:0:
200,277,265019,1,0,0:0:0:0:
104,185,265207,6,0,P|25:184|-6:191,1,99.0000030212403,2|0,0:0|0:0,0:0:0:0:
200,277,265582,1,8,0:0:0:0:
288,186,265769,2,0,B|296:143|337:98|337:98|322:34|223:55,1,198.000006042481,6|2,0:0|0:0,0:0:0:0:
164,175,266332,1,8,0:0:0:0:
97,70,266519,1,8,0:0:0:0:
127,30,266613,1,8,0:0:0:0:
172,18,266707,6,0,P|226:27|278:64,1,99.0000030212403,4|0,0:0|0:0,0:0:0:0:
311,138,267082,1,8,0:0:0:0:
410,34,267269,2,0,P|405:97|415:151,2,99.0000030212403,2|0|0,0:0|0:0|0:0,0:0:0:0:
493,82,267832,1,8,0:0:0:0:
423,230,268019,1,0,0:0:0:0:
334,318,268207,6,0,L|232:329,1,99.0000030212403,2|0,0:0|0:0,0:0:0:0:
255,153,268582,2,0,L|312:260,1,99.0000030212403,8|0,0:0|0:0,0:0:0:0:
423,90,268957,2,0,L|326:105,1,99.0000030212403,2|8,0:0|0:0,0:0:0:0:
325,105,269238,1,8,0:0:0:0:
325,105,269332,1,8,0:0:0:0:
131,42,269519,1,8,0:0:0:0:
131,42,269613,1,8,0:0:0:0:
131,42,269707,6,0,B|175:84|257:89|257:89|243:186,1,198.000006042481,4|8,0:0|0:0,0:0:0:0:
121,378,270269,1,0,0:0:0:0:
105,190,270457,2,0,P|153:166|207:154,1,99.0000030212403,0|2,0:0|0:0,0:0:0:0:
467,168,270832,5,8,0:0:0:0:
248,149,271019,2,0,P|173:149|80:51,1,198.000006042481,2|0,0:0|0:0,0:0:0:0:
198,50,271582,1,8,0:0:0:0:
91,237,271769,1,0,0:0:0:0:
198,50,271957,2,0,L|310:36,1,99.0000030212403,0|2,0:0|0:0,0:0:0:0:
267,197,272332,1,8,0:0:0:0:
180,293,272519,6,0,P|157:206|202:71,1,198.000006042481,2|0,0:0|0:0,0:0:0:0:
373,147,273082,2,0,P|378:210|367:258,2,99.0000030212403,8|0|0,0:0|0:0|0:0,0:0:0:0:
181,102,273644,1,2,0:0:0:0:
56,203,273832,1,8,0:0:0:0:
178,276,274019,6,0,P|279:281|373:307,1,198.000006042481,2|0,0:0|0:0,0:0:0:0:
220,384,274582,1,8,0:0:0:0:
56,203,274770,1,0,0:0:0:0:
236,65,274957,1,8,0:0:0:0:
263,101,275050,1,8,0:0:0:0:
278,140,275144,1,10,0:0:0:0:
294,186,275238,1,8,0:0:0:0:
297,235,275332,1,8,0:0:0:0:
288,283,275425,1,8,0:0:0:0:
274,330,275519,1,8,0:0:0:0:
234,360,275613,1,8,0:0:0:0:
186,374,275707,6,0,B|121:381|69:370,1,99.0000030212403,4|0,0:0|0:0,0:0:0:0:
288,283,276082,1,8,0:0:0:0:
407,373,276269,1,6,0:0:0:0:
407,373,276644,2,0,L|372:258,1,99.0000030212403,2|2,0:0|0:0,0:0:0:0:
224,120,277019,6,0,P|299:113|336:140,1,99.0000030212403,8|0,0:0|0:0,0:0:0:0:
459,199,277394,1,0,0:0:0:0:
233,287,277582,1,8,0:0:0:0:
318,163,277769,1,2,0:0:0:0:
461,364,277957,1,8,0:0:0:0:
269,364,278144,1,10,0:0:0:0:
223,344,278238,1,0,0:0:0:0:
190,306,278332,1,8,0:0:0:0:
182,257,278425,1,0,0:0:0:0:
179,207,278519,1,8,0:0:0:0:
195,160,278613,1,0,0:0:0:0:
229,123,278707,6,0,P|278:118|326:129,2,99.0000030212403,4|0|8,0:0|0:0|0:0,0:0:0:0:
9,81,279269,2,0,P|78:59|238:33,1,198.000006042481,6|0,0:0|0:0,0:0:0:0:
334,43,279832,1,8,0:0:0:0:
481,145,280019,2,0,B|372:184|381:116|272:156,1,198.000006042481
164,162,280582,1,8,0:0:0:0:
79,253,280769,1,8,0:0:0:0:
79,253,280863,1,8,0:0:0:0:
79,253,280957,2,0,L|196:271,1,99.0000030212403,8|2,0:0|0:0,0:0:0:0:
226,273,281238,1,0,0:0:0:0:
270,295,281332,1,8,0:0:0:0:
298,334,281425,1,0,0:0:0:0:
342,355,281519,1,8,0:0:0:0:
390,363,281613,1,0,0:0:0:0:
438,354,281707,6,0,P|452:294|451:236,1,99.0000030212403,6|0,0:0|0:0,0:0:0:0:
341,276,282082,1,8,0:0:0:0:
432,50,282270,1,6,0:0:0:0:
432,50,282644,6,0,P|449:115|450:168,1,99.0000030212403,2|0,0:0|0:0,0:0:0:0:
278,169,283019,1,4,0:0:0:0:
230,20,283394,5,8,0:0:0:0:
161,284,283582,1,8,0:0:0:0:
436,229,283769,1,8,0:0:0:0:
253,154,283957,2,0,L|137:185,1,99.0000030212403,8|8,0:0|0:0,0:0:0:0:
157,179,284238,1,8,0:0:0:0:
157,179,284332,1,8,0:0:0:0:
40,240,284519,6,0,B|98:283|161:281|161:281|121:331|121:331|168:322|243:354,1,315,4|0,0:0|0:0,0:0:0:0:
284,353,285269,5,2,0:0:0:0:
452,248,285644,1,8,0:0:0:0:
443,203,285831,1,2,0:0:0:0:
209,63,286207,6,0,P|163:57|111:66,1,80.9999975280763,4|0,0:0|0:0,0:0:0:0:
286,133,286582,1,0,0:0:0:0:
396,87,286769,1,0,0:0:0:0:
286,133,286957,2,0,P|283:183|290:222,1,80.9999975280763,0|2,0:0|0:0,0:0:0:0:
388,324,287332,1,0,0:0:0:0:
228,314,287519,6,0,B|279:304|345:348|419:314,1,161.999995056153,4|0,0:0|0:0,0:0:0:0:
342,228,288082,1,0,0:0:0:0:
228,314,288269,1,0,0:0:0:0:
124,238,288457,2,0,P|117:182|121:148,1,80.9999975280763,8|0,0:0|0:0,0:0:0:0:
219,20,288832,2,0,P|226:70|216:122,1,80.9999975280763,8|0,0:0|0:0,0:0:0:0:
124,238,289207,6,0,L|226:247,1,80.9999975280763
104,329,289582,1,0,0:0:0:0:
16,208,289769,1,0,0:0:0:0:
169,125,289957,2,0,L|262:145,1,80.9999975280763
332,266,290332,1,0,0:0:0:0:
340,105,290519,6,0,B|358:165|316:219|336:290,1,161.999995056153,6|8,0:0|0:0,0:0:0:0:
331,265,290988,1,8,0:0:0:0:
331,265,291082,1,8,0:0:0:0:
379,371,291269,1,8,0:0:0:0:
420,354,291363,1,8,0:0:0:0:
449,320,291457,1,8,0:0:0:0:
461,277,291550,1,8,0:0:0:0:
448,234,291644,1,8,0:0:0:0:
368,166,291832,1,8,0:0:0:0:
324,160,291925,1,8,0:0:0:0:
281,172,292019,1,8,0:0:0:0:
175,182,292207,6,0,P|172:131|188:68,1,90,4|0,0:0|0:0,0:0:0:0:
248,324,292582,1,8,0:0:0:0:
89,245,292769,1,0,0:0:0:0:
175,182,292957,2,0,L|296:137,1,90,0|2,0:0|0:0,0:0:0:0:
377,120,293332,1,8,0:0:0:0:
381,298,293519,6,0,B|389:208|389:208|370:76,1,180,4|0,0:0|0:0,0:0:0:0:
296,213,294082,1,8,0:0:0:0:
462,255,294269,1,2,0:0:0:0:
376,119,294457,1,0,0:0:0:0:
269,81,294644,1,10,0:0:0:0:
224,85,294738,1,8,0:0:0:0:
194,119,294832,1,8,0:0:0:0:
182,161,294925,1,8,0:0:0:0:
194,204,295019,1,8,0:0:0:0:
218,236,295113,1,0,0:0:0:0:
231,274,295207,6,0,L|115:289,1,90,4|0,0:0|0:0,0:0:0:0:
332,344,295582,1,8,0:0:0:0:
299,111,295769,1,0,0:0:0:0:
194,204,295957,2,0,L|313:222,2,90,0|2|8,0:0|0:0|0:0,0:0:0:0:
153,113,296519,6,0,P|111:163|120:271,1,180,4|0,0:0|0:0,0:0:0:0:
257,374,297082,1,8,0:0:0:0:
399,244,297269,1,2,0:0:0:0:
226,156,297457,5,0,0:0:0:0:
371,371,297691,5,8,0:0:0:0:
512,137,297925,5,8,0:0:0:0:
170,21,298160,5,8,0:0:0:0:
255,190,299143,5,4,0:0:0:0:
256,192,299236,12,0,305143,0:0:0:0:
