osu file format v14

[General]
AudioFilename: audio.mp3
AudioLeadIn: 0
PreviewTime: 46004
Countdown: 0
SampleSet: Soft
StackLeniency: 0.7
Mode: 0
LetterboxInBreaks: 0
WidescreenStoryboard: 0

[Editor]
Bookmarks: 67332,82198
DistanceSpacing: 1.4
BeatDivisor: 4
GridSize: 32
TimelineZoom: 1

[Metadata]
Title:Kokoro ni Tsubomi
TitleUnicode:ココロニツボミ
Artist:eufonius
ArtistUnicode:eufonius
Creator:Rizia
Version:Hard
Source:このはな綺譚
Tags:Konohana Kitan anime tv size opening kawaiwkyik riya
BeatmapID:1444855
BeatmapSetID:677308

[Difficulty]
HPDrainRate:5
CircleSize:4
OverallDifficulty:6
ApproachRate:7
SliderMultiplier:1.4
SliderTickRate:1

[Events]
//Background and Video events
0,0,"mv_img.jpg",0,0
Video,0,"optc (2).flv"
//Break Periods
//Storyboard Layer 0 (Background)
//Storyboard Layer 1 (Fail)
//Storyboard Layer 2 (Pass)
//Storyboard Layer 3 (Foreground)
//Storyboard Sound Samples

[TimingPoints]
409,666.666666666667,4,2,1,60,1,0
3272,750,4,2,1,60,1,0
6252,419.58041958042,4,2,1,20,1,0
7962,419.58041958042,4,2,1,20,1,0
7962,-133.333333333333,4,2,1,20,0,0
18032,-200,4,2,1,60,0,0
19710,-100,4,2,1,40,0,0
33137,-100,4,2,1,50,0,0
46563,-86.9565217391304,4,2,1,60,0,1
76744,419.58041958042,4,2,1,60,1,1
76744,-86.9565217391304,4,2,1,60,0,1
84925,-86.9565217391304,4,2,1,60,0,0
85555,-86.9565217391304,4,2,1,55,0,0
85974,-86.9565217391304,4,2,1,50,0,0
86394,-86.9565217391304,4,2,1,45,0,0
86813,-86.9565217391304,4,2,1,40,0,0
87233,-86.9565217391304,4,2,1,35,0,0
87653,-86.9565217391304,4,2,1,30,0,0
88072,-100,4,2,1,25,0,0
88492,-100,4,2,1,20,0,0
88911,-100,4,2,1,15,0,0
89331,-100,4,2,1,5,0,0

[Colours]
Combo1 : 136,85,82
Combo2 : 247,231,198
Combo3 : 130,107,163
Combo4 : 101,78,84
Combo5 : 251,221,223

[HitObjects]
158,119,6252,5,2,0:0:0:0:
158,119,7962,2,0,P|216:135|283:63,2,157.500006008148,2|2|2,0:0|0:0|0:0,0:0:0:0:
64,50,9640,1,2,0:0:0:0:
35,279,10479,6,0,B|44:331|44:331|74:326|116:353,1,105.000004005432,0|2,0:0|0:0,0:0:0:0:
162,312,11109,1,0,0:0:0:0:
162,312,11318,2,0,P|207:324|274:321,1,105.000004005432,2|0,0:0|0:0,0:0:0:0:
336,342,11948,2,0,P|381:330|448:333,1,105.000004005432,2|2,0:0|0:0,0:0:0:0:
507,305,12577,1,0,0:0:0:0:
444,171,12997,6,0,P|464:132|371:83,1,157.500006008148,2|0,0:0|0:0,0:0:0:0:
323,106,13836,2,0,L|266:100,2,52.5000020027161,0|0|0,0:0|0:0|0:0,0:0:0:0:
228,219,14675,6,0,L|102:205,1,105.000004005432,2|0,0:0|0:0,0:0:0:0:
70,156,15304,2,0,B|29:182|29:182|44:295,1,157.500006008148,2|2,0:0|0:0,0:0:0:0:
171,361,16353,6,0,B|156:252|156:252,1,105.000004005432,2|2,0:0|0:0,0:0:0:0:
157,256,16983,2,0,P|203:268|265:278,1,105.000004005432,2|0,0:0|0:0,0:0:0:0:
333,283,17612,1,0,0:0:0:0:
256,192,18032,12,0,19290,0:0:0:0:
123,119,19710,6,0,L|113:-6,2,105,4|0|2,0:0|0:0|0:0,0:0:0:0:
289,166,20759,1,0,0:0:0:0:
289,166,20969,2,0,L|372:155,1,70,2|0,0:0|0:0,0:0:0:0:
421,232,21388,6,0,P|374:232|312:310,1,140,4|0,0:3|0:0,0:0:0:0:
254,355,22018,2,0,P|209:363|115:330,1,140,2|0,0:0|0:0,0:0:0:0:
93,255,22647,1,2,0:0:0:0:
168,104,23067,6,0,L|291:91,2,105,4|0|2,0:3|0:0|0:0,0:0:0:0:
18,26,24116,1,0,0:0:0:0:
18,26,24325,2,0,L|30:98,1,70,2|0,0:0|0:0,0:0:0:0:
2,189,24745,6,0,P|40:186|110:255,1,140,4|0,0:3|0:0,0:0:0:0:
174,198,25374,2,0,L|326:187,1,140,2|0,0:0|0:0,0:0:0:0:
382,236,26004,1,2,0:0:0:0:
423,73,26423,6,0,P|443:41|517:11,2,105,4|0|2,0:3|0:0|0:0,0:0:0:0:
491,226,27472,1,0,0:0:0:0:
491,226,27682,2,0,P|502:267|492:313,1,70,2|0,0:0|0:0,0:0:0:0:
435,369,28102,6,0,P|396:377|311:325,1,140,4|0,0:3|0:0,0:0:0:0:
257,266,28731,2,0,P|269:220|267:123,1,140,2|0,0:0|0:0,0:0:0:0:
230,52,29360,1,2,0:0:0:0:
124,182,29780,6,0,L|4:171,2,105,4|0|2,0:3|0:0|0:0,0:0:0:0:
244,299,30829,2,0,L|254:372,1,70,0|2,0:0|0:0,0:0:0:0:
398,283,31458,6,0,L|414:117,1,140,4|0,0:3|0:0,0:0:0:0:
388,62,32088,2,0,L|312:72,1,70,2|2,0:0|0:0,0:0:0:0:
242,106,32507,1,2,0:0:0:0:
174,55,32717,1,6,0:0:0:0:
95,203,33137,6,0,P|69:242|79:324,2,105,4|0|2,0:0|0:0|0:0,0:0:0:0:
216,319,34186,1,0,0:0:0:0:
216,319,34395,2,0,L|294:314,1,70,2|0,0:0|0:0,0:0:0:0:
380,340,34815,6,0,P|426:359|485:291,1,140,4|0,0:3|0:0,0:0:0:0:
458,223,35444,2,0,L|451:68,1,140,2|0,0:0|0:0,0:0:0:0:
396,19,36074,1,2,0:0:0:0:
306,160,36493,6,0,L|301:264,2,105,4|0|2,0:3|0:0|0:0,0:0:0:0:
207,23,37542,1,0,0:0:0:0:
207,23,37752,2,0,P|168:38|117:31,1,70,2|0,0:0|0:0,0:0:0:0:
86,120,38172,6,0,P|40:110|5:198,1,140,4|0,0:3|0:0,0:0:0:0:
26,257,38801,2,0,P|96:254|164:235,1,140,2|0,0:0|0:0,0:0:0:0:
235,191,39430,1,2,0:0:0:0:
235,191,39640,1,0,0:0:0:0:
319,240,39850,6,0,P|311:292|376:352,1,140,4|0,0:0|0:0,0:0:0:0:
448,327,40479,2,0,L|469:180,1,140,2|0,0:0|0:0,0:0:0:0:
483,105,41109,1,2,0:0:0:0:
483,105,41318,1,0,0:0:0:0:
416,33,41528,6,0,L|258:52,1,140,4|0,0:3|0:0,0:0:0:0:
306,128,42158,2,0,L|167:111,1,140,2|0,0:0|0:0,0:0:0:0:
94,67,42787,1,2,0:0:0:0:
24,113,42996,1,0,0:0:0:0:
24,113,43206,6,0,P|2:150|65:233,1,140,2|0,0:0|0:0,0:0:0:0:
70,308,43836,2,0,P|103:293|152:296,1,70,0|2,0:0|0:0,0:0:0:0:
208,248,44256,1,0,0:0:0:0:
273,320,44465,1,2,0:0:0:0:
366,290,44675,1,4,0:0:0:0:
326,119,45724,6,0,L|373:110,4,35,4|0|0|8|8,0:3|0:0|0:0|0:0|0:0,0:0:0:0:
226,64,46353,1,8,0:3:0:0:
168,164,46563,6,0,P|119:157|73:151,1,80.5000015354157,4|0,0:0|0:0,0:0:0:0:
33,232,46983,2,0,P|82:239|128:245,1,80.5000015354157,8|0,0:0|0:0,0:0:0:0:
148,332,47402,2,0,P|187:300|322:313,1,161.000003070831,0|8,0:0|0:0,0:0:0:0:
376,346,48032,6,0,P|410:315|426:180,1,161.000003070831,0|0,0:0|0:0,0:0:0:0:
390,120,48661,1,8,0:0:0:0:
468,63,48871,1,2,0:0:0:0:
390,120,49081,2,0,P|343:139|223:145,1,161.000003070831,0|8,0:0|0:0,0:0:0:0:
140,121,49710,5,0,0:0:0:0:
140,121,49920,2,0,P|179:152|245:253,1,161.000003070831,4|8,0:0|0:0,0:0:0:0:
265,336,50549,2,0,P|272:285|326:178,1,161.000003070831,0|0,0:0|0:0,0:0:0:0:
390,120,51179,1,8,0:0:0:0:
390,120,51388,6,0,P|342:139|222:146,1,161.000003070831,0|0,0:0|0:0,0:0:0:0:
152,95,52018,1,8,0:0:0:0:
58,119,52228,2,0,P|20:154|30:268,1,161.000003070831,4|0,0:0|0:0,0:0:0:0:
62,344,52857,2,0,P|106:328|167:331,1,80.5000015354157,8|0,0:0|0:0,0:0:0:0:
220,272,53277,6,0,P|266:280|317:313,1,80.5000015354157,4|0,0:0|0:0,0:0:0:0:
382,337,53696,2,0,P|366:293|368:232,1,80.5000015354157,10|0,0:0|0:0,0:0:0:0:
315,175,54116,2,0,P|323:128|356:77,1,80.5000015354157,2|0,0:0|0:0,0:0:0:0:
410,35,54535,1,8,0:0:0:0:
410,35,54745,1,0,0:0:0:0:
486,94,54955,6,0,P|492:139|482:200,2,80.5000015354157,0|0|8,0:0|0:0|0:0,0:0:0:0:
398,134,55584,2,0,P|352:146|238:85,1,161.000003070831,4|0,0:0|0:0,0:0:0:0:
187,30,56214,1,8,0:0:0:0:
35,149,56633,5,0,0:0:0:0:
129,127,56843,1,0,0:0:0:0:
100,219,57053,2,0,P|82:263|91:319,1,80.5000015354157,8|0,0:0|0:0,0:0:0:0:
211,361,57472,2,0,P|205:317|188:274,2,80.5000015354157,0|0|8,0:0|0:0|0:0,0:0:0:0:
278,232,58102,6,0,P|333:257|442:246,2,161.000003070831,4|4|2,0:0|0:0|0:0,0:0:0:0:
185,62,59360,2,0,L|265:38,1,80.5000015354157,2|0,0:0|0:0,0:0:0:0:
326,111,59780,6,0,L|171:157,1,161.000003070831,4|0,0:0|0:0,0:0:0:0:
93,99,60409,2,0,P|82:152|15:252,1,161.000003070831,8|0,0:0|0:0,0:0:0:0:
9,337,61039,1,0,0:0:0:0:
98,299,61249,1,8,0:0:0:0:
178,351,61458,6,0,B|271:376|255:313|355:347,1,161.000003070831,4|0,0:0|0:0,0:0:0:0:
427,371,62088,2,0,P|448:332|445:282,1,80.5000015354157,8|0,0:0|0:0,0:0:0:0:
407,209,62507,2,0,P|422:172|453:146,1,80.5000015354157,0|0,0:0|0:0,0:0:0:0:
453,146,62822,1,8,0:0:0:0:
453,146,62927,1,8,0:0:0:0:
496,60,63137,1,0,0:0:0:0:
413,10,63346,6,0,L|323:26,1,80.5000015354157,4|0,0:0|0:0,0:0:0:0:
278,137,63766,2,0,L|357:122,1,80.5000015354157,8|0,0:0|0:0,0:0:0:0:
202,94,64186,2,0,L|58:119,2,120.750002303124,2|2|4,0:0|0:0|0:0,0:0:0:0:
293,264,65235,5,0,0:0:0:0:
293,264,65444,2,0,P|246:281|221:320,1,80.5000015354157,8|0,0:0|0:0,0:0:0:0:
218,343,65759,1,8,0:0:0:0:
218,343,65864,2,0,L|125:356,1,80.5000015354157,0|0,0:0|0:0,0:0:0:0:
50,313,66284,1,8,0:0:0:0:
124,252,66493,1,0,0:0:0:0:
67,173,66703,6,0,P|52:132|101:28,1,161.000003070831,0|8,0:0|0:0,0:0:0:0:
238,61,67332,2,0,P|252:101|203:205,1,161.000003070831,4|0,0:0|0:0,0:0:0:0:
124,252,67962,1,8,0:0:0:0:
182,329,68172,6,0,L|363:314,1,161.000003070831,0|0,0:0|0:0,0:0:0:0:
427,361,68801,2,0,L|465:278,1,80.5000015354157,8|0,0:0|0:0,0:0:0:0:
376,169,69221,2,0,L|389:266,1,80.5000015354157,8|0,0:0|0:0,0:0:0:0:
386,249,69535,1,0,0:0:0:0:
386,249,69640,1,8,0:0:0:0:
477,149,69850,2,0,L|483:107,2,40.2500007677078,0|0|4,0:0|0:0|0:0,0:0:0:0:
309,52,70479,6,0,P|265:24|134:33,1,161.000003070831,8|0,0:0|0:0,0:0:0:0:
69,59,71109,1,0,0:0:0:0:
69,59,71318,1,8,0:0:0:0:
28,146,71528,6,0,P|107:151|178:115,1,161.000003070831,4|0,0:0|0:0,0:0:0:0:
261,165,72158,2,0,L|343:176,1,80.5000015354157,8|0,0:0|0:0,0:0:0:0:
384,277,72577,2,0,L|304:266,1,80.5000015354157,8|0,0:0|0:0,0:0:0:0:
221,316,72997,1,8,0:0:0:0:
221,316,73207,1,0,0:0:0:0:
128,343,73416,6,0,P|76:356|28:257,1,161.000003070831,4|8,0:0|0:0,0:0:0:0:
66,192,74046,2,0,P|121:214|238:204,1,161.000003070831,4|0,0:0|0:0,0:0:0:0:
292,144,74675,1,8,0:0:0:0:
367,203,74885,6,0,B|412:231|412:231|419:282|362:339,1,161.000003070831,4|0,0:0|0:0,0:0:0:0:
291,380,75514,2,0,P|277:344|282:297,1,80.5000015354157,8|0,0:0|0:0,0:0:0:0:
288,206,75934,1,0,0:0:0:0:
211,146,76144,1,8,0:3:0:0:
251,58,76353,1,8,0:0:0:0:
251,58,76744,6,0,L|426:76,1,161.000003070831,4|8,0:0|0:0,0:0:0:0:
476,145,77373,1,0,0:0:0:0:
476,145,77583,1,0,0:0:0:0:
395,197,77792,2,0,P|380:244|390:301,1,80.5000015354157,0|8,0:0|0:0,0:0:0:0:
440,352,78212,6,0,P|403:318|284:308,1,161.000003070831,4|0,0:0|0:0,0:0:0:0:
207,340,78841,2,0,P|127:338|63:291,1,161.000003070831,8|0,0:0|0:0,0:0:0:0:
49,195,79471,1,0,0:0:0:0:
122,132,79681,1,8,0:0:0:0:
30,102,79890,1,0,0:0:0:0:
141,226,80100,6,0,B|242:243|212:185|320:202,1,161.000003070831,4|8,0:0|0:0,0:0:0:0:
380,151,80730,2,0,P|403:197|512:200,1,161.000003070831,4|0,0:0|0:0,0:0:0:0:
469,115,81359,1,8,0:0:0:0:
410,38,81569,6,0,B|378:44|355:30|355:30|312:47|312:47|285:39|245:39,1,161.000003070831,4|8,0:0|0:3,0:0:0:0:
164,74,82198,2,0,P|122:62|76:67,1,80.5000015354157,8|0,0:0|0:0,0:0:0:0:
20,136,82618,2,0,P|30:178|57:215,1,80.5000015354157,0|0,0:0|0:0,0:0:0:0:
145,226,83037,2,0,P|176:195|195:153,1,80.5000015354157,8|0,0:0|0:0,0:0:0:0:
272,218,83457,5,4,0:0:0:0:
302,309,83667,1,0,0:0:0:0:
390,347,83876,1,8,0:0:0:0:
483,323,84086,2,0,P|512:273|493:168,1,161.000003070831,4|8,0:0|0:0,0:0:0:0:
437,97,84716,1,8,0:0:0:0:
356,149,84925,1,4,0:0:0:0:
256,192,85135,12,0,89331,0:0:0:0:
