osu file format v14

[General]
AudioFilename: audio.mp3
AudioLeadIn: 0
PreviewTime: 46004
Countdown: 0
SampleSet: Soft
StackLeniency: 0.7
Mode: 0
LetterboxInBreaks: 0
WidescreenStoryboard: 0

[Editor]
Bookmarks: 67332,82198
DistanceSpacing: 1.4
BeatDivisor: 4
GridSize: 32
TimelineZoom: 1

[Metadata]
Title:Kokoro ni Tsubomi
TitleUnicode:ココロニツボミ
Artist:eufonius
ArtistUnicode:eufonius
Creator:Rizia
Version:Normal
Source:このはな綺譚
Tags:Konohana Kitan anime tv size opening kawaiwkyik riya
BeatmapID:1444856
BeatmapSetID:677308

[Difficulty]
HPDrainRate:3
CircleSize:3
OverallDifficulty:3
ApproachRate:4
SliderMultiplier:1.1
SliderTickRate:1

[Events]
//Background and Video events
0,0,"mv_img.jpg",0,0
Video,0,"optc (2).flv"
//Break Periods
//Storyboard Layer 0 (Background)
//Storyboard Layer 1 (Fail)
//Storyboard Layer 2 (Pass)
//Storyboard Layer 3 (Foreground)
//Storyboard Sound Samples

[TimingPoints]
409,666.666666666667,4,2,1,60,1,0
3272,750,4,2,1,60,1,0
6252,419.58041958042,4,2,1,20,1,0
7962,419.58041958042,4,2,1,20,1,0
7962,-125,4,2,1,20,0,0
18032,-100,4,2,1,60,0,0
19710,-100,4,2,1,40,0,0
33137,-100,4,2,1,50,0,0
46563,-100,4,2,1,60,0,1
76744,419.58041958042,4,2,1,60,1,1
76744,-100,4,2,1,60,0,1
84925,-100,4,2,1,60,0,0
85555,-100,4,2,1,55,0,0
85974,-100,4,2,1,50,0,0
86394,-100,4,2,1,45,0,0
86813,-100,4,2,1,40,0,0
87233,-100,4,2,1,35,0,0
87653,-100,4,2,1,30,0,0
88072,-100,4,2,1,25,0,0
88492,-100,4,2,1,20,0,0
88911,-100,4,2,1,15,0,0
89331,-100,4,2,1,5,0,0

[Colours]
Combo1 : 136,85,82
Combo2 : 247,231,198
Combo3 : 130,107,163
Combo4 : 101,78,84
Combo5 : 251,221,223

[HitObjects]
108,97,6252,5,2,0:0:0:0:
108,97,7962,2,0,P|154:98|232:146,2,132,2|2|2,0:0|0:0|0:0,0:0:0:0:
17,151,9640,5,2,0:0:0:0:
201,350,11318,2,0,B|245:328|286:354|286:354|336:262|441:296,1,264,2|0,0:0|0:0,0:0:0:0:
478,197,12997,6,0,P|433:199|351:105,1,176,2|0,0:0|0:0,0:0:0:0:
153,181,14675,2,0,L|141:49,2,132,2|2|2,0:0|0:0|0:0,0:0:0:0:
255,205,16353,2,0,L|266:336,2,132,2|2|0,0:0|0:0|0:0,0:0:0:0:
256,192,18032,12,4,19710,0:0:0:0:
81,116,21388,6,0,L|255:101,2,165,4|2|2,0:3|0:0|0:0,0:0:0:0:
34,216,23067,2,0,P|37:271|187:286,1,220,4|0,0:3|0:0,0:0:0:0:
268,246,24325,1,2,0:0:0:0:
346,323,24745,2,0,L|512:345,2,165,4|2|2,0:3|0:0|0:0,0:0:0:0:
268,246,26423,6,0,B|269:186|327:162|327:162|344:104|286:66,1,220,4|0,0:3|0:0,0:0:0:0:
192,13,27682,1,2,0:0:0:0:
157,117,28102,2,0,B|121:151|76:146|76:146|52:116|-3:109,2,165,4|2|2,0:3|0:0|0:0,0:0:0:0:
234,195,29780,6,0,P|204:255|307:359,1,220,4|0,0:3|0:0,0:0:0:0:
396,326,31039,1,2,0:0:0:0:
471,246,31458,2,0,L|451:128,1,110,4|0,0:3|0:0,0:0:0:0:
378,56,32297,2,0,P|331:74|225:18,1,165,2|0,0:0|0:0,0:0:0:0:
178,17,33137,6,0,P|126:10|64:142,1,220,4|0,0:0|0:0,0:0:0:0:
45,246,34395,1,2,0:0:0:0:
117,329,34815,2,0,L|290:351,2,165,4|2|2,0:3|0:0|0:0,0:0:0:0:
45,246,36493,6,0,P|96:197|243:226,1,220,4|0,0:3|0:0,0:0:0:0:
328,160,37752,1,2,0:0:0:0:
419,221,38172,2,0,P|437:178|393:72,2,165,4|2|2,0:3|0:0|0:0,0:0:0:0:
472,317,39850,6,0,P|412:302|267:385,1,220,4|0,0:0|0:0,0:0:0:0:
178,319,41109,1,2,0:0:0:0:
73,352,41528,2,0,P|30:318|43:152,1,220,4|0,0:3|0:0,0:0:0:0:
107,86,42787,1,2,0:0:0:0:
206,132,43207,6,0,P|274:155|404:93,1,220,2|2,0:0|0:0,0:0:0:0:
490,160,44465,2,0,L|503:223,1,55,2|4,0:0|0:0,0:0:0:0:
189,359,46563,6,0,P|161:308|169:247,1,110,4|8,0:0|0:0,0:0:0:0:
218,161,47402,2,0,P|276:162|324:199,1,110,0|8,0:0|0:0,0:0:0:0:
356,230,48032,2,0,P|382:190|384:113,1,110
382,74,48661,1,8,0:0:0:0:
293,8,49081,1,0,0:0:0:0:
196,62,49500,6,0,L|124:54,2,55,8|0|4,0:0|0:0|0:0,0:0:0:0:
264,148,50339,2,0,L|279:272,1,110,8|0,0:0|0:0,0:0:0:0:
356,334,51179,2,0,L|428:326,2,55,8|0|0,0:0|0:0|0:0,0:0:0:0:
252,372,52018,1,8,0:0:0:0:
252,372,52228,2,0,P|210:341|84:363,1,165,4|8,0:0|0:0,0:0:0:0:
20,274,53277,6,0,L|7:156,1,110,4|10,0:0|0:0,0:0:0:0:
76,78,54116,2,0,P|109:110|117:184,1,110,2|8,0:0|0:0,0:0:0:0:
203,242,54955,2,0,L|316:257,1,110,0|8,0:0|0:0,0:0:0:0:
353,292,55584,2,0,P|382:307|456:217,1,165,4|8,0:0|0:0,0:0:0:0:
489,122,56633,6,0,P|457:99|371:102,1,110,0|8,0:0|0:0,0:0:0:0:
284,131,57472,2,0,L|214:122,1,55,0|0,0:0|0:0,0:0:0:0:
137,62,58102,5,4,0:0:0:0:
31,91,58521,1,4,0:0:0:0:
9,199,58941,1,2,0:0:0:0:
87,276,59360,1,2,0:0:0:0:
191,249,59780,6,0,P|242:225|312:237,1,110,4|0,0:0|0:0,0:0:0:0:
337,262,60409,1,8,0:0:0:0:
432,205,60829,2,0,L|446:86,1,110,0|8,0:0|0:0,0:0:0:0:
470,47,61458,2,0,P|431:72|305:72,1,165,4|8,0:0|0:0,0:0:0:0:
206,59,62507,2,0,L|197:-2,2,55,0|0|8,0:0|0:0|0:0,0:0:0:0:
169,162,63346,6,0,L|55:151,1,110,4|8,0:0|0:0,0:0:0:0:
16,253,64186,2,0,P|-2:289|4:346,2,82.5,2|2|4,0:0|0:0|0:0,0:0:0:0:
123,276,65235,1,0,0:0:0:0:
123,276,65444,2,0,P|160:310|217:325,1,110,8|0,0:0|0:0,0:0:0:0:
271,322,66074,2,0,L|334:314,1,55,0|8,0:0|0:0,0:0:0:0:
433,292,66703,6,0,L|450:111,2,165,0|4|8,0:0|0:0|0:0,0:0:0:0:
351,217,68381,2,0,P|312:209|239:237,1,110,0|8,0:0|0:0,0:0:0:0:
151,286,69221,2,0,P|124:315|112:392,1,110,8|8,0:0|0:0,0:0:0:0:
23,317,70060,6,0,P|6:268|11:210,1,110,4|8,0:0|0:0,0:0:0:0:
68,116,70899,1,0,0:0:0:0:
158,52,71318,1,8,0:0:0:0:
158,52,71528,2,0,P|234:80|316:74,1,165,4|8,0:0|0:0,0:0:0:0:
420,108,72577,2,0,L|482:101,2,55,8|0|8,0:0|0:0|0:0,0:0:0:0:
345,188,73416,6,0,L|331:320,1,110,4|8,0:0|0:0,0:0:0:0:
326,352,74046,1,4,0:0:0:0:
214,345,74465,2,0,L|150:352,2,55,0|8|4,0:0|0:0|0:0,0:0:0:0:
220,235,75304,1,0,0:0:0:0:
220,235,75514,2,0,P|161:255|66:202,1,165,8|8,0:0|0:3,0:0:0:0:
53,160,76353,1,8,0:0:0:0:
98,68,76744,6,0,P|126:45|211:49,1,110,4|8,0:0|0:0,0:0:0:0:
295,91,77583,1,0,0:0:0:0:
330,195,78002,2,0,L|391:183,1,55,8|4,0:0|0:0,0:0:0:0:
465,258,78632,2,0,L|454:311,1,55,0|8,0:0|0:0,0:0:0:0:
350,349,79261,2,0,P|313:333|237:329,1,110,0|8,0:0|0:0,0:0:0:0:
135,344,80100,6,0,P|108:314|100:241,1,110,4|8,0:0|0:0,0:0:0:0:
58,209,80730,2,0,P|80:164|83:47,1,165,4|8,0:0|0:0,0:0:0:0:
136,32,81569,2,0,P|163:73|263:134,1,165,4|8,0:0|0:0,0:0:0:0:
369,119,82618,2,0,L|380:64,2,55,0|0|8,0:0|0:0|0:0,0:0:0:0:
425,213,83457,6,0,L|446:329,1,110,4|8,0:0|0:0,0:0:0:0:
462,373,84086,2,0,P|404:343|338:336,1,110,4|8,0:0|0:0,0:0:0:0:
305,333,84716,1,8,0:0:0:0:
256,192,84925,12,0,89331,0:0:0:0:
