osu file format v14

[General]
AudioFilename: audio.mp3
AudioLeadIn: 0
PreviewTime: 70851
Countdown: 0
SampleSet: Soft
StackLeniency: 0.5
Mode: 0
LetterboxInBreaks: 0
EpilepsyWarning: 1
WidescreenStoryboard: 1

[Editor]
Bookmarks: 639,11929,34520,71216,119213,141801,175686,223684,246272
DistanceSpacing: 0.8
BeatDivisor: 8
GridSize: 16
TimelineZoom: 1.4

[Metadata]
Title:Kimi ni Aeta kara
TitleUnicode:君に逢えたから
Artist:eufonius
ArtistUnicode:eufonius
Creator:Dored
Version:Precious Memories
Source:いろとりどりのセカイ
Tags:Irotoridori no Sekai Galgame Eroge Visual Novel Ending ED Full Version Favorite Japanese riya 菊地創 Kikuchi Hajime Garden Want to Spread My Wings and Fly into the Sky
BeatmapID:2139012
BeatmapSetID:1022394

[Difficulty]
HPDrainRate:5.5
CircleSize:4.2
OverallDifficulty:7.6
ApproachRate:8.5
SliderMultiplier:1.8
SliderTickRate:1

[Events]
//Background and Video events
0,0,"Shinku.jpg",0,0
//Break Periods
//Storyboard Layer 0 (Background)
Sprite,Background,Centre,"Shinku.jpg",320,240
//Storyboard Layer 1 (Fail)
//Storyboard Layer 2 (Pass)
//Storyboard Layer 3 (Foreground)
//Storyboard Layer 4 (Overlay)
//Storyboard Sound Samples

[TimingPoints]
639,705.882352941176,4,2,1,20,1,0
1344,759.493670886076,4,2,1,15,1,8
1723,681.818181818182,4,2,1,20,1,8
3086,750,4,2,1,25,1,8
3461,681.818181818182,4,2,1,20,1,8
3801,-100,4,2,1,10,0,8
4142,-100,4,2,1,15,0,8
4483,722.89156626506,4,2,1,10,1,8
5205,-100,4,2,1,20,0,8
6290,674.157303370787,4,2,1,20,1,8
6627,689.655172413793,4,2,1,20,1,8
6971,750,4,2,1,15,1,8
7346,681.818181818182,4,2,1,20,1,8
8027,705.882352941176,4,2,1,25,1,8
9085,789.473684210526,4,2,1,20,1,8
9479,652.173913043478,4,2,1,10,1,8
9805,722.89156626506,4,2,1,15,1,8
10166,689.655172413793,4,2,1,10,1,8
10855,800,4,2,1,15,1,8
11255,674.157303370787,4,2,1,20,1,8
11929,705.882352941176,4,2,1,20,1,8
11929,-100,4,2,1,20,0,8
12987,731.707317073171,4,2,1,20,1,8
13718,705.882352941176,4,2,1,15,1,8
14776,-100,4,2,1,20,0,8
15832,670.391061452514,4,2,1,20,1,8
16502,705.882352941176,4,2,1,20,1,8
17560,693.64161849711,4,2,1,20,1,8
17906,731.707317073171,4,2,1,20,1,8
18637,704.845814977974,4,2,1,20,1,8
19341,666.666666666667,4,2,1,15,1,8
19674,704.845814977974,4,2,1,15,1,8
20378,705.882352941176,4,2,1,25,1,8
22137,714.285714285714,4,2,1,25,1,8
22495,705.882352941176,4,2,1,15,1,8
22847,-100,4,2,1,25,0,8
23907,710.059171597633,4,2,1,25,1,8
24617,-100,4,2,1,15,0,8
26037,689.655172413793,4,2,1,25,1,8
26381,714.285714285714,4,2,1,25,1,8
26738,705.882352941176,4,2,1,35,1,8
27443,714.285714285714,4,2,1,25,1,8
27800,689.655172413793,4,2,1,25,1,8
28144,709.639266706091,4,2,1,25,1,8
31692,679.886685552408,4,2,1,25,1,8
32031,740.740740740741,4,2,1,25,1,8
32401,731.707317073171,4,2,1,25,1,8
33466,689.655172413793,4,2,1,25,1,8
34155,731.707317073171,4,2,1,25,1,8
34520,697.674418604651,4,2,1,25,1,8
35566,701.754385964912,4,2,1,25,1,8
36618,722.89156626506,4,2,1,25,1,8
37340,689.655172413793,4,2,1,25,1,8
37684,705.882352941176,4,2,1,25,1,8
39801,746.918959292917,4,2,1,25,1,8
40547,689.655172413793,4,2,1,25,1,8
41236,652.173913043478,4,2,1,25,1,8
41562,691.64265129683,4,2,1,25,1,8
41907,714.285714285714,4,2,1,25,1,8
42978,705.882352941176,4,2,1,25,1,8
45448,722.89156626506,4,2,1,25,1,8
46170,707.964601769912,4,2,1,25,1,8
46877,659.340659340659,4,2,1,25,1,8
47206,701.754385964912,4,2,1,25,1,8
47907,715.990453460621,4,2,1,25,1,8
48622,712.166172106825,4,2,1,25,1,8
50046,697.674418604651,4,2,1,25,1,8
51441,714.285714285714,4,2,1,25,1,8
54298,697.674418604651,4,2,1,25,1,8
54995,707.964601769912,4,2,1,25,1,8
56410,714.285714285714,4,2,1,25,1,8
57124,695.652173913044,4,2,1,30,1,8
59210,739.59938366718,4,2,1,30,1,8
59949,714.285714285714,4,2,1,30,1,8
60306,697.674418604651,4,2,1,30,1,8
62050,705.882352941176,4,2,1,30,1,8
66285,714.285714285714,4,2,1,30,1,8
67356,689.655172413793,4,2,1,30,1,8
68390,705.882352941176,4,2,1,30,1,8
70507,689.655172413793,4,2,1,30,1,8
70851,731.707317073171,4,2,1,30,1,8
71216,720.720720720721,4,2,1,35,1,1
71396,-100,4,2,1,35,0,0
72657,697.674418604651,4,2,1,35,1,8
73354,705.882352941176,4,2,1,35,1,8
74059,697.674418604651,4,2,1,35,1,8
75454,714.285714285714,4,2,1,35,1,8
76882,691.64265129683,4,2,1,35,1,8
77573,705.882352941176,4,2,1,35,1,8
78984,726.392251815981,4,2,1,35,1,8
79710,703.812316715542,4,2,1,35,1,8
82525,714.285714285714,4,2,1,35,1,8
83239,689.655172413793,4,2,1,35,1,8
83928,764.331210191083,4,2,1,35,1,8
84310,628.272251308901,4,2,1,35,1,8
84624,710.059171597633,4,2,1,35,1,8
86044,705.882352941176,4,2,1,35,1,8
86749,700.44361428905,4,2,1,35,1,8
88850,668.523676880223,4,2,1,35,1,8
89518,722.89156626506,4,2,1,35,1,8
93132,689.655172413793,4,2,1,35,1,8
93821,705.882352941176,4,2,1,35,1,1
93997,-100,4,2,1,35,0,0
94173,681.818181818182,4,2,1,35,1,8
94854,697.674418604651,4,2,1,35,1,8
95551,705.882352941176,4,2,1,35,1,8
98021,701.754385964912,4,2,1,35,1,8
100828,712.166172106825,4,2,1,35,1,8
103676,697.674418604651,4,2,1,35,1,8
104373,705.882352941176,4,2,1,35,1,8
106490,689.655172413793,4,2,1,35,1,8
107179,731.707317073171,4,2,1,35,1,8
108642,697.674418604651,4,2,1,35,1,8
111432,731.707317073171,4,2,1,35,1,8
112895,714.285714285714,4,2,1,35,1,8
113252,652.173913043478,4,2,1,35,1,8
113578,689.655172413793,4,2,1,30,1,8
114267,705.882352941176,4,2,1,30,1,8
117090,722.89156626506,4,2,1,30,1,8
117451,704.887218045113,4,2,1,30,1,8
119213,705.882352941176,4,2,1,40,1,0
119213,-80,4,2,1,40,0,0
172860,706.713780918728,4,2,1,45,1,0
173743,-66.6666666666667,4,2,1,45,0,0
174980,-58.8235294117647,4,2,1,45,0,0
175686,705.882352941176,4,2,1,50,1,1
175686,-66.6666666666667,4,2,1,55,0,1
186538,-66.6666666666667,4,2,1,5,0,1
186627,-66.6666666666667,4,2,1,55,0,1
186891,-66.6666666666667,4,2,1,5,0,1
186980,-66.6666666666667,4,2,1,55,0,1
196068,-66.6666666666667,4,2,1,5,0,1
196156,-66.6666666666667,4,2,1,55,0,1
197568,-66.6666666666667,4,2,1,55,0,0
198274,-66.6666666666667,4,2,1,55,0,1
209127,-66.6666666666667,4,2,1,5,0,1
209215,-66.6666666666667,4,2,1,55,0,1
209480,-66.6666666666667,4,2,1,5,0,1
209568,-66.6666666666667,4,2,1,55,0,1
218038,-66.6666666666667,4,2,1,50,0,0
220862,705.55032925682,4,2,1,50,1,0
220862,-66.6666666666667,4,2,1,50,0,0
223684,705.882352941176,4,2,1,45,1,0
223684,-80,4,2,1,45,0,0
234978,-80,4,2,1,50,0,0
240625,-80,4,2,1,55,0,1
243448,-71.4285714285714,4,2,1,55,0,0
246272,-66.6666666666667,4,2,1,60,0,1
257125,-66.6666666666667,4,2,1,5,0,1
257213,-66.6666666666667,4,2,1,60,0,1
266654,-66.6666666666667,4,2,1,5,0,1
266742,-66.6666666666667,4,2,1,60,0,1
268154,-66.6666666666667,4,2,1,60,0,0
268860,-66.6666666666667,4,2,1,60,0,1
288625,-66.6666666666667,4,2,1,55,0,0
291448,-66.6666666666667,4,2,1,50,0,0
293919,750,4,2,1,45,1,0
293919,-66.6666666666667,4,2,1,45,0,0
294294,769.230769230769,4,2,1,30,1,0
294678,771.704180064309,4,2,1,20,1,0
295063,800,4,2,1,15,1,0
295463,880.410858400587,4,2,1,25,1,0
295903,967.741935483871,4,2,1,20,1,0
296386,1090.90909090909,4,2,1,18,1,0
296931,1490.68322981366,4,2,1,16,1,0
297676,2400,4,2,1,14,1,0
298576,1200,4,2,1,12,1,0
298876,2891.56626506024,4,2,1,15,1,0
301767,-100,4,2,1,10,0,0
304330,2891.56626506024,4,2,1,15,1,0
304691,-100,4,2,1,10,0,0
305775,-100,4,2,1,8,0,0
307221,-100,4,2,1,6,0,0
308667,-100,4,2,1,5,0,0

[Colours]
Combo1 : 255,24,57
Combo2 : 255,192,0

[HitObjects]
96,80,639,5,2,0:0:0:0:
145,165,991,1,2,0:0:0:0:
230,116,1344,1,2,0:0:0:0:
144,263,1723,2,0,P|232:246|321:231,1,180,2|2,0:0|0:0,0:0:0:0:
58,310,3086,1,2,0:0:0:0:
160,352,3461,6,0,P|152:307|144:263,1,90,2|0,0:0|0:0,0:0:0:0:
145,165,4142,2,0,P|100:173|56:180,1,90
332,127,5205,1,0,0:0:0:0:
230,116,5567,1,0,0:0:0:0:
230,116,6290,5,2,0:0:0:0:
332,127,6627,1,2,0:0:0:0:
353,227,6971,1,2,0:0:0:0:
478,88,7346,2,0,P|415:147|331:126,1,180,2|2,0:0|0:0,0:0:0:0:
375,328,8732,1,2,0:0:0:0:
353,227,9085,6,0,P|397:235|441:242,1,90,2|0,0:0|0:0,0:0:0:0:
276,296,9805,2,0,P|231:303|187:311,1,90
331,126,10855,1,0,0:0:0:0:
254,195,11255,1,0,0:0:0:0:
254,195,11929,6,0,P|248:148|231:85,1,90,6|0,0:0|0:0,0:0:0:0:
196,27,12458,2,0,P|248:67|313:60,1,135,2|2,0:0|0:0,0:0:0:0:
353,243,13718,1,2,0:0:0:0:
473,171,14070,2,0,P|448:166|414:160,2,45,2|2|0,0:0|0:0|0:0,0:0:0:0:
283,320,14776,5,2,0:0:0:0:
353,243,15129,1,2,0:0:0:0:
448,284,15482,1,2,0:0:0:0:
380,369,15832,2,0,P|297:355|177:350,1,180,2|2,0:0|0:0,0:0:0:0:
201,349,16854,2,0,P|204:309|212:256,1,90,0|2,0:0|0:0,0:0:0:0:
72,82,17560,6,0,P|69:122|60:174,1,90,6|0,0:0|0:0,0:0:0:0:
17,247,18088,2,0,P|68:209|138:218,1,135,2|2,0:0|0:0,0:0:0:0:
190,48,19341,1,2,0:0:0:0:
360,82,19674,2,0,L|315:90,1,45,2|0,0:0|0:0,0:0:0:0:
190,48,20026,2,0,L|234:39,1,45,2|0,0:0|0:0,0:0:0:0:
271,166,20378,6,0,L|263:222,2,45,2|0|2,0:0|0:0|0:0,0:0:0:0:
169,260,21083,1,2,0:0:0:0:
320,301,21436,2,0,P|252:244|163:264,1,179,2|2,0:0|0:0,0:0:0:0:
169,259,22495,2,0,P|126:245|81:237,1,90,0|2,0:0|0:0,0:0:0:0:
43,83,23200,6,0,P|94:124|131:121,1,90,6|0,0:0|0:0,0:0:0:0:
202,163,23730,2,0,P|206:140|208:118,1,45,0|2,0:0|0:0,0:0:0:0:
300,7,24262,2,0,P|295:29|293:51,1,45,2|0,0:0|0:0,0:0:0:0:
386,40,24617,1,2,0:0:0:0:
386,40,25327,2,0,P|342:55|299:62,2,90,2|0|2,0:0|0:0|0:0,0:0:0:0:
496,61,26381,5,2,0:0:0:0:
473,232,26738,2,0,P|446:196|446:151,1,90,2|0,0:0|0:0,0:0:0:0:
361,128,27267,2,0,P|316:135|274:150,1,90.5,2|0,0:0|0:0,0:0:0:0:
204,201,27800,1,2,0:0:0:0:
99,9,28144,6,0,P|161:69|256:58,1,180,2|2,0:0|0:0,0:0:0:0:
249,62,29208,2,0,L|240:124,1,45,2|0,0:0|0:0,0:0:0:0:
171,156,29563,2,0,P|129:163|70:177,1,90,2|2,0:0|0:0,0:0:0:0:
312,225,30272,2,0,P|316:184|330:109,2,90,2|2|2,0:0|0:0|0:0,0:0:0:0:
182,303,31337,1,2,0:0:0:0:
182,303,31692,5,2,0:0:0:0:
312,225,32031,1,2,0:0:0:0:
171,156,32401,1,0,0:0:0:0:
226,226,32766,1,2,0:0:0:0:
226,226,33466,2,0,B|329:203|296:291|405:264,1,180,2|2,0:0|0:0,0:0:0:0:
477,225,34337,1,2,0:0:0:0:
477,225,34429,1,2,0:0:0:0:
477,225,34520,6,0,P|469:269|461:313,1,90,6|0,0:0|0:0,0:0:0:0:
508,382,35043,2,0,P|454:343|389:350,1,135,2|2,0:0|0:0,0:0:0:0:
304,269,35916,1,2,0:0:0:0:
275,382,36267,1,2,0:0:0:0:
191,301,36618,2,0,L|146:308,2,45,2|0|2,0:0|0:0|0:0,0:0:0:0:
136,107,37340,5,2,0:0:0:0:
220,188,37684,1,2,0:0:0:0:
106,211,38036,1,2,0:0:0:0:
236,82,38389,2,0,P|144:66|58:50,1,180,2|2,0:0|0:0,0:0:0:0:
58,50,39448,2,0,P|50:95|41:139,1,90,0|2,0:0|0:0,0:0:0:0:
146,307,40174,6,0,P|101:314|57:322,1,90,6|0,0:0|0:0,0:0:0:0:
153,220,40719,2,0,P|212:248|235:309,1,135,2|0,0:0|0:0,0:0:0:0:
355,376,41562,2,0,P|346:331|339:287,1,90
279,161,42264,2,0,L|323:168,1,45,2|0,0:0|0:0,0:0:0:0:
435,212,42621,2,0,L|390:219,1,45,2|0,0:0|0:0,0:0:0:0:
384,92,42978,6,0,L|399:134,1,45,2|0,0:0|0:0,0:0:0:0:
485,142,43330,2,0,P|492:97|500:53,1,90,2|2,0:0|0:0,0:0:0:0:
282,52,44036,2,0,P|373:62|425:0,1,180,2|2,0:0|0:0,0:0:0:0:
323,168,45095,2,0,P|278:159|234:152,1,90,0|2,0:0|0:0,0:0:0:0:
82,75,45809,6,0,P|126:67|170:58,1,90,6|0,0:0|0:0,0:0:0:0:
36,151,46346,2,0,P|-3:98|4:33,1,135,2|0,0:0|0:0,0:0:0:0:
170,59,47206,2,0,P|161:103|154:147,1,90,2|0,0:0|0:0,0:0:0:0:
154,147,47907,1,2,0:0:0:0:
252,360,48622,6,0,P|244:315|236:271,1,90,2|0,0:0|0:0,0:0:0:0:
323,168,49334,2,0,P|331:212|338:256,1,90,2|0,0:0|0:0,0:0:0:0:
384,325,49868,1,0,0:0:0:0:
472,340,50046,2,0,P|428:332|384:325,1,90,2|0,0:0|0:0,0:0:0:0:
252,360,50743,1,2,0:0:0:0:
252,360,51441,6,0,P|207:367|163:375,1,90,6|0,0:0|0:0,0:0:0:0:
40,339,52155,1,2,0:0:0:0:
132,251,52512,1,2,0:0:0:0:
132,251,52691,2,0,P|156:189|131:128,1,135,2|2,0:0|0:0,0:0:0:0:
1,105,53583,2,0,P|9:149|16:193,1,90,2|0,0:0|0:0,0:0:0:0:
122,11,54298,6,0,P|166:19|210:26,1,90,2|0,0:0|0:0,0:0:0:0:
131,128,54995,1,2,0:0:0:0:
269,103,55348,2,0,L|261:147,1,45
246,226,55702,5,2,0:0:0:0:
391,166,56056,1,2,0:0:0:0:
269,103,56410,5,2,0:0:0:0:
379,137,56767,1,2,0:0:0:0:
253,14,57124,6,0,P|261:58|268:102,1,90,6|0,0:0|0:0,0:0:0:0:
344,54,57645,2,0,P|388:62|432:69,1,90,2|0,0:0|0:0,0:0:0:0:
497,126,58167,2,0,L|489:170,1,45
474,249,58515,1,2,0:0:0:0:
474,249,59210,2,0,P|429:256|385:264,1,90,2|0,0:0|0:0,0:0:0:0:
230,314,59949,6,0,P|237:269|245:225,1,90,2|0,0:0|0:0,0:0:0:0:
149,83,60654,2,0,P|142:128|134:172,1,90,2|0,0:0|0:0,0:0:0:0:
74,239,61178,1,0,0:0:0:0:
74,239,61352,2,0,P|118:246|162:254,1,90,2|0,0:0|0:0,0:0:0:0:
307,158,62050,2,0,P|262:150|218:142,1,90,2|2,0:0|0:0,0:0:0:0:
63,74,62755,5,6,0:0:0:0:
63,74,63108,2,0,L|70:118,1,45,2|0,0:0|0:0,0:0:0:0:
10,173,63461,2,0,P|72:148|134:171,1,135,2|0,0:0|0:0,0:0:0:0:
162,254,64167,1,2,0:0:0:0:
218,142,64520,1,2,0:0:0:0:
342,134,64873,1,2,0:0:0:0:
410,237,65226,2,0,L|424:193,1,45,2|0,0:0|0:0,0:0:0:0:
430,118,65579,6,0,P|385:126|341:133,1,90,6|0,0:0|0:0,0:0:0:0:
286,245,66285,1,2,0:0:0:0:
233,53,66820,1,2,0:0:0:0:
233,53,66999,2,0,P|224:101|217:141,1,90,6|0,0:0|0:0,0:0:0:0:
133,170,67528,2,0,P|125:125|117:81,1,90,2|0,0:0|0:0,0:0:0:0:
117,81,68218,6,0,L|102:83,3,15,0|0|0|2,0:0|0:0|0:0|0:0,0:0:0:0:
256,192,68478,12,2,70507,0:0:0:0:
156,176,70851,6,0,P|161:203|166:238,1,45,2|0,0:0|0:0,0:0:0:0:
128,299,71216,2,0,P|82:292|23:287,1,90,6|2,0:0|0:0,0:0:0:0:
190,370,71936,2,0,P|236:377|295:382,1,90,2|2,0:0|0:0,0:0:0:0:
163,220,72657,2,0,P|143:181|150:130,1,90,2|0,0:0|0:0,0:0:0:0:
215,54,73354,1,2,0:0:0:0:
265,254,73706,1,2,0:0:0:0:
412,189,74059,2,0,P|326:164|234:155,1,180,2|2,0:0|0:0,0:0:0:0:
236,155,75105,2,0,L|292:143,1,45,2|0,0:0|0:0,0:0:0:0:
183,37,75454,5,2,0:0:0:0:
112,93,75811,1,2,0:0:0:0:
101,182,76168,1,2,0:0:0:0:
148,258,76525,2,0,P|153:285|154:318,1,45,2|0,0:0|0:0,0:0:0:0:
96,384,76882,6,0,P|174:324|266:351,1,180,6|2,0:0|0:0,0:0:0:0:
248,338,77925,1,0,0:0:0:0:
349,242,78278,2,0,P|305:238|244:228,1,90,2|0,0:0|0:0,0:0:0:0:
457,374,78984,2,0,P|413:378|352:388,1,90,2|0,0:0|0:0,0:0:0:0:
470,183,79710,6,0,P|456:225|447:269,2,90,2|0|2,0:0|0:0|0:0,0:0:0:0:
345,11,80765,2,0,L|353:55,1,45,2|0,0:0|0:0,0:0:0:0:
500,100,81117,2,0,B|396:75|428:159|331:141,1,180,2|2,0:0|0:0,0:0:0:0:
334,141,82173,1,0,0:0:0:0:
214,269,82525,6,0,P|262:259|309:256,1,90,6|0,0:0|0:0,0:0:0:0:
245,80,83239,2,0,P|231:136|223:196,1,90,2|0,0:0|0:0,0:0:0:0:
107,302,83928,2,0,P|118:258|125:214,1,90,2|0,0:0|0:0,0:0:0:0:
132,111,84624,2,0,P|83:120|37:124,1,90,2|0,0:0|0:0,0:0:0:0:
214,269,85334,6,0,P|272:211|369:232,1,180,2|2,0:0|0:0,0:0:0:0:
362,225,86396,1,0,0:0:0:0:
479,338,86749,2,0,P|459:250|453:160,1,180,2|2,0:0|0:0,0:0:0:0:
453,160,87799,1,0,0:0:0:0:
272,213,88149,6,0,P|316:216|361:224,1,90,6|0,0:0|0:0,0:0:0:0:
504,76,88850,2,0,P|419:61|360:125,1,180,2|2,0:0|0:0,0:0:0:0:
155,58,89879,1,2,0:0:0:0:
245,0,90240,2,0,P|255:49|258:94,1,90,2|0,0:0|0:0,0:0:0:0:
49,184,90963,6,0,P|86:134|167:144,1,135,2|0,0:0|0:0,0:0:0:0:
229,179,91686,2,0,P|273:170|317:164,1,90,2|0,0:0|0:0,0:0:0:0:
57,57,92409,1,2,0:0:0:0:
274,325,93132,1,2,0:0:0:0:
159,354,93821,6,0,P|173:311|179:266,1,90,6|0,0:0|0:0,0:0:0:0:
40,188,94513,2,0,P|46:232|60:275,1,90,2|0,0:0|0:0,0:0:0:0:
106,104,95202,2,0,P|64:80|24:80,1,90,2|0,0:0|0:0,0:0:0:0:
145,194,95903,1,2,0:0:0:0:
208,15,96256,1,2,0:0:0:0:
352,163,96609,2,0,P|295:100|196:133,1,180,2|2,0:0|0:0,0:0:0:0:
209,117,97668,2,0,L|224:184,1,45,2|0,0:0|0:0,0:0:0:0:
44,235,98021,5,2,0:0:0:0:
118,285,98372,1,2,0:0:0:0:
202,253,98723,1,2,0:0:0:0:
275,305,99073,2,0,P|280:332|283:355,1,45,2|0,0:0|0:0,0:0:0:0:
388,384,99424,6,0,P|376:324|357:194,1,180,6|2,0:0|0:0,0:0:0:0:
358,206,100477,1,0,0:0:0:0:
283,350,100828,2,0,P|246:376|202:381,1,90,2|0,0:0|0:0,0:0:0:0:
438,237,101540,2,0,P|393:231|357:205,1,90,2|0,0:0|0:0,0:0:0:0:
274,72,102252,2,0,P|266:177|246:269,1,180,2|2,0:0|0:0,0:0:0:0:
251,250,103320,2,0,L|306:241,1,45,2|0,0:0|0:0,0:0:0:0:
198,324,103676,5,2,0:0:0:0:
198,324,104373,2,0,P|152:317|97:314,1,90,2|0,0:0|0:0,0:0:0:0:
0,163,105078,2,0,P|33:209|136:189,1,135,6|0,0:0|0:0,0:0:0:0:
195,232,105784,2,0,P|187:192|179:132,1,90,2|0,0:0|0:0,0:0:0:0:
406,29,106490,6,0,P|362:101|262:88,1,180,2|2,0:0|0:0,0:0:0:0:
472,131,107544,1,0,0:0:0:0:
413,279,107910,2,0,P|406:235|397:191,1,90,2|0,0:0|0:0,0:0:0:0:
314,232,108459,2,0,P|320:260|323:284,1,45,2|0,0:0|0:0,0:0:0:0:
364,354,108815,1,2,0:0:0:0:
364,354,108990,2,0,P|304:367|271:401,1,90,2|2,0:0|0:0,0:0:0:0:
97,288,109688,5,2,0:0:0:0:
144,384,110037,2,0,P|200:317|187:230,1,180,2|6,0:0|0:0,0:0:0:0:
19,121,111083,1,0,0:0:0:0:
117,154,111432,2,0,P|166:142|231:127,1,90,2|0,0:0|0:0,0:0:0:0:
324,25,112163,5,2,0:0:0:0:
305,116,112895,1,2,0:0:0:0:
512,293,113578,5,0,0:0:0:0:
436,245,113922,1,2,0:0:0:0:
487,173,114267,1,0,0:0:0:0:
406,134,114619,5,2,0:0:0:0:
325,295,115325,1,2,0:0:0:0:
177,191,116031,1,2,0:0:0:0:
285,214,116384,2,0,P|196:230|99:252,1,180,2|0,0:0|0:0,0:0:0:0:
19,314,117451,2,0,P|75:254|39:157,1,180
167,123,118332,1,2,0:0:0:0:
167,123,118508,2,0,L|157:162,2,22.5,8|8|0,3:2|3:3|3:0,0:0:0:0:
0,56,118860,5,4,3:3:0:0:
0,56,119213,6,0,P|56:51|112:46,1,112.5,4|2,1:1|0:0,0:0:0:0:
167,123,119742,1,0,0:0:0:0:
266,96,119918,2,0,P|211:90|166:123,1,112.5,10|2,0:0|0:0,0:0:0:0:
321,186,120624,1,0,1:0:0:0:
211,4,120977,1,0,1:0:0:0:
412,30,121330,2,0,P|384:34|356:39,1,56.25,10|2,0:0|0:0,0:0:0:0:
503,76,121683,1,2,0:0:0:0:
441,239,122036,6,0,P|427:184|411:130,2,112.5,0|0|8,1:0|3:0|0:0,0:0:0:0:
266,95,123095,1,2,0:0:0:0:
321,186,123271,2,0,P|237:199|154:215,1,168.75,2|0,0:0|1:0,0:0:0:0:
55,102,124154,2,0,P|110:112|165:121,1,112.5,10|0,0:0|0:0,0:0:0:0:
44,251,124860,6,0,P|20:300|34:353,1,112.5,2|0,1:2|0:0,0:0:0:0:
131,329,125389,1,0,0:0:0:0:
218,382,125565,2,0,P|273:371|328:362,1,112.5,8|2,0:0|0:0,0:0:0:0:
420,317,126095,2,0,P|340:334|280:279,1,168.75,2|0,0:0|1:0,0:0:0:0:
280,279,126977,2,0,P|275:251|270:223,1,56.25,10|2,0:0|0:0,0:0:0:0:
366,158,127330,2,0,P|361:185|356:213,1,56.25,2|2,0:0|0:0,0:0:0:0:
442,92,127683,5,2,1:2:0:0:
270,125,127860,1,2,0:0:0:0:
442,92,128036,2,0,P|451:147|461:202,1,112.5,2|8,0:0|0:0,0:0:0:0:
243,7,128742,1,2,0:0:0:0:
187,91,128918,2,0,P|247:36|326:53,1,168.75,2|0,0:0|1:0,0:0:0:0:
200,180,129801,2,0,P|145:170|90:161,1,112.5,10|0,0:0|0:0,0:0:0:0:
326,53,130507,6,0,P|370:85|425:79,1,112.5,2|2,1:2|0:0,0:0:0:0:
498,20,131036,1,2,0:0:0:0:
425,79,131213,2,0,P|414:134|405:189,1,112.5,8|0,0:0|0:0,0:0:0:0:
375,335,131742,1,0,0:0:0:0:
446,271,131918,2,0,P|390:261|335:251,2,112.5,0|0|10,1:0|1:0|0:0,0:0:0:0:
295,167,132977,1,0,3:0:0:0:
280,349,133330,5,0,1:0:0:0:
140,259,133683,2,0,P|168:254|196:249,1,56.25,2|0,0:0|0:0,0:0:0:0:
87,322,134036,2,0,P|58:274|69:219,1,112.5,10|2,0:0|0:0,0:0:0:0:
220,173,134565,1,2,0:0:0:0:
128,121,134742,2,0,P|133:149|138:177,1,56.25,2|0,1:2|0:0,0:0:0:0:
140,259,135095,1,0,1:0:0:0:
167,49,135448,2,0,P|112:39|65:68,1,112.5,10|0,0:0|0:0,0:0:0:0:
291,11,136154,5,2,1:2:0:0:
220,173,136507,1,2,0:0:0:0:
282,104,136683,1,2,0:0:0:0:
370,137,136860,2,0,P|375:165|380:193,1,56.25,10|0,0:0|0:0,0:0:0:0:
455,97,137213,2,0,P|464:152|475:207,1,112.5,2|0,0:0|0:0,0:0:0:0:
336,315,137918,2,0,L|328:356,2,42.1875,2|2|2,0:0|0:0|0:0,0:0:0:0:
330,285,138271,2,0,P|282:256|228:266,1,112.5,10|0,0:0|0:0,0:0:0:0:
82,369,138977,6,0,P|137:358|193:349,2,112.5,2|2|8,1:2|0:0|0:0,0:0:0:0:
0,207,140036,1,2,0:0:0:0:
39,289,140213,2,0,P|89:224|66:145,1,168.75,2|2,0:0|0:0,0:0:0:0:
264,212,141095,1,8,3:2:0:0:
178,241,141271,1,8,3:3:0:0:
199,124,141448,2,0,L|195:152,2,28.125,2|0|0,3:2|3:0|3:0,0:0:0:0:
347,183,141801,6,0,P|406:200|468:205,1,112.5,4|0,1:1|0:0,0:0:0:0:
347,351,142330,1,0,0:0:0:0:
431,384,142507,2,0,P|437:329|405:285,1,112.5,8|2,0:0|0:0,0:0:0:0:
347,183,143036,2,0,P|336:212|328:243,1,56.25,2|0,0:0|1:0,0:0:0:0:
273,124,143565,1,0,1:0:0:0:
200,308,143918,2,0,P|227:303|255:299,1,56.25,10|2,0:0|0:0,0:0:0:0:
329,236,144271,1,2,0:0:0:0:
95,274,144624,6,0,P|104:330|117:387,2,112.5,0|0|8,1:0|3:0|0:0,0:0:0:0:
187,242,145683,1,2,0:0:0:0:
49,187,145860,2,0,P|105:246|187:242,1,168.75,2|0,0:0|1:0,0:0:0:0:
110,85,146742,2,0,P|56:96|0:104,1,112.5,10|0,0:0|0:0,0:0:0:0:
243,48,147448,6,0,P|203:100|211:154,1,112.5,2|0,1:2|0:0,0:0:0:0:
392,153,147977,1,0,0:0:0:0:
318,229,148154,2,0,P|304:174|297:118,1,112.5,8|2,0:0|0:0,0:0:0:0:
505,72,148683,2,0,P|472:145|392:153,1,168.75,2|0,0:0|1:0,0:0:0:0:
135,55,149565,2,0,L|204:45,1,56.25,10|2,0:0|0:0,0:0:0:0:
336,76,149918,2,0,L|281:85,1,56.25,2|2,0:0|0:0,0:0:0:0:
204,138,150271,5,2,0:0:0:0:
273,0,150448,1,2,0:0:0:0:
204,138,150624,2,0,P|193:206|189:255,1,112.5,2|8,0:0|0:0,0:0:0:0:
248,379,151330,2,0,L|254:323,1,56.25,2|0,0:0|0:0,0:0:0:0:
341,222,151683,2,0,L|276:241,1,56.25,2|2,3:2|0:0,0:0:0:0:
161,340,152036,1,2,1:2:0:0:
161,340,152389,1,10,0:0:0:0:
78,305,152565,2,0,L|91:187,1,112.5,2|0,2:1|0:0,0:0:0:0:
96,76,153095,6,0,P|52:118|-3:112,1,112.5,2|0,1:2|0:0,0:0:0:0:
167,140,153624,1,0,0:0:0:0:
167,140,153801,2,0,P|221:127|277:119,1,112.5,8|2,0:0|0:0,0:0:0:0:
358,164,154330,1,0,0:0:0:0:
358,164,154507,2,0,L|371:85,1,56.25,0|0,1:0|0:0,0:0:0:0:
438,203,154860,2,0,L|429:259,1,56.25,0|0,1:0|0:0,0:0:0:0:
332,379,155212,1,10,3:2:0:0:
332,379,155389,1,0,3:0:0:0:
422,345,155565,1,0,3:0:0:0:
422,345,155742,1,0,3:0:0:0:
343,290,155918,5,2,1:2:0:0:
212,252,156271,2,0,P|240:246|268:242,1,56.25,2|0,0:0|0:0,0:0:0:0:
123,285,156624,2,0,P|90:329|98:384,1,112.5,10|2,0:0|0:0,0:0:0:0:
212,252,157154,1,2,0:0:0:0:
212,252,157330,2,0,P|217:224|222:196,1,56.25,2|0,1:2|0:0,0:0:0:0:
150,142,157683,1,0,1:0:0:0:
150,142,158036,1,10,0:0:0:0:
57,72,158212,2,0,L|180:56,1,112.5,2|0,2:1|0:0,0:0:0:0:
357,0,158742,5,2,1:2:0:0:
357,0,159095,2,0,L|345:68,1,56.25,2|0,0:0|0:0,0:0:0:0:
248,182,159448,2,0,P|235:128|262:80,1,112.5,10|2,0:0|0:0,0:0:0:0:
389,134,159977,1,2,0:0:0:0:
389,134,160154,2,0,L|330:142,1,56.25,0|0,3:0|3:0,0:0:0:0:
321,232,160507,2,0,P|376:222|432:216,1,112.5,0|10,1:0|0:0,0:0:0:0:
297,377,161212,2,0,P|299:350|306:311,1,56.25,0|0,3:0|3:0,0:0:0:0:
234,204,161565,5,2,1:2:0:0:
234,204,161918,2,0,P|231:230|225:270,1,56.25,2|2,0:0|0:0,0:0:0:0:
213,351,162271,2,0,P|167:319|112:326,1,112.5,10|2,0:0|0:0,0:0:0:0:
0,271,162801,1,2,0:0:0:0:
0,271,162977,2,0,L|62:258,1,56.25,0|0,3:0|3:0,0:0:0:0:
129,207,163330,2,0,P|135:156|147:83,1,112.5,0|8,1:0|3:2,0:0:0:0:
300,121,163860,1,4,3:3:0:0:
238,13,164036,2,0,P|232:40|229:68,1,56.25,8|0,3:3|3:0,0:0:0:0:
275,205,164389,6,0,P|329:207|371:171,1,112.5,4|0,1:1|0:0,0:0:0:0:
388,83,164918,1,0,0:0:0:0:
499,102,165095,2,0,P|443:92|388:82,1,112.5,8|2,0:0|0:0,0:0:0:0:
336,14,165624,2,0,P|308:18|276:23,1,56.25,0|2,3:0|3:2,0:0:0:0:
172,143,166154,1,2,1:2:0:0:
10,115,166507,2,0,P|52:76|112:81,1,112.5,10|0,2:1|0:0,0:0:0:0:
172,143,167036,1,8,0:0:0:0:
80,226,167212,6,0,L|87:153,1,56.25,2|0,1:2|0:0,0:0:0:0:
160,278,167565,2,0,L|153:334,1,56.25,2|0,0:0|0:0,0:0:0:0:
244,234,167918,2,0,P|299:232|342:267,1,112.5,10|0,0:0|0:0,0:0:0:0:
418,342,168448,2,0,P|362:350|302:362,1,112.5,2|0,0:0|0:0,0:0:0:0:
307,360,168977,1,0,1:0:0:0:
485,264,169330,2,0,P|493:212|505:153,1,112.5,10|0,0:0|3:0,0:0:0:0:
433,51,169860,2,0,P|429:78|424:106,1,56.25,0|2,3:0|1:2,0:0:0:0:
235,289,170389,6,0,P|238:261|243:233,1,56.25
268,137,170742,2,0,B|184:118|196:192|110:175,1,168.75,12|0,2:1|3:0,0:0:0:0:
34,121,171448,2,0,P|76:85|132:86,1,112.5,4|2,2:1|1:2,0:0:0:0:
242,0,171977,1,2,0:0:0:0:
242,0,172154,2,0,P|233:64|217:127,1,112.5,8|4,0:0|2:3,0:0:0:0:
466,362,172860,6,0,P|478:276|412:220,1,180,4|0,1:1|0:0,0:0:0:0:
352,304,173743,6,0,L|386:311,2,33.7500012874604,0|0|8,3:0|3:0|3:2,0:0:0:0:
173,279,174096,1,0,1:0:0:0:
337,182,174273,1,0,3:0:0:0:
246,384,174450,2,0,P|251:333|271:231,1,135.000005149842,8|0,0:0|0:0,0:0:0:0:
468,55,174980,1,8,3:0:0:0:
412,220,175156,1,4,3:0:0:0:
318,93,175333,2,0,P|355:100|393:106,1,76.5000014591217,8|0,0:0|0:0,0:0:0:0:
137,14,175686,6,0,P|149:80|160:146,1,135.000005149842,4|0,1:1|0:0,0:0:0:0:
318,93,176215,1,0,0:0:0:0:
206,217,176391,2,0,P|152:178|87:185,1,135.000005149842,10|2,0:0|0:0,0:0:0:0:
7,250,176921,1,0,0:0:0:0:
125,86,177097,5,2,3:2:0:0:
228,67,177274,1,0,3:0:0:0:
22,105,177450,1,0,1:0:0:0:
22,105,177803,6,0,L|10:38,1,67.5000025749208,10|0,0:0|0:0,0:0:0:0:
87,185,178156,2,0,L|98:251,1,67.5000025749208,2|0,0:0|0:0,0:0:0:0:
31,355,178509,6,0,P|98:343|163:332,2,135.000005149842,2|0|8,1:2|3:0|0:0,0:0:0:0:
206,217,179568,2,0,P|239:222|272:228,1,67.5000025749208,2|0,0:0|0:0,0:0:0:0:
355,174,179921,1,0,3:0:0:0:
159,122,180097,1,0,3:0:0:0:
276,62,180274,2,0,P|270:95|265:128,1,67.5000025749208,2|0,1:2|0:0,0:0:0:0:
378,306,180627,2,0,P|365:239|354:173,1,135.000005149842,10|0,0:0|0:0,0:0:0:0:
496,53,181156,1,0,3:0:0:0:
496,53,181244,1,0,3:0:0:0:
496,53,181333,6,0,P|438:86|373:73,1,135.000005149842,2|0,1:2|0:0,0:0:0:0:
142,149,182038,2,0,P|199:115|264:128,1,135.000005149842,10|0,0:0|3:0,0:0:0:0:
354,173,182568,1,0,3:0:0:0:
283,28,182744,1,2,3:2:0:0:
296,291,183097,6,0,P|284:259|272:227,1,67.5000025749208,2|0,1:2|0:0,0:0:0:0:
428,283,183450,2,0,P|406:308|385:335,1,67.5000025749208,10|0,0:0|0:0,0:0:0:0:
354,173,183803,2,0,P|387:179|420:184,1,67.5000025749208,2|0,0:0|0:0,0:0:0:0:
174,242,184156,6,0,P|130:291|131:357,2,135.000005149842,2|0|8,1:2|3:0|0:0,0:0:0:0:
283,28,185215,2,0,P|250:34|217:39,1,67.5000025749208,2|0,0:0|0:0,0:0:0:0:
115,46,185568,5,2,3:2:0:0:
263,127,185744,1,8,3:2:0:0:
46,173,185921,1,4,3:3:0:0:
46,173,186274,6,0,P|95:183|145:190,1,101.250003862381,10|0,3:2|0:0,0:0:0:0:
34,212,186627,2,0,P|83:222|133:229,1,101.250003862381,4|0,3:3|0:0,0:0:0:0:
174,242,186980,6,0,P|130:291|131:357,1,135.000005149842,4|0,1:1|0:0,0:0:0:0:
316,247,187509,1,0,0:0:0:0:
153,382,187686,2,0,P|219:370|285:358,1,135.000005149842,10|0,0:0|3:0,0:0:0:0:
385,376,188215,1,0,3:0:0:0:
316,247,188391,2,0,L|304:180,1,67.5000025749208,2|0,3:2|3:0,0:0:0:0:
200,124,188744,5,2,1:2:0:0:
299,148,188921,1,2,0:0:0:0:
397,118,189097,1,10,0:0:0:0:
466,44,189274,1,2,0:0:0:0:
476,232,189450,2,0,P|442:226|409:220,1,67.5000025749208,2|0,0:0|0:0,0:0:0:0:
274,15,189803,6,0,P|285:79|298:147,1,135.000005149842,2|2,1:2|0:0,0:0:0:0:
133,135,190333,2,0,L|199:123,1,67.5000025749208,2|8,0:0|0:0,0:0:0:0:
58,63,190686,1,2,0:0:0:0:
174,223,190862,2,0,L|107:234,1,67.5000025749208,2|0,0:0|0:0,0:0:0:0:
249,348,191215,5,2,3:2:0:0:
274,248,191392,1,0,3:0:0:0:
299,148,191568,1,0,1:0:0:0:
249,348,191921,6,0,P|183:360|117:372,1,135.000005149842,10|2,0:0|0:0,0:0:0:0:
274,248,192450,1,0,3:0:0:0:
274,248,192538,1,0,3:0:0:0:
274,248,192627,6,0,P|340:260|406:272,1,135.000005149842,2|0,1:2|0:0,0:0:0:0:
249,348,193156,1,0,0:0:0:0:
461,345,193333,2,0,P|495:288|482:223,1,135.000005149842,10|2,0:0|0:0,0:0:0:0:
399,179,193862,1,0,0:0:0:0:
274,15,194038,5,2,3:2:0:0:
364,78,194215,1,0,3:0:0:0:
466,44,194391,1,0,1:0:0:0:
466,44,194744,6,0,P|460:77|455:110,1,67.5000025749208,10|0,0:0|0:0,0:0:0:0:
285,169,195097,2,0,P|279:135|273:102,1,67.5000025749208,2|0,0:0|0:0,0:0:0:0:
129,18,195450,6,0,P|25:45|49:149,1,236.250009012223,2|0,1:2|0:0,0:0:0:0:
49,149,196156,2,0,P|116:137|181:126,1,135.000005149842,10|0,0:0|0:0,0:0:0:0:
263,36,196686,1,0,3:0:0:0:
263,36,196774,1,0,3:0:0:0:
263,36,196862,2,0,P|268:69|274:102,1,67.5000025749208,0|0,1:0|0:0,0:0:0:0:
370,140,197215,5,8,0:0:0:0:
181,125,197391,1,8,0:0:0:0:
371,42,197568,1,12,2:1:0:0:
268,208,197744,1,8,3:3:0:0:
466,178,197921,1,0,3:0:0:0:
466,178,198009,1,0,3:0:0:0:
466,178,198097,1,4,3:3:0:0:
370,140,198274,6,0,P|358:207|347:272,1,135.000005149842,4|0,1:1|0:0,0:0:0:0:
383,367,198803,1,0,0:0:0:0:
268,208,198980,2,0,P|202:201|148:239,1,135.000005149842,10|2,0:0|0:0,0:0:0:0:
99,331,199509,1,0,0:0:0:0:
116,139,199685,5,2,3:2:0:0:
84,39,199862,1,0,3:0:0:0:
148,239,200038,1,0,1:0:0:0:
148,239,200391,6,0,L|215:251,1,67.5000025749208,10|0,0:0|0:0,0:0:0:0:
116,139,200744,2,0,L|49:151,1,67.5000025749208,2|0,0:0|0:0,0:0:0:0:
205,17,201097,6,0,P|148:51|83:38,2,135.000005149842,2|2|10,1:2|0:0|0:0,0:0:0:0:
370,140,202156,2,0,P|376:106|381:73,1,67.5000025749208,2|0,0:0|0:0,0:0:0:0:
452,2,202508,1,0,3:0:0:0:
281,83,202685,1,0,3:0:0:0:
436,151,202862,2,0,P|402:145|369:139,1,67.5000025749208,2|0,1:2|0:0,0:0:0:0:
214,265,203215,2,0,P|281:252|347:241,1,135.000005149842,10|0,0:0|0:0,0:0:0:0:
435,373,203744,1,0,3:0:0:0:
435,373,203833,1,0,3:0:0:0:
435,373,203921,6,0,P|416:309|445:250,1,135.000005149842,2|0,1:2|0:0,0:0:0:0:
281,83,204627,2,0,P|299:146|270:205,1,135.000005149842,10|2,0:0|3:2,0:0:0:0:
122,267,205156,1,0,3:0:0:0:
225,331,205333,2,0,P|219:297|213:264,1,67.5000025749208,2|0,0:0|3:0,0:0:0:0:
108,175,205685,2,0,P|141:181|174:186,1,67.5000025749208,0|0,1:0|0:0,0:0:0:0:
33,94,206038,2,0,P|99:82|165:70,1,135.000005149842,10|0,0:0|0:0,0:0:0:0:
369,139,206744,6,0,P|362:73|400:19,2,135.000005149842,2|0|10,1:2|3:0|0:0,0:0:0:0:
511,239,207803,2,0,P|477:244|444:250,1,67.5000025749208,2|0,0:0|0:0,0:0:0:0:
346,241,208156,5,2,3:2:0:0:
480,347,208333,1,0,3:0:0:0:
408,151,208509,1,2,1:2:0:0:
408,151,208862,6,0,P|418:102|425:52,1,101.250003862381,10|0,3:2|0:0,0:0:0:0:
369,139,209215,2,0,P|379:90|386:40,1,101.250003862381,4|0,3:3|0:0,0:0:0:0:
347,27,209568,6,0,P|293:66|228:59,1,135.000005149842,4|0,1:1|0:0,0:0:0:0:
269,205,210097,1,0,0:0:0:0:
55,123,210274,2,0,P|121:135|187:147,1,135.000005149842,10|0,0:0|3:0,0:0:0:0:
227,58,210803,1,0,3:0:0:0:
178,248,210980,5,2,3:2:0:0:
269,205,211156,1,0,3:0:0:0:
87,291,211333,2,0,P|53:284|20:280,1,67.5000025749208,2|0,1:2|0:0,0:0:0:0:
191,383,211685,2,0,P|244:344|310:351,1,135.000005149842,10|0,0:0|0:0,0:0:0:0:
483,359,212391,6,0,P|470:292|459:226,1,135.000005149842,2|2,1:2|0:0,0:0:0:0:
369,139,212921,2,0,P|363:172|357:205,1,67.5000025749208,2|8,0:0|0:0,0:0:0:0:
440,61,213274,1,2,0:0:0:0:
266,117,213450,2,0,P|260:83|254:50,1,67.5000025749208,2|0,0:0|0:0,0:0:0:0:
277,268,213803,5,2,3:2:0:0:
178,248,213979,1,0,3:0:0:0:
79,228,214156,1,2,1:2:0:0:
277,268,214509,6,0,B|309:289|350:296|384:284|384:284|373:280|366:273,1,135.000005149842,10|0,0:0|0:0,0:0:0:0:
201,380,215038,1,0,3:0:0:0:
201,380,215127,1,0,3:0:0:0:
201,380,215215,6,0,P|189:313|177:247,1,135.000005149842,4|0,1:1|0:0,0:0:0:0:
266,117,215744,1,0,0:0:0:0:
145,250,215921,2,0,P|79:256|25:218,1,135.000005149842,10|0,0:0|3:0,0:0:0:0:
127,36,216627,6,0,P|115:102|102:168,1,135.000005149842,2|0,3:2|1:0,0:0:0:0:
266,117,217333,2,0,P|332:105|398:92,1,135.000005149842,10|2,0:0|0:0,0:0:0:0:
445,261,217862,1,2,0:0:0:0:
368,211,218038,6,0,P|421:172|487:179,2,135.000005149842,4|2|10,1:1|0:0|0:0,0:0:0:0:
266,117,219097,1,2,0:0:0:0:
297,314,219450,2,0,P|330:308|363:303,1,67.5000025749208,0|0,3:0|3:0,0:0:0:0:
445,261,219803,1,2,1:2:0:0:
236,381,220156,6,0,P|206:321|225:258,1,135.000005149842,10|2,0:0|0:0,0:0:0:0:
288,196,220685,1,0,3:0:0:0:
288,196,220774,1,0,3:0:0:0:
288,196,220862,1,0,1:0:0:0:
160,320,221214,5,2,0:0:0:0:
224,258,221391,1,0,3:0:0:0:
224,258,221479,1,0,3:0:0:0:
224,258,221567,2,0,P|157:245|91:234,1,135.000005149842,10|4,0:0|3:3,0:0:0:0:
16,186,222096,1,8,3:2:0:0:
78,53,222273,6,0,P|84:86|89:119,1,67.5000025749208,2|0,0:0|3:0,0:0:0:0:
95,145,222537,1,0,3:0:0:0:
95,145,222625,1,2,1:2:0:0:
174,104,222802,1,0,3:0:0:0:
16,186,222978,1,10,3:2:0:0:
16,186,223331,5,4,3:3:0:0:
95,145,223507,1,8,3:2:0:0:
174,104,223684,6,0,P|250:125|350:139,1,168.75,4|0,1:1|0:0,0:0:0:0:
466,142,224389,2,0,P|419:91|424:38,1,112.5,10|2,0:0|0:0,0:0:0:0:
338,138,224919,1,0,0:0:0:0:
338,138,225095,2,0,P|327:174|322:208,1,56.25,2|0,0:0|0:0,0:0:0:0:
375,315,225448,2,0,P|381:287|390:261,1,56.25,0|0,1:0|0:0,0:0:0:0:
483,236,225801,1,10,0:0:0:0:
483,236,226154,1,0,0:0:0:0:
390,260,226331,1,0,0:0:0:0:
323,192,226507,6,0,P|251:150|159:176,1,168.75,2|0,1:2|0:0,0:0:0:0:
88,239,227213,2,0,P|79:184|66:128,1,112.5,10|0,0:0|0:0,0:0:0:0:
191,266,227742,1,0,0:0:0:0:
191,266,227919,2,0,P|197:311|201:334,1,56.25,2|2,0:0|0:0,0:0:0:0:
109,339,228272,2,0,P|82:330|54:325,1,56.25,0|0,1:0|0:0,0:0:0:0:
272,215,228625,2,0,P|328:230|382:242,1,112.5,8|2,0:0|0:0,0:0:0:0:
381,241,229154,1,0,0:0:0:0:
498,233,229331,6,0,P|464:277|467:334,1,112.5,2|0,1:2|0:0,0:0:0:0:
348,140,230036,2,0,P|339:86|320:22,1,112.5,10|2,0:0|0:0,0:0:0:0:
432,98,230566,1,0,0:0:0:0:
432,98,230742,2,0,P|465:104|503:108,1,56.25,2|0,0:0|3:0,0:0:0:0:
262,169,231095,2,0,P|228:175|191:179,1,56.25,2|0,1:2|0:0,0:0:0:0:
402,238,231448,2,0,P|463:248|522:261,1,112.5,10|0,0:0|0:0,0:0:0:0:
512,258,231978,1,0,0:0:0:0:
435,335,232154,6,0,P|386:272|306:280,1,168.75,2|2,1:2|0:0,0:0:0:0:
233,376,232860,2,0,P|294:368|352:363,1,112.5,10|0,0:0|0:0,0:0:0:0:
228,235,233389,2,0,P|219:267|213:311,1,56.25,2|0,0:0|0:0,0:0:0:0:
112,384,233742,1,0,3:0:0:0:
112,384,233919,2,0,P|117:356|124:329,1,56.25,0|2,1:0|0:0,0:0:0:0:
73,202,234272,2,0,P|64:234|57:278,1,56.25,10|2,2:1|0:0,0:0:0:0:
59,256,234536,1,0,3:0:0:0:
59,256,234625,2,0,P|23:266|-3:277,1,56.25,0|0,3:0|0:0,0:0:0:0:
143,140,234978,6,0,P|203:139|250:93,1,112.5,4|2,1:1|0:0,0:0:0:0:
462,192,235684,2,0,P|406:191|362:224,1,112.5,10|2,0:0|0:0,0:0:0:0:
275,212,236213,1,0,0:0:0:0:
275,212,236389,2,0,P|265:245|264:277,1,56.25,2|0,3:2|3:0,0:0:0:0:
390,144,236742,2,0,P|397:117|401:89,1,56.25,2|0,1:2|0:0,0:0:0:0:
200,70,237095,2,0,P|240:109|300:106,1,112.5,10|2,0:0|0:0,0:0:0:0:
293,108,237625,1,0,0:0:0:0:
179,188,237801,6,0,P|123:193|67:204,1,112.5,2|2,1:2|0:0,0:0:0:0:
42,216,238242,1,0,3:0:0:0:
42,216,238331,1,0,3:0:0:0:
119,53,238507,2,0,P|111:80|105:107,1,56.25,2|0,1:2|0:0,0:0:0:0:
138,279,238860,2,0,P|194:219|275:226,1,168.75,10|0,0:0|3:0,0:0:0:0:
274,225,239566,2,0,P|304:217|340:213,1,56.25,2|0,1:2|0:0,0:0:0:0:
248,363,239919,2,0,P|241:335|231:309,1,56.25,10|0,0:0|0:0,0:0:0:0:
427,118,240272,2,0,P|417:144|412:172,1,56.25,10|0,0:0|0:0,0:0:0:0:
507,314,240625,6,0,P|459:285|405:295,1,112.5,4|2,1:1|3:2,0:0:0:0:
389,323,241066,1,0,3:0:0:0:
389,323,241154,2,0,P|362:313|324:307,1,56.25,0|10,3:0|0:0,0:0:0:0:
158,268,241507,1,0,3:0:0:0:
158,268,241595,1,0,3:0:0:0:
158,268,241684,1,8,3:2:0:0:
320,163,241860,1,4,3:3:0:0:
228,343,242036,6,0,P|237:294|258:233,1,112.5,2|2,1:2|0:0,0:0:0:0:
62,246,242566,1,8,3:3:0:0:
144,111,242742,2,0,P|138:138|128:165,1,56.25,2|0,0:0|0:0,0:0:0:0:
145,195,243007,1,0,0:0:0:0:
145,195,243095,2,0,L|186:186,3,28.125,2|2|2|2,0:0|0:0|0:0|0:0,0:0:0:0:
234,123,243448,5,4,2:1:0:0:
234,123,245036,1,0,3:0:0:0:
234,123,245125,1,0,3:0:0:0:
234,123,245213,2,0,P|266:134|303:140,1,62.9999980773926,0|0,1:0|3:0,0:0:0:0:
157,172,245566,5,8,0:0:0:0:
287,48,245742,1,8,0:0:0:0:
70,128,245919,1,4,2:3:0:0:
245,219,246095,1,4,2:3:0:0:
28,299,246272,6,0,P|82:260|147:267,1,135.000005149842,4|0,1:1|0:0,0:0:0:0:
238,327,246801,1,0,0:0:0:0:
377,242,246978,2,0,P|310:230|244:218,1,135.000005149842,10|2,0:0|0:0,0:0:0:0:
400,349,247507,1,0,0:0:0:0:
436,151,247684,5,2,3:2:0:0:
377,242,247860,1,0,3:0:0:0:
495,60,248036,1,0,1:0:0:0:
495,60,248389,6,0,L|428:71,1,67.5000025749208,10|0,0:0|0:0,0:0:0:0:
257,20,248742,2,0,L|323:8,1,67.5000025749208,2|0,0:0|0:0,0:0:0:0:
157,172,249095,6,0,P|140:106|122:41,2,135.000005149842,2|0|8,1:2|3:0|0:0,0:0:0:0:
38,382,250154,2,0,P|43:348|49:315,1,67.5000025749208,2|0,0:0|0:0,0:0:0:0:
147,267,250507,1,0,3:0:0:0:
70,126,250683,1,0,3:0:0:0:
244,217,250860,2,0,L|310:205,1,67.5000025749208,2|0,1:2|0:0,0:0:0:0:
323,7,251213,2,0,P|269:46|203:39,1,135.000005149842,10|0,0:0|0:0,0:0:0:0:
431,114,251742,1,0,3:0:0:0:
431,114,251831,1,0,3:0:0:0:
431,114,251919,6,0,P|443:181|455:247,1,135.000005149842,2|0,1:2|0:0,0:0:0:0:
267,350,252625,2,0,P|255:283|243:217,1,135.000005149842,10|0,0:0|3:0,0:0:0:0:
157,172,253154,1,0,3:0:0:0:
348,231,253331,1,2,3:2:0:0:
348,231,253683,6,0,P|381:237|414:242,1,67.5000025749208,2|0,1:2|0:0,0:0:0:0:
214,291,254036,2,0,P|247:297|280:302,1,67.5000025749208,10|0,0:0|0:0,0:0:0:0:
80,351,254389,2,0,P|113:357|146:362,1,67.5000025749208,2|0,0:0|0:0,0:0:0:0:
0,160,254742,6,0,P|28:219|10:282,2,135.000005149842,2|0|8,1:2|3:0|0:0,0:0:0:0:
203,39,255801,2,0,L|214:105,1,67.5000025749208,2|0,0:0|0:0,0:0:0:0:
300,150,256154,5,2,3:2:0:0:
107,110,256331,1,0,3:0:0:0:
310,20,256507,1,4,3:3:0:0:
310,20,256860,6,0,L|410:37,1,101.250003862381,10|0,0:0|0:0,0:0:0:0:
444,43,257213,1,8,0:0:0:0:
300,150,257389,1,8,0:0:0:0:
483,264,257566,6,0,P|494:198|460:142,1,135.000005149842,4|0,1:1|0:0,0:0:0:0:
310,20,258095,1,0,0:0:0:0:
433,126,258272,2,0,P|366:138|300:149,1,135.000005149842,10|0,0:0|3:0,0:0:0:0:
233,281,258801,1,0,3:0:0:0:
332,248,258978,2,0,P|365:253|398:259,1,67.5000025749208,0|0,3:0|3:0,0:0:0:0:
299,149,259331,5,2,1:2:0:0:
200,182,259507,1,2,0:0:0:0:
97,161,259683,1,10,0:0:0:0:
18,91,259860,1,2,0:0:0:0:
76,265,260036,2,0,P|82:298|87:331,1,67.5000025749208,2|0,0:0|0:0,0:0:0:0:
18,91,260389,6,0,P|84:79|150:67,1,135.000005149842,2|2,1:2|0:0,0:0:0:0:
310,20,260919,2,0,P|276:14|243:8,1,67.5000025749208,2|8,0:0|0:0,0:0:0:0:
299,149,261272,1,2,0:0:0:0:
458,79,261448,2,0,P|424:84|391:90,1,67.5000025749208,2|0,0:0|0:0,0:0:0:0:
483,264,261801,5,2,3:2:0:0:
391,206,261978,1,0,3:0:0:0:
299,149,262154,1,0,1:0:0:0:
483,264,262507,6,0,P|444:318|451:383,1,135.000005149842,10|2,0:0|0:0,0:0:0:0:
281,288,263036,1,0,3:0:0:0:
281,288,263125,1,0,3:0:0:0:
281,288,263213,6,0,P|347:300|413:312,1,135.000005149842,0|0,1:2|0:0,0:0:0:0:
391,206,263742,1,0,0:0:0:0:
227,361,263919,2,0,P|192:303|205:239,1,135.000005149842,10|2,0:0|0:0,0:0:0:0:
299,149,264448,1,0,3:0:0:0:
299,149,264536,1,0,3:0:0:0:
299,149,264625,5,2,3:2:0:0:
219,221,264801,1,0,3:0:0:0:
116,187,264978,1,0,1:0:0:0:
116,187,265331,6,0,P|82:181|49:175,1,67.5000025749208,10|0,0:0|0:0,0:0:0:0:
299,149,265684,2,0,P|332:143|365:137,1,67.5000025749208,2|0,0:0|0:0,0:0:0:0:
160,95,266036,6,0,B|187:66|201:47|201:47|217:218,1,236.250009012223,2|0,1:2|0:0,0:0:0:0:
218,220,266742,2,0,P|272:259|337:252,1,135.000005149842,10|0,0:0|0:0,0:0:0:0:
451,218,267272,1,0,3:0:0:0:
451,218,267360,1,0,3:0:0:0:
451,218,267448,5,12,3:1:0:0:
365,136,267625,1,8,3:3:0:0:
423,333,267801,1,0,3:0:0:0:
218,220,267978,1,8,3:2:0:0:
337,251,268154,1,2,3:2:0:0:
132,308,268331,1,0,3:0:0:0:
246,105,268507,1,4,3:3:0:0:
49,175,268684,1,0,3:0:0:0:
241,352,268860,6,0,P|230:285|217:219,1,135.000005149842,4|0,1:1|1:0,0:0:0:0:
144,48,269389,1,0,1:0:0:0:
246,105,269566,2,0,P|311:111|365:73,1,135.000005149842,10|0,0:0|3:0,0:0:0:0:
450,0,270095,1,0,3:0:0:0:
501,227,270272,5,8,3:2:0:0:
413,173,270448,1,8,3:3:0:0:
309,170,270625,1,4,3:3:0:0:
217,219,270801,1,4,3:3:0:0:
365,73,270978,5,10,0:0:0:0:
358,235,271154,2,0,L|356:282,1,33.7500012874604,0|0,3:0|0:3,0:0:0:0:
353,371,271331,2,0,L|355:303,1,67.5000025749208,10|0,0:0|0:0,0:0:0:0:
217,219,271684,6,0,P|152:207|95:240,2,135.000005149842,4|2|10,1:1|0:0|0:0,0:0:0:0:
353,371,272742,2,0,P|320:365|287:359,1,67.5000025749208,2|0,0:0|0:0,0:0:0:0:
175,341,273095,1,0,3:0:0:0:
357,270,273272,1,0,3:0:0:0:
205,153,273448,2,0,P|211:186|217:219,1,67.5000025749208,2|0,1:2|0:0,0:0:0:0:
364,73,273801,2,0,P|297:61|231:48,1,135.000005149842,10|0,0:0|0:0,0:0:0:0:
83,130,274331,1,0,3:0:0:0:
83,130,274419,1,0,3:0:0:0:
83,130,274507,6,0,P|139:163|204:152,1,135.000005149842,2|0,1:2|0:0,0:0:0:0:
429,214,275213,2,0,P|372:180|307:191,1,135.000005149842,10|0,0:0|3:0,0:0:0:0:
431,344,275742,1,0,3:0:0:0:
289,281,275919,2,0,P|322:275|355:269,1,67.5000025749208,2|0,0:0|3:0,0:0:0:0:
203,342,276272,2,0,P|170:336|137:330,1,67.5000025749208,2|0,1:2|0:0,0:0:0:0:
83,130,276625,2,0,P|71:196|58:262,1,135.000005149842,10|0,0:0|0:0,0:0:0:0:
307,190,277331,6,0,P|244:212|182:189,2,135.000005149842,4|0|10,1:1|3:0|0:0,0:0:0:0:
450,0,278389,2,0,P|444:33|438:66,1,67.5000025749208,2|0,0:0|0:0,0:0:0:0:
337,91,278742,1,2,3:2:0:0:
508,140,278919,1,8,3:2:0:0:
307,190,279095,5,2,3:2:0:0:
437,66,279272,1,8,3:2:0:0:
231,48,279448,1,10,3:2:0:0:
407,165,279625,1,2,3:2:0:0:
182,189,279801,1,2,3:2:0:0:
337,91,279978,1,0,3:2:0:0:
408,312,280154,6,0,P|354:273|288:280,1,135.000005149842,4|0,1:1|0:0,0:0:0:0:
102,364,280683,1,0,0:0:0:0:
181,188,280860,2,0,P|188:255|195:322,1,135.000005149842,10|2,0:0|3:2,0:0:0:0:
83,130,281389,1,0,3:0:0:0:
195,322,281566,5,2,3:2:0:0:
288,280,281742,1,0,3:0:0:0:
102,364,281919,2,0,P|69:370|36:376,1,67.5000025749208,2|0,1:2|0:0,0:0:0:0:
288,280,282272,2,0,P|326:226|319:160,1,135.000005149842,10|0,0:0|0:0,0:0:0:0:
98,24,282978,6,0,P|164:36|230:47,1,135.000005149842,2|2,1:2|0:0,0:0:0:0:
319,160,283507,2,0,P|325:127|331:94,1,67.5000025749208,2|8,0:0|0:0,0:0:0:0:
181,188,283860,1,2,0:0:0:0:
288,280,284036,2,0,P|321:274|354:268,1,67.5000025749208,2|0,0:0|0:0,0:0:0:0:
432,139,284389,5,2,3:2:0:0:
331,93,284565,1,0,3:0:0:0:
230,47,284742,1,2,1:2:0:0:
432,139,285095,6,0,P|425:73|463:19,1,135.000005149842,10|0,0:0|0:0,0:0:0:0:
230,47,285625,1,0,3:0:0:0:
230,47,285713,1,0,3:0:0:0:
230,47,285801,6,0,P|163:59|97:70,1,135.000005149842,4|0,1:1|0:0,0:0:0:0:
181,188,286331,1,0,0:0:0:0:
48,290,286507,2,0,P|41:224|79:170,1,135.000005149842,10|0,0:0|3:0,0:0:0:0:
331,93,287213,6,0,P|317:159|305:225,1,135.000005149842,2|0,3:2|1:0,0:0:0:0:
154,380,287919,2,0,P|141:313|128:247,1,135.000005149842,10|2,0:0|0:0,0:0:0:0:
274,343,288448,1,2,0:0:0:0:
351,294,288625,6,0,P|297:254|232:261,2,135.000005149842,4|2|10,1:1|0:0|0:0,0:0:0:0:
247,136,289683,1,2,3:2:0:0:
247,136,289860,1,0,3:0:0:0:
331,93,290036,1,4,3:1:0:0:
331,93,290213,1,8,3:3:0:0:
251,41,290389,2,0,P|218:47|185:53,1,67.5000025749208,2|0,1:2|0:0,0:0:0:0:
327,188,290742,2,0,P|360:182|393:176,1,67.5000025749208,10|0,0:0|0:0,0:0:0:0:
463,69,291095,6,0,P|396:81|330:92,1,135.000005149842,10|0,0:0|0:0,0:0:0:0:
136,131,291802,5,2,0:0:0:0:
184,53,291978,1,2,3:2:0:0:
184,53,292066,1,0,3:0:0:0:
184,53,292154,2,0,P|224:107|217:172,1,135.000005149842,10|4,0:0|3:3,0:0:0:0:
29,173,292683,1,8,3:2:0:0:
118,231,292860,6,0,P|124:198|130:165,1,67.5000025749208,2|0,0:0|3:0,0:0:0:0:
136,131,293125,1,0,3:0:0:0:
136,131,293213,1,2,1:2:0:0:
11,273,293389,1,0,3:0:0:0:
184,242,293566,2,0,P|150:236|117:230,1,67.5000025749208,8|0,3:2|0:0,0:0:0:0:
284,324,293919,2,0,P|250:329|218:336,1,67.5000025749208,4|0,3:3|0:0,0:0:0:0:
386,361,294294,5,2,0:0:0:0:
413,325,294678,5,2,0:0:0:0:
383,293,295063,5,2,0:0:0:0:
390,252,295463,6,0,P|434:244|478:236,1,90,2|0,0:0|0:0,0:0:0:0:
496,200,296386,5,2,0:0:0:0:
478,172,296931,5,2,0:0:0:0:
484,144,297676,5,2,0:0:0:0:
484,144,298576,6,0,L|481:129,3,15,0|0|0|2,0:0|0:0|0:0|0:0,0:0:0:0:
256,192,299237,12,0,304330,0:0:0:0:
256,192,304691,12,0,308667,0:0:0:0:
