osu file format v14

[General]
AudioFilename: audio.mp3
AudioLeadIn: 0
PreviewTime: 49342
Countdown: 0
SampleSet: Normal
StackLeniency: 0.7
Mode: 1
LetterboxInBreaks: 0
WidescreenStoryboard: 1

[Editor]
Bookmarks: 9974,24326
DistanceSpacing: 1
BeatDivisor: 4
GridSize: 32
TimelineZoom: 1.6

[Metadata]
Title:Aletheia (Game Ver.)
TitleUnicode:アレセイア (Game Ver.)
Artist:eufonius
ArtistUnicode:eufonius
Creator:[-E S I A-]
Version:Zonda's Inner Oni
Source:いろとりどりのセカイ
Tags:Want To Spread My Wings And Fly Into The Sky irotoridori no Sekai オリジナルサウンドトラック original soundtrack ost kdsd-00464 eroge galgame videogame video game opening op short version visual novel vn favorite riya japanese pop jpop j-pop blackbn blackbq bigh zonda bighzonda 050 E_S_I_A [-E_S_I_A-] ESIA [-ESIA-] ler1211 rinze
BeatmapID:4003804
BeatmapSetID:1914958

[Difficulty]
HPDrainRate:5.5
CircleSize:10
OverallDifficulty:5.5
ApproachRate:0
SliderMultiplier:1.4
SliderTickRate:1

[Events]
//Background and Video events
0,0,"me when aletheia.jpg",0,-30
//Break Periods
//Storyboard Layer 0 (Background)
//Storyboard Layer 1 (Fail)
//Storyboard Layer 2 (Pass)
//Storyboard Layer 3 (Foreground)
//Storyboard Layer 4 (Overlay)
//Storyboard Sound Samples

[TimingPoints]
406,398.671096345515,4,1,0,50,1,0
9924,-100,4,1,0,55,0,0
11568,398.671096345515,4,1,0,60,1,0
11568,-100,4,1,0,60,0,0
35488,398.671096345515,4,1,0,70,1,0
35488,-100,4,1,0,70,0,0
49392,-99.009900990099,4,1,0,70,0,0
49492,-98.0392156862745,4,1,0,70,0,0
49592,-97.0873786407767,4,1,0,70,0,0
49691,-96.1538461538461,4,1,0,70,0,0
49840,398.671096345515,4,1,0,80,1,1
49840,-95.2380952380952,4,1,0,80,0,1
90853,-96.1538461538461,4,1,0,80,0,1
90952,-97.0873786407767,4,1,0,80,0,1
91052,-98.0392156862745,4,1,0,80,0,1
91153,-99.009900990099,4,1,0,80,0,1
91301,398.671096345515,4,1,0,70,1,0
91301,-100,4,1,0,70,0,0

[HitObjects]
256,192,406,5,0,0:0:0:0:
256,192,605,1,0,0:0:0:0:
256,192,804,1,8,0:0:0:0:
256,192,1004,1,0,0:0:0:0:
256,192,1602,1,8,0:0:0:0:
256,192,2200,1,8,0:0:0:0:
256,192,2399,1,8,0:0:0:0:
256,192,2598,1,0,0:0:0:0:
256,192,3196,1,0,0:0:0:0:
256,192,3595,1,8,0:0:0:0:
256,192,4193,1,8,0:0:0:0:
256,192,4791,1,0,0:0:0:0:
256,192,6784,12,0,9575,0:0:0:0:
256,192,9774,5,0,0:0:0:0:
256,192,9874,1,0,0:0:0:0:
256,192,9974,1,0,0:0:0:0:
256,192,10372,1,8,0:0:0:0:
256,192,10771,1,8,0:0:0:0:
256,192,10970,1,0,0:0:0:0:
256,192,11170,1,8,0:0:0:0:
256,192,11269,1,0,0:0:0:0:
256,192,11469,1,8,0:0:0:0:
256,192,11568,1,4,0:0:0:0:
256,192,11966,1,0,0:0:0:0:
256,192,12166,1,8,0:0:0:0:
256,192,12365,1,0,0:0:0:0:
256,192,12564,1,0,0:0:0:0:
256,192,12764,1,8,0:0:0:0:
256,192,12863,1,0,0:0:0:0:
256,192,12963,1,0,0:0:0:0:
256,192,13162,1,8,0:0:0:0:
256,192,13362,1,0,0:0:0:0:
256,192,13561,1,0,0:0:0:0:
256,192,13661,1,0,0:0:0:0:
256,192,13760,1,0,0:0:0:0:
256,192,13960,1,8,0:0:0:0:
256,192,14159,1,8,0:0:0:0:
256,192,14358,1,0,0:0:0:0:
256,192,14458,1,8,0:0:0:0:
256,192,14558,1,8,0:0:0:0:
256,192,14757,1,0,0:0:0:0:
256,192,15156,1,8,0:0:0:0:
256,192,15355,1,0,0:0:0:0:
256,192,15554,1,8,0:0:0:0:
256,192,15754,1,0,0:0:0:0:
256,192,15853,1,8,0:0:0:0:
256,192,15953,1,8,0:0:0:0:
256,192,16152,1,0,0:0:0:0:
256,192,16352,1,8,0:0:0:0:
256,192,16551,1,0,0:0:0:0:
256,192,16750,1,8,0:0:0:0:
256,192,16950,1,8,0:0:0:0:
256,192,17149,1,0,0:0:0:0:
256,192,17249,1,0,0:0:0:0:
256,192,17348,1,8,0:0:0:0:
256,192,17448,1,8,0:0:0:0:
256,192,17548,1,0,0:0:0:0:
256,192,17747,1,0,0:0:0:0:
256,192,17946,1,8,0:0:0:0:
256,192,18345,1,0,0:0:0:0:
256,192,18544,1,8,0:0:0:0:
256,192,18744,1,8,0:0:0:0:
256,192,18943,1,0,0:0:0:0:
256,192,19142,1,8,0:0:0:0:
256,192,19242,1,8,0:0:0:0:
256,192,19342,1,0,0:0:0:0:
256,192,19541,1,0,0:0:0:0:
256,192,19740,1,0,0:0:0:0:
256,192,19840,1,8,0:0:0:0:
256,192,19940,1,8,0:0:0:0:
256,192,20139,1,8,0:0:0:0:
256,192,20338,1,0,0:0:0:0:
256,192,20538,1,0,0:0:0:0:
256,192,20737,1,8,0:0:0:0:
256,192,20936,1,8,0:0:0:0:
256,192,21036,1,8,0:0:0:0:
256,192,21136,1,0,0:0:0:0:
256,192,21534,1,0,0:0:0:0:
256,192,21734,1,8,0:0:0:0:
256,192,21833,1,8,0:0:0:0:
256,192,21933,1,0,0:0:0:0:
256,192,22132,1,8,0:0:0:0:
256,192,22332,1,0,0:0:0:0:
256,192,22531,1,8,0:0:0:0:
256,192,22730,1,0,0:0:0:0:
256,192,22930,1,8,0:0:0:0:
256,192,23029,1,0,0:0:0:0:
256,192,23129,1,8,0:0:0:0:
256,192,23328,1,8,0:0:0:0:
256,192,23428,1,0,0:0:0:0:
256,192,23528,1,8,0:0:0:0:
256,192,23627,1,8,0:0:0:0:
256,192,23727,1,0,0:0:0:0:
256,192,23926,1,8,0:0:0:0:
256,192,24325,1,4,0:0:0:0:
256,192,24524,1,8,0:0:0:0:
256,192,24624,1,8,0:0:0:0:
256,192,24724,1,0,0:0:0:0:
256,192,24923,1,8,0:0:0:0:
256,192,25122,1,8,0:0:0:0:
256,192,25322,1,0,0:0:0:0:
256,192,25421,1,0,0:0:0:0:
256,192,25521,1,0,0:0:0:0:
256,192,25720,1,8,0:0:0:0:
256,192,25820,1,0,0:0:0:0:
256,192,25920,1,0,0:0:0:0:
256,192,26119,1,8,0:0:0:0:
256,192,26318,1,0,0:0:0:0:
256,192,26518,1,8,0:0:0:0:
256,192,26617,1,8,0:0:0:0:
256,192,26717,1,8,0:0:0:0:
256,192,26916,1,0,0:0:0:0:
256,192,27116,1,0,0:0:0:0:
256,192,27514,1,8,0:0:0:0:
256,192,27714,1,8,0:0:0:0:
256,192,27813,1,0,0:0:0:0:
256,192,27913,1,8,0:0:0:0:
256,192,28112,1,0,0:0:0:0:
256,192,28312,1,0,0:0:0:0:
256,192,28511,1,8,0:0:0:0:
256,192,28710,1,0,0:0:0:0:
256,192,28910,1,0,0:0:0:0:
256,192,29009,1,0,0:0:0:0:
256,192,29109,1,8,0:0:0:0:
256,192,29308,1,8,0:0:0:0:
256,192,29508,1,0,0:0:0:0:
256,192,29707,1,8,0:0:0:0:
256,192,29906,1,0,0:0:0:0:
256,192,30006,1,0,0:0:0:0:
256,192,30106,1,0,0:0:0:0:
256,192,30305,1,0,0:0:0:0:
256,192,30704,1,12,0:0:0:0:
256,192,31102,1,0,0:0:0:0:
256,192,31302,1,0,0:0:0:0:
256,192,31401,1,0,0:0:0:0:
256,192,31501,1,8,0:0:0:0:
256,192,31700,1,8,0:0:0:0:
256,192,31900,1,0,0:0:0:0:
256,192,31999,1,0,0:0:0:0:
256,192,32099,1,12,0:0:0:0:
256,192,32298,1,0,0:0:0:0:
256,192,32398,1,8,0:0:0:0:
256,192,32498,1,0,0:0:0:0:
256,192,32697,1,8,0:0:0:0:
256,192,32896,1,0,0:0:0:0:
256,192,33295,1,0,0:0:0:0:
256,192,33494,1,8,0:0:0:0:
256,192,33694,1,4,0:0:0:0:
256,192,34092,1,8,0:0:0:0:
256,192,34192,1,8,0:0:0:0:
256,192,34292,1,0,0:0:0:0:
256,192,34491,1,8,0:0:0:0:
256,192,34690,1,8,0:0:0:0:
256,192,34790,1,8,0:0:0:0:
256,192,34890,1,0,0:0:0:0:
256,192,35089,1,8,0:0:0:0:
256,192,35189,1,0,0:0:0:0:
256,192,35288,1,8,0:0:0:0:
256,192,35388,1,8,0:0:0:0:
256,192,35488,1,4,0:0:0:0:
256,192,35886,1,0,0:0:0:0:
256,192,36086,1,8,0:0:0:0:
256,192,36285,1,0,0:0:0:0:
256,192,36385,1,0,0:0:0:0:
256,192,36484,1,8,0:0:0:0:
256,192,36684,1,8,0:0:0:0:
256,192,36883,1,0,0:0:0:0:
256,192,37082,1,0,0:0:0:0:
256,192,37282,1,8,0:0:0:0:
256,192,37381,1,0,0:0:0:0:
256,192,37481,1,0,0:0:0:0:
256,192,37680,1,0,0:0:0:0:
256,192,37880,1,0,0:0:0:0:
256,192,38079,1,8,0:0:0:0:
256,192,38179,1,0,0:0:0:0:
256,192,38278,1,8,0:0:0:0:
256,192,38478,1,0,0:0:0:0:
256,192,38677,1,12,0:0:0:0:
256,192,39076,1,0,0:0:0:0:
256,192,39275,1,8,0:0:0:0:
256,192,39375,1,8,0:0:0:0:
256,192,39474,1,0,0:0:0:0:
256,192,39674,1,0,0:0:0:0:
256,192,39873,1,12,0:0:0:0:
256,192,40272,1,0,0:0:0:0:
256,192,40471,1,8,0:0:0:0:
256,192,40670,1,0,0:0:0:0:
256,192,40870,1,0,0:0:0:0:
256,192,41069,1,8,0:0:0:0:
256,192,41169,1,8,0:0:0:0:
256,192,41268,1,0,0:0:0:0:
256,192,41368,1,0,0:0:0:0:
256,192,41468,1,8,0:0:0:0:
256,192,41667,1,8,0:0:0:0:
256,192,41866,1,4,0:0:0:0:
256,192,42265,1,0,0:0:0:0:
256,192,42464,1,8,0:0:0:0:
256,192,42564,1,0,0:0:0:0:
256,192,42664,1,0,0:0:0:0:
256,192,42863,1,8,0:0:0:0:
256,192,43062,1,4,0:0:0:0:
256,192,43262,1,8,0:0:0:0:
256,192,43361,1,8,0:0:0:0:
256,192,43461,1,0,0:0:0:0:
256,192,43660,1,0,0:0:0:0:
256,192,43760,1,8,0:0:0:0:
256,192,43860,1,0,0:0:0:0:
256,192,44059,1,0,0:0:0:0:
256,192,44258,1,8,0:0:0:0:
256,192,44458,1,0,0:0:0:0:
256,192,44657,1,8,0:0:0:0:
256,192,44856,1,0,0:0:0:0:
256,192,45056,1,12,0:0:0:0:
256,192,45454,1,8,0:0:0:0:
256,192,45654,1,8,0:0:0:0:
256,192,45853,1,0,0:0:0:0:
256,192,45953,1,0,0:0:0:0:
256,192,46052,1,8,0:0:0:0:
256,192,46252,1,4,0:0:0:0:
256,192,46650,1,0,0:0:0:0:
256,192,46850,1,0,0:0:0:0:
256,192,46949,1,0,0:0:0:0:
256,192,47049,1,8,0:0:0:0:
256,192,47248,1,0,0:0:0:0:
256,192,47448,1,8,0:0:0:0:
256,192,47547,1,8,0:0:0:0:
256,192,47647,1,0,0:0:0:0:
256,192,47846,1,8,0:0:0:0:
256,192,47946,1,0,0:0:0:0:
256,192,48046,1,8,0:0:0:0:
256,192,49242,1,8,0:0:0:0:
256,192,49441,1,0,0:0:0:0:
256,192,49541,1,0,0:0:0:0:
256,192,49640,1,0,0:0:0:0:
256,192,49740,1,0,0:0:0:0:
256,192,49840,1,12,0:0:0:0:
256,192,50238,1,8,0:0:0:0:
256,192,50438,1,0,0:0:0:0:
256,192,50537,1,0,0:0:0:0:
256,192,50637,1,0,0:0:0:0:
256,192,50737,1,8,0:0:0:0:
256,192,50836,1,0,0:0:0:0:
256,192,51036,1,8,0:0:0:0:
256,192,51135,1,8,0:0:0:0:
256,192,51235,1,0,0:0:0:0:
256,192,51434,1,0,0:0:0:0:
256,192,51634,1,8,0:0:0:0:
256,192,51833,1,0,0:0:0:0:
256,192,52032,1,0,0:0:0:0:
256,192,52132,1,0,0:0:0:0:
256,192,52232,1,8,0:0:0:0:
256,192,52431,1,0,0:0:0:0:
256,192,52630,1,8,0:0:0:0:
256,192,52830,1,0,0:0:0:0:
256,192,52929,1,0,0:0:0:0:
256,192,53029,1,8,0:0:0:0:
256,192,53228,1,8,0:0:0:0:
256,192,53428,1,0,0:0:0:0:
256,192,53627,1,8,0:0:0:0:
256,192,53727,1,0,0:0:0:0:
256,192,53826,1,8,0:0:0:0:
256,192,54026,1,0,0:0:0:0:
256,192,54125,1,0,0:0:0:0:
256,192,54225,1,8,0:0:0:0:
256,192,54325,1,0,0:0:0:0:
256,192,54424,1,8,0:0:0:0:
256,192,54624,1,0,0:0:0:0:
256,192,54823,1,8,0:0:0:0:
256,192,54923,1,8,0:0:0:0:
256,192,55022,1,8,0:0:0:0:
256,192,55222,1,8,0:0:0:0:
256,192,55321,1,0,0:0:0:0:
256,192,55421,1,8,0:0:0:0:
256,192,55521,1,8,0:0:0:0:
256,192,55620,1,0,0:0:0:0:
256,192,55820,1,8,0:0:0:0:
256,192,55919,1,0,0:0:0:0:
256,192,56019,1,8,0:0:0:0:
256,192,56119,1,0,0:0:0:0:
256,192,56218,1,12,0:0:0:0:
256,192,56617,1,0,0:0:0:0:
256,192,56816,1,8,0:0:0:0:
256,192,56916,1,8,0:0:0:0:
256,192,57016,1,0,0:0:0:0:
256,192,57215,1,0,0:0:0:0:
256,192,57414,1,8,0:0:0:0:
256,192,57514,1,0,0:0:0:0:
256,192,57614,1,8,0:0:0:0:
256,192,57713,1,8,0:0:0:0:
256,192,57813,1,0,0:0:0:0:
256,192,58012,1,8,0:0:0:0:
256,192,58212,1,0,0:0:0:0:
256,192,58411,1,0,0:0:0:0:
256,192,58511,1,0,0:0:0:0:
256,192,58610,1,8,0:0:0:0:
256,192,58810,1,0,0:0:0:0:
256,192,59009,1,8,0:0:0:0:
256,192,59208,1,0,0:0:0:0:
256,192,59308,1,0,0:0:0:0:
256,192,59408,1,12,0:0:0:0:
256,192,59806,1,0,0:0:0:0:
256,192,60006,1,8,0:0:0:0:
256,192,60105,1,8,0:0:0:0:
256,192,60205,1,0,0:0:0:0:
256,192,60404,1,8,0:0:0:0:
256,192,60504,1,0,0:0:0:0:
256,192,60604,1,8,0:0:0:0:
256,192,60703,1,8,0:0:0:0:
256,192,60803,1,0,0:0:0:0:
256,192,61002,1,8,0:0:0:0:
256,192,61202,1,8,0:0:0:0:
256,192,61301,1,0,0:0:0:0:
256,192,61401,1,0,0:0:0:0:
256,192,61600,1,8,0:0:0:0:
256,192,61800,1,8,0:0:0:0:
256,192,61999,1,0,0:0:0:0:
256,192,62099,1,0,0:0:0:0:
256,192,62198,1,8,0:0:0:0:
256,192,62298,1,0,0:0:0:0:
256,192,62398,1,8,0:0:0:0:
256,192,62497,1,8,0:0:0:0:
256,192,62597,1,4,0:0:0:0:
256,192,62996,1,0,0:0:0:0:
256,192,63195,1,8,0:0:0:0:
256,192,63295,1,8,0:0:0:0:
256,192,63394,1,0,0:0:0:0:
256,192,63494,1,8,0:0:0:0:
256,192,63594,1,0,0:0:0:0:
256,192,63793,1,8,0:0:0:0:
256,192,63893,1,0,0:0:0:0:
256,192,63992,1,8,0:0:0:0:
256,192,64092,1,8,0:0:0:0:
256,192,64192,1,0,0:0:0:0:
256,192,64391,1,8,0:0:0:0:
256,192,64590,1,8,0:0:0:0:
256,192,64790,1,0,0:0:0:0:
256,192,64889,1,0,0:0:0:0:
256,192,64989,1,8,0:0:0:0:
256,192,65188,1,0,0:0:0:0:
256,192,65388,1,8,0:0:0:0:
256,192,65587,1,0,0:0:0:0:
256,192,65687,1,8,0:0:0:0:
256,192,65786,1,0,0:0:0:0:
256,192,65986,1,8,0:0:0:0:
256,192,66185,1,8,0:0:0:0:
256,192,66384,1,8,0:0:0:0:
256,192,66484,1,8,0:0:0:0:
256,192,66584,1,0,0:0:0:0:
256,192,66683,1,0,0:0:0:0:
256,192,66783,1,8,0:0:0:0:
256,192,66982,1,8,0:0:0:0:
256,192,67082,1,0,0:0:0:0:
256,192,67182,1,8,0:0:0:0:
256,192,67281,1,8,0:0:0:0:
256,192,67381,1,0,0:0:0:0:
256,192,67580,1,8,0:0:0:0:
256,192,67780,1,8,0:0:0:0:
256,192,67879,1,0,0:0:0:0:
256,192,67979,1,0,0:0:0:0:
256,192,68178,1,0,0:0:0:0:
256,192,68378,1,8,0:0:0:0:
256,192,68577,1,8,0:0:0:0:
256,192,68677,1,8,0:0:0:0:
256,192,68776,1,0,0:0:0:0:
256,192,68876,1,0,0:0:0:0:
256,192,68976,1,12,0:0:0:0:
256,192,69374,1,8,0:0:0:0:
256,192,69574,1,8,0:0:0:0:
256,192,69673,1,0,0:0:0:0:
256,192,69773,1,0,0:0:0:0:
256,192,69972,1,0,0:0:0:0:
256,192,70172,1,8,0:0:0:0:
256,192,70271,1,0,0:0:0:0:
256,192,70371,1,8,0:0:0:0:
256,192,70471,1,8,0:0:0:0:
256,192,70570,1,8,0:0:0:0:
256,192,70770,1,0,0:0:0:0:
256,192,70969,1,8,0:0:0:0:
256,192,71168,1,0,0:0:0:0:
256,192,71268,1,0,0:0:0:0:
256,192,71368,1,8,0:0:0:0:
256,192,71567,1,8,0:0:0:0:
256,192,71667,1,0,0:0:0:0:
256,192,71766,1,8,0:0:0:0:
256,192,71966,1,8,0:0:0:0:
256,192,72065,1,8,0:0:0:0:
256,192,72165,1,4,0:0:0:0:
256,192,72564,1,8,0:0:0:0:
256,192,72763,1,8,0:0:0:0:
256,192,72863,1,8,0:0:0:0:
256,192,72962,1,0,0:0:0:0:
256,192,73162,1,8,0:0:0:0:
256,192,73361,1,0,0:0:0:0:
256,192,73560,1,8,0:0:0:0:
256,192,73959,1,8,0:0:0:0:
256,192,74059,1,8,0:0:0:0:
256,192,74158,1,8,0:0:0:0:
256,192,74358,1,0,0:0:0:0:
256,192,74557,1,8,0:0:0:0:
256,192,74657,1,8,0:0:0:0:
256,192,74756,1,0,0:0:0:0:
256,192,74856,1,8,0:0:0:0:
256,192,74956,1,8,0:0:0:0:
256,192,75155,1,0,0:0:0:0:
256,192,75354,1,12,0:0:0:0:
256,192,75753,1,0,0:0:0:0:
256,192,75952,1,8,0:0:0:0:
256,192,76052,1,8,0:0:0:0:
256,192,76152,1,8,0:0:0:0:
256,192,76351,1,0,0:0:0:0:
256,192,76550,1,12,0:0:0:0:
256,192,76750,1,8,0:0:0:0:
256,192,76949,1,0,0:0:0:0:
256,192,77148,1,8,0:0:0:0:
256,192,77248,1,0,0:0:0:0:
256,192,77348,1,0,0:0:0:0:
256,192,77547,1,8,0:0:0:0:
256,192,77746,1,0,0:0:0:0:
256,192,77846,1,8,0:0:0:0:
256,192,77946,1,0,0:0:0:0:
256,192,78145,1,8,0:0:0:0:
256,192,78245,1,8,0:0:0:0:
256,192,78344,1,8,0:0:0:0:
256,192,78444,1,0,0:0:0:0:
256,192,78544,1,12,0:0:0:0:
256,192,78942,1,0,0:0:0:0:
256,192,79142,1,8,0:0:0:0:
256,192,79241,1,8,0:0:0:0:
256,192,79341,1,0,0:0:0:0:
256,192,79540,1,0,0:0:0:0:
256,192,79740,1,12,0:0:0:0:
256,192,79939,1,0,0:0:0:0:
256,192,80139,1,0,0:0:0:0:
256,192,80338,1,8,0:0:0:0:
256,192,80438,1,0,0:0:0:0:
256,192,80537,1,8,0:0:0:0:
256,192,80637,1,8,0:0:0:0:
256,192,80737,1,8,0:0:0:0:
256,192,80936,1,0,0:0:0:0:
256,192,81036,1,0,0:0:0:0:
256,192,81135,1,8,0:0:0:0:
256,192,81335,1,0,0:0:0:0:
256,192,81534,1,0,0:0:0:0:
256,192,81733,1,12,0:0:0:0:
256,192,82132,1,0,0:0:0:0:
256,192,82331,1,8,0:0:0:0:
256,192,82531,1,0,0:0:0:0:
256,192,82730,1,8,0:0:0:0:
256,192,82830,1,8,0:0:0:0:
256,192,82929,1,4,0:0:0:0:
256,192,83129,1,0,0:0:0:0:
256,192,83228,1,8,0:0:0:0:
256,192,83328,1,8,0:0:0:0:
256,192,83527,1,0,0:0:0:0:
256,192,83627,1,0,0:0:0:0:
256,192,83727,1,8,0:0:0:0:
256,192,83926,1,0,0:0:0:0:
256,192,84125,1,0,0:0:0:0:
256,192,84325,1,8,0:0:0:0:
256,192,84524,1,8,0:0:0:0:
256,192,84723,1,0,0:0:0:0:
256,192,84923,1,12,0:0:0:0:
256,192,85321,1,8,0:0:0:0:
256,192,85521,1,0,0:0:0:0:
256,192,85720,1,0,0:0:0:0:
256,192,85919,1,8,0:0:0:0:
256,192,86119,1,12,0:0:0:0:
256,192,86318,1,0,0:0:0:0:
256,192,86418,1,8,0:0:0:0:
256,192,86517,1,8,0:0:0:0:
256,192,86717,1,0,0:0:0:0:
256,192,86816,1,8,0:0:0:0:
256,192,86916,1,0,0:0:0:0:
256,192,87016,1,0,0:0:0:0:
256,192,87115,1,8,0:0:0:0:
256,192,87215,1,8,0:0:0:0:
256,192,87315,1,0,0:0:0:0:
256,192,87514,1,8,0:0:0:0:
256,192,87614,1,8,0:0:0:0:
256,192,87713,1,0,0:0:0:0:
256,192,87913,1,8,0:0:0:0:
256,192,88112,1,4,0:0:0:0:
256,192,88511,1,8,0:0:0:0:
256,192,88610,1,0,0:0:0:0:
256,192,88710,1,8,0:0:0:0:
256,192,88810,1,8,0:0:0:0:
256,192,88909,1,0,0:0:0:0:
256,192,89109,1,8,0:0:0:0:
256,192,89208,1,0,0:0:0:0:
256,192,89308,1,0,0:0:0:0:
256,192,89507,1,8,0:0:0:0:
256,192,89707,1,0,0:0:0:0:
256,192,89906,1,0,0:0:0:0:
256,192,90006,1,8,0:0:0:0:
256,192,90105,1,8,0:0:0:0:
256,192,90205,1,0,0:0:0:0:
256,192,90305,1,8,0:0:0:0:
256,192,90404,1,8,0:0:0:0:
256,192,90504,1,0,0:0:0:0:
256,192,90703,1,0,0:0:0:0:
256,192,90903,1,8,0:0:0:0:
256,192,91002,1,0,0:0:0:0:
256,192,91102,1,8,0:0:0:0:
256,192,91202,1,8,0:0:0:0:
256,192,91301,1,4,0:0:0:0:
256,192,91699,1,0,0:0:0:0:
256,192,91899,1,8,0:0:0:0:
256,192,91998,1,8,0:0:0:0:
256,192,92098,1,0,0:0:0:0:
256,192,92297,1,0,0:0:0:0:
256,192,92397,1,8,0:0:0:0:
256,192,92497,1,0,0:0:0:0:
256,192,92696,1,8,0:0:0:0:
256,192,92895,1,0,0:0:0:0:
256,192,93095,1,8,0:0:0:0:
256,192,93194,1,0,0:0:0:0:
256,192,93294,1,8,0:0:0:0:
256,192,93493,1,8,0:0:0:0:
256,192,93693,1,0,0:0:0:0:
256,192,93792,1,0,0:0:0:0:
256,192,93892,1,8,0:0:0:0:
256,192,93992,1,0,0:0:0:0:
256,192,94091,1,8,0:0:0:0:
256,192,94291,1,0,0:0:0:0:
256,192,94390,1,0,0:0:0:0:
256,192,94490,1,12,0:0:0:0:
256,192,94889,1,8,0:0:0:0:
256,192,95088,1,0,0:0:0:0:
256,192,95287,1,0,0:0:0:0:
256,192,95487,1,8,0:0:0:0:
256,192,95686,1,8,0:0:0:0:
256,192,95885,1,8,0:0:0:0:
256,192,95985,1,8,0:0:0:0:
256,192,96085,1,0,0:0:0:0:
256,192,96284,1,0,0:0:0:0:
256,192,96384,1,8,0:0:0:0:
256,192,96483,1,0,0:0:0:0:
256,192,96683,1,8,0:0:0:0:
256,192,96882,1,4,0:0:0:0:
256,192,97081,1,0,0:0:0:0:
256,192,97181,1,8,0:0:0:0:
256,192,97281,1,8,0:0:0:0:
256,192,97380,1,8,0:0:0:0:
256,192,97480,1,0,0:0:0:0:
256,192,97679,1,12,0:0:0:0:
256,192,98078,1,0,0:0:0:0:
256,192,98277,1,8,0:0:0:0:
256,192,98377,1,8,0:0:0:0:
256,192,98477,1,0,0:0:0:0:
256,192,98676,1,8,0:0:0:0:
256,192,98875,1,0,0:0:0:0:
256,192,98975,1,0,0:0:0:0:
256,192,99075,1,0,0:0:0:0:
256,192,99274,1,8,0:0:0:0:
256,192,99473,1,8,0:0:0:0:
256,192,99673,1,0,0:0:0:0:
256,192,99872,1,8,0:0:0:0:
256,192,99972,1,0,0:0:0:0:
256,192,100071,1,0,0:0:0:0:
256,192,100271,1,0,0:0:0:0:
256,192,100370,1,0,0:0:0:0:
256,192,100470,1,8,0:0:0:0:
256,192,100570,1,8,0:0:0:0:
256,192,100669,1,8,0:0:0:0:
256,192,100769,1,0,0:0:0:0:
256,192,100869,1,12,0:0:0:0:
256,192,101267,1,8,0:0:0:0:
256,192,101467,1,8,0:0:0:0:
256,192,101666,1,0,0:0:0:0:
256,192,101865,1,8,0:0:0:0:
256,192,101965,1,0,0:0:0:0:
256,192,102065,1,0,0:0:0:0:
256,192,102264,1,8,0:0:0:0:
256,192,102463,1,0,0:0:0:0:
256,192,102563,1,0,0:0:0:0:
256,192,102663,1,8,0:0:0:0:
256,192,102862,1,0,0:0:0:0:
256,192,103061,1,8,0:0:0:0:
256,192,103161,1,8,0:0:0:0:
256,192,103261,1,0,0:0:0:0:
256,192,103460,1,8,0:0:0:0:
256,192,103659,1,8,0:0:0:0:
256,192,103859,1,0,0:0:0:0:
256,192,103958,1,0,0:0:0:0:
256,192,104058,1,12,0:0:0:0:
256,192,104457,1,0,0:0:0:0:
256,192,104656,1,8,0:0:0:0:
256,192,104756,1,8,0:0:0:0:
256,192,104855,1,0,0:0:0:0:
256,192,105055,1,0,0:0:0:0:
256,192,105154,1,8,0:0:0:0:
256,192,105254,1,0,0:0:0:0:
256,192,105453,1,8,0:0:0:0:
256,192,105653,1,0,0:0:0:0:
256,192,105852,1,0,0:0:0:0:
256,192,105952,1,8,0:0:0:0:
256,192,106051,1,0,0:0:0:0:
256,192,106251,1,8,0:0:0:0:
256,192,106649,1,8,0:0:0:0:
256,192,106849,1,0,0:0:0:0:
256,192,107048,1,12,0:0:0:0:
256,192,107247,1,8,0:0:0:0:
256,192,107347,1,8,0:0:0:0:
256,192,107447,1,0,0:0:0:0:
256,192,107646,1,0,0:0:0:0:
256,192,107845,1,8,0:0:0:0:
256,192,107945,1,8,0:0:0:0:
256,192,108045,1,0,0:0:0:0:
256,192,108244,1,8,0:0:0:0:
256,192,108443,1,0,0:0:0:0:
256,192,108643,1,8,0:0:0:0:
256,192,109041,1,0,0:0:0:0:
256,192,109141,1,0,0:0:0:0:
256,192,109241,1,8,0:0:0:0:
256,192,109440,1,8,0:0:0:0:
256,192,109639,1,0,0:0:0:0:
256,192,109739,1,0,0:0:0:0:
256,192,109839,1,8,0:0:0:0:
256,192,109938,1,0,0:0:0:0:
256,192,110038,1,8,0:0:0:0:
256,192,110138,1,8,0:0:0:0:
256,192,110237,1,4,0:0:0:0:
256,192,110636,1,0,0:0:0:0:
256,192,110736,1,8,0:0:0:0:
256,192,110835,1,8,0:0:0:0:
256,192,111035,1,8,0:0:0:0:
256,192,111134,1,8,0:0:0:0:
256,192,111234,1,0,0:0:0:0:
256,192,111433,1,8,0:0:0:0:
256,192,111633,1,0,0:0:0:0:
256,192,111832,1,8,0:0:0:0:
256,192,112031,1,0,0:0:0:0:
256,192,112131,1,8,0:0:0:0:
256,192,112231,1,8,0:0:0:0:
256,192,112330,1,0,0:0:0:0:
256,192,112430,1,8,0:0:0:0:
256,192,112629,1,8,0:0:0:0:
256,192,112729,1,8,0:0:0:0:
256,192,112829,1,0,0:0:0:0:
256,192,112928,1,0,0:0:0:0:
256,192,113028,1,12,0:0:0:0:
256,192,113227,1,12,0:0:0:0:
256,192,113427,1,12,0:0:0:0:
