osu file format v14

[General]
AudioFilename: audio.mp3
AudioLeadIn: 0
PreviewTime: 49342
Countdown: 0
SampleSet: Normal
StackLeniency: 0.7
Mode: 1
LetterboxInBreaks: 0
WidescreenStoryboard: 1

[Editor]
Bookmarks: 9974,24326
DistanceSpacing: 1
BeatDivisor: 2
GridSize: 8
TimelineZoom: 0.4999999

[Metadata]
Title:Aletheia (Game Ver.)
TitleUnicode:アレセイア (Game Ver.)
Artist:eufonius
ArtistUnicode:eufonius
Creator:[-E S I A-]
Version:Kantan
Source:いろとりどりのセカイ
Tags:Want To Spread My Wings And Fly Into The Sky irotoridori no Sekai オリジナルサウンドトラック original soundtrack ost kdsd-00464 eroge galgame videogame video game opening op short version visual novel vn favorite riya japanese pop jpop j-pop blackbn blackbq bigh zonda bighzonda 050 E_S_I_A [-E_S_I_A-] ESIA [-ESIA-] ler1211 rinze
BeatmapID:3950613
BeatmapSetID:1914958

[Difficulty]
HPDrainRate:8
CircleSize:2
OverallDifficulty:3
ApproachRate:10
SliderMultiplier:1.4
SliderTickRate:1

[Events]
//Background and Video events
0,0,"k.png",0,90
//Break Periods
//Storyboard Layer 0 (Background)
//Storyboard Layer 1 (Fail)
//Storyboard Layer 2 (Pass)
//Storyboard Layer 3 (Foreground)
//Storyboard Layer 4 (Overlay)
//Storyboard Sound Samples

[TimingPoints]
406,398.671096345515,4,1,0,50,1,0
9924,-100,4,1,0,55,0,0
11568,398.671096345515,4,1,0,60,1,0
11568,-100,4,1,0,60,0,0
35488,398.671096345515,4,1,0,70,1,0
35488,-100,4,1,0,70,0,0
49840,398.671096345515,4,1,0,80,1,1
49840,-100,4,1,0,80,0,1
91301,398.671096345515,4,1,0,70,1,0
91301,-100,4,1,0,70,0,0

[HitObjects]
302,234,406,5,0,0:0:0:0:
315,165,1004,1,0,0:0:0:0:
233,221,1602,1,8,0:0:0:0:
222,252,3595,1,8,0:0:0:0:
222,252,4193,1,0,0:0:0:0:
222,252,4791,1,8,0:0:0:0:
256,192,6784,12,0,9376,0:0:0:0:
181,200,9974,5,0,0:0:0:0:
242,268,10771,1,0,0:0:0:0:
284,172,11170,1,8,0:0:0:0:
332,302,11568,1,4,0:0:0:0:
284,172,12166,1,8,0:0:0:0:
224,189,12963,1,8,0:0:0:0:
336,222,14358,1,0,0:0:0:0:
268,229,14757,1,8,0:0:0:0:
302,225,15355,1,8,0:0:0:0:
302,225,16152,1,0,0:0:0:0:
347,196,17946,1,8,0:0:0:0:
206,197,18544,1,8,0:0:0:0:
206,197,19342,1,0,0:0:0:0:
262,237,19940,1,8,0:0:0:0:
227,230,20338,1,8,0:0:0:0:
243,192,21136,1,0,0:0:0:0:
213,209,21734,1,8,0:0:0:0:
137,190,22531,1,0,0:0:0:0:
200,263,24325,1,12,0:0:0:0:
314,184,24923,1,0,0:0:0:0:
178,218,25720,1,8,0:0:0:0:
246,206,26318,1,8,0:0:0:0:
85,312,27514,1,0,0:0:0:0:
186,228,28112,1,8,0:0:0:0:
155,244,28910,1,8,0:0:0:0:
212,204,29707,1,0,0:0:0:0:
255,316,30704,1,4,0:0:0:0:
92,181,31302,1,8,0:0:0:0:
292,241,32099,1,12,0:0:0:0:
222,256,32896,1,0,0:0:0:0:
261,313,33694,1,4,0:0:0:0:
217,242,35488,1,4,0:0:0:0:
229,162,36086,1,8,0:0:0:0:
173,204,36684,1,8,0:0:0:0:
93,186,37481,1,0,0:0:0:0:
242,204,37880,1,8,0:0:0:0:
350,252,38677,1,0,0:0:0:0:
226,287,39275,1,8,0:0:0:0:
212,311,39873,1,0,0:0:0:0:
209,234,41069,1,8,0:0:0:0:
243,243,41468,1,8,0:0:0:0:
273,271,41866,1,4,0:0:0:0:
339,214,42464,1,8,0:0:0:0:
198,280,43062,1,0,0:0:0:0:
222,218,43860,1,0,0:0:0:0:
223,145,44258,1,8,0:0:0:0:
229,217,45056,5,8,0:0:0:0:
275,200,45654,1,8,0:0:0:0:
263,225,46252,1,0,0:0:0:0:
228,244,47049,5,0,0:0:0:0:
228,244,47448,1,8,0:0:0:0:
228,244,48046,1,8,0:0:0:0:
341,150,49840,1,12,0:0:0:0:
278,181,50438,1,0,0:0:0:0:
210,160,51036,1,8,0:0:0:0:
265,256,51434,1,0,0:0:0:0:
237,138,52232,1,8,0:0:0:0:
270,216,53029,1,0,0:0:0:0:
408,197,53428,1,0,0:0:0:0:
270,216,53826,1,8,0:0:0:0:
270,216,54225,1,8,0:0:0:0:
9,145,54624,1,0,0:0:0:0:
330,63,56218,1,0,0:0:0:0:
278,181,56816,1,8,0:0:0:0:
278,181,57414,1,8,0:0:0:0:
270,216,57813,1,0,0:0:0:0:
237,138,58610,1,8,0:0:0:0:
334,184,59408,1,0,0:0:0:0:
226,197,60006,1,0,0:0:0:0:
372,210,60404,1,8,0:0:0:0:
406,127,61002,1,8,0:0:0:0:
255,280,62597,1,0,0:0:0:0:
204,184,63195,1,0,0:0:0:0:
274,175,63793,1,8,0:0:0:0:
203,196,64192,1,0,0:0:0:0:
409,224,64989,1,8,0:0:0:0:
268,227,65786,1,0,0:0:0:0:
268,227,66185,1,8,0:0:0:0:
260,208,66584,1,0,0:0:0:0:
260,208,66982,1,0,0:0:0:0:
248,151,67381,1,8,0:0:0:0:
260,208,68976,1,0,0:0:0:0:
278,181,69574,1,8,0:0:0:0:
278,181,70172,1,8,0:0:0:0:
237,138,70570,1,0,0:0:0:0:
270,216,71368,1,8,0:0:0:0:
184,236,72165,1,0,0:0:0:0:
197,145,72564,1,8,0:0:0:0:
189,208,72962,1,0,0:0:0:0:
184,284,73560,1,0,0:0:0:0:
306,198,75354,1,4,0:0:0:0:
334,251,75952,1,8,0:0:0:0:
139,174,76550,1,0,0:0:0:0:
437,356,77547,1,8,0:0:0:0:
332,292,77946,1,8,0:0:0:0:
177,194,78544,1,0,0:0:0:0:
246,204,79142,1,0,0:0:0:0:
204,213,79740,1,8,0:0:0:0:
204,213,80737,1,8,0:0:0:0:
239,77,81135,1,8,0:0:0:0:
349,160,81733,1,4,0:0:0:0:
314,186,82331,1,8,0:0:0:0:
259,193,82929,1,0,0:0:0:0:
312,194,83926,1,8,0:0:0:0:
312,194,84325,1,0,0:0:0:0:
211,226,84923,1,0,0:0:0:0:
284,236,85521,1,8,0:0:0:0:
80,279,86119,1,8,0:0:0:0:
208,260,87315,1,0,0:0:0:0:
308,178,88112,1,0,0:0:0:0:
308,257,88511,1,8,0:0:0:0:
397,254,89308,1,8,0:0:0:0:
278,237,89707,1,0,0:0:0:0:
308,257,90105,1,8,0:0:0:0:
341,235,90903,1,8,0:0:0:0:
463,167,91301,1,4,0:0:0:0:
340,201,91899,1,8,0:0:0:0:
140,266,92497,1,8,0:0:0:0:
199,287,92895,1,0,0:0:0:0:
224,133,94091,1,0,0:0:0:0:
235,197,94490,1,8,0:0:0:0:
398,82,95088,1,0,0:0:0:0:
236,185,95885,1,0,0:0:0:0:
444,208,96882,5,8,0:0:0:0:
247,240,97679,5,4,0:0:0:0:
405,192,98277,1,8,0:0:0:0:
229,306,98875,1,8,0:0:0:0:
297,202,99274,1,0,0:0:0:0:
95,185,100470,1,0,0:0:0:0:
235,197,100869,1,8,0:0:0:0:
272,189,101467,1,0,0:0:0:0:
306,199,102264,1,8,0:0:0:0:
278,210,103061,5,0,0:0:0:0:
153,223,103460,5,8,0:0:0:0:
416,144,104058,1,4,0:0:0:0:
47,326,104656,1,0,0:0:0:0:
229,226,105254,1,8,0:0:0:0:
295,114,105653,1,0,0:0:0:0:
118,181,107048,1,8,0:0:0:0:
284,137,107845,1,0,0:0:0:0:
347,244,108244,1,0,0:0:0:0:
293,198,108643,5,8,0:0:0:0:
339,237,109440,1,8,0:0:0:0:
242,215,109839,1,8,0:0:0:0:
220,212,110237,5,4,0:0:0:0:
309,240,111433,1,0,0:0:0:0:
278,204,111832,1,0,0:0:0:0:
278,204,112430,1,8,0:0:0:0:
295,174,113028,5,8,0:0:0:0:
295,174,113427,1,8,0:0:0:0:
