osu file format v14

[General]
AudioFilename: audio.mp3
AudioLeadIn: 0
PreviewTime: 49342
Countdown: 0
SampleSet: Normal
StackLeniency: 0.7
Mode: 1
LetterboxInBreaks: 0
WidescreenStoryboard: 1

[Editor]
Bookmarks: 9974,24326
DistanceSpacing: 1
BeatDivisor: 4
GridSize: 32
TimelineZoom: 1.1

[Metadata]
Title:Aletheia (Game Ver.)
TitleUnicode:アレセイア (Game Ver.)
Artist:eufonius
ArtistUnicode:eufonius
Creator:[-E S I A-]
Version:Black's Muzukashii
Source:いろとりどりのセカイ
Tags:Want To Spread My Wings And Fly Into The Sky irotoridori no Sekai オリジナルサウンドトラック original soundtrack ost kdsd-00464 eroge galgame videogame video game opening op short version visual novel vn favorite riya japanese pop jpop j-pop blackbn blackbq bigh zonda bighzonda 050 E_S_I_A [-E_S_I_A-] ESIA [-ESIA-] ler1211 rinze
BeatmapID:4025746
BeatmapSetID:1914958

[Difficulty]
HPDrainRate:6
CircleSize:2
OverallDifficulty:4.5
ApproachRate:10
SliderMultiplier:1.4
SliderTickRate:1

[Events]
//Background and Video events
0,0,"m.jpg",0,30
//Break Periods
//Storyboard Layer 0 (Background)
//Storyboard Layer 1 (Fail)
//Storyboard Layer 2 (Pass)
//Storyboard Layer 3 (Foreground)
//Storyboard Layer 4 (Overlay)
//Storyboard Sound Samples

[TimingPoints]
406,398.671096345515,4,1,0,50,1,0
9924,-100,4,1,0,55,0,0
11568,398.671096345515,4,1,0,60,1,0
11568,-100,4,1,0,60,0,0
35488,398.671096345515,4,1,0,70,1,0
35488,-100,4,1,0,70,0,0
49840,398.671096345515,4,1,0,80,1,1
49840,-100,4,1,0,80,0,1
91301,398.671096345515,4,1,0,70,1,0
91301,-100,4,1,0,70,0,0

[HitObjects]
256,192,406,5,0,0:0:0:0:
256,192,605,1,0,0:0:0:0:
256,192,804,1,8,0:0:0:0:
256,192,1004,1,0,0:0:0:0:
256,192,1602,1,8,0:0:0:0:
256,192,3196,1,8,0:0:0:0:
256,192,3595,1,0,0:0:0:0:
256,192,4193,1,8,0:0:0:0:
256,192,4791,1,0,0:0:0:0:
256,192,6784,8,0,9376,0:0:0:0:
256,192,9774,5,0,0:0:0:0:
256,192,9874,1,0,0:0:0:0:
256,192,9974,1,0,0:0:0:0:
256,192,10372,1,8,0:0:0:0:
256,192,10771,1,0,0:0:0:0:
256,192,10970,1,0,0:0:0:0:
256,192,11170,1,8,0:0:0:0:
256,192,11269,1,8,0:0:0:0:
384,96,11568,1,4,0:0:0:0:
256,192,11966,1,0,0:0:0:0:
256,192,12166,1,8,0:0:0:0:
256,192,12564,1,0,0:0:0:0:
256,192,12963,1,8,0:0:0:0:
256,192,13162,1,0,0:0:0:0:
256,192,13362,1,0,0:0:0:0:
256,192,13461,1,0,0:0:0:0:
256,192,13561,1,0,0:0:0:0:
256,192,13760,1,0,0:0:0:0:
256,192,13960,1,8,0:0:0:0:
256,192,14358,1,8,0:0:0:0:
256,192,14757,1,0,0:0:0:0:
256,192,15156,1,8,0:0:0:0:
256,192,15355,1,0,0:0:0:0:
256,192,15754,1,8,0:0:0:0:
256,192,16152,1,0,0:0:0:0:
256,192,16352,1,8,0:0:0:0:
256,192,16551,1,0,0:0:0:0:
256,192,16750,1,8,0:0:0:0:
256,192,16950,1,8,0:0:0:0:
256,192,17348,1,8,0:0:0:0:
256,192,17548,1,0,0:0:0:0:
256,192,17946,1,0,0:0:0:0:
256,192,18345,1,8,0:0:0:0:
256,192,18544,1,0,0:0:0:0:
256,192,18943,1,0,0:0:0:0:
256,192,19342,1,8,0:0:0:0:
256,192,19541,1,0,0:0:0:0:
256,192,19740,1,8,0:0:0:0:
256,192,19840,1,8,0:0:0:0:
256,192,19940,1,8,0:0:0:0:
256,192,20139,1,0,0:0:0:0:
256,192,20338,1,8,0:0:0:0:
256,192,20737,1,8,0:0:0:0:
256,192,21136,1,0,0:0:0:0:
256,192,21734,1,8,0:0:0:0:
256,192,22132,1,0,0:0:0:0:
256,192,22531,1,8,0:0:0:0:
256,192,22730,1,0,0:0:0:0:
256,192,22930,1,0,0:0:0:0:
256,192,23029,1,0,0:0:0:0:
256,192,23129,1,0,0:0:0:0:
256,192,23328,1,8,0:0:0:0:
256,192,23528,1,0,0:0:0:0:
256,192,23926,1,8,0:0:0:0:
256,192,24126,1,8,0:0:0:0:
384,96,24325,1,4,0:0:0:0:
256,192,24724,1,0,0:0:0:0:
256,192,24923,1,8,0:0:0:0:
256,192,25322,1,0,0:0:0:0:
256,192,25521,1,0,0:0:0:0:
256,192,25720,1,8,0:0:0:0:
256,192,26119,1,0,0:0:0:0:
256,192,26318,1,8,0:0:0:0:
256,192,26518,1,0,0:0:0:0:
256,192,26617,1,0,0:0:0:0:
256,192,26717,1,0,0:0:0:0:
256,192,26916,1,8,0:0:0:0:
256,192,27116,1,0,0:0:0:0:
256,192,27514,1,8,0:0:0:0:
256,192,27913,1,0,0:0:0:0:
256,192,28112,1,0,0:0:0:0:
256,192,28511,1,8,0:0:0:0:
256,192,28710,1,8,0:0:0:0:
256,192,28910,1,0,0:0:0:0:
256,192,29308,1,8,0:0:0:0:
256,192,29707,1,8,0:0:0:0:
256,192,29906,1,0,0:0:0:0:
256,192,30106,1,0,0:0:0:0:
256,192,30305,1,8,0:0:0:0:
384,96,30704,1,4,0:0:0:0:
256,192,31102,1,0,0:0:0:0:
256,192,31302,1,8,0:0:0:0:
256,192,31501,1,0,0:0:0:0:
256,192,31900,1,0,0:0:0:0:
384,96,32099,1,12,0:0:0:0:
256,192,32697,1,8,0:0:0:0:
256,192,32896,1,0,0:0:0:0:
256,192,33295,1,8,0:0:0:0:
256,192,33494,1,8,0:0:0:0:
384,96,33694,1,4,0:0:0:0:
256,192,34092,1,0,0:0:0:0:
256,192,34292,1,8,0:0:0:0:
256,192,34491,1,0,0:0:0:0:
256,192,34690,1,8,0:0:0:0:
256,192,35089,1,8,0:0:0:0:
384,96,35488,1,4,0:0:0:0:
256,192,35886,1,8,0:0:0:0:
256,192,36086,1,0,0:0:0:0:
256,192,36484,1,8,0:0:0:0:
256,192,36684,1,8,0:0:0:0:
256,192,37082,1,0,0:0:0:0:
256,192,37282,1,0,0:0:0:0:
256,192,37381,1,0,0:0:0:0:
256,192,37481,1,0,0:0:0:0:
256,192,37680,1,8,0:0:0:0:
256,192,37880,1,0,0:0:0:0:
256,192,38278,1,8,0:0:0:0:
384,96,38677,1,4,0:0:0:0:
256,192,39076,1,0,0:0:0:0:
256,192,39275,1,8,0:0:0:0:
256,192,39674,1,8,0:0:0:0:
384,96,39873,1,4,0:0:0:0:
256,192,40272,1,0,0:0:0:0:
256,192,40471,1,8,0:0:0:0:
256,192,40571,1,8,0:0:0:0:
256,192,40670,1,8,0:0:0:0:
256,192,40870,1,0,0:0:0:0:
256,192,41069,1,8,0:0:0:0:
256,192,41468,1,0,0:0:0:0:
256,192,41667,1,8,0:0:0:0:
384,96,41866,1,4,0:0:0:0:
256,192,42265,1,0,0:0:0:0:
256,192,42464,1,0,0:0:0:0:
256,192,42863,1,8,0:0:0:0:
384,96,43062,1,4,0:0:0:0:
256,192,43461,1,0,0:0:0:0:
256,192,43660,1,0,0:0:0:0:
256,192,43760,1,0,0:0:0:0:
256,192,43860,1,0,0:0:0:0:
256,192,44059,1,8,0:0:0:0:
256,192,44258,1,0,0:0:0:0:
256,192,44657,1,8,0:0:0:0:
384,96,45056,1,4,0:0:0:0:
256,192,45454,1,0,0:0:0:0:
256,192,45654,1,8,0:0:0:0:
256,192,46052,1,8,0:0:0:0:
384,96,46252,1,4,0:0:0:0:
256,192,46650,1,0,0:0:0:0:
256,192,46850,1,0,0:0:0:0:
256,192,47049,1,8,0:0:0:0:
256,192,47248,1,0,0:0:0:0:
256,192,47448,1,8,0:0:0:0:
256,192,47647,1,8,0:0:0:0:
256,192,47846,1,0,0:0:0:0:
256,192,48046,1,8,0:0:0:0:
256,192,49242,1,0,0:0:0:0:
256,192,49441,1,0,0:0:0:0:
256,192,49541,1,0,0:0:0:0:
256,192,49640,1,0,0:0:0:0:
384,96,49840,1,12,0:0:0:0:
256,192,50238,1,8,0:0:0:0:
256,192,50438,1,0,0:0:0:0:
256,192,51036,1,8,0:0:0:0:
256,192,51235,1,8,0:0:0:0:
256,192,51434,1,0,0:0:0:0:
256,192,51634,1,8,0:0:0:0:
256,192,51733,1,8,0:0:0:0:
256,192,51833,1,8,0:0:0:0:
256,192,52032,1,0,0:0:0:0:
256,192,52232,1,8,0:0:0:0:
256,192,52431,1,8,0:0:0:0:
256,192,52630,1,0,0:0:0:0:
256,192,53029,1,0,0:0:0:0:
256,192,53228,1,8,0:0:0:0:
256,192,53328,1,8,0:0:0:0:
256,192,53428,1,8,0:0:0:0:
256,192,53627,1,8,0:0:0:0:
256,192,53826,1,0,0:0:0:0:
256,192,54026,1,0,0:0:0:0:
256,192,54225,1,8,0:0:0:0:
256,192,54624,1,0,0:0:0:0:
256,192,54823,1,8,0:0:0:0:
256,192,55022,1,0,0:0:0:0:
256,192,55421,1,8,0:0:0:0:
256,192,55620,1,8,0:0:0:0:
256,192,55820,1,0,0:0:0:0:
256,192,56019,1,0,0:0:0:0:
256,192,56218,1,0,0:0:0:0:
256,192,56617,1,0,0:0:0:0:
256,192,56816,1,8,0:0:0:0:
256,192,57414,1,8,0:0:0:0:
256,192,57614,1,8,0:0:0:0:
256,192,57813,1,0,0:0:0:0:
256,192,58012,1,0,0:0:0:0:
256,192,58112,1,0,0:0:0:0:
256,192,58212,1,0,0:0:0:0:
256,192,58411,1,0,0:0:0:0:
256,192,58610,1,8,0:0:0:0:
256,192,58810,1,0,0:0:0:0:
256,192,59009,1,8,0:0:0:0:
384,96,59408,1,4,0:0:0:0:
256,192,59806,1,8,0:0:0:0:
256,192,60006,1,0,0:0:0:0:
256,192,60205,1,0,0:0:0:0:
256,192,60404,1,8,0:0:0:0:
256,192,60803,1,0,0:0:0:0:
256,192,61002,1,8,0:0:0:0:
256,192,61401,1,8,0:0:0:0:
256,192,61600,1,8,0:0:0:0:
256,192,61800,1,0,0:0:0:0:
256,192,61999,1,8,0:0:0:0:
256,192,62198,1,0,0:0:0:0:
256,192,62398,1,0,0:0:0:0:
256,192,62497,1,0,0:0:0:0:
256,192,62597,1,0,0:0:0:0:
256,192,62996,1,8,0:0:0:0:
256,192,63195,1,0,0:0:0:0:
256,192,63793,1,0,0:0:0:0:
256,192,63992,1,8,0:0:0:0:
256,192,64192,1,0,0:0:0:0:
256,192,64391,1,8,0:0:0:0:
256,192,64491,1,8,0:0:0:0:
256,192,64590,1,8,0:0:0:0:
256,192,64790,1,0,0:0:0:0:
256,192,64989,1,8,0:0:0:0:
256,192,65188,1,8,0:0:0:0:
256,192,65388,1,0,0:0:0:0:
256,192,65786,1,8,0:0:0:0:
256,192,65986,1,0,0:0:0:0:
256,192,66085,1,0,0:0:0:0:
256,192,66185,1,0,0:0:0:0:
256,192,66384,1,8,0:0:0:0:
256,192,66584,1,0,0:0:0:0:
256,192,66783,1,0,0:0:0:0:
256,192,66982,1,8,0:0:0:0:
256,192,67381,1,0,0:0:0:0:
256,192,67580,1,0,0:0:0:0:
256,192,67780,1,8,0:0:0:0:
256,192,68178,1,0,0:0:0:0:
256,192,68378,1,8,0:0:0:0:
256,192,68577,1,8,0:0:0:0:
384,96,68976,1,4,0:0:0:0:
256,192,69374,1,8,0:0:0:0:
256,192,69574,1,0,0:0:0:0:
256,192,70172,1,8,0:0:0:0:
256,192,70371,1,8,0:0:0:0:
256,192,70570,1,0,0:0:0:0:
256,192,70770,1,8,0:0:0:0:
256,192,70869,1,8,0:0:0:0:
256,192,70969,1,8,0:0:0:0:
256,192,71168,1,8,0:0:0:0:
256,192,71368,1,0,0:0:0:0:
256,192,71567,1,0,0:0:0:0:
256,192,71766,1,8,0:0:0:0:
256,192,71966,1,8,0:0:0:0:
384,96,72165,1,4,0:0:0:0:
256,192,72564,1,0,0:0:0:0:
256,192,72763,1,8,0:0:0:0:
256,192,72962,1,0,0:0:0:0:
256,192,73162,1,8,0:0:0:0:
256,192,73361,1,8,0:0:0:0:
256,192,73560,1,0,0:0:0:0:
256,192,73959,1,0,0:0:0:0:
256,192,74158,1,0,0:0:0:0:
256,192,74358,1,8,0:0:0:0:
256,192,74557,1,0,0:0:0:0:
256,192,74856,1,8,0:0:0:0:
256,192,74956,1,8,0:0:0:0:
256,192,75155,1,8,0:0:0:0:
384,96,75354,1,4,0:0:0:0:
256,192,75753,1,0,0:0:0:0:
256,192,75952,1,8,0:0:0:0:
256,192,76351,1,8,0:0:0:0:
256,192,76550,1,0,0:0:0:0:
256,192,77148,1,8,0:0:0:0:
256,192,77248,1,8,0:0:0:0:
256,192,77348,1,8,0:0:0:0:
256,192,77547,1,0,0:0:0:0:
256,192,77946,1,8,0:0:0:0:
256,192,78145,1,0,0:0:0:0:
256,192,78344,1,0,0:0:0:0:
256,192,78544,1,8,0:0:0:0:
256,192,78942,1,0,0:0:0:0:
256,192,79142,1,0,0:0:0:0:
256,192,79540,1,8,0:0:0:0:
256,192,79740,1,0,0:0:0:0:
256,192,80338,1,0,0:0:0:0:
256,192,80438,1,0,0:0:0:0:
256,192,80537,1,0,0:0:0:0:
256,192,80737,1,8,0:0:0:0:
256,192,81135,1,8,0:0:0:0:
256,192,81335,1,8,0:0:0:0:
256,192,81534,1,0,0:0:0:0:
384,96,81733,1,12,0:0:0:0:
256,192,82132,1,0,0:0:0:0:
256,192,82331,1,8,0:0:0:0:
256,192,82730,1,8,0:0:0:0:
384,96,82929,1,4,0:0:0:0:
256,192,83527,1,0,0:0:0:0:
256,192,83627,1,0,0:0:0:0:
256,192,83727,1,0,0:0:0:0:
256,192,83926,1,8,0:0:0:0:
256,192,84325,1,0,0:0:0:0:
256,192,84524,1,8,0:0:0:0:
256,192,84723,1,8,0:0:0:0:
384,96,84923,1,4,0:0:0:0:
256,192,85321,1,0,0:0:0:0:
256,192,85521,1,8,0:0:0:0:
256,192,85919,1,0,0:0:0:0:
384,96,86119,1,12,0:0:0:0:
256,192,86717,1,0,0:0:0:0:
256,192,86816,1,0,0:0:0:0:
256,192,86916,1,0,0:0:0:0:
256,192,87115,1,8,0:0:0:0:
256,192,87315,1,0,0:0:0:0:
256,192,87514,1,0,0:0:0:0:
256,192,87713,1,8,0:0:0:0:
256,192,87913,1,8,0:0:0:0:
256,192,88112,1,0,0:0:0:0:
256,192,88511,1,8,0:0:0:0:
256,192,88909,1,0,0:0:0:0:
256,192,89109,1,0,0:0:0:0:
256,192,89308,1,8,0:0:0:0:
256,192,89507,1,8,0:0:0:0:
256,192,89707,1,0,0:0:0:0:
256,192,90105,1,0,0:0:0:0:
256,192,90305,1,8,0:0:0:0:
256,192,90404,1,8,0:0:0:0:
256,192,90504,1,8,0:0:0:0:
256,192,90703,1,0,0:0:0:0:
256,192,90903,1,8,0:0:0:0:
256,192,91102,1,8,0:0:0:0:
384,96,91301,1,4,0:0:0:0:
256,192,91699,1,0,0:0:0:0:
256,192,91899,1,8,0:0:0:0:
256,192,92497,1,8,0:0:0:0:
256,192,92696,1,8,0:0:0:0:
256,192,92895,1,0,0:0:0:0:
256,192,93095,1,8,0:0:0:0:
256,192,93194,1,8,0:0:0:0:
256,192,93294,1,8,0:0:0:0:
256,192,93493,1,8,0:0:0:0:
256,192,93693,1,0,0:0:0:0:
256,192,94091,1,8,0:0:0:0:
256,192,94291,1,8,0:0:0:0:
384,96,94490,1,4,0:0:0:0:
256,192,94889,1,8,0:0:0:0:
256,192,95088,1,0,0:0:0:0:
256,192,95487,1,8,0:0:0:0:
256,192,95686,1,8,0:0:0:0:
256,192,96085,1,0,0:0:0:0:
256,192,96284,1,8,0:0:0:0:
256,192,96483,1,0,0:0:0:0:
256,192,96583,1,0,0:0:0:0:
256,192,96683,1,0,0:0:0:0:
256,192,96882,1,8,0:0:0:0:
256,192,97181,1,8,0:0:0:0:
256,192,97281,1,8,0:0:0:0:
256,192,97480,1,8,0:0:0:0:
384,96,97679,1,4,0:0:0:0:
256,192,98078,1,0,0:0:0:0:
256,192,98277,1,8,0:0:0:0:
256,192,98875,1,8,0:0:0:0:
256,192,99274,1,0,0:0:0:0:
256,192,99473,1,8,0:0:0:0:
256,192,99573,1,8,0:0:0:0:
256,192,99673,1,8,0:0:0:0:
256,192,99872,1,8,0:0:0:0:
256,192,100071,1,0,0:0:0:0:
256,192,100470,1,8,0:0:0:0:
256,192,100669,1,8,0:0:0:0:
256,192,100869,1,0,0:0:0:0:
256,192,101267,1,8,0:0:0:0:
256,192,101467,1,0,0:0:0:0:
256,192,101865,1,0,0:0:0:0:
256,192,102065,1,8,0:0:0:0:
256,192,102264,1,0,0:0:0:0:
256,192,102663,1,8,0:0:0:0:
256,192,102862,1,0,0:0:0:0:
256,192,103061,1,0,0:0:0:0:
256,192,103161,1,0,0:0:0:0:
256,192,103261,1,0,0:0:0:0:
256,192,103460,1,8,0:0:0:0:
256,192,103659,1,8,0:0:0:0:
384,96,104058,1,4,0:0:0:0:
256,192,104457,1,0,0:0:0:0:
256,192,104656,1,8,0:0:0:0:
256,192,105254,1,8,0:0:0:0:
256,192,105453,1,8,0:0:0:0:
256,192,105653,1,0,0:0:0:0:
256,192,105852,1,0,0:0:0:0:
256,192,105952,1,0,0:0:0:0:
256,192,106051,1,0,0:0:0:0:
256,192,106251,1,8,0:0:0:0:
256,192,106450,1,0,0:0:0:0:
256,192,106649,1,0,0:0:0:0:
256,192,106849,1,8,0:0:0:0:
384,96,107048,1,4,0:0:0:0:
256,192,107646,1,8,0:0:0:0:
256,192,107845,1,0,0:0:0:0:
256,192,108244,1,8,0:0:0:0:
256,192,108443,1,8,0:0:0:0:
256,192,108643,1,0,0:0:0:0:
256,192,108842,1,0,0:0:0:0:
256,192,109041,1,8,0:0:0:0:
256,192,109141,1,8,0:0:0:0:
256,192,109241,1,8,0:0:0:0:
256,192,109440,1,0,0:0:0:0:
256,192,109839,1,0,0:0:0:0:
256,192,110038,1,8,0:0:0:0:
384,96,110237,1,4,0:0:0:0:
256,192,110835,1,8,0:0:0:0:
256,192,111234,1,0,0:0:0:0:
256,192,111433,1,8,0:0:0:0:
256,192,111633,1,8,0:0:0:0:
256,192,111832,1,8,0:0:0:0:
256,192,112031,1,0,0:0:0:0:
256,192,112231,1,0,0:0:0:0:
256,192,112330,1,0,0:0:0:0:
256,192,112430,1,0,0:0:0:0:
256,192,112629,1,0,0:0:0:0:
384,96,113028,1,12,0:0:0:0:
384,96,113227,1,12,0:0:0:0:
384,96,113427,1,12,0:0:0:0:
