osu file format v14

[General]
AudioFilename: audio.mp3
AudioLeadIn: 0
PreviewTime: 42232
Countdown: 0
SampleSet: Normal
StackLeniency: 0.7
Mode: 1
LetterboxInBreaks: 0
WidescreenStoryboard: 1

[Editor]
Bookmarks: 42649
DistanceSpacing: 0.6
BeatDivisor: 8
GridSize: 8
TimelineZoom: 1.6

[Metadata]
Title:greater than one
TitleUnicode:greater than one
Artist:ericdoa
ArtistUnicode:ericdoa
Creator:Hivie
Version:radar's kantan
Source:VALORANT
Tags:radar >one english pop video game electronic edm dance hip-hop gekko riot i love egg games wingman dizzy mosh thrash
BeatmapID:4076493
BeatmapSetID:1965860

[Difficulty]
HPDrainRate:8
CircleSize:5
OverallDifficulty:3
ApproachRate:5
SliderMultiplier:2.8
SliderTickRate:1

[Events]
//Background and Video events
0,0,"75407aa5-fpblvpbxgaaaoe2.jpg",0,0
//Break Periods
2,64182,72115
//Storyboard Layer 0 (Background)
//Storyboard Layer 1 (Fail)
//Storyboard Layer 2 (Pass)
//Storyboard Layer 3 (Foreground)
//Storyboard Layer 4 (Overlay)
//Storyboard Sound Samples

[TimingPoints]
10649,666.666666666667,4,1,0,90,1,0
10649,-100,4,1,0,90,0,0
21315,-100,4,1,0,90,0,1
29315,-100,4,1,0,90,0,0
29982,-100,4,1,0,90,0,0
30649,-100,4,1,0,90,0,0
31982,-100,4,1,0,90,0,1
39982,-100,4,1,0,90,0,0
40646,-100,4,1,0,90,0,0
40979,-100,4,1,0,90,0,0
41312,-100,4,1,0,90,0,0
41479,-100,4,1,0,90,0,0
41646,-100,4,1,0,90,0,0
41812,-100,4,1,0,90,0,0
41979,-100,4,1,0,90,0,0
42146,-100,4,1,0,90,0,0
42312,-100,4,1,0,90,0,0
42479,-100,4,1,0,90,0,0
42646,-100,4,1,0,90,0,0
63565,-100,4,1,0,90,0,0
63899,-100,4,1,0,90,0,0
73312,-100,4,1,0,90,0,0
73479,-100,4,1,0,90,0,0
73646,-100,4,1,0,90,0,0
73812,-100,4,1,0,90,0,0
73979,-100,4,1,0,90,0,0
74146,-100,4,1,0,90,0,0
74312,-100,4,1,0,90,0,0
74649,-100,4,1,0,90,0,1
82482,-100,4,1,0,90,0,0
82649,-100,4,1,0,90,0,0
85315,-100,4,1,0,90,0,1
90982,-100,4,1,0,90,0,0
92812,-100,4,1,0,90,0,0
92979,-100,4,1,0,90,0,0
93146,-100,4,1,0,90,0,0
93312,-100,4,1,0,90,0,0
93646,-100,4,1,0,90,0,0
93812,-100,4,1,0,90,0,0
93979,-100,4,1,0,90,0,0
94312,-100,4,1,0,90,0,0
94479,-100,4,1,0,90,0,0
94646,-100,4,1,0,90,0,0
94812,-100,4,1,0,90,0,0
94979,-100,4,1,0,90,0,0
95312,-100,4,1,0,90,0,0
95479,-100,4,1,0,90,0,0
95646,-100,4,1,0,90,0,0
95812,-100,4,1,0,90,0,0
95982,-100,4,1,0,90,0,1
110871,-100,4,1,0,90,0,0
111315,-100,4,1,0,90,0,1
111399,-100,4,1,0,90,0,1
111482,-100,4,1,0,90,0,1
111649,-100,4,1,0,90,0,0
111982,-100,4,1,0,90,0,1
116232,-100,4,1,0,90,0,0
116649,-100,4,1,0,90,0,1
117315,-100,4,1,0,90,0,0

[HitObjects]
43,263,10648,5,0,0:0:0:0:
60,260,11315,1,0,0:0:0:0:
60,260,11982,1,0,0:0:0:0:
108,252,13315,1,8,0:0:0:0:
108,252,13982,1,0,0:0:0:0:
108,252,14649,1,0,0:0:0:0:
129,258,15982,1,8,0:0:0:0:
129,258,17315,1,0,0:0:0:0:
110,312,18649,1,0,0:0:0:0:
76,107,21315,1,4,0:0:0:0:
103,307,21981,1,8,0:0:0:0:
103,307,22481,1,0,0:0:0:0:
98,306,22815,1,0,0:0:0:0:
102,301,23315,1,0,0:0:0:0:
105,287,23981,1,8,0:0:0:0:
105,287,24648,1,8,0:0:0:0:
105,287,25148,1,0,0:0:0:0:
127,277,25481,1,0,0:0:0:0:
127,277,25815,1,0,0:0:0:0:
146,273,26648,1,8,0:0:0:0:
146,273,27315,1,8,0:0:0:0:
146,273,27815,1,8,0:0:0:0:
146,273,28315,1,0,0:0:0:0:
150,269,28648,1,8,0:0:0:0:
115,296,29315,1,0,0:0:0:0:
126,254,29982,1,0,0:0:0:0:
133,271,30649,1,0,0:0:0:0:
76,107,31981,1,12,0:0:0:0:
103,307,32649,1,0,0:0:0:0:
103,307,33149,1,0,0:0:0:0:
98,306,33482,1,8,0:0:0:0:
102,301,33981,1,0,0:0:0:0:
105,287,34649,1,8,0:0:0:0:
105,287,35314,1,8,0:0:0:0:
105,287,35814,1,0,0:0:0:0:
127,277,36149,1,0,0:0:0:0:
127,277,36481,1,8,0:0:0:0:
146,273,37314,1,0,0:0:0:0:
142,254,37982,1,8,0:0:0:0:
154,257,38482,1,0,0:0:0:0:
154,257,38982,1,8,0:0:0:0:
154,257,39315,1,0,0:0:0:0:
154,257,39982,1,8,0:0:0:0:
154,257,41315,1,0,0:0:0:0:
166,240,41649,1,0,0:0:0:0:
168,239,41982,1,0,0:0:0:0:
137,292,42649,1,0,0:0:0:0:
141,305,43315,1,8,0:0:0:0:
141,305,43982,1,0,0:0:0:0:
141,305,44649,1,8,0:0:0:0:
141,305,44982,1,8,0:0:0:0:
141,305,45315,1,0,0:0:0:0:
141,305,45982,1,8,0:0:0:0:
141,305,46982,1,8,0:0:0:0:
141,305,47315,1,0,0:0:0:0:
141,305,47649,1,8,0:0:0:0:
141,305,47982,1,0,0:0:0:0:
141,305,48649,1,8,0:0:0:0:
141,305,49315,1,0,0:0:0:0:
145,300,49982,1,8,0:0:0:0:
145,300,50315,1,8,0:0:0:0:
145,300,50649,1,0,0:0:0:0:
145,300,51315,1,8,0:0:0:0:
145,300,51982,1,8,0:0:0:0:
142,298,53315,1,0,0:0:0:0:
142,298,53649,1,0,0:0:0:0:
142,298,53982,1,8,0:0:0:0:
142,298,54315,1,8,0:0:0:0:
142,298,54982,1,0,0:0:0:0:
142,298,55315,1,8,0:0:0:0:
142,298,55649,1,8,0:0:0:0:
142,298,55982,1,0,0:0:0:0:
142,298,56649,1,8,0:0:0:0:
142,298,57149,1,0,0:0:0:0:
142,298,57649,1,8,0:0:0:0:
142,298,57982,1,8,0:0:0:0:
142,298,58315,1,0,0:0:0:0:
142,298,58649,1,8,0:0:0:0:
142,298,59315,1,8,0:0:0:0:
142,298,60315,1,0,0:0:0:0:
142,298,60649,1,8,0:0:0:0:
142,298,60982,1,8,0:0:0:0:
142,298,61315,1,0,0:0:0:0:
142,298,61982,1,8,0:0:0:0:
142,298,62649,1,0,0:0:0:0:
142,298,62982,1,8,0:0:0:0:
142,298,63315,1,0,0:0:0:0:
142,298,63982,1,8,0:0:0:0:
81,297,73315,5,8,0:0:0:0:
81,297,73815,1,8,0:0:0:0:
81,297,74315,1,8,0:0:0:0:
76,107,74649,1,4,0:0:0:0:
103,307,75315,1,8,0:0:0:0:
103,307,75815,1,0,0:0:0:0:
98,306,76149,1,8,0:0:0:0:
102,301,76649,1,0,0:0:0:0:
105,287,77315,1,8,0:0:0:0:
105,287,77982,1,8,0:0:0:0:
105,287,78482,1,8,0:0:0:0:
127,277,78815,1,0,0:0:0:0:
127,277,79149,1,8,0:0:0:0:
146,273,79982,1,0,0:0:0:0:
146,273,80649,1,8,0:0:0:0:
146,273,81149,1,8,0:0:0:0:
146,273,81649,1,0,0:0:0:0:
150,269,81982,1,8,0:0:0:0:
115,296,82649,1,0,0:0:0:0:
76,107,85315,1,12,0:0:0:0:
103,307,85981,1,0,0:0:0:0:
103,307,86481,1,8,0:0:0:0:
98,306,86815,1,8,0:0:0:0:
102,301,87315,1,0,0:0:0:0:
105,287,87981,1,8,0:0:0:0:
105,287,88648,1,8,0:0:0:0:
105,287,89148,1,0,0:0:0:0:
127,277,89481,1,0,0:0:0:0:
127,277,89815,1,8,0:0:0:0:
146,273,90648,1,0,0:0:0:0:
118,287,92649,1,8,0:0:0:0:
115,296,93315,1,0,0:0:0:0:
129,268,93982,1,8,0:0:0:0:
129,268,94315,1,0,0:0:0:0:
129,268,94982,1,8,0:0:0:0:
132,251,95315,1,0,0:0:0:0:
122,88,95982,1,12,0:0:0:0:
145,257,96649,1,8,0:0:0:0:
152,299,96982,1,8,0:0:0:0:
152,299,97649,1,0,0:0:0:0:
152,299,97982,1,0,0:0:0:0:
159,291,98649,1,8,0:0:0:0:
155,295,99649,1,0,0:0:0:0:
155,295,99982,1,0,0:0:0:0:
155,295,100649,1,0,0:0:0:0:
161,304,101315,1,8,0:0:0:0:
126,300,101982,1,8,0:0:0:0:
133,289,102315,1,8,0:0:0:0:
134,288,102649,1,0,0:0:0:0:
133,289,102982,1,0,0:0:0:0:
138,275,103315,1,8,0:0:0:0:
138,275,103982,1,0,0:0:0:0:
146,270,104982,1,8,0:0:0:0:
143,271,105315,1,8,0:0:0:0:
131,291,106649,1,0,0:0:0:0:
152,270,106982,1,8,0:0:0:0:
159,266,107315,1,8,0:0:0:0:
157,268,107649,1,0,0:0:0:0:
159,266,108315,1,8,0:0:0:0:
163,264,108649,1,8,0:0:0:0:
163,263,109315,1,0,0:0:0:0:
163,263,109982,1,8,0:0:0:0:
163,263,110649,1,8,0:0:0:0:
160,269,111315,1,0,0:0:0:0:
160,269,111982,1,8,0:0:0:0:
160,269,112315,1,8,0:0:0:0:
160,269,112649,1,0,0:0:0:0:
161,251,113315,1,8,0:0:0:0:
161,251,113649,1,0,0:0:0:0:
161,251,113982,1,8,0:0:0:0:
161,251,114649,1,0,0:0:0:0:
161,251,115315,1,8,0:0:0:0:
161,251,115982,1,0,0:0:0:0:
161,251,116649,1,0,0:0:0:0:
123,306,117315,1,8,0:0:0:0:
