osu file format v14

[General]
AudioFilename: audio.mp3
AudioLeadIn: 0
PreviewTime: 28431
Countdown: 0
SampleSet: Soft
StackLeniency: 0.7
Mode: 0
LetterboxInBreaks: 0
WidescreenStoryboard: 0

[Editor]
DistanceSpacing: 0.6
BeatDivisor: 8
GridSize: 8
TimelineZoom: 2.2

[Metadata]
Title:greater than one
TitleUnicode:greater than one
Artist:ericdoa
ArtistUnicode:ericdoa
Creator:DeviousPanda
Version:expert
Source:VALORANT
Tags:english pop video game electronic edm dance hip-hop gekko riot games >one
BeatmapID:4045995
BeatmapSetID:1953712

[Difficulty]
HPDrainRate:4
CircleSize:4
OverallDifficulty:9
ApproachRate:9.2
SliderMultiplier:3.59999990463257
SliderTickRate:1

[Events]
//Background and Video events
0,0,"gekko.jpg",0,0
//Break Periods
2,18341,19571
2,64174,72737
2,82674,84737
//Storyboard Layer 0 (Background)
//Storyboard Layer 1 (Fail)
//Storyboard Layer 2 (Pass)
//Storyboard Layer 3 (Foreground)
//Storyboard Layer 4 (Overlay)
//Storyboard Sound Samples

[TimingPoints]
10641,666.666666666667,4,2,1,30,1,0
10641,-400,4,2,1,30,0,0
14974,-200,4,2,1,30,0,0
15974,-400,4,2,1,30,0,0
21307,-142.857142857143,4,2,1,50,0,0
31974,-100,4,2,1,60,0,1
39974,-500,4,2,1,40,0,0
42307,-100,4,2,1,65,0,0
53307,-100,4,2,99,95,0,0
53474,-100,4,2,1,65,0,0
63974,-100,4,2,1,40,0,0
74641,-100,4,2,1,60,0,1
82474,-100,4,2,1,60,0,0
85307,-100,4,2,1,60,0,1
85974,-90.9090909090909,4,2,1,60,0,1
90641,-166.666666666667,4,2,1,45,0,0
91141,-333.333333333334,4,2,1,25,0,0
92641,-125,4,2,1,45,0,0
93974,-111.111111111111,4,2,1,45,0,0
95474,-111.111111111111,4,2,1,65,0,0
95641,-90.9090909090908,4,2,1,65,0,0
95807,-76.9230769230769,4,2,1,65,0,0
95974,-83.3333333333333,4,2,1,80,0,1
99474,-62.5,4,2,1,80,0,1
99641,-83.3333333333333,4,2,1,80,0,1
116641,-250,4,2,1,80,0,1
117307,-100,4,2,1,30,0,0

[Colours]
Combo1 : 241,238,182
Combo2 : 168,255,168
Combo3 : 184,255,113
Combo4 : 255,255,121

[HitObjects]
64,15,9974,5,2,0:0:0:0:
64,15,10140,1,2,0:0:0:0:
190,69,10474,5,2,0:0:0:0:
87,151,10641,2,0,P|127:133|158:130,1,67.4999961519243,0|0,1:0|0:0,0:0:0:0:
193,66,11307,2,0,P|219:83|262:93,1,67.4999982118607,0|0,1:0|0:0,0:0:0:0:
222,176,11974,6,0,P|229:194|235:217,1,33.7499991059303,0|0,1:0|0:0,0:0:0:0:
232,207,12307,1,8,3:0:0:0:
187,266,12474,1,2,0:0:0:0:
359,302,12640,5,0,1:0:0:0:
424,264,12807,1,4,0:3:0:0:
369,215,12974,1,2,0:0:0:0:
305,249,13140,1,2,0:0:0:0:
464,378,13307,6,0,P|470:346|483:312,1,67.4999982118607,0|0,1:0|0:0,0:0:0:0:
427,261,13974,2,0,P|421:229|408:195,1,67.4999982118607,0|0,1:0|0:0,0:0:0:0:
356,138,14640,1,0,1:0:0:0:
438,47,14807,1,2,0:0:0:0:
484,134,14974,2,0,P|456:129|435:118,1,44.9999988079071,0|0,3:0|0:0,0:0:0:0:
359,135,15307,5,0,1:0:0:0:
315,68,15474,5,2,0:0:0:0:
228,30,15641,5,2,0:0:0:0:
97,44,15807,5,2,0:0:0:0:
13,174,15974,6,0,P|56:170|81:163,1,67.4999982118607,0|0,1:0|0:0,0:0:0:0:
130,110,16641,1,0,1:0:0:0:
133,113,17307,1,0,1:0:0:0:
62,246,17641,6,0,P|89:249|111:257,1,44.9999988079071,4|0,3:0|0:0,0:0:0:0:
105,254,18141,1,0,3:0:0:0:
222,378,20141,5,0,3:0:0:0:
264,318,20307,1,0,3:0:0:0:
239,384,20474,1,0,3:0:0:0:
232,306,20641,1,0,3:0:0:0:
270,239,20807,1,0,3:0:0:0:
342,218,20974,1,0,3:0:0:0:
497,328,21307,6,0,P|458:302|425:292,1,62.9999964084627,2|0,1:2|3:0,0:0:0:0:
423,227,21641,1,0,0:0:0:0:
423,227,21807,1,0,0:0:0:0:
254,330,21974,2,0,P|315:322|383:279,1,125.999992816925,8|0,3:1|3:0,0:0:0:0:
472,160,22474,2,0,P|459:195|457:229,1,62.9999964084627,0|0,3:0|1:0,0:0:0:0:
501,345,22807,2,0,P|475:314|446:297,1,62.9999964084627,0|0,3:0|3:0,0:0:0:0:
339,215,23141,5,0,3:0:0:0:
339,215,23307,1,8,3:1:0:0:
264,234,23474,1,0,3:0:0:0:
200,200,23641,1,0,3:0:0:0:
175,131,23807,1,0,3:0:0:0:
168,325,23974,6,0,P|187:265|196:202,1,125.999992816925,2|0,1:2|3:0,0:0:0:0:
144,255,24474,1,0,3:0:0:0:
85,114,24641,2,0,P|85:158|93:188,1,62.9999964084627,8|0,3:1|0:0,0:0:0:0:
256,124,24974,5,0,3:0:0:0:
256,124,25141,1,0,3:0:0:0:
217,58,25307,2,0,P|162:51|86:16,1,125.999992816925,0|0,1:0|3:0,0:0:0:0:
14,118,25807,6,0,P|56:103|80:97,1,62.9999964084627,2|8,3:2|3:1,0:0:0:0:
325,11,26141,2,0,P|285:8|256:-3,1,62.9999964084627,2|0,3:2|3:0,0:0:0:0:
94,26,26474,5,2,3:2:0:0:
259,127,26641,2,0,P|287:180|292:262,1,125.999992816925,0|0,1:0|3:0,0:0:0:0:
152,148,27141,2,0,P|158:96|203:15,1,125.999992816925,0|0,3:2|0:0,0:0:0:0:
285,10,27641,5,0,3:0:0:0:
285,10,27807,1,0,3:0:0:0:
337,64,27974,2,0,P|322:112|301:128,1,62.9999964084627,0|0,1:0|0:0,0:0:0:0:
155,151,28307,2,0,P|181:125|260:102,1,94.499994612694,0|0,3:0|0:0,0:0:0:0:
317,123,28641,5,8,3:1:0:0:
387,147,28807,1,0,3:0:0:0:
456,120,28974,1,0,3:0:0:0:
476,49,29141,1,0,3:0:0:0:
254,192,29307,5,0,1:0:0:0:
257,195,29974,1,0,1:0:0:0:
260,198,30641,1,0,1:0:0:0:
92,117,30808,5,2,0:0:0:0:
164,176,30975,1,2,0:0:0:0:
125,51,31141,1,2,0:0:0:0:
89,221,31308,1,2,0:0:0:0:
196,97,31475,1,2,0:0:0:0:
95,120,31641,1,2,0:0:0:0:
167,173,31808,1,2,0:0:0:0:
13,247,31975,6,2,P|83:260|200:339,1,179.999995231628,6|0,1:2|3:0,0:1:0:0:
92,224,32475,1,2,3:2:0:0:
254,326,32641,2,0,P|315:290|314:188,1,179.999995231628,8|2,1:0|0:0,0:0:0:0:
89,227,33141,2,0,P|97:272|135:295,1,89.9999976158142,2|0,3:2|1:0,0:0:0:0:
205,238,33475,2,0,P|216:191|231:144,1,89.9999976158142,2|0,3:2|0:0,0:0:0:0:
228,151,33808,1,2,0:0:0:0:
145,61,33975,1,8,1:0:0:0:
305,104,34141,1,2,0:0:0:0:
236,26,34308,1,2,0:0:0:0:
134,144,34475,1,2,0:0:0:0:
257,329,34641,6,2,P|327:286|461:259,1,179.999995231628,6|0,1:2|3:0,0:1:0:0:
493,367,35141,2,0,P|427:358|383:330,1,89.9999976158142,2|8,0:0|1:0,0:0:0:0:
333,250,35475,1,0,3:0:0:0:
471,164,35641,1,2,0:0:0:0:
409,344,35808,1,2,0:0:0:0:
250,234,35975,2,0,P|245:184|224:129,1,89.9999976158142,2|0,1:2|3:0,0:0:0:0:
237,141,36224,1,0,3:0:0:0:
242,136,36308,1,2,3:3:0:0:
406,29,36475,6,0,L|395:90,1,44.9999988079071,2|0,3:2|0:0,0:0:0:0:
479,0,36641,1,8,1:0:0:0:
313,84,36808,6,0,L|333:184,1,89.9999976158142,2|0,3:2|3:0,0:0:0:0:
336,176,37058,1,0,3:0:0:0:
341,180,37141,1,2,3:2:0:0:
479,205,37308,6,2,P|391:198|316:289,1,179.999995231628,6|0,1:2|3:0,0:1:0:0:
403,34,37808,2,2,P|411:105|320:189,1,179.999995231628,2|0,3:2|0:0,0:1:0:0:
279,145,38308,1,2,0:0:0:0:
442,384,38475,2,2,P|463:245|523:105,1,269.999992847443,2|2,0:0|0:0,0:1:0:0:
508,122,39141,5,2,0:0:0:0:
451,61,39308,5,8,1:0:0:0:
352,45,39475,5,2,3:2:0:0:
245,97,39641,5,2,0:0:0:0:
211,228,39808,5,2,0:0:0:0:
288,384,39975,6,0,P|296:359|302:329,1,53.9999985694885,0|0,1:0|3:0,0:0:0:0:
229,314,40641,2,0,P|221:339|215:369,1,53.9999985694885,8|0,1:0|3:0,0:0:0:0:
356,282,41308,5,0,1:0:0:0:
356,282,41641,1,0,1:0:0:0:
170,221,41974,5,0,1:0:0:0:
317,130,42141,1,0,1:0:0:0:
242,53,42307,6,0,L|235:9,1,44.9999988079071,2|0,3:0|0:0,0:0:0:0:
240,12,42474,2,0,L|247:56,1,44.9999988079071,2|0,3:0|0:0,0:0:0:0:
209,151,42641,5,8,1:3:0:0:
362,194,42807,1,2,3:0:0:0:
315,350,42974,1,2,3:2:0:0:
232,263,43141,6,0,P|264:250|293:240,1,44.9999988079071,2|0,1:2|0:0,0:0:0:0:
448,159,43307,2,0,P|403:180|347:194,1,89.9999976158143,8|0,1:0|0:0,0:0:0:0:
295,162,43641,1,2,3:0:0:0:
386,301,43807,2,0,P|392:271|408:239,1,44.9999988079071,8|0,3:0|0:0,0:0:0:0:
451,163,43974,5,2,3:0:0:0:
307,311,44141,1,2,3:2:0:0:
484,384,44307,2,0,P|478:354|462:322,1,44.9999988079071,4|0,1:3|0:0,0:0:0:0:
400,260,44474,5,2,3:2:0:0:
470,83,44641,2,0,P|474:131|440:176,1,89.9999976158143,8|4,1:0|1:3,0:0:0:0:
380,178,44891,1,2,3:2:0:0:
376,174,44974,2,0,P|365:120|422:37,1,134.999996423721,2|0,3:0|0:0,0:0:0:0:
493,10,45307,5,8,1:3:0:0:
324,93,45474,1,2,0:0:0:0:
457,169,45641,1,2,3:2:0:0:
342,256,45807,6,0,L|354:198,1,44.9999988079071,8|0,1:3|0:0,0:0:0:0:
403,54,45974,1,8,1:0:0:0:
460,172,46141,1,2,3:2:0:0:
271,172,46307,6,0,L|213:186,1,44.9999988079071,0|0,1:0|0:0,0:0:0:0:
227,182,46474,2,0,L|270:171,1,44.9999988079071,0|0,1:0|0:0,0:0:0:0:
321,90,46641,6,0,P|260:74|221:54,1,89.9999976158143,2|0,3:2|3:0,0:0:0:0:
171,252,46974,2,0,P|232:268|271:288,1,89.9999976158143,8|0,1:3|3:0,0:0:0:0:
263,277,47224,1,2,3:2:0:0:
269,274,47307,1,8,1:0:0:0:
173,119,47474,6,0,P|89:140|23:181,1,134.999996423721,4|0,1:3|0:0,0:0:0:0:
46,162,47807,1,2,3:0:0:0:
0,90,47974,5,8,1:3:0:0:
129,179,48141,1,2,3:0:0:0:
232,59,48307,1,2,3:2:0:0:
149,0,48474,6,0,L|133:57,1,44.9999988079071,4|0,1:3|0:0,0:0:0:0:
74,259,48641,1,8,1:0:0:0:
53,170,48807,1,2,3:2:0:0:
211,310,48974,6,0,P|212:262|186:211,1,89.9999976158143,8|2,3:0|3:2,0:0:0:0:
135,187,49224,1,0,3:0:0:0:
135,187,49307,1,2,3:2:0:0:
5,273,49474,1,2,3:2:0:0:
134,384,49641,2,0,P|140:348|151:323,1,44.9999988079071,8|0,1:3|0:0,0:0:0:0:
193,226,49807,5,2,3:2:0:0:
12,348,49974,2,0,P|41:313|76:285,1,89.9999976158143,8|0,1:0|1:0,0:0:0:0:
82,289,50224,1,0,3:0:0:0:
88,293,50307,1,2,3:2:0:0:
0,184,50641,5,0,1:0:0:0:
145,343,50807,1,2,3:2:0:0:
2,276,50974,1,2,3:0:0:0:
138,190,51141,6,0,P|132:223|120:256,1,44.9999988079071,0|0,1:0|0:0,0:0:0:0:
35,349,51307,1,8,1:0:0:0:
207,266,51474,1,2,3:2:0:0:
266,361,51641,6,0,P|231:344|211:339,1,44.9999988079071,0|0,1:0|0:0,0:0:0:0:
148,340,51807,2,0,P|183:357|203:362,1,44.9999988079071,0|0,1:0|0:0,0:0:0:0:
346,298,51974,5,2,3:0:0:0:
346,298,52141,1,2,3:2:0:0:
406,378,52307,6,0,P|441:361|461:356,1,44.9999988079071,0|0,1:0|0:0,0:0:0:0:
446,359,52474,1,2,3:0:0:0:
511,289,52641,6,0,P|452:272|382:212,1,134.999996423721,0|0,3:0|0:0,0:0:0:0:
250,0,52974,5,2,3:0:0:0:
263,384,53141,5,2,3:0:0:0:
324,320,53307,5,8,1:3:0:0:
206,257,53474,1,2,3:0:0:0:
274,144,53641,1,2,3:2:0:0:
150,184,53807,6,0,P|179:178|200:170,1,44.9999988079071,4|0,1:3|0:0,0:0:0:0:
320,74,53974,1,8,1:0:0:0:
280,225,54141,1,2,3:2:0:0:
487,129,54307,2,0,P|426:139|342:168,1,134.999996423721,2|0,3:0|0:0,0:0:0:0:
281,150,54641,5,2,3:0:0:0:
281,150,54807,1,2,3:2:0:0:
326,27,54974,2,0,P|320:59|314:79,1,44.9999988079071,4|0,3:0|0:0,0:0:0:0:
196,175,55141,5,2,3:2:0:0:
388,337,55307,2,0,P|382:282|364:234,1,89.9999976158143,8|0,1:0|1:0,0:0:0:0:
365,246,55557,1,2,3:2:0:0:
359,243,55641,1,2,3:0:0:0:
116,17,55974,6,0,P|85:83|72:159,1,134.999996423721,8|0,1:3|0:0,0:0:0:0:
72,143,56307,1,2,3:0:0:0:
34,18,56474,2,0,P|44:57|47:82,1,44.9999988079071,8|0,1:3|0:0,0:0:0:0:
46,222,56641,1,8,1:0:0:0:
165,100,56807,1,2,3:2:0:0:
134,296,56974,6,0,P|124:257|121:232,1,44.9999988079071,0|0,1:0|0:0,0:0:0:0:
116,254,57141,2,0,P|120:276|126:297,1,44.9999988079071,0|0,1:0|0:0,0:0:0:0:
188,344,57307,1,2,3:0:0:0:
49,219,57474,1,2,3:2:0:0:
51,384,57641,6,0,P|58:356|62:332,1,44.9999988079071,4|0,1:3|0:0,0:0:0:0:
0,155,57807,1,2,3:0:0:0:
11,287,57974,5,8,1:0:0:0:
168,103,58141,2,0,P|161:131|157:155,1,44.9999988079071,8|0,1:3|0:0,0:0:0:0:
56,224,58307,5,2,3:0:0:0:
56,224,58474,1,2,3:2:0:0:
191,341,58641,6,0,P|217:329|244:325,1,44.9999988079071,4|0,1:3|0:0,0:0:0:0:
276,264,58807,1,2,3:2:0:0:
394,327,58974,1,2,3:0:0:0:
512,216,59141,2,0,P|486:228|459:232,1,44.9999988079071,8|0,1:3|0:0,0:0:0:0:
338,384,59307,6,0,P|347:322|377:249,1,134.999996423721,8|0,1:0|0:0,0:0:0:0:
370,252,59641,1,2,3:0:0:0:
487,304,59807,1,2,3:2:0:0:
260,384,59974,1,2,3:0:0:0:
260,384,60141,1,2,3:2:0:0:
427,382,60307,6,0,P|424:347|415:320,1,44.9999988079071,8|0,1:3|0:0,0:0:0:0:
307,191,60474,1,2,3:2:0:0:
506,154,60641,5,8,1:0:0:0:
361,293,60807,2,0,P|364:258|373:231,1,44.9999988079071,4|0,1:3|0:0,0:0:0:0:
448,74,60974,2,0,P|456:138|440:212,1,134.999996423721,2|0,3:0|0:0,0:0:0:0:
243,234,61307,5,0,1:0:0:0:
243,234,61474,1,2,3:2:0:0:
358,296,61641,1,2,3:0:0:0:
263,381,61807,2,0,P|268:347|282:317,1,44.9999988079071,4|0,1:3|0:0,0:0:0:0:
338,180,61974,2,0,P|356:126|360:82,1,89.9999976158143,8|0,1:0|3:0,0:0:0:0:
355,89,62224,1,2,3:2:0:0:
350,85,62307,1,0,1:0:0:0:
227,104,62474,6,0,P|234:138|242:169,1,44.9999988079071,8|0,1:3|0:0,0:0:0:0:
355,293,62641,1,2,3:0:0:0:
246,237,62807,1,2,3:2:0:0:
174,290,62974,1,0,1:0:0:0:
106,260,63141,1,2,3:2:0:0:
49,301,63307,1,2,0:2:0:0:
49,301,63641,1,2,0:2:0:0:
49,301,63974,1,6,0:2:0:0:
52,304,73307,6,0,L|121:282,1,44.9999988079071,8|0,1:0|0:0,0:0:0:0:
134,225,73474,1,8,1:3:0:0:
262,325,73641,1,4,1:3:0:0:
139,382,73807,6,0,L|79:368,1,44.9999988079071,8|0,1:1|0:0,0:0:0:0:
56,308,73974,1,8,3:0:0:0:
241,240,74141,1,4,3:0:0:0:
180,305,74307,1,4,1:3:0:0:
180,305,74474,1,2,3:2:0:0:
51,174,74641,6,2,P|44:94|8:-9,1,179.999995231629,6|0,1:2|3:0,0:1:0:0:
118,81,75141,1,2,3:2:0:0:
14,245,75307,2,0,P|-1:311|3:360,1,89.9999976158143,8|0,1:0|0:0,0:0:0:0:
138,168,75641,5,2,3:0:0:0:
0,89,75807,1,2,3:2:0:0:
114,279,75974,2,0,P|166:251|288:233,1,179.999995231629,0|2,1:0|3:0,0:0:0:0:
329,169,76474,5,2,3:2:0:0:
431,255,76641,1,8,1:0:0:0:
282,315,76807,1,2,3:2:0:0:
431,147,76974,1,2,3:0:0:0:
378,337,77141,1,2,3:2:0:0:
225,155,77307,6,2,P|291:140|382:68,1,179.999995231629,6|2,1:2|3:0,0:1:0:0:
316,213,77807,2,0,P|330:174|343:156,1,44.9999988079071,2|0,3:2|0:0,0:0:0:0:
454,58,77974,1,8,1:0:0:0:
512,176,78141,1,2,3:2:0:0:
300,95,78307,1,2,3:0:0:0:
443,311,78474,2,0,P|439:237|420:198,1,89.9999976158143,2|0,3:2|1:0,0:0:0:0:
297,92,78807,5,2,3:2:0:0:
267,86,78891,1,0,3:0:0:0:
247,60,78974,1,2,3:0:0:0:
457,61,79141,6,0,P|435:87|416:96,1,44.9999988079071,2|0,3:2|0:0,0:0:0:0:
250,57,79307,1,8,1:0:0:0:
260,280,79474,6,0,P|284:242|320:216,1,89.9999976158143,2|2,3:2|3:0,0:0:0:0:
326,221,79724,1,2,3:2:0:0:
332,226,79807,1,2,3:2:0:0:
512,204,79974,6,2,P|422:188|356:121,1,179.999995231629,6|2,1:2|3:2,0:1:0:0:
451,383,80474,2,2,P|454:303|395:202,1,179.999995231629,2|0,3:2|0:0,0:1:0:0:
337,231,80974,1,2,3:0:0:0:
460,46,81141,2,2,P|411:137|372:331,1,269.999992847443,2|2,3:2|3:0,0:1:0:0:
288,384,81807,5,2,3:2:0:0:
277,312,81974,5,8,1:0:0:0:
264,232,82141,5,2,3:2:0:0:
245,137,82307,5,2,3:0:0:0:
227,25,82474,5,2,0:0:0:0:
224,22,85307,6,2,P|141:49|121:151,1,179.999995231629,6|2,1:2|3:0,0:1:0:0:
273,80,85807,1,2,3:2:0:0:
28,155,85974,2,0,P|100:166|181:216,1,148.500000597954,8|0,1:0|0:0,0:0:0:0:
171,201,86307,5,2,3:0:0:0:
12,0,86474,2,0,P|10:51|51:82,1,99.0000003986359,2|0,3:2|1:0,0:0:0:0:
227,146,86807,2,0,P|249:189|238:241,1,99.0000003986359,2|2,3:2|3:0,3:0:0:0:
26,328,87141,5,2,3:2:0:0:
118,128,87307,1,8,1:0:0:0:
175,279,87474,1,2,3:2:0:0:
31,158,87641,1,2,3:0:0:0:
80,239,87807,1,2,3:2:0:0:
277,84,87974,6,2,P|323:56|485:28,1,198.000000797272,6|2,1:2|3:0,0:1:0:0:
271,0,88474,2,0,P|306:16|324:18,1,49.500000199318,2|0,3:2|0:0,0:0:0:0:
453,110,88641,2,0,P|407:92|358:85,1,99.0000003986359,8|2,1:0|3:2,0:0:0:0:
354,90,88891,1,2,3:2:0:0:
349,94,88974,1,2,3:0:0:0:
237,223,89141,6,0,P|287:192|333:177,1,99.0000003986359,2|0,3:2|1:2,0:2:0:0:
506,0,89474,2,0,P|456:31|410:46,1,99.0000003986359,2|2,3:2|3:0,0:2:0:0:
268,3,89807,5,2,3:2:0:0:
229,29,89891,1,0,3:0:0:0:
238,71,89974,1,8,1:0:0:0:
384,139,90141,1,2,3:2:0:0:
240,226,90307,1,2,3:0:0:0:
348,294,90474,1,2,3:2:0:0:
248,383,90641,6,2,P|254:343|272:301,1,80.9999953823091,0|0,1:0|0:0,0:1:0:0:
269,305,90974,1,2,3:0:0:0:
151,221,91141,6,2,P|169:256|179:301,1,80.9999953823091,2|2,3:2|3:0,0:1:0:0:
359,260,91807,6,2,P|322:241|288:211,1,80.9999953823091,2|2,3:2|3:0,0:1:0:0:
292,215,92474,1,2,3:2:0:0:
43,354,92641,5,0,1:2:0:0:
103,310,92807,1,0,3:2:0:0:
179,302,92974,1,2,3:0:0:0:
179,302,93141,1,2,0:0:0:0:
284,118,93307,6,0,P|255:146|211:172,1,71.9999980926514,2|2,1:2|3:2,0:0:0:0:
158,140,93641,1,2,3:0:0:0:
299,223,93807,1,2,3:2:0:0:
46,256,93974,2,0,P|92:217|137:199,1,80.9999953823091,8|2,1:0|3:2,0:0:0:0:
235,271,94307,5,2,3:0:0:0:
287,121,94474,1,2,3:2:0:0:
113,212,94641,2,0,P|142:220|173:225,1,40.4999976911546,0|0,1:0|0:0,0:0:0:0:
226,166,94807,5,2,3:2:0:0:
42,342,94974,2,0,P|92:318|152:301,1,80.9999953823091,2|2,3:0|3:2,0:0:0:0:
307,299,95224,5,2,3:2:0:0:
307,299,95307,1,8,1:0:0:0:
367,253,95474,6,0,P|343:232|336:219,1,40.4999976911546,0|0,1:0|0:0,0:0:0:0:
231,267,95641,6,0,P|226:295|216:317,1,49.500000199318,0|0,1:0|0:0,0:0:0:0:
305,384,95807,6,0,P|334:372|367:370,1,58.499995772362,0|0,1:0|0:0,0:0:0:0:
469,223,95974,6,0,L|496:91,1,107.999993843079,4|0,1:0|3:0,0:0:0:0:
455,55,96224,1,2,3:2:0:0:
455,55,96307,1,8,3:1:0:0:
364,0,96474,5,2,3:2:0:0:
339,22,96557,1,0,3:2:0:0:
316,46,96641,1,0,1:0:0:0:
340,69,96724,1,2,3:2:0:0:
364,91,96807,1,8,3:1:0:0:
459,58,96974,5,8,3:1:0:0:
487,82,97057,1,0,3:0:0:0:
512,109,97141,1,8,3:1:0:0:
485,135,97224,1,2,3:2:0:0:
459,160,97307,2,0,L|386:174,1,53.9999969215394,0|0,1:0|0:0,0:0:0:0:
343,224,97474,5,2,3:2:0:0:
462,61,97641,1,8,3:1:0:0:
262,138,97807,1,2,3:0:0:0:
262,138,97891,1,2,3:2:0:0:
262,138,97974,1,2,3:0:0:0:
409,289,98141,6,0,B|426:268|426:268|411:216,1,53.9999969215394,8|0,3:1|0:0,0:0:0:0:
310,125,98307,6,0,B|283:120|283:120|245:159,1,53.9999969215394,8|0,3:1|0:0,0:0:0:0:
217,292,98474,6,0,B|226:317|226:317|279:330,1,53.9999969215394,8|0,0:1|0:0,0:0:0:0:
320,376,98641,5,4,1:0:0:0:
325,339,98724,1,8,0:1:0:0:
330,302,98807,1,8,0:1:0:0:
335,265,98891,1,8,0:1:0:0:
340,227,98974,1,8,1:1:0:0:
478,330,99141,5,2,3:0:0:0:
494,298,99224,1,8,3:1:0:0:
464,278,99307,2,0,L|400:296,1,53.9999969215394,0|0,1:0|0:0,0:0:0:0:
249,326,99474,6,2,P|206:305|135:296,1,107.999997138977,2|0,1:3|0:0,3:2:0:0:
144,292,99641,5,8,3:1:0:0:
109,299,99724,1,2,3:0:0:0:
73,287,99807,1,0,3:0:0:0:
50,256,99891,1,2,3:0:0:0:
45,218,99974,1,0,1:0:0:0:
62,184,100057,2,0,L|212:219,1,107.999993843079,2|0,3:0|0:0,0:0:0:0:
318,39,100307,6,0,P|296:54|276:72,1,53.9999969215394,8|0,3:1|0:0,0:0:0:0:
163,107,100474,6,0,P|187:117|213:124,1,53.9999969215394,0|0,3:2|0:0,0:0:0:0:
280,297,100641,6,0,P|278:243|266:189,1,107.999993843079,0|0,3:1|1:0,0:0:0:0:
279,167,100891,1,2,3:2:0:0:
293,145,100974,5,8,1:1:0:0:
370,137,101085,5,2,3:0:0:0:
414,198,101196,5,2,3:0:0:0:
390,268,101307,5,4,1:0:0:0:
217,127,101474,1,2,3:2:0:0:
391,26,101641,1,8,3:1:0:0:
269,193,101807,5,2,3:2:0:0:
240,218,101891,1,2,3:2:0:0:
241,259,101974,1,0,1:0:0:0:
320,324,102141,2,0,P|317:287|307:250,1,53.9999969215394,2|0,3:0|0:0,0:0:0:0:
311,76,102307,5,8,3:1:0:0:
331,115,102391,1,2,3:2:0:0:
364,141,102474,1,2,3:0:0:0:
403,153,102557,1,2,3:2:0:0:
445,152,102641,2,0,P|460:89|504:-12,1,161.999990764618,0|0,1:0|0:0,0:0:0:0:
427,27,102974,2,0,P|438:72|437:105,1,53.9999969215394,8|0,1:0|0:0,0:0:0:0:
512,236,103141,5,0,1:0:0:0:
471,223,103224,1,2,3:2:0:0:
445,255,103307,1,0,1:0:0:0:
367,224,103474,5,0,1:0:0:0:
298,319,103641,5,8,1:0:0:0:
154,235,103807,5,8,3:1:0:0:
60,367,103974,6,0,P|74:329|70:293,1,53.9999969215394,4|0,1:0|0:0,0:0:0:0:
295,316,104141,6,0,P|255:322|225:344,1,53.9999969215394,2|0,3:0|0:0,0:0:0:0:
140,124,104307,6,0,P|165:155|199:169,1,53.9999969215394,8|0,3:1|0:0,0:0:0:0:
157,238,104474,5,2,3:0:0:0:
175,263,104557,1,2,3:2:0:0:
172,298,104641,1,0,1:0:0:0:
24,252,104807,2,0,L|83:234,1,53.9999969215394,2|0,1:3|0:0,0:0:0:0:
247,199,104974,5,8,3:1:0:0:
275,175,105057,1,2,3:0:0:0:
286,135,105141,1,0,1:0:0:0:
279,97,105224,1,2,3:0:0:0:
253,68,105307,1,0,1:0:0:0:
215,58,105391,2,0,P|185:124|181:199,1,107.999993843079,2|0,3:0|0:0,0:0:0:0:
125,43,105641,2,0,P|145:92|147:119,1,53.9999969215394,8|0,1:1|0:0,0:0:0:0:
160,235,105807,1,2,3:2:0:0:
57,130,105974,6,0,P|83:153|115:162,1,53.9999969215394,2|0,3:0|0:0,0:0:0:0:
276,100,106141,1,0,1:0:0:0:
161,290,106307,6,0,P|159:247|171:225,1,53.9999969215394,8|0,3:1|0:0,0:0:0:0:
271,101,106474,2,0,P|245:109|226:127,1,53.9999969215394,2|0,1:2|0:0,0:0:0:0:
63,377,106641,6,0,L|34:202,1,161.999990764618,4|0,1:0|0:0,0:0:0:0:
40,213,106974,2,0,L|63:350,1,107.999993843079,0|0,1:0|3:0,0:0:0:0:
57,319,107224,1,2,3:2:0:0:
57,319,107307,1,0,1:0:0:0:
128,141,107474,6,0,L|109:220,1,53.9999969215394,2|0,3:0|0:0,0:0:0:0:
136,384,107641,1,8,3:1:0:0:
169,364,107724,1,2,3:0:0:0:
197,341,107807,1,2,3:2:0:0:
175,310,107891,1,2,3:0:0:0:
151,280,107974,1,0,1:0:0:0:
16,384,108141,1,2,3:2:0:0:
247,284,108307,1,8,3:1:0:0:
37,210,108474,1,2,3:0:0:0:
12,178,108557,1,2,3:2:0:0:
32,148,108641,1,0,1:0:0:0:
0,305,108807,6,0,L|69:290,1,53.9999969215394,8|0,3:1|0:0,0:0:0:0:
118,196,108974,6,0,L|187:181,1,53.9999969215394,8|0,3:1|0:0,0:0:0:0:
236,87,109141,6,0,L|305:72,1,53.9999969215394,8|0,3:1|0:0,0:0:0:0:
354,169,109307,5,4,1:0:0:0:
365,202,109391,1,8,3:1:0:0:
334,221,109474,2,0,L|265:206,1,53.9999969215394,8|0,3:1|0:0,0:0:0:0:
35,145,109641,1,8,3:1:0:0:
159,315,109807,5,0,1:0:0:0:
164,349,109891,1,0,1:0:0:0:
138,370,109974,5,0,1:0:0:0:
79,326,110085,5,8,3:1:0:0:
72,253,110196,5,8,3:1:0:0:
115,193,110307,5,8,3:1:0:0:
189,184,110418,5,8,3:1:0:0:
252,139,110529,5,8,3:1:0:0:
257,66,110641,5,6,1:3:0:0:
254,63,110752,5,6,1:3:0:0:
251,60,110863,5,6,1:3:0:0:
162,311,111141,5,2,0:0:0:0:
36,72,111307,1,2,3:0:0:0:
12,101,111391,1,2,3:2:0:0:
32,142,111474,1,2,1:2:0:0:
271,226,111641,6,0,L|112:196,1,161.999990764618,4|0,0:3|0:0,0:0:0:0:
53,330,111974,6,0,L|158:307,1,107.999993843079,4|0,1:0|3:2,0:0:0:0:
191,244,112224,1,2,3:2:0:0:
191,244,112307,1,8,1:1:0:0:
275,333,112474,1,0,1:0:0:0:
0,241,112641,2,0,L|73:256,1,53.9999969215394,0|0,1:0|0:0,0:0:0:0:
52,251,112807,1,2,3:0:0:0:
274,223,112974,5,8,3:1:0:0:
309,214,113057,1,2,3:0:0:0:
342,204,113141,1,2,3:2:0:0:
374,197,113224,1,2,3:0:0:0:
408,188,113307,2,0,P|445:244|405:349,1,161.999990764618,0|0,1:0|0:0,0:0:0:0:
324,257,113641,2,0,P|326:230|338:206,1,53.9999969215394,8|0,3:1|0:0,0:0:0:0:
404,110,113807,5,2,1:3:0:0:
445,116,113891,1,2,3:2:0:0:
478,91,113974,1,0,1:0:0:0:
330,34,114141,1,0,1:0:0:0:
405,185,114307,1,8,1:0:0:0:
512,0,114474,5,2,3:0:0:0:
512,0,114557,1,2,3:2:0:0:
512,0,114641,2,0,L|431:18,1,53.9999969215394,4|0,1:0|0:0,0:0:0:0:
401,107,114807,6,0,L|320:125,1,53.9999969215394,2|0,3:0|0:0,0:0:0:0:
290,214,114974,6,0,L|209:232,1,53.9999969215394,8|0,1:0|0:0,0:0:0:0:
66,104,115141,5,2,3:0:0:0:
58,73,115224,1,2,3:2:0:0:
78,48,115307,5,8,1:0:0:0:
153,44,115418,5,8,3:1:0:0:
188,110,115529,5,8,3:1:0:0:
165,180,115641,5,8,1:0:0:0:
95,207,115752,5,8,3:1:0:0:
65,277,115863,5,8,3:1:0:0:
104,342,115974,5,8,1:0:0:0:
141,344,116057,1,0,1:0:0:0:
168,321,116141,1,0,1:0:0:0:
170,284,116224,1,0,1:0:0:0:
62,280,116474,5,2,3:0:0:0:
231,371,116641,2,0,P|275:349|342:337,1,107.999997138977,0|0,1:0|0:0,0:0:0:0:
332,337,117307,1,6,0:0:0:0:
