osu file format v14

[General]
AudioFilename: audio.mp3
AudioLeadIn: 0
PreviewTime: 34103
Countdown: 0
SampleSet: None
StackLeniency: 0.2
Mode: 1
LetterboxInBreaks: 0
WidescreenStoryboard: 0

[Editor]
Bookmarks: 13346,34103,54859,65238,75616,85995
DistanceSpacing: 0.8
BeatDivisor: 8
GridSize: 32
TimelineZoom: 4.199998

[Metadata]
Title:Mentanpindoradora
TitleUnicode:メンタンピンドラドラ
Artist:enzo + O2i3
ArtistUnicode:enzo + O2i3
Creator:Jaye
Version:Nov 29
Source:MÚSECA 1+1/2
Tags:November-Series
BeatmapID:1852620
BeatmapSetID:886219

[Difficulty]
HPDrainRate:5
CircleSize:2
OverallDifficulty:6
ApproachRate:10
SliderMultiplier:1.4
SliderTickRate:1

[Events]
//Background and Video events
0,0,"could not find a better image so i took this from the piratom set whoops.jpg",0,0
//Break Periods
//Storyboard Layer 0 (Background)
//Storyboard Layer 1 (Fail)
//Storyboard Layer 2 (Pass)
//Storyboard Layer 3 (Foreground)
//Storyboard Sound Samples

[TimingPoints]
2968,324.324324324324,4,1,0,90,1,0
2968,-133.333333333333,4,1,0,90,0,0
8076,-117.647058823529,4,1,0,90,0,0
13265,-100,4,1,0,90,0,0
17967,-66.6666666666667,4,1,0,90,0,0
18292,-100,4,1,0,90,0,0
23643,-133.333333333333,4,1,0,90,0,0
31427,-100,4,1,0,90,0,0
33697,-40,4,1,0,90,0,0
34022,-100,4,1,0,90,0,0
34103,-76.9230769230769,4,1,0,100,0,1
43832,-76.9230769230769,4,1,0,100,0,0
43913,-40,4,1,0,100,0,0
44238,-76.9230769230769,4,1,0,100,0,0
44805,-76.9230769230769,4,1,0,100,0,1
54332,-83.3333333333333,4,1,0,100,0,1
54413,-80,4,1,0,100,0,1
54495,-76.9230769230769,4,1,0,100,0,1
54657,-83.3333333333333,4,1,0,100,0,1
54738,-80,4,1,0,100,0,1
54820,-76.9230769230769,4,1,0,100,0,1
54859,-76.9230769230769,4,1,0,90,0,0
55103,-100,4,1,0,90,0,0
55630,-117.647058823529,4,1,0,90,0,0
55792,-111.111111111111,4,1,0,90,0,0
55873,-105.263157894737,4,1,0,90,0,0
55954,-100,4,1,0,90,0,0
56116,-117.647058823529,4,1,0,90,0,0
56278,-111.111111111111,4,1,0,90,0,0
56359,-105.263157894737,4,1,0,90,0,0
56440,-100,4,1,0,90,0,0
56603,-117.647058823529,4,1,0,90,0,0
56765,-111.111111111111,4,1,0,90,0,0
56846,-107.52688172043,4,1,0,90,0,0
56913,-104.166666666667,4,1,0,90,0,0
56927,-100,4,1,0,90,0,0
57049,-50,4,1,0,90,0,0
58022,-100,4,1,0,90,0,0
58224,-117.647058823529,4,1,0,90,0,0
58386,-111.111111111111,4,1,0,90,0,0
58467,-105.263157894737,4,1,0,90,0,0
58548,-100,4,1,0,90,0,0
58711,-117.647058823529,4,1,0,90,0,0
58873,-111.111111111111,4,1,0,90,0,0
58954,-105.263157894737,4,1,0,90,0,0
59035,-100,4,1,0,90,0,0
59197,-117.647058823529,4,1,0,90,0,0
59359,-111.111111111111,4,1,0,90,0,0
59440,-107.52688172043,4,1,0,90,0,0
59508,-104.166666666667,4,1,0,90,0,0
59521,-100,4,1,0,90,0,0
59643,-50,4,1,0,90,0,0
60211,-100,4,1,0,90,0,0
60495,-95.2380952380952,4,1,0,90,0,0
60819,-117.647058823529,4,1,0,90,0,0
60981,-111.111111111111,4,1,0,90,0,0
61062,-105.263157894737,4,1,0,90,0,0
61143,-100,4,1,0,90,0,0
61467,-111.111111111111,4,1,0,90,0,0
61548,-105.263157894737,4,1,0,90,0,0
61629,-100,4,1,0,90,0,0
61792,-95.2380952380952,4,1,0,90,0,0
61954,-90.9090909090909,4,1,0,90,0,0
62116,-86.9565217391304,4,1,0,90,0,0
62238,-50,4,1,0,90,0,0
62886,-100,4,1,0,90,0,0
63413,-117.647058823529,4,1,0,90,0,0
63576,-111.111111111111,4,1,0,90,0,0
63657,-105.263157894737,4,1,0,90,0,0
63738,-100,4,1,0,90,0,0
63900,-117.647058823529,4,1,0,90,0,0
64062,-111.111111111111,4,1,0,90,0,0
64143,-105.263157894737,4,1,0,90,0,0
64224,-100,4,1,0,90,0,0
64386,-117.647058823529,4,1,0,90,0,0
64535,-83.3333333333333,4,1,0,90,0,0
65157,-133.333333333333,4,1,0,90,0,0
70346,-117.647058823529,4,1,0,90,0,0
74886,-100,4,1,0,90,0,0
85995,-76.9230769230769,4,1,0,100,0,1
95724,-76.9230769230769,4,1,0,100,0,0
95805,-40,4,1,0,100,0,0
96130,-76.9230769230769,4,1,0,100,0,0
96697,-76.9230769230769,4,1,0,100,0,1
106103,-76.9230769230769,4,1,0,100,0,0
106346,-33.3333333333333,4,1,0,100,0,0

[HitObjects]
256,192,2968,5,8,0:0:0:0:
256,192,3616,1,8,0:0:0:0:
256,192,4103,1,0,0:0:0:0:
256,192,5562,1,8,0:0:0:0:
256,192,6211,1,8,0:0:0:0:
256,192,6535,1,0,0:0:0:0:
256,192,6616,1,8,0:0:0:0:
256,192,6697,1,0,0:0:0:0:
256,192,8157,1,12,0:0:0:0:
256,192,8805,1,12,0:0:0:0:
256,192,9292,1,4,0:0:0:0:
256,192,10751,1,12,0:0:0:0:
256,192,11400,1,4,0:0:0:0:
256,192,11886,1,12,0:0:0:0:
256,192,13346,1,0,0:0:0:0:
256,192,13670,1,8,0:0:0:0:
256,192,13995,1,0,0:0:0:0:
256,192,14076,1,8,0:0:0:0:
256,192,14157,1,0,0:0:0:0:
256,192,14319,1,8,0:0:0:0:
256,192,14481,1,0,0:0:0:0:
256,192,14643,1,8,0:0:0:0:
256,192,14805,1,0,0:0:0:0:
256,192,14967,1,0,0:0:0:0:
256,192,15130,1,8,0:0:0:0:
256,192,15292,1,0,0:0:0:0:
256,192,15616,1,8,0:0:0:0:
256,192,15778,1,0,0:0:0:0:
256,192,15940,1,8,0:0:0:0:
256,192,16103,1,0,0:0:0:0:
256,192,16265,1,0,0:0:0:0:
256,192,16427,1,8,0:0:0:0:
256,192,16589,1,8,0:0:0:0:
256,192,16751,1,0,0:0:0:0:
256,192,16913,1,0,0:0:0:0:
256,192,17076,1,8,0:0:0:0:
256,192,17238,1,8,0:0:0:0:
256,192,17400,1,8,0:0:0:0:
256,192,17454,1,8,0:0:0:0:
256,192,17508,1,8,0:0:0:0:
256,192,17562,1,0,0:0:0:0:
256,192,17724,1,8,0:0:0:0:
256,192,17886,1,0,0:0:0:0:
256,192,18049,1,8,0:0:0:0:
256,192,18211,1,8,0:0:0:0:
256,192,18373,1,0,0:0:0:0:
256,192,18454,1,0,0:0:0:0:
256,192,18535,1,8,0:0:0:0:
256,192,18859,1,8,0:0:0:0:
256,192,19184,1,0,0:0:0:0:
256,192,19265,1,8,0:0:0:0:
256,192,19346,1,0,0:0:0:0:
256,192,19508,1,8,0:0:0:0:
256,192,19670,1,0,0:0:0:0:
256,192,19832,1,8,0:0:0:0:
256,192,19995,1,0,0:0:0:0:
256,192,20157,1,0,0:0:0:0:
256,192,20319,1,8,0:0:0:0:
256,192,20481,1,0,0:0:0:0:
256,192,20805,1,0,0:0:0:0:
256,192,20967,1,8,0:0:0:0:
256,192,21130,1,8,0:0:0:0:
256,192,21292,1,0,0:0:0:0:
256,192,21454,1,0,0:0:0:0:
256,192,21616,1,8,0:0:0:0:
256,192,21778,1,0,0:0:0:0:
256,192,21940,1,8,0:0:0:0:
256,192,22103,1,8,0:0:0:0:
256,192,22265,1,0,0:0:0:0:
256,192,22427,1,8,0:0:0:0:
256,192,22589,1,8,0:0:0:0:
256,192,22643,1,8,0:0:0:0:
256,192,22697,1,8,0:0:0:0:
256,192,22751,1,0,0:0:0:0:
256,192,22913,1,0,0:0:0:0:
256,192,23076,1,8,0:0:0:0:
256,192,23724,1,0,0:0:0:0:
256,192,24049,1,8,0:0:0:0:
256,192,24373,1,0,0:0:0:0:
256,192,24697,1,0,0:0:0:0:
256,192,25022,1,8,0:0:0:0:
256,192,25670,1,0,0:0:0:0:
256,192,25995,1,8,0:0:0:0:
256,192,26319,1,0,0:0:0:0:
256,192,26643,1,8,0:0:0:0:
256,192,26967,1,8,0:0:0:0:
256,192,27292,1,8,0:0:0:0:
256,192,27616,1,0,0:0:0:0:
256,192,27940,1,8,0:0:0:0:
256,192,28265,1,0,0:0:0:0:
256,192,28589,1,0,0:0:0:0:
256,192,28913,1,8,0:0:0:0:
256,192,29562,1,0,0:0:0:0:
256,192,29886,1,8,0:0:0:0:
256,192,30211,1,0,0:0:0:0:
256,192,30427,1,0,0:0:0:0:
256,192,30481,1,8,0:0:0:0:
256,192,30535,1,8,0:0:0:0:
256,192,31508,1,8,0:0:0:0:
256,192,31670,1,8,0:0:0:0:
256,192,31832,1,0,0:0:0:0:
256,192,31995,1,8,0:0:0:0:
256,192,32076,1,0,0:0:0:0:
256,192,32157,1,8,0:0:0:0:
256,192,32319,1,8,0:0:0:0:
256,192,32481,1,0,0:0:0:0:
256,192,32643,1,0,0:0:0:0:
256,192,32724,1,8,0:0:0:0:
256,192,32805,1,8,0:0:0:0:
256,192,32967,1,0,0:0:0:0:
256,192,33130,1,8,0:0:0:0:
256,192,33292,1,8,0:0:0:0:
256,192,33373,1,0,0:0:0:0:
256,192,33454,1,8,0:0:0:0:
256,192,33535,1,0,0:0:0:0:
256,192,33616,1,0,0:0:0:0:
256,192,33778,1,12,0:0:0:0:
256,192,34103,1,4,0:0:0:0:
256,192,34265,1,0,0:0:0:0:
256,192,34346,1,8,0:0:0:0:
256,192,34427,1,0,0:0:0:0:
256,192,34589,1,8,0:0:0:0:
256,192,34751,1,8,0:0:0:0:
256,192,34832,1,0,0:0:0:0:
256,192,34913,1,8,0:0:0:0:
256,192,34995,1,8,0:0:0:0:
256,192,35076,1,0,0:0:0:0:
256,192,35238,1,0,0:0:0:0:
256,192,35400,1,8,0:0:0:0:
256,192,35562,1,8,0:0:0:0:
256,192,35643,1,8,0:0:0:0:
256,192,35724,1,0,0:0:0:0:
256,192,35886,1,8,0:0:0:0:
256,192,36049,1,8,0:0:0:0:
256,192,36130,1,0,0:0:0:0:
256,192,36211,1,0,0:0:0:0:
256,192,36292,1,8,0:0:0:0:
256,192,36373,1,0,0:0:0:0:
256,192,36535,1,0,0:0:0:0:
256,192,36697,1,8,0:0:0:0:
256,192,36859,1,0,0:0:0:0:
256,192,37022,1,8,0:0:0:0:
256,192,37103,1,0,0:0:0:0:
256,192,37184,1,8,0:0:0:0:
256,192,37265,1,0,0:0:0:0:
256,192,37346,1,8,0:0:0:0:
256,192,37508,1,0,0:0:0:0:
256,192,37589,1,0,0:0:0:0:
256,192,37670,1,8,0:0:0:0:
256,192,37751,1,0,0:0:0:0:
256,192,37832,1,8,0:0:0:0:
256,192,37995,1,8,0:0:0:0:
256,192,38157,1,8,0:0:0:0:
256,192,38211,1,8,0:0:0:0:
256,192,38265,1,8,0:0:0:0:
256,192,38319,1,0,0:0:0:0:
256,192,38481,1,8,0:0:0:0:
256,192,38643,1,0,0:0:0:0:
256,192,38805,1,0,0:0:0:0:
256,192,38886,1,8,0:0:0:0:
256,192,38967,1,0,0:0:0:0:
256,192,39049,1,0,0:0:0:0:
256,192,39130,1,8,0:0:0:0:
256,192,39292,1,0,0:0:0:0:
256,192,39454,1,0,0:0:0:0:
256,192,39535,1,8,0:0:0:0:
256,192,39616,1,0,0:0:0:0:
256,192,39778,1,8,0:0:0:0:
256,192,39940,1,8,0:0:0:0:
256,192,40022,1,0,0:0:0:0:
256,192,40102,1,8,0:0:0:0:
256,192,40184,1,8,0:0:0:0:
256,192,40265,1,0,0:0:0:0:
256,192,40427,1,0,0:0:0:0:
256,192,40589,1,8,0:0:0:0:
256,192,40751,1,8,0:0:0:0:
256,192,40832,1,8,0:0:0:0:
256,192,40913,1,0,0:0:0:0:
256,192,41075,1,8,0:0:0:0:
256,192,41238,1,8,0:0:0:0:
256,192,41319,1,0,0:0:0:0:
256,192,41400,1,0,0:0:0:0:
256,192,41481,1,8,0:0:0:0:
256,192,41562,1,0,0:0:0:0:
256,192,41724,1,0,0:0:0:0:
256,192,41886,1,8,0:0:0:0:
256,192,42048,1,0,0:0:0:0:
256,192,42211,1,8,0:0:0:0:
256,192,42292,1,0,0:0:0:0:
256,192,42373,1,8,0:0:0:0:
256,192,42454,1,0,0:0:0:0:
256,192,42535,1,8,0:0:0:0:
256,192,42616,1,8,0:0:0:0:
256,192,42697,1,8,0:0:0:0:
256,192,42859,1,8,0:0:0:0:
256,192,42940,1,8,0:0:0:0:
256,192,43021,1,0,0:0:0:0:
256,192,43184,1,8,0:0:0:0:
256,192,43346,1,8,0:0:0:0:
256,192,43400,1,8,0:0:0:0:
256,192,43454,1,8,0:0:0:0:
256,192,43508,1,0,0:0:0:0:
256,192,43670,1,8,0:0:0:0:
256,192,43832,1,0,0:0:0:0:
256,192,43994,1,8,0:0:0:0:
256,192,44075,1,8,0:0:0:0:
256,192,44156,1,8,0:0:0:0:
256,192,44319,1,0,0:0:0:0:
256,192,44400,1,0,0:0:0:0:
256,192,44481,1,8,0:0:0:0:
256,192,44805,1,12,0:0:0:0:
256,192,44967,1,0,0:0:0:0:
256,192,45129,1,8,0:0:0:0:
256,192,45211,1,0,0:0:0:0:
256,192,45291,1,8,0:0:0:0:
256,192,45373,1,8,0:0:0:0:
256,192,45454,1,0,0:0:0:0:
256,192,45616,1,0,0:0:0:0:
256,192,45778,1,8,0:0:0:0:
256,192,45940,1,8,0:0:0:0:
256,192,46021,1,8,0:0:0:0:
256,192,46102,1,0,0:0:0:0:
256,192,46264,1,8,0:0:0:0:
256,192,46427,1,8,0:0:0:0:
256,192,46508,1,0,0:0:0:0:
256,192,46589,1,0,0:0:0:0:
256,192,46670,1,8,0:0:0:0:
256,192,46751,1,0,0:0:0:0:
256,192,46913,1,0,0:0:0:0:
256,192,47075,1,8,0:0:0:0:
256,192,47237,1,0,0:0:0:0:
256,192,47400,1,8,0:0:0:0:
256,192,47481,1,0,0:0:0:0:
256,192,47562,1,8,0:0:0:0:
256,192,47643,1,0,0:0:0:0:
256,192,47724,1,8,0:0:0:0:
256,192,47886,1,0,0:0:0:0:
256,192,47967,1,0,0:0:0:0:
256,192,48048,1,8,0:0:0:0:
256,192,48129,1,0,0:0:0:0:
256,192,48210,1,8,0:0:0:0:
256,192,48373,1,8,0:0:0:0:
256,192,48535,1,8,0:0:0:0:
256,192,48589,1,8,0:0:0:0:
256,192,48643,1,8,0:0:0:0:
256,192,48697,1,0,0:0:0:0:
256,192,48859,1,8,0:0:0:0:
256,192,49021,1,0,0:0:0:0:
256,192,49183,1,0,0:0:0:0:
256,192,49264,1,8,0:0:0:0:
256,192,49345,1,0,0:0:0:0:
256,192,49427,1,0,0:0:0:0:
256,192,49508,1,8,0:0:0:0:
256,192,49670,1,0,0:0:0:0:
256,192,49832,1,0,0:0:0:0:
256,192,49913,1,8,0:0:0:0:
256,192,49994,1,0,0:0:0:0:
256,192,50156,1,8,0:0:0:0:
256,192,50318,1,8,0:0:0:0:
256,192,50400,1,0,0:0:0:0:
256,192,50480,1,8,0:0:0:0:
256,192,50562,1,8,0:0:0:0:
256,192,50643,1,0,0:0:0:0:
256,192,50805,1,0,0:0:0:0:
256,192,50967,1,8,0:0:0:0:
256,192,51129,1,8,0:0:0:0:
256,192,51210,1,8,0:0:0:0:
256,192,51291,1,0,0:0:0:0:
256,192,51453,1,8,0:0:0:0:
256,192,51616,1,8,0:0:0:0:
256,192,51697,1,0,0:0:0:0:
256,192,51778,1,0,0:0:0:0:
256,192,51859,1,8,0:0:0:0:
256,192,51940,1,0,0:0:0:0:
256,192,52102,1,0,0:0:0:0:
256,192,52264,1,8,0:0:0:0:
256,192,52426,1,8,0:0:0:0:
256,192,52481,1,0,0:0:0:0:
256,192,52535,1,0,0:0:0:0:
256,192,52589,1,8,0:0:0:0:
256,192,52751,1,0,0:0:0:0:
256,192,52913,1,0,0:0:0:0:
256,192,52994,1,8,0:0:0:0:
256,192,53075,1,8,0:0:0:0:
256,192,53237,1,8,0:0:0:0:
256,192,53318,1,8,0:0:0:0:
256,192,53399,1,0,0:0:0:0:
256,192,53562,1,8,0:0:0:0:
256,192,53724,1,8,0:0:0:0:
256,192,53778,1,8,0:0:0:0:
256,192,53832,1,8,0:0:0:0:
256,192,53886,1,0,0:0:0:0:
256,192,54048,1,0,0:0:0:0:
256,192,54211,1,8,0:0:0:0:
256,192,54373,1,0,0:0:0:0:
256,192,54454,1,8,0:0:0:0:
256,192,54535,1,0,0:0:0:0:
256,192,54697,1,0,0:0:0:0:
256,192,54778,1,8,0:0:0:0:
256,192,54859,1,0,0:0:0:0:
256,192,55184,1,8,0:0:0:0:
256,192,55508,1,8,0:0:0:0:
256,192,55670,1,8,0:0:0:0:
256,192,55832,1,0,0:0:0:0:
256,192,55913,1,0,0:0:0:0:
256,192,55995,1,8,0:0:0:0:
256,192,56157,1,8,0:0:0:0:
256,192,56319,1,0,0:0:0:0:
256,192,56400,1,0,0:0:0:0:
256,192,56481,1,8,0:0:0:0:
256,192,56643,1,8,0:0:0:0:
256,192,56805,1,0,0:0:0:0:
256,192,56859,1,0,0:0:0:0:
256,192,56913,1,0,0:0:0:0:
256,192,56967,1,8,0:0:0:0:
256,192,57130,1,4,0:0:0:0:
256,192,57454,1,12,0:0:0:0:
256,192,57778,1,4,0:0:0:0:
256,192,58103,1,8,0:0:0:0:
256,192,58265,1,8,0:0:0:0:
256,192,58427,1,0,0:0:0:0:
256,192,58508,1,0,0:0:0:0:
256,192,58590,1,8,0:0:0:0:
256,192,58752,1,8,0:0:0:0:
256,192,58914,1,0,0:0:0:0:
256,192,58995,1,0,0:0:0:0:
256,192,59076,1,8,0:0:0:0:
256,192,59238,1,8,0:0:0:0:
256,192,59400,1,0,0:0:0:0:
256,192,59454,1,0,0:0:0:0:
256,192,59508,1,0,0:0:0:0:
256,192,59562,1,8,0:0:0:0:
256,192,59725,1,4,0:0:0:0:
256,192,60049,1,12,0:0:0:0:
256,192,60373,1,0,0:0:0:0:
256,192,60535,1,8,0:0:0:0:
256,192,60859,1,8,0:0:0:0:
256,192,61022,1,8,0:0:0:0:
256,192,61103,1,0,0:0:0:0:
256,192,61184,1,8,0:0:0:0:
256,192,61508,1,0,0:0:0:0:
256,192,61589,1,0,0:0:0:0:
256,192,61670,1,8,0:0:0:0:
256,192,61832,1,0,0:0:0:0:
256,192,61995,1,8,0:0:0:0:
256,192,62157,1,0,0:0:0:0:
256,192,62319,1,4,0:0:0:0:
256,192,62643,1,12,0:0:0:0:
256,192,62967,1,8,0:0:0:0:
256,192,63292,1,8,0:0:0:0:
256,192,63454,1,8,0:0:0:0:
256,192,63616,1,0,0:0:0:0:
256,192,63697,1,0,0:0:0:0:
256,192,63779,1,8,0:0:0:0:
256,192,63941,1,8,0:0:0:0:
256,192,64103,1,0,0:0:0:0:
256,192,64184,1,0,0:0:0:0:
256,192,64265,1,8,0:0:0:0:
256,192,64427,1,8,0:0:0:0:
256,192,64589,1,4,0:0:0:0:
256,192,65238,1,8,0:0:0:0:
256,192,65886,1,8,0:0:0:0:
256,192,66373,1,0,0:0:0:0:
256,192,67184,1,8,0:0:0:0:
256,192,67832,1,8,0:0:0:0:
256,192,68157,1,8,0:0:0:0:
256,192,68319,1,0,0:0:0:0:
256,192,68643,1,0,0:0:0:0:
256,192,68967,1,8,0:0:0:0:
256,192,70427,1,8,0:0:0:0:
256,192,70589,1,0,0:0:0:0:
256,192,70751,1,8,0:0:0:0:
256,192,70913,1,0,0:0:0:0:
256,192,70995,1,0,0:0:0:0:
256,192,71075,1,8,0:0:0:0:
256,192,71238,1,0,0:0:0:0:
256,192,71400,1,8,0:0:0:0:
256,192,71481,1,0,0:0:0:0:
256,192,71562,1,0,0:0:0:0:
256,192,71724,1,8,0:0:0:0:
256,192,71886,1,0,0:0:0:0:
256,192,72049,1,8,0:0:0:0:
256,192,72211,1,0,0:0:0:0:
256,192,72292,1,0,0:0:0:0:
256,192,72373,1,8,0:0:0:0:
256,192,72535,1,8,0:0:0:0:
256,192,72697,1,8,0:0:0:0:
256,192,72859,1,0,0:0:0:0:
256,192,73021,1,8,0:0:0:0:
256,192,73184,1,0,0:0:0:0:
256,192,73265,1,0,0:0:0:0:
256,192,73346,1,8,0:0:0:0:
256,192,73427,1,8,0:0:0:0:
256,192,73508,1,0,0:0:0:0:
256,192,73670,1,0,0:0:0:0:
256,192,73751,1,8,0:0:0:0:
256,192,73832,1,0,0:0:0:0:
256,192,73913,1,8,0:0:0:0:
256,192,73995,1,0,0:0:0:0:
256,192,74156,1,8,0:0:0:0:
256,192,74967,1,0,0:0:0:0:
256,192,75130,1,8,0:0:0:0:
256,192,75292,1,0,0:0:0:0:
256,192,75454,1,8,0:0:0:0:
256,192,75616,1,8,0:0:0:0:
256,192,75778,1,8,0:0:0:0:
256,192,75859,1,8,0:0:0:0:
256,192,75940,1,0,0:0:0:0:
256,192,76103,1,8,0:0:0:0:
256,192,76184,1,8,0:0:0:0:
256,192,76265,1,0,0:0:0:0:
256,192,76346,1,8,0:0:0:0:
256,192,76427,1,8,0:0:0:0:
256,192,76508,1,0,0:0:0:0:
256,192,76589,1,8,0:0:0:0:
256,192,76751,1,0,0:0:0:0:
256,192,76832,1,8,0:0:0:0:
256,192,76913,1,8,0:0:0:0:
256,192,77076,1,8,0:0:0:0:
256,192,77238,1,8,0:0:0:0:
256,192,77400,1,0,0:0:0:0:
256,192,77481,1,0,0:0:0:0:
256,192,77562,1,8,0:0:0:0:
256,192,77643,1,0,0:0:0:0:
256,192,77724,1,0,0:0:0:0:
256,192,77805,1,8,0:0:0:0:
256,192,77886,1,0,0:0:0:0:
256,192,78049,1,8,0:0:0:0:
256,192,78130,1,0,0:0:0:0:
256,192,78211,1,0,0:0:0:0:
256,192,78373,1,8,0:0:0:0:
256,192,78454,1,8,0:0:0:0:
256,192,78535,1,0,0:0:0:0:
256,192,78697,1,8,0:0:0:0:
256,192,78778,1,8,0:0:0:0:
256,192,78860,1,0,0:0:0:0:
256,192,78940,1,8,0:0:0:0:
256,192,79022,1,8,0:0:0:0:
256,192,79103,1,0,0:0:0:0:
256,192,79184,1,8,0:0:0:0:
256,192,79346,1,0,0:0:0:0:
256,192,79508,1,8,0:0:0:0:
256,192,79589,1,0,0:0:0:0:
256,192,79671,1,8,0:0:0:0:
256,192,79833,1,8,0:0:0:0:
256,192,79913,1,0,0:0:0:0:
256,192,79995,1,0,0:0:0:0:
256,192,80076,1,8,0:0:0:0:
256,192,80157,1,8,0:0:0:0:
256,192,80238,1,0,0:0:0:0:
256,192,80400,1,8,0:0:0:0:
256,192,80481,1,0,0:0:0:0:
256,192,80644,1,8,0:0:0:0:
256,192,80725,1,0,0:0:0:0:
256,192,80806,1,8,0:0:0:0:
256,192,80967,1,8,0:0:0:0:
256,192,81049,1,8,0:0:0:0:
256,192,81130,1,0,0:0:0:0:
256,192,81292,1,8,0:0:0:0:
256,192,81373,1,8,0:0:0:0:
256,192,81455,1,0,0:0:0:0:
256,192,81535,1,8,0:0:0:0:
256,192,81698,1,0,0:0:0:0:
256,192,81778,1,8,0:0:0:0:
256,192,81941,1,0,0:0:0:0:
256,192,82103,1,8,0:0:0:0:
256,192,82266,1,8,0:0:0:0:
256,192,82428,1,8,0:0:0:0:
256,192,82508,1,0,0:0:0:0:
256,192,82670,1,0,0:0:0:0:
256,192,82752,1,8,0:0:0:0:
256,192,82832,1,0,0:0:0:0:
256,192,82913,1,0,0:0:0:0:
256,192,82995,1,8,0:0:0:0:
256,192,83076,1,8,0:0:0:0:
256,192,83239,1,8,0:0:0:0:
256,192,83320,1,0,0:0:0:0:
256,192,83400,12,0,85022,0:0:0:0:
256,192,85184,5,0,0:0:0:0:
256,192,85265,1,8,0:0:0:0:
256,192,85346,1,8,0:0:0:0:
256,192,85508,1,8,0:0:0:0:
256,192,85670,1,0,0:0:0:0:
256,192,85832,1,0,0:0:0:0:
256,192,85995,1,4,0:0:0:0:
256,192,86157,1,0,0:0:0:0:
256,192,86238,1,8,0:0:0:0:
256,192,86319,1,0,0:0:0:0:
256,192,86400,1,8,0:0:0:0:
256,192,86481,1,8,0:0:0:0:
256,192,86643,1,8,0:0:0:0:
256,192,86724,1,0,0:0:0:0:
256,192,86805,1,8,0:0:0:0:
256,192,86887,1,8,0:0:0:0:
256,192,86968,1,0,0:0:0:0:
256,192,87130,1,0,0:0:0:0:
256,192,87292,1,8,0:0:0:0:
256,192,87454,1,8,0:0:0:0:
256,192,87535,1,8,0:0:0:0:
256,192,87616,1,0,0:0:0:0:
256,192,87778,1,8,0:0:0:0:
256,192,87941,1,8,0:0:0:0:
256,192,87995,1,0,0:0:0:0:
256,192,88049,1,0,0:0:0:0:
256,192,88103,1,0,0:0:0:0:
256,192,88184,1,8,0:0:0:0:
256,192,88265,1,0,0:0:0:0:
256,192,88427,1,0,0:0:0:0:
256,192,88589,1,8,0:0:0:0:
256,192,88751,1,0,0:0:0:0:
256,192,88832,1,0,0:0:0:0:
256,192,88914,1,8,0:0:0:0:
256,192,88995,1,0,0:0:0:0:
256,192,89076,1,8,0:0:0:0:
256,192,89157,1,0,0:0:0:0:
256,192,89238,1,8,0:0:0:0:
256,192,89400,1,0,0:0:0:0:
256,192,89481,1,0,0:0:0:0:
256,192,89562,1,8,0:0:0:0:
256,192,89643,1,0,0:0:0:0:
256,192,89724,1,8,0:0:0:0:
256,192,89887,1,8,0:0:0:0:
256,192,90049,1,8,0:0:0:0:
256,192,90103,1,8,0:0:0:0:
256,192,90157,1,8,0:0:0:0:
256,192,90211,1,0,0:0:0:0:
256,192,90292,1,0,0:0:0:0:
256,192,90373,1,8,0:0:0:0:
256,192,90535,1,0,0:0:0:0:
256,192,90616,1,0,0:0:0:0:
256,192,90697,1,0,0:0:0:0:
256,192,90778,1,8,0:0:0:0:
256,192,90859,1,0,0:0:0:0:
256,192,90913,1,0,0:0:0:0:
256,192,90967,1,0,0:0:0:0:
256,192,91022,1,8,0:0:0:0:
256,192,91184,1,0,0:0:0:0:
256,192,91346,1,0,0:0:0:0:
256,192,91427,1,8,0:0:0:0:
256,192,91508,1,0,0:0:0:0:
256,192,91589,1,8,0:0:0:0:
256,192,91670,1,8,0:0:0:0:
256,192,91832,1,8,0:0:0:0:
256,192,91914,1,0,0:0:0:0:
256,192,91994,1,8,0:0:0:0:
256,192,92076,1,8,0:0:0:0:
256,192,92157,1,0,0:0:0:0:
256,192,92319,1,0,0:0:0:0:
256,192,92481,1,8,0:0:0:0:
256,192,92643,1,8,0:0:0:0:
256,192,92724,1,0,0:0:0:0:
256,192,92805,1,0,0:0:0:0:
256,192,92967,1,8,0:0:0:0:
256,192,93130,1,8,0:0:0:0:
256,192,93184,1,0,0:0:0:0:
256,192,93238,1,0,0:0:0:0:
256,192,93292,1,0,0:0:0:0:
256,192,93373,1,8,0:0:0:0:
256,192,93454,1,0,0:0:0:0:
256,192,93616,1,0,0:0:0:0:
256,192,93778,1,8,0:0:0:0:
256,192,93940,1,0,0:0:0:0:
256,192,94022,1,8,0:0:0:0:
256,192,94103,1,8,0:0:0:0:
256,192,94184,1,0,0:0:0:0:
256,192,94265,1,8,0:0:0:0:
256,192,94346,1,0,0:0:0:0:
256,192,94427,1,8,0:0:0:0:
256,192,94508,1,8,0:0:0:0:
256,192,94589,1,8,0:0:0:0:
256,192,94751,1,8,0:0:0:0:
256,192,94832,1,8,0:0:0:0:
256,192,94913,1,0,0:0:0:0:
256,192,95076,1,8,0:0:0:0:
256,192,95238,1,8,0:0:0:0:
256,192,95292,1,8,0:0:0:0:
256,192,95346,1,8,0:0:0:0:
256,192,95400,1,0,0:0:0:0:
256,192,95562,1,8,0:0:0:0:
256,192,95724,1,0,0:0:0:0:
256,192,95886,1,8,0:0:0:0:
256,192,95967,1,8,0:0:0:0:
256,192,96048,1,8,0:0:0:0:
256,192,96211,1,0,0:0:0:0:
256,192,96292,1,0,0:0:0:0:
256,192,96373,1,8,0:0:0:0:
256,192,96697,1,12,0:0:0:0:
256,192,96859,1,0,0:0:0:0:
256,192,97021,1,8,0:0:0:0:
256,192,97103,1,0,0:0:0:0:
256,192,97183,1,8,0:0:0:0:
256,192,97265,1,8,0:0:0:0:
256,192,97346,1,0,0:0:0:0:
256,192,97508,1,0,0:0:0:0:
256,192,97670,1,8,0:0:0:0:
256,192,97832,1,8,0:0:0:0:
256,192,97913,1,0,0:0:0:0:
256,192,97994,1,0,0:0:0:0:
256,192,98156,1,8,0:0:0:0:
256,192,98319,1,8,0:0:0:0:
256,192,98400,1,8,0:0:0:0:
256,192,98481,1,8,0:0:0:0:
256,192,98562,1,8,0:0:0:0:
256,192,98643,1,0,0:0:0:0:
256,192,98805,1,0,0:0:0:0:
256,192,98967,1,8,0:0:0:0:
256,192,99129,1,0,0:0:0:0:
256,192,99292,1,8,0:0:0:0:
256,192,99373,1,0,0:0:0:0:
256,192,99454,1,8,0:0:0:0:
256,192,99535,1,0,0:0:0:0:
256,192,99616,1,8,0:0:0:0:
256,192,99778,1,0,0:0:0:0:
256,192,99859,1,0,0:0:0:0:
256,192,99940,1,8,0:0:0:0:
256,192,100021,1,0,0:0:0:0:
256,192,100102,1,8,0:0:0:0:
256,192,100265,1,8,0:0:0:0:
256,192,100427,1,8,0:0:0:0:
256,192,100481,1,8,0:0:0:0:
256,192,100535,1,8,0:0:0:0:
256,192,100589,1,0,0:0:0:0:
256,192,100670,1,0,0:0:0:0:
256,192,100751,1,8,0:0:0:0:
256,192,100913,1,0,0:0:0:0:
256,192,100995,1,0,0:0:0:0:
256,192,101075,1,0,0:0:0:0:
256,192,101156,1,8,0:0:0:0:
256,192,101237,1,0,0:0:0:0:
256,192,101292,1,0,0:0:0:0:
256,192,101346,1,0,0:0:0:0:
256,192,101400,1,8,0:0:0:0:
256,192,101562,1,0,0:0:0:0:
256,192,101724,1,0,0:0:0:0:
256,192,101805,1,8,0:0:0:0:
256,192,101886,1,0,0:0:0:0:
256,192,101967,1,0,0:0:0:0:
256,192,102048,1,8,0:0:0:0:
256,192,102210,1,8,0:0:0:0:
256,192,102292,1,0,0:0:0:0:
256,192,102372,1,8,0:0:0:0:
256,192,102454,1,8,0:0:0:0:
256,192,102535,1,0,0:0:0:0:
256,192,102697,1,0,0:0:0:0:
256,192,102859,1,8,0:0:0:0:
256,192,103021,1,8,0:0:0:0:
256,192,103102,1,8,0:0:0:0:
256,192,103183,1,0,0:0:0:0:
256,192,103345,1,8,0:0:0:0:
256,192,103508,1,8,0:0:0:0:
256,192,103589,1,0,0:0:0:0:
256,192,103670,1,0,0:0:0:0:
256,192,103751,1,8,0:0:0:0:
256,192,103832,1,0,0:0:0:0:
256,192,103994,1,0,0:0:0:0:
256,192,104156,1,8,0:0:0:0:
256,192,104318,1,8,0:0:0:0:
256,192,104373,1,0,0:0:0:0:
256,192,104427,1,0,0:0:0:0:
256,192,104481,1,8,0:0:0:0:
256,192,104643,1,0,0:0:0:0:
256,192,104805,1,0,0:0:0:0:
256,192,104886,1,8,0:0:0:0:
256,192,104967,1,8,0:0:0:0:
256,192,105129,1,8,0:0:0:0:
256,192,105210,1,8,0:0:0:0:
256,192,105291,1,0,0:0:0:0:
256,192,105373,1,8,0:0:0:0:
256,192,105454,1,8,0:0:0:0:
256,192,105616,1,8,0:0:0:0:
256,192,105670,1,8,0:0:0:0:
256,192,105724,1,8,0:0:0:0:
256,192,105778,1,0,0:0:0:0:
256,192,105940,1,0,0:0:0:0:
256,192,106022,1,0,0:0:0:0:
256,192,106102,1,8,0:0:0:0:
256,192,106427,1,12,0:0:0:0:
