osu file format v14

[General]
AudioFilename: audio.mp3
AudioLeadIn: 0
PreviewTime: 32073
Countdown: 0
SampleSet: Normal
StackLeniency: 0.7
Mode: 1
LetterboxInBreaks: 0
WidescreenStoryboard: 0

[Editor]
Bookmarks: 53817,63223,74250,81871
DistanceSpacing: 0.8
BeatDivisor: 3
GridSize: 4
TimelineZoom: 0.9999989

[Metadata]
Title:Mentanpindoradora
TitleUnicode:メンタンピンドラドラ
Artist:enzo + O2i3
ArtistUnicode:enzo + O2i3
Creator:Alwaysyukaz
Version:Oni
Source:MÚSECA 1+1/2
Tags:underworld shukukon syukucon シュクコン rhythm game video instrumental electronic faputa MUSECA
BeatmapID:1545574
BeatmapSetID:732541

[Difficulty]
HPDrainRate:5
CircleSize:2
OverallDifficulty:5.5
ApproachRate:0
SliderMultiplier:1.4
SliderTickRate:1

[Events]
//Background and Video events
0,0,"bg.jpg",0,30
//Break Periods
//Storyboard Layer 0 (Background)
//Storyboard Layer 1 (Fail)
//Storyboard Layer 2 (Pass)
//Storyboard Layer 3 (Foreground)
//Storyboard Layer 4 (Overlay)
//Storyboard Sound Samples

[TimingPoints]
1334,324.324324324324,4,1,0,90,1,0
22090,324.324324324324,3,1,0,90,1,0
29873,324.324324324324,4,1,0,90,1,8
29875,324.324324324324,4,1,0,90,1,0
32469,-100,4,1,0,90,0,1
42523,-100,4,1,0,90,0,0
43172,-100,4,1,0,90,0,1
52577,-100,4,1,0,90,0,0
84361,-100,4,1,0,90,0,1
94415,-100,4,1,0,90,0,0
95064,-100,4,1,0,90,0,1
104469,-100,4,1,0,90,0,0

[HitObjects]
256,188,1334,5,0,0:0:0:0:
256,188,1658,1,0,0:0:0:0:
256,188,1820,1,0,0:0:0:0:
256,188,1982,1,8,0:0:0:0:
256,188,2144,1,8,0:0:0:0:
256,188,2306,1,0,0:0:0:0:
256,188,2631,1,0,0:0:0:0:
256,188,2955,1,8,0:0:0:0:
256,188,3279,1,8,0:0:0:0:
256,188,3442,1,8,0:0:0:0:
256,188,3604,1,0,0:0:0:0:
256,188,3928,1,0,0:0:0:0:
256,188,4252,1,8,0:0:0:0:
256,188,4415,1,0,0:0:0:0:
256,188,4577,1,8,0:0:0:0:
256,188,4739,1,8,0:0:0:0:
256,188,4901,1,0,0:0:0:0:
256,188,5063,1,0,0:0:0:0:
256,188,5225,1,8,0:0:0:0:
256,188,5550,1,0,0:0:0:0:
256,188,5874,1,0,0:0:0:0:
256,188,6036,1,8,0:0:0:0:
256,188,6198,1,0,0:0:0:0:
256,188,6523,1,4,0:0:0:0:
256,188,7171,1,12,0:0:0:0:
256,188,7658,1,4,0:0:0:0:
256,188,8306,1,0,0:0:0:0:
256,188,8469,1,8,0:0:0:0:
256,188,8631,1,8,0:0:0:0:
256,188,9117,1,4,0:0:0:0:
256,188,9442,1,0,0:0:0:0:
256,188,9604,1,8,0:0:0:0:
256,188,9766,1,4,0:0:0:0:
256,188,9928,1,8,0:0:0:0:
256,188,10090,1,8,0:0:0:0:
256,188,10252,1,4,0:0:0:0:
256,192,10415,12,0,11550,0:0:0:0:
256,188,11712,5,4,0:0:0:0:
256,188,12036,5,8,0:0:0:0:
256,188,12361,1,8,0:0:0:0:
256,188,12442,1,8,0:0:0:0:
256,188,12523,1,8,0:0:0:0:
256,188,12685,1,0,0:0:0:0:
256,188,12847,1,0,0:0:0:0:
256,188,13009,1,8,0:0:0:0:
256,188,13171,1,8,0:0:0:0:
256,188,13333,1,0,0:0:0:0:
256,188,13496,1,8,0:0:0:0:
256,188,13658,1,0,0:0:0:0:
256,188,13982,1,0,0:0:0:0:
256,188,14144,1,8,0:0:0:0:
256,188,14306,1,0,0:0:0:0:
256,188,14469,1,0,0:0:0:0:
256,188,14631,1,8,0:0:0:0:
256,188,14793,1,8,0:0:0:0:
256,188,14955,1,8,0:0:0:0:
256,188,15117,1,0,0:0:0:0:
256,188,15279,1,0,0:0:0:0:
256,188,15442,1,0,0:0:0:0:
256,188,15604,1,8,0:0:0:0:
256,188,15766,1,8,0:0:0:0:
256,188,15847,1,8,0:0:0:0:
256,188,15928,1,8,0:0:0:0:
256,188,16090,1,8,0:0:0:0:
256,188,16252,1,0,0:0:0:0:
256,188,16739,1,0,0:0:0:0:
256,188,16820,1,0,0:0:0:0:
256,188,16901,1,0,0:0:0:0:
256,188,17225,1,8,0:0:0:0:
256,188,17550,1,8,0:0:0:0:
256,188,17631,1,8,0:0:0:0:
256,188,17712,1,8,0:0:0:0:
256,188,17874,1,0,0:0:0:0:
256,188,18036,1,0,0:0:0:0:
256,188,18198,1,8,0:0:0:0:
256,188,18361,1,8,0:0:0:0:
256,188,18523,1,0,0:0:0:0:
256,188,18685,1,8,0:0:0:0:
256,188,18847,1,0,0:0:0:0:
256,188,19171,1,0,0:0:0:0:
256,188,19333,1,8,0:0:0:0:
256,188,19496,1,0,0:0:0:0:
256,188,19658,1,0,0:0:0:0:
256,188,19820,1,8,0:0:0:0:
256,188,19982,1,8,0:0:0:0:
256,188,20144,1,8,0:0:0:0:
256,188,20306,1,0,0:0:0:0:
256,188,20469,1,0,0:0:0:0:
256,188,20631,1,8,0:0:0:0:
256,188,20793,1,0,0:0:0:0:
256,188,20955,1,8,0:0:0:0:
256,188,21036,1,8,0:0:0:0:
256,188,21117,1,8,0:0:0:0:
256,188,21279,1,8,0:0:0:0:
256,188,21442,1,0,0:0:0:0:
256,188,21874,1,0,0:0:0:0:
256,188,21982,1,0,0:0:0:0:
256,188,22090,1,12,0:0:0:0:
256,188,22414,1,8,0:0:0:0:
256,188,22738,1,0,0:0:0:0:
256,188,23062,1,0,0:0:0:0:
256,188,23387,1,8,0:0:0:0:
256,188,24035,1,0,0:0:0:0:
256,188,24360,1,8,0:0:0:0:
256,188,24684,1,0,0:0:0:0:
256,188,24846,1,8,0:0:0:0:
256,188,24927,1,8,0:0:0:0:
256,188,25008,1,8,0:0:0:0:
256,188,25171,1,0,0:0:0:0:
256,188,25333,1,8,0:0:0:0:
256,188,25495,1,0,0:0:0:0:
256,188,25576,1,0,0:0:0:0:
256,188,25657,1,8,0:0:0:0:
256,188,25738,1,8,0:0:0:0:
256,188,25819,1,0,0:0:0:0:
256,188,25981,1,8,0:0:0:0:
256,188,26306,1,0,0:0:0:0:
256,188,26630,1,0,0:0:0:0:
256,188,26954,1,8,0:0:0:0:
256,188,27279,1,8,0:0:0:0:
256,188,27927,1,0,0:0:0:0:
256,188,28252,1,8,0:0:0:0:
256,188,28576,1,0,0:0:0:0:
256,188,28738,1,8,0:0:0:0:
256,188,28819,1,8,0:0:0:0:
256,188,28900,1,0,0:0:0:0:
256,188,29875,1,8,0:0:0:0:
256,188,30037,1,0,0:0:0:0:
256,188,30199,1,8,0:0:0:0:
256,188,30361,1,8,0:0:0:0:
256,188,30442,1,8,0:0:0:0:
256,188,30523,1,0,0:0:0:0:
256,188,30685,1,0,0:0:0:0:
256,188,30847,1,8,0:0:0:0:
256,188,31172,1,0,0:0:0:0:
256,188,31253,1,0,0:0:0:0:
256,188,31334,1,8,0:0:0:0:
256,188,31496,1,8,0:0:0:0:
256,188,31658,1,0,0:0:0:0:
256,188,31739,1,8,0:0:0:0:
256,188,31820,1,0,0:0:0:0:
256,188,31902,1,8,0:0:0:0:
256,188,31983,1,0,0:0:0:0:
256,188,32064,1,0,0:0:0:0:
256,188,32145,1,8,0:0:0:0:
256,188,32469,1,12,0:0:0:0:
256,188,32793,1,0,0:0:0:0:
256,188,32956,1,8,0:0:0:0:
256,188,33118,1,0,0:0:0:0:
256,188,33199,1,0,0:0:0:0:
256,188,33280,1,8,0:0:0:0:
256,188,33442,1,0,0:0:0:0:
256,188,33604,1,8,0:0:0:0:
256,188,33766,1,8,0:0:0:0:
256,188,33847,1,8,0:0:0:0:
256,188,33929,1,0,0:0:0:0:
256,188,34091,1,8,0:0:0:0:
256,188,34172,1,0,0:0:0:0:
256,188,34253,1,0,0:0:0:0:
256,188,34334,1,8,0:0:0:0:
256,188,34415,1,8,0:0:0:0:
256,188,34739,1,0,0:0:0:0:
256,188,34902,1,0,0:0:0:0:
256,188,35064,1,8,0:0:0:0:
256,188,35226,1,0,0:0:0:0:
256,188,35388,1,8,0:0:0:0:
256,188,35550,1,8,0:0:0:0:
256,188,35631,1,0,0:0:0:0:
256,188,35712,1,8,0:0:0:0:
256,188,36037,1,0,0:0:0:0:
256,188,36199,1,8,0:0:0:0:
256,188,36361,1,8,0:0:0:0:
256,188,36442,1,8,0:0:0:0:
256,188,36523,1,0,0:0:0:0:
256,188,36604,1,0,0:0:0:0:
256,188,36685,1,8,0:0:0:0:
256,188,36847,1,8,0:0:0:0:
256,188,37010,1,0,0:0:0:0:
256,188,37334,1,0,0:0:0:0:
256,188,37658,1,8,0:0:0:0:
256,188,37983,1,0,0:0:0:0:
256,188,38145,1,8,0:0:0:0:
256,188,38307,1,0,0:0:0:0:
256,188,38388,1,0,0:0:0:0:
256,188,38469,1,8,0:0:0:0:
256,188,38631,1,0,0:0:0:0:
256,188,38793,1,8,0:0:0:0:
256,188,38956,1,8,0:0:0:0:
256,188,39037,1,8,0:0:0:0:
256,188,39118,1,0,0:0:0:0:
256,188,39280,1,0,0:0:0:0:
256,188,39442,1,8,0:0:0:0:
256,188,39604,1,0,0:0:0:0:
256,188,39929,1,0,0:0:0:0:
256,188,40091,1,8,0:0:0:0:
256,188,40253,1,8,0:0:0:0:
256,188,40415,1,0,0:0:0:0:
250,183,40496,1,8,0:0:0:0:
256,188,40577,1,8,0:0:0:0:
256,188,40658,1,0,0:0:0:0:
256,188,40739,1,8,0:0:0:0:
256,188,40902,1,0,0:0:0:0:
256,188,40983,1,8,0:0:0:0:
256,188,41064,1,8,0:0:0:0:
256,188,41226,1,8,0:0:0:0:
256,188,41388,1,0,0:0:0:0:
256,188,41550,1,8,0:0:0:0:
256,188,41631,1,8,0:0:0:0:
256,188,41712,1,0,0:0:0:0:
256,188,41793,1,0,0:0:0:0:
256,188,41874,1,8,0:0:0:0:
256,188,42037,1,8,0:0:0:0:
256,188,42199,1,0,0:0:0:0:
256,188,42361,1,8,0:0:0:0:
256,188,42523,1,8,0:0:0:0:
256,188,42685,1,8,0:0:0:0:
256,188,42766,1,8,0:0:0:0:
256,188,42847,1,8,0:0:0:0:
256,188,43172,1,12,0:0:0:0:
256,188,43496,1,8,0:0:0:0:
256,188,43577,1,8,0:0:0:0:
256,188,43658,1,0,0:0:0:0:
256,188,43820,1,8,0:0:0:0:
256,188,43983,1,0,0:0:0:0:
256,188,44145,1,8,0:0:0:0:
256,188,44226,1,0,0:0:0:0:
256,188,44307,1,0,0:0:0:0:
256,188,44388,1,8,0:0:0:0:
256,188,44469,1,8,0:0:0:0:
256,188,44631,1,8,0:0:0:0:
256,188,44793,1,0,0:0:0:0:
256,188,45118,1,0,0:0:0:0:
256,188,45280,1,8,0:0:0:0:
256,188,45442,1,8,0:0:0:0:
256,188,45604,1,0,0:0:0:0:
256,188,45766,1,0,0:0:0:0:
256,188,45929,1,8,0:0:0:0:
256,188,46091,1,0,0:0:0:0:
256,188,46253,1,0,0:0:0:0:
256,188,46334,1,8,0:0:0:0:
256,188,46415,1,0,0:0:0:0:
256,188,46577,1,8,0:0:0:0:
256,188,46739,1,8,0:0:0:0:
256,188,46820,1,8,0:0:0:0:
256,188,46902,1,0,0:0:0:0:
256,188,46983,1,0,0:0:0:0:
256,188,47064,1,8,0:0:0:0:
256,188,47226,1,8,0:0:0:0:
256,188,47388,1,0,0:0:0:0:
256,188,48037,1,8,0:0:0:0:
256,188,48361,1,8,0:0:0:0:
256,188,48523,1,0,0:0:0:0:
256,188,48685,1,8,0:0:0:0:
256,188,48766,1,8,0:0:0:0:
256,188,48847,1,0,0:0:0:0:
256,188,49010,1,0,0:0:0:0:
256,188,49172,1,8,0:0:0:0:
256,188,49334,1,0,0:0:0:0:
256,188,49415,1,0,0:0:0:0:
256,188,49496,1,8,0:0:0:0:
256,188,49658,1,0,0:0:0:0:
256,188,49820,1,8,0:0:0:0:
256,188,49983,1,0,0:0:0:0:
256,188,50307,1,0,0:0:0:0:
256,188,50469,1,8,0:0:0:0:
256,188,50631,1,8,0:0:0:0:
256,188,50712,1,0,0:0:0:0:
256,188,50793,1,0,0:0:0:0:
256,188,50874,1,8,0:0:0:0:
256,188,50956,1,8,0:0:0:0:
256,188,51118,1,0,0:0:0:0:
256,188,51280,1,8,0:0:0:0:
256,188,51442,1,8,0:0:0:0:
256,188,51604,1,0,0:0:0:0:
256,188,51766,1,0,0:0:0:0:
256,188,51929,1,8,0:0:0:0:
256,188,52010,1,8,0:0:0:0:
256,188,52091,1,0,0:0:0:0:
256,188,52172,1,0,0:0:0:0:
256,188,52253,1,8,0:0:0:0:
256,188,52415,1,8,0:0:0:0:
256,188,52577,1,0,0:0:0:0:
256,188,52739,1,8,0:0:0:0:
256,188,52820,1,8,0:0:0:0:
256,188,52902,1,8,0:0:0:0:
256,188,53064,1,0,0:0:0:0:
256,188,53145,1,0,0:0:0:0:
256,188,53226,1,0,0:0:0:0:
256,188,53550,1,4,0:0:0:0:
256,188,53874,1,8,0:0:0:0:
256,188,54037,1,0,0:0:0:0:
256,188,54199,1,0,0:0:0:0:
256,188,54280,1,0,0:0:0:0:
256,188,54361,1,8,0:0:0:0:
256,188,54523,1,0,0:0:0:0:
256,188,54685,1,8,0:0:0:0:
256,188,54766,1,8,0:0:0:0:
256,188,54847,1,0,0:0:0:0:
256,188,55010,1,0,0:0:0:0:
256,188,55091,1,0,0:0:0:0:
256,188,55172,1,8,0:0:0:0:
256,188,55334,1,0,0:0:0:0:
256,188,55496,1,12,0:0:0:0:
256,188,55820,1,4,0:0:0:0:
256,188,56145,1,12,0:0:0:0:
256,188,56469,1,8,0:0:0:0:
256,188,56631,1,0,0:0:0:0:
256,188,56793,1,0,0:0:0:0:
256,188,56874,1,0,0:0:0:0:
256,188,56956,1,8,0:0:0:0:
256,188,57118,1,0,0:0:0:0:
256,188,57280,1,8,0:0:0:0:
256,188,57361,1,8,0:0:0:0:
256,188,57442,1,0,0:0:0:0:
256,188,57604,1,0,0:0:0:0:
256,188,57766,1,8,0:0:0:0:
256,188,58091,1,4,0:0:0:0:
256,188,58415,1,12,0:0:0:0:
256,188,58739,1,0,0:0:0:0:
256,188,58902,1,8,0:0:0:0:
256,188,59388,1,8,0:0:0:0:
256,188,59550,1,0,0:0:0:0:
256,188,59874,1,8,0:0:0:0:
256,188,59956,1,8,0:0:0:0:
256,188,60037,1,8,0:0:0:0:
256,188,60199,1,0,0:0:0:0:
256,188,60361,1,8,0:0:0:0:
256,188,60685,1,4,0:0:0:0:
256,188,61010,1,4,0:0:0:0:
256,188,61334,1,12,0:0:0:0:
256,188,61658,1,8,0:0:0:0:
256,188,61820,1,0,0:0:0:0:
256,188,61983,1,8,0:0:0:0:
256,188,62064,1,0,0:0:0:0:
256,188,62145,1,8,0:0:0:0:
256,188,62307,1,8,0:0:0:0:
256,188,62469,1,0,0:0:0:0:
256,188,62550,1,0,0:0:0:0:
256,188,62631,1,8,0:0:0:0:
256,188,62793,1,0,0:0:0:0:
256,188,62956,1,8,0:0:0:0:
256,188,63604,1,0,0:0:0:0:
256,188,64253,1,8,0:0:0:0:
256,188,64739,1,0,0:0:0:0:
256,188,65550,1,8,0:0:0:0:
256,188,66199,1,8,0:0:0:0:
256,188,66523,1,8,0:0:0:0:
256,188,66685,1,0,0:0:0:0:
256,188,67010,1,8,0:0:0:0:
256,188,67334,1,0,0:0:0:0:
256,188,68793,1,8,0:0:0:0:
256,188,69118,1,0,0:0:0:0:
256,188,69442,1,8,0:0:0:0:
256,188,69766,1,8,0:0:0:0:
256,188,70091,1,0,0:0:0:0:
256,188,70415,1,0,0:0:0:0:
256,188,70739,1,8,0:0:0:0:
256,188,71064,1,0,0:0:0:0:
256,188,71388,1,0,0:0:0:0:
256,188,71550,1,0,0:0:0:0:
256,188,71712,1,0,0:0:0:0:
256,188,71874,1,0,0:0:0:0:
256,188,72037,1,8,0:0:0:0:
256,188,72199,1,8,0:0:0:0:
256,188,72361,1,8,0:0:0:0:
256,188,72523,1,8,0:0:0:0:
256,188,73983,1,0,0:0:0:0:
256,188,74307,1,8,0:0:0:0:
256,188,74550,1,0,0:0:0:0:
256,188,74631,1,8,0:0:0:0:
256,188,74874,1,8,0:0:0:0:
256,188,75118,1,8,0:0:0:0:
256,188,75442,1,8,0:0:0:0:
256,188,75604,1,0,0:0:0:0:
256,188,75847,1,0,0:0:0:0:
256,188,75929,1,8,0:0:0:0:
256,188,76172,1,0,0:0:0:0:
256,188,76415,1,8,0:0:0:0:
256,188,76496,1,8,0:0:0:0:
256,188,76577,1,0,0:0:0:0:
256,188,76902,1,8,0:0:0:0:
256,188,77145,1,8,0:0:0:0:
256,188,77226,1,0,0:0:0:0:
256,188,77469,1,0,0:0:0:0:
256,188,77712,1,8,0:0:0:0:
256,188,78037,1,8,0:0:0:0:
256,188,78199,1,8,0:0:0:0:
256,188,78361,1,8,0:0:0:0:
256,188,78442,1,8,0:0:0:0:
256,188,78523,1,0,0:0:0:0:
256,188,78685,1,8,0:0:0:0:
256,188,78847,1,0,0:0:0:0:
256,188,79010,1,0,0:0:0:0:
256,188,79091,1,8,0:0:0:0:
256,188,79172,1,0,0:0:0:0:
256,188,79496,1,8,0:0:0:0:
256,188,79739,1,8,0:0:0:0:
256,188,79820,1,0,0:0:0:0:
256,188,80064,1,0,0:0:0:0:
256,188,80307,1,8,0:0:0:0:
256,188,80631,1,8,0:0:0:0:
256,188,80793,1,8,0:0:0:0:
256,188,81037,1,8,0:0:0:0:
256,188,81118,1,0,0:0:0:0:
256,188,81361,1,0,0:0:0:0:
256,188,81604,1,0,0:0:0:0:
256,188,81685,1,8,0:0:0:0:
256,192,81766,12,0,83388,0:0:0:0:
256,192,83550,5,0,0:0:0:0:
256,192,83631,1,0,0:0:0:0:
256,192,83712,1,8,0:0:0:0:
256,192,83874,1,8,0:0:0:0:
256,192,84037,1,8,0:0:0:0:
256,192,84199,1,0,0:0:0:0:
256,188,84361,1,12,0:0:0:0:
256,188,84685,1,0,0:0:0:0:
256,188,84847,1,8,0:0:0:0:
256,188,85010,1,0,0:0:0:0:
256,188,85091,1,0,0:0:0:0:
256,188,85172,1,8,0:0:0:0:
256,188,85334,1,0,0:0:0:0:
256,188,85496,1,8,0:0:0:0:
256,188,85658,1,8,0:0:0:0:
256,188,85739,1,8,0:0:0:0:
256,188,85820,1,0,0:0:0:0:
256,188,85983,1,8,0:0:0:0:
256,188,86064,1,0,0:0:0:0:
256,188,86145,1,0,0:0:0:0:
256,188,86226,1,8,0:0:0:0:
256,188,86307,1,8,0:0:0:0:
256,188,86631,1,0,0:0:0:0:
256,188,86793,1,0,0:0:0:0:
256,188,86956,1,8,0:0:0:0:
256,188,87118,1,0,0:0:0:0:
256,188,87280,1,8,0:0:0:0:
256,188,87442,1,8,0:0:0:0:
256,188,87523,1,0,0:0:0:0:
256,188,87604,1,8,0:0:0:0:
256,188,87929,1,0,0:0:0:0:
256,188,88091,1,8,0:0:0:0:
256,188,88253,1,8,0:0:0:0:
256,188,88334,1,8,0:0:0:0:
256,188,88415,1,0,0:0:0:0:
256,188,88496,1,0,0:0:0:0:
256,188,88577,1,8,0:0:0:0:
256,188,88739,1,8,0:0:0:0:
256,188,88902,1,0,0:0:0:0:
256,188,89226,1,0,0:0:0:0:
256,188,89550,1,8,0:0:0:0:
256,188,89874,1,0,0:0:0:0:
256,188,90037,1,8,0:0:0:0:
256,188,90199,1,0,0:0:0:0:
256,188,90280,1,0,0:0:0:0:
256,188,90361,1,8,0:0:0:0:
256,188,90523,1,0,0:0:0:0:
256,188,90685,1,8,0:0:0:0:
256,188,90847,1,8,0:0:0:0:
256,188,90929,1,8,0:0:0:0:
256,188,91010,1,0,0:0:0:0:
256,188,91172,1,0,0:0:0:0:
256,188,91334,1,8,0:0:0:0:
256,188,91496,1,0,0:0:0:0:
256,188,91820,1,0,0:0:0:0:
256,188,91983,1,8,0:0:0:0:
256,188,92145,1,8,0:0:0:0:
256,188,92307,1,8,0:0:0:0:
256,188,92469,1,8,0:0:0:0:
256,188,92550,1,0,0:0:0:0:
256,188,92631,1,8,0:0:0:0:
256,188,92712,1,8,0:0:0:0:
256,188,92793,1,0,0:0:0:0:
256,188,92956,1,8,0:0:0:0:
256,188,93037,1,0,0:0:0:0:
256,188,93118,1,8,0:0:0:0:
256,188,93280,1,0,0:0:0:0:
256,188,93442,1,8,0:0:0:0:
256,188,93523,1,8,0:0:0:0:
256,188,93604,1,0,0:0:0:0:
256,188,93685,1,0,0:0:0:0:
256,188,93766,1,8,0:0:0:0:
256,188,93929,1,8,0:0:0:0:
256,188,94091,1,0,0:0:0:0:
256,188,94253,1,8,0:0:0:0:
256,188,94415,1,8,0:0:0:0:
256,188,94577,1,8,0:0:0:0:
256,188,94658,1,8,0:0:0:0:
256,188,94739,1,8,0:0:0:0:
256,188,95064,1,12,0:0:0:0:
256,188,95388,1,8,0:0:0:0:
256,188,95469,1,8,0:0:0:0:
256,188,95550,1,0,0:0:0:0:
256,188,95712,1,8,0:0:0:0:
256,188,95874,1,0,0:0:0:0:
256,188,96037,1,8,0:0:0:0:
256,188,96118,1,0,0:0:0:0:
256,188,96199,1,0,0:0:0:0:
256,188,96280,1,8,0:0:0:0:
256,188,96361,1,8,0:0:0:0:
256,188,96523,1,8,0:0:0:0:
256,188,96685,1,0,0:0:0:0:
256,188,97010,1,0,0:0:0:0:
256,188,97172,1,8,0:0:0:0:
256,188,97334,1,8,0:0:0:0:
256,188,97496,1,0,0:0:0:0:
256,188,97658,1,0,0:0:0:0:
256,188,97820,1,8,0:0:0:0:
256,188,97983,1,0,0:0:0:0:
256,188,98145,1,0,0:0:0:0:
256,188,98226,1,8,0:0:0:0:
256,188,98307,1,0,0:0:0:0:
256,188,98469,1,8,0:0:0:0:
256,188,98631,1,8,0:0:0:0:
256,188,98712,1,8,0:0:0:0:
256,188,98793,1,0,0:0:0:0:
256,188,98874,1,0,0:0:0:0:
256,188,98956,1,8,0:0:0:0:
256,188,99118,1,8,0:0:0:0:
256,188,99280,1,0,0:0:0:0:
256,188,99929,1,8,0:0:0:0:
256,188,100253,1,8,0:0:0:0:
256,188,100415,1,0,0:0:0:0:
256,188,100577,1,8,0:0:0:0:
256,188,100658,1,8,0:0:0:0:
256,188,100739,1,0,0:0:0:0:
256,188,100902,1,0,0:0:0:0:
256,188,101064,1,8,0:0:0:0:
256,188,101226,1,0,0:0:0:0:
256,188,101307,1,0,0:0:0:0:
256,188,101388,1,8,0:0:0:0:
256,188,101550,1,0,0:0:0:0:
256,188,101712,1,8,0:0:0:0:
256,188,101874,1,0,0:0:0:0:
256,188,102199,1,0,0:0:0:0:
256,188,102361,1,8,0:0:0:0:
256,188,102523,1,8,0:0:0:0:
256,188,102604,1,0,0:0:0:0:
256,188,102685,1,0,0:0:0:0:
256,188,102766,1,8,0:0:0:0:
256,188,102847,1,8,0:0:0:0:
256,188,103010,5,0,0:0:0:0:
256,188,103172,1,8,0:0:0:0:
256,188,103334,1,0,0:0:0:0:
256,188,103496,1,0,0:0:0:0:
256,188,103658,1,8,0:0:0:0:
256,188,103820,1,0,0:0:0:0:
256,188,103902,1,8,0:0:0:0:
256,188,103983,1,8,0:0:0:0:
256,188,104064,1,0,0:0:0:0:
256,188,104145,1,0,0:0:0:0:
256,188,104307,1,8,0:0:0:0:
256,188,104388,1,8,0:0:0:0:
256,188,104469,1,0,0:0:0:0:
256,188,104793,5,8,0:0:0:0:
